osu file format v14

[General]
AudioFilename: audio.mp3
AudioLeadIn: 0
PreviewTime: 2462
Countdown: 0
SampleSet: Soft
StackLeniency: 0.7
Mode: 0
LetterboxInBreaks: 0
WidescreenStoryboard: 0

[Editor]
DistanceSpacing: 1.3
BeatDivisor: 3
GridSize: 4
TimelineZoom: 2.799999

[Metadata]
Title:Shisen! Ukiwa girl
TitleUnicode:視線!うきわガール
Artist:Morikazu Aoki
ArtistUnicode:青木森一
Creator:Sotarks
Version:Encounter!
Source:ポケットモンスター ルビー・サファイア
Tags:pokemon alpha omega sapphire ruby emerald gba boy advance nintendo game freak Hideaki Kuroda Hitomi Sato Junichi Masuda Minako Adachi Morikazu Aoki Shota Kageyama Trainers eyes Meet Tuber Go ichinose ayyri realazy akitoshi corinn
BeatmapID:1489217
BeatmapSetID:703962

[Difficulty]
HPDrainRate:5
CircleSize:3.5
OverallDifficulty:7
ApproachRate:8.8
SliderMultiplier:1.4
SliderTickRate:1

[Events]
//Background and Video events
0,0,"BG.jpg",0,0
//Break Periods
//Storyboard Layer 0 (Background)
//Storyboard Layer 1 (Fail)
//Storyboard Layer 2 (Pass)
//Storyboard Layer 3 (Foreground)
//Storyboard Sound Samples

[TimingPoints]
461,397.350993377483,4,2,22,52,1,0
858,397.350993377483,4,2,22,52,1,8
2447,397.350993377483,4,2,22,5,1,8
2462,397.350993377483,4,2,22,52,1,0
2462,-89.2857142857143,4,2,22,52,0,0
7230,397.350993377483,4,2,22,52,1,8
7255,397.350993377483,4,2,22,52,1,0
7255,-81.9672131147541,4,2,22,52,0,0
7637,397.350993377483,4,2,22,52,1,8
7637,-75.7575757575758,4,2,22,52,0,0
8034,-70.4225352112676,4,2,22,52,0,0
8445,397.350993377483,4,2,22,52,1,8
8445,-65.7894736842105,4,2,22,52,0,0
8850,397.350993377483,4,2,22,52,1,0
8850,-89.2857142857143,4,2,22,52,0,0
11113,397.350993377483,4,2,22,52,1,8
11113,-89.2857142857143,4,2,22,52,0,0
12063,397.350993377483,4,2,22,52,1,0
12063,-98.0392156862745,4,2,22,52,0,0
13652,-81.9672131147541,4,2,22,52,0,0
14049,-75.7575757575758,4,2,22,52,0,0
14447,-70.4225352112676,4,2,22,52,0,0
15241,397.350993377483,4,2,22,52,1,8
15266,397.350993377483,4,2,22,52,1,0
15266,-89.2857142857143,4,2,22,52,0,0
20034,397.350993377483,4,2,22,52,1,8
20048,397.350993377483,4,2,22,52,1,0
20048,-81.9672131147541,4,2,22,52,0,0
20445,-75.7575757575758,4,2,22,52,0,0
20842,-70.4225352112676,4,2,22,52,0,0
21249,397.350993377483,4,2,22,52,1,8
21659,397.350993377483,4,2,22,52,1,0
21659,-89.2857142857143,4,2,22,52,0,0
23921,397.350993377483,4,2,22,52,1,8
23921,-89.2857142857143,4,2,22,52,0,0
24858,397.350993377483,4,2,22,52,1,0
24858,-98.0392156862745,4,2,22,52,0,0
26447,-81.9672131147541,4,2,22,52,0,0
26870,397.350993377483,4,2,22,52,1,8
26870,-75.7575757575758,4,2,22,52,0,0
27267,-70.4225352112676,4,2,22,52,0,0
27658,397.350993377483,4,2,22,52,1,8
27658,-70.4225352112676,4,2,22,52,0,0
28070,397.350993377483,4,2,22,52,1,0
28070,-89.2857142857143,4,2,22,52,0,0
30330,397.350993377483,4,2,22,42,1,8
30330,-89.2857142857143,4,2,22,42,0,0
31257,397.350993377483,4,2,22,32,1,0
31257,-89.2857142857143,4,2,22,32,0,0
32052,-89.2857142857143,4,2,22,22,0,0
32847,-89.2857142857143,4,2,22,12,0,0

[Colours]
Combo1 : 251,148,145
Combo2 : 247,173,100
Combo3 : 100,249,107
Combo4 : 242,239,98

[HitObjects]
200,184,461,5,2,0:0:0:0:
280,172,560,1,2,0:0:0:0:
340,208,659,1,2,0:0:0:0:
360,240,759,1,2,0:0:0:0:
363,257,858,6,0,L|362:285,22,17.5,2|0|0|0|0|0|0|0|0|0|0|0|0|0|0|0|0|0|0|0|0|0|0,0:0|0:0|0:0|0:0|0:0|0:0|0:0|0:0|0:0|0:0|0:0|0:0|0:0|0:0|0:0|0:0|0:0|0:0|0:0|0:0|0:0|0:0|1:0,0:0:0:0:
334,271,2050,6,0,P|277:280|229:261,1,93.3333333333333,8|0,0:0|1:0,0:0:0:0:
146,181,2462,6,0,L|154:297,1,104.533334609375,6|2,1:0|0:0,0:0:0:0:
60,202,2859,2,0,L|68:142,1,52.2666673046875,10|0,0:0|0:0,0:0:0:0:
162,296,3124,6,0,L|154:191,1,104.533334609375,2|0,1:0|0:0,0:0:0:0:
240,132,3521,1,2,1:0:0:0:
252,73,3654,2,0,P|243:134|243:149,1,52.2666673046875,10|0,0:0|0:0,0:0:0:0:
329,129,3919,1,2,1:0:0:0:
326,193,4051,6,0,P|335:132|335:117,1,52.2666673046875,2|0,1:0|0:0,0:0:0:0:
417,120,4316,1,2,1:0:0:0:
403,57,4448,2,0,P|405:82|411:108,1,52.2666673046875,10|0,0:0|0:0,0:0:0:0:
412,268,4714,2,0,P|360:214|290:213,1,104.533334609375,2|0,1:0|0:0,0:0:0:0:
211,274,5111,1,0,1:0:0:0:
134,265,5243,2,0,P|89:231|85:225,1,52.2666673046875,8|0,0:0|0:0,0:0:0:0:
85,77,5508,1,0,1:0:0:0:
162,86,5640,6,0,P|207:120|237:175,1,104.533334609375,2|2,1:0|0:0,0:0:0:0:
54,149,6038,2,0,P|10:109|8:103,1,52.2666673046875,10|0,0:0|0:0,0:0:0:0:
242,161,6303,6,0,P|213:117|171:86,1,104.533334609375,2|0,1:0|0:0,0:0:0:0:
215,246,6700,1,2,1:0:0:0:
288,238,6832,2,0,P|247:249|214:245,1,52.2666673046875,10|0,0:0|0:0,0:0:0:0:
326,148,7097,1,2,1:0:0:0:
452,182,7255,6,0,L|299:163,1,113.866661975505,14|0,0:0|1:0,0:0:0:0:
117,139,7637,2,0,L|283:120,1,123.199999624023,14|0,0:0|1:0,0:0:0:0:
508,109,8034,2,0,L|344:85,1,132.53332665975,14|0,0:0|1:0,0:0:0:0:
200,40,8445,5,10,0:0:0:0:
239,124,8577,1,8,0:0:0:0:
231,215,8709,1,8,0:0:0:0:
193,296,8850,6,0,P|288:261|335:273,1,104.533334609375,6|2,1:0|0:0,0:0:0:0:
400,313,9247,2,0,P|454:297|474:279,1,52.2666673046875,10|0,0:0|0:0,0:0:0:0:
200,280,9512,6,0,P|299:260|343:279,1,104.533334609375,2|0,1:0|0:0,0:0:0:0:
129,344,9909,1,2,1:0:0:0:
106,270,10042,2,0,L|124:334,1,52.2666673046875,10|0,0:0|0:0,0:0:0:0:
200,280,10307,1,2,1:0:0:0:
177,206,10440,6,0,L|195:270,1,52.2666673046875,2|0,1:0|0:0,0:0:0:0:
271,217,10705,1,2,1:0:0:0:
248,143,10836,2,0,L|266:207,1,52.2666673046875,8|0,0:0|0:0,0:0:0:0:
318,89,11113,2,0,B|278:57|278:57|195:55,1,104.533334609375,2|0,1:0|0:0,0:0:0:0:
111,141,11510,1,0,1:0:0:0:
30,123,11642,2,0,L|20:191,1,52.2666673046875,8|0,0:0|0:0,0:0:0:0:
96,295,11907,1,0,1:0:0:0:
153,232,12063,6,0,P|212:226|258:241,1,95.2000005810547,6|2,1:0|0:0,0:0:0:0:
310,287,12460,2,0,P|360:296|367:294,1,47.6000002905273,2|0,3:0|0:0,0:0:0:0:
426,254,12726,1,2,1:0:0:0:
426,254,12858,2,0,L|435:135,1,95.2000005810547,0|2,1:0|0:0,0:0:0:0:
360,120,13255,2,0,L|352:214,1,95.2000005810547,2|0,3:0|1:0,0:0:0:0:
286,81,13652,6,0,B|220:78|251:116|162:108,1,113.866661975505,14|0,0:0|1:0,0:0:0:0:
1,184,14049,2,0,B|70:177|36:219|125:211,1,123.199999624023,14|0,0:0|1:0,0:0:0:0:
304,291,14447,2,0,B|235:279|262:334|167:319,1,132.53332665975,14|0,0:0|1:0,0:0:0:0:
103,292,14844,1,10,0:0:0:0:
280,184,15109,1,0,1:0:0:0:
366,203,15266,6,0,B|372:170|372:170|358:87,1,104.533334609375,6|2,1:0|0:0,0:0:0:0:
452,182,15662,2,0,L|444:242,1,52.2666673046875,10|0,0:0|0:0,0:0:0:0:
356,88,15928,6,0,B|347:122|347:122|364:193,1,104.533334609375,2|0,1:0|0:0,0:0:0:0:
272,252,16325,1,2,1:0:0:0:
260,311,16457,2,0,B|269:281|269:281|269:235,1,52.2666673046875,10|0,0:0|0:0,0:0:0:0:
183,255,16722,1,2,1:0:0:0:
186,191,16854,6,0,B|175:214|175:214|177:252|177:267,1,52.2666673046875,2|0,1:0|0:0,0:0:0:0:
95,264,17119,1,2,1:0:0:0:
109,327,17252,2,0,B|108:301|108:301|101:276,1,52.2666673046875,10|0,0:0|0:0,0:0:0:0:
100,116,17517,2,0,B|142:165|142:165|222:171,1,104.533334609375,2|0,1:0|0:0,0:0:0:0:
301,110,17914,1,0,1:0:0:0:
378,119,18046,2,0,B|423:153|423:153|427:159,1,52.2666673046875,8|0,0:0|0:0,0:0:0:0:
427,307,18311,1,0,1:0:0:0:
350,298,18444,6,0,P|305:264|275:209,1,104.533334609375,2|2,1:0|0:0,0:0:0:0:
458,235,18841,2,0,P|502:275|504:281,1,52.2666673046875,10|0,0:0|0:0,0:0:0:0:
270,223,19106,6,0,P|299:267|341:298,1,104.533334609375,2|0,1:0|0:0,0:0:0:0:
297,138,19503,1,2,1:0:0:0:
224,146,19636,2,0,P|265:135|298:139,1,52.2666673046875,10|0,0:0|0:0,0:0:0:0:
186,236,19901,1,2,1:0:0:0:
60,202,20048,6,0,L|213:221,1,113.866661975505,14|0,0:0|1:0,0:0:0:0:
395,245,20445,2,0,L|229:264,1,123.199999624023,14|0,0:0|1:0,0:0:0:0:
4,275,20842,2,0,L|168:299,1,132.53332665975,14|0,0:0|1:0,0:0:0:0:
312,344,21249,5,10,0:0:0:0:
273,260,21381,1,8,0:0:0:0:
281,169,21513,1,8,0:0:0:0:
319,88,21659,6,0,P|224:123|177:111,1,104.533334609375,6|2,1:0|0:0,0:0:0:0:
112,71,22056,2,0,P|58:87|38:105,1,52.2666673046875,10|0,0:0|0:0,0:0:0:0:
312,104,22321,6,0,P|213:124|169:105,1,104.533334609375,2|0,1:0|0:0,0:0:0:0:
383,40,22718,1,2,1:0:0:0:
406,114,22851,2,0,L|388:50,1,52.2666673046875,10|0,0:0|0:0,0:0:0:0:
312,104,23115,1,2,1:0:0:0:
335,178,23248,6,0,L|317:114,1,52.2666673046875,2|0,1:0|0:0,0:0:0:0:
241,167,23513,1,2,1:0:0:0:
264,241,23646,2,0,L|246:177,1,52.2666673046875,10|0,0:0|0:0,0:0:0:0:
194,295,23921,2,0,P|235:327|317:303,1,104.533334609375,2|0,1:0|0:0,0:0:0:0:
401,243,24318,1,0,1:0:0:0:
482,261,24450,2,0,L|492:193,1,52.2666673046875,8|0,0:0|0:0,0:0:0:0:
416,89,24715,1,0,1:0:0:0:
356,148,24858,6,0,P|293:158|253:148,1,95.2000005810547,6|2,1:0|0:0,0:0:0:0:
202,97,25255,2,0,P|152:88|145:90,1,47.6000002905273,2|0,3:0|0:0,0:0:0:0:
86,130,25520,1,2,1:0:0:0:
86,130,25652,2,0,L|77:249,1,95.2000005810547,0|2,1:0|0:0,0:0:0:0:
152,264,26050,2,0,L|160:170,1,95.2000005810547,2|0,3:0|1:0,0:0:0:0:
226,303,26447,6,0,B|271:300|271:300|293:284|293:284|351:281,1,113.866661975505,14|0,0:0|1:0,0:0:0:0:
511,200,26870,2,0,B|469:199|469:199|443:178|443:178|386:178,1,123.199999624023,14|0,0:0|1:0,0:0:0:0:
208,93,27267,2,0,B|257:89|257:89|283:69|283:69|345:69,1,132.53332665975,14|0,0:0|1:0,0:0:0:0:
409,92,27658,1,10,0:0:0:0:
269,246,27922,1,0,1:0:0:0:
192,205,28070,6,0,P|134:199|83:234,1,104.533334609375,6|2,1:0|0:0,0:0:0:0:
10,190,28467,2,0,P|49:144|57:140,1,52.2666673046875,10|0,0:0|0:0,0:0:0:0:
181,96,28732,2,0,P|130:103|83:80,1,104.533334609375,2|0,1:0|0:0,0:0:0:0:
146,16,29129,1,2,1:0:0:0:
146,16,29261,2,0,L|272:11,1,104.533334609375,10|2,0:0|1:0,0:0:0:0:
326,58,29659,6,0,P|304:111|322:185,1,104.533334609375,2|2,1:0|0:0,0:0:0:0:
374,220,30056,2,0,P|395:267|397:306,1,52.2666673046875,10|0,0:0|0:0,0:0:0:0:
322,343,30330,2,0,L|150:325,1,156.800001914063,2|0,1:0|1:0,0:0:0:0:
74,347,30859,2,0,P|79:298|57:230,1,104.533334609375,0|0,3:0|0:0,0:0:0:0:
256,192,31257,12,0,32847,0:0:0:0:
