osu file format v14

[General]
AudioFilename: audio.mp3
AudioLeadIn: 0
PreviewTime: 2462
Countdown: 0
SampleSet: Normal
StackLeniency: 0.7
Mode: 1
LetterboxInBreaks: 0
WidescreenStoryboard: 0

[Editor]
Bookmarks: 460,2462,8850,15266,21659,28070,32714
DistanceSpacing: 1.3
BeatDivisor: 3
GridSize: 32
TimelineZoom: 2.5

[Metadata]
Title:Shisen! Ukiwa girl
TitleUnicode:視線!うきわガール
Artist:Morikazu Aoki
ArtistUnicode:青木森一
Creator:Sotarks
Version:Ayyri's Oni
Source:ポケットモンスター ルビー・サファイア
Tags:pokemon alpha omega sapphire ruby emerald gba boy advance nintendo game freak Hideaki Kuroda Hitomi Sato Junichi Masuda Minako Adachi Morikazu Aoki Shota Kageyama Trainers eyes Meet Tuber Go ichinose ayyri realazy akitoshi corinn
BeatmapID:1489216
BeatmapSetID:703962

[Difficulty]
HPDrainRate:5
CircleSize:2
OverallDifficulty:5
ApproachRate:10
SliderMultiplier:1.4
SliderTickRate:1

[Events]
//Background and Video events
0,0,"BG.jpg",0,35
//Break Periods
//Storyboard Layer 0 (Background)
//Storyboard Layer 1 (Fail)
//Storyboard Layer 2 (Pass)
//Storyboard Layer 3 (Foreground)
//Storyboard Sound Samples

[TimingPoints]
461,397.350993377483,4,1,0,52,1,0
858,397.350993377483,4,1,0,52,1,8
2447,397.350993377483,4,1,0,52,1,8
2462,397.350993377483,4,1,0,52,1,0
7230,397.350993377483,4,1,0,52,1,8
7255,397.350993377483,4,1,0,52,1,0
7637,397.350993377483,4,1,0,52,1,8
8445,397.350993377483,4,1,0,52,1,8
8850,397.350993377483,4,1,0,52,1,0
11113,397.350993377483,4,1,0,52,1,8
12063,397.350993377483,4,1,0,52,1,0
15241,397.350993377483,4,1,0,52,1,8
15266,397.350993377483,4,1,0,52,1,0
20034,397.350993377483,4,1,0,52,1,8
20048,397.350993377483,4,1,0,52,1,0
21249,397.350993377483,4,1,0,52,1,8
21659,397.350993377483,4,1,0,52,1,0
23921,397.350993377483,4,1,0,52,1,8
24858,397.350993377483,4,1,0,52,1,0
26870,397.350993377483,4,1,0,52,1,8
27658,397.350993377483,4,1,0,52,1,8
28070,397.350993377483,4,1,0,52,1,0
30330,397.350993377483,4,1,0,52,1,8
31257,397.350993377483,4,1,0,52,1,0
31257,-100,4,1,0,40,0,0
32051,-100,4,1,0,30,0,0
32714,-100,4,1,0,25,0,0

[Colours]
Combo1 : 251,148,145
Combo2 : 247,173,100
Combo3 : 100,249,107
Combo4 : 242,239,98

[HitObjects]
256,192,460,5,0,0:0:0:0:
256,192,560,1,8,0:0:0:0:
256,192,659,1,8,0:0:0:0:
256,192,759,1,0,0:0:0:0:
256,192,858,1,8,0:0:0:0:
256,192,1520,1,0,0:0:0:0:
256,192,1652,1,0,0:0:0:0:
256,192,1917,1,0,0:0:0:0:
256,192,2050,1,8,0:0:0:0:
256,192,2314,1,0,0:0:0:0:
256,192,2462,1,12,0:0:0:0:
256,192,2726,1,8,0:0:0:0:
256,192,2859,1,8,0:0:0:0:
256,192,3124,1,8,0:0:0:0:
256,192,3256,1,0,0:0:0:0:
256,192,3521,1,0,0:0:0:0:
256,192,3654,1,8,0:0:0:0:
256,192,3918,1,0,0:0:0:0:
256,192,4051,1,8,0:0:0:0:
256,192,4316,1,8,0:0:0:0:
256,192,4448,1,8,0:0:0:0:
256,192,4713,1,8,0:0:0:0:
256,192,4846,1,0,0:0:0:0:
256,192,5111,1,0,0:0:0:0:
256,192,5243,1,8,0:0:0:0:
256,192,5508,1,0,0:0:0:0:
256,192,5640,1,8,0:0:0:0:
256,192,5905,1,8,0:0:0:0:
256,192,6038,1,0,0:0:0:0:
256,192,6303,1,8,0:0:0:0:
256,192,6435,1,0,0:0:0:0:
256,192,6700,1,0,0:0:0:0:
256,192,6832,1,8,0:0:0:0:
256,192,7097,1,0,0:0:0:0:
256,192,7255,1,12,0:0:0:0:
256,192,7519,1,0,0:0:0:0:
256,192,7637,1,8,0:0:0:0:
256,192,7901,1,0,0:0:0:0:
256,192,8034,1,12,0:0:0:0:
256,192,8299,1,8,0:0:0:0:
256,192,8445,1,4,0:0:0:0:
256,192,8709,1,0,0:0:0:0:
256,192,8850,1,12,0:0:0:0:
256,192,9114,1,8,0:0:0:0:
256,192,9247,1,8,0:0:0:0:
256,192,9512,1,8,0:0:0:0:
256,192,9644,1,0,0:0:0:0:
256,192,9909,1,0,0:0:0:0:
256,192,10042,1,8,0:0:0:0:
256,192,10306,1,0,0:0:0:0:
256,192,10439,1,8,0:0:0:0:
256,192,10704,1,8,0:0:0:0:
256,192,10836,1,8,0:0:0:0:
256,192,11113,1,8,0:0:0:0:
256,192,11245,1,0,0:0:0:0:
256,192,11510,1,0,0:0:0:0:
256,192,11642,1,8,0:0:0:0:
256,192,11907,1,0,0:0:0:0:
256,192,12063,1,12,0:0:0:0:
256,192,12327,1,8,0:0:0:0:
256,192,12460,1,0,0:0:0:0:
256,192,12725,1,0,0:0:0:0:
256,192,12857,1,8,0:0:0:0:
256,192,13122,1,0,0:0:0:0:
256,192,13255,1,8,0:0:0:0:
256,192,13519,1,8,0:0:0:0:
256,192,13652,1,4,0:0:0:0:
256,192,13917,1,0,0:0:0:0:
256,192,14049,1,12,0:0:0:0:
256,192,14314,1,8,0:0:0:0:
256,192,14447,1,4,0:0:0:0:
256,192,14712,1,0,0:0:0:0:
256,192,14844,1,8,0:0:0:0:
256,192,15109,1,0,0:0:0:0:
256,192,15266,1,12,0:0:0:0:
256,192,15530,1,8,0:0:0:0:
256,192,15663,1,8,0:0:0:0:
256,192,15928,1,8,0:0:0:0:
256,192,16060,1,0,0:0:0:0:
256,192,16325,1,0,0:0:0:0:
256,192,16458,1,8,0:0:0:0:
256,192,16722,1,0,0:0:0:0:
256,192,16855,1,8,0:0:0:0:
256,192,17120,1,8,0:0:0:0:
256,192,17252,1,8,0:0:0:0:
256,192,17517,1,8,0:0:0:0:
256,192,17650,1,0,0:0:0:0:
256,192,17915,1,0,0:0:0:0:
256,192,18047,1,8,0:0:0:0:
256,192,18312,1,0,0:0:0:0:
256,192,18444,1,8,0:0:0:0:
256,192,18709,1,8,0:0:0:0:
256,192,18842,1,0,0:0:0:0:
256,192,19107,1,8,0:0:0:0:
256,192,19239,1,0,0:0:0:0:
256,192,19504,1,0,0:0:0:0:
256,192,19636,1,8,0:0:0:0:
256,192,19901,1,0,0:0:0:0:
256,192,20048,1,12,0:0:0:0:
256,192,20312,1,0,0:0:0:0:
256,192,20445,1,8,0:0:0:0:
256,192,20710,1,0,0:0:0:0:
256,192,20842,1,12,0:0:0:0:
256,192,21107,1,8,0:0:0:0:
256,192,21249,1,4,0:0:0:0:
256,192,21513,1,0,0:0:0:0:
256,192,21659,1,12,0:0:0:0:
256,192,21923,1,8,0:0:0:0:
256,192,22056,1,8,0:0:0:0:
256,192,22321,1,8,0:0:0:0:
256,192,22453,1,0,0:0:0:0:
256,192,22718,1,0,0:0:0:0:
256,192,22851,1,8,0:0:0:0:
256,192,23115,1,0,0:0:0:0:
256,192,23248,1,8,0:0:0:0:
256,192,23513,1,8,0:0:0:0:
256,192,23645,1,8,0:0:0:0:
256,192,23921,1,8,0:0:0:0:
256,192,24053,1,0,0:0:0:0:
256,192,24318,1,0,0:0:0:0:
256,192,24450,1,8,0:0:0:0:
256,192,24715,1,0,0:0:0:0:
256,192,24858,1,12,0:0:0:0:
256,192,25122,1,8,0:0:0:0:
256,192,25255,1,0,0:0:0:0:
256,192,25520,1,0,0:0:0:0:
256,192,25652,1,8,0:0:0:0:
256,192,25917,1,0,0:0:0:0:
256,192,26050,1,8,0:0:0:0:
256,192,26314,1,8,0:0:0:0:
256,192,26447,1,4,0:0:0:0:
256,192,26712,1,0,0:0:0:0:
256,192,26870,1,12,0:0:0:0:
256,192,27134,1,8,0:0:0:0:
256,192,27267,1,4,0:0:0:0:
256,192,27532,1,0,0:0:0:0:
256,192,27658,1,8,0:0:0:0:
256,192,27922,1,0,0:0:0:0:
256,192,28070,1,12,0:0:0:0:
256,192,28334,1,8,0:0:0:0:
256,192,28467,1,8,0:0:0:0:
256,192,28732,1,8,0:0:0:0:
256,192,28864,1,0,0:0:0:0:
256,192,29129,1,0,0:0:0:0:
256,192,29261,1,8,0:0:0:0:
256,192,29526,1,0,0:0:0:0:
256,192,29659,1,8,0:0:0:0:
256,192,29924,1,8,0:0:0:0:
256,192,30056,1,8,0:0:0:0:
256,192,30330,1,8,0:0:0:0:
256,192,30462,1,0,0:0:0:0:
256,192,30727,1,0,0:0:0:0:
256,192,30859,1,8,0:0:0:0:
256,192,31124,1,0,0:0:0:0:
256,192,31257,12,0,32714,0:0:0:0:
