osu file format v14

[General]
AudioFilename: audio.mp3
AudioLeadIn: 0
PreviewTime: 2462
Countdown: 0
SampleSet: Soft
StackLeniency: 0.7
Mode: 0
LetterboxInBreaks: 0
WidescreenStoryboard: 0

[Editor]
DistanceSpacing: 1.2
BeatDivisor: 3
GridSize: 4
TimelineZoom: 2.1

[Metadata]
Title:Shisen! Ukiwa girl
TitleUnicode:視線!うきわガール
Artist:Morikazu Aoki
ArtistUnicode:青木森一
Creator:Sotarks
Version:Akitoshi's Normal
Source:ポケットモンスター ルビー・サファイア
Tags:pokemon alpha omega sapphire ruby emerald gba boy advance nintendo game freak Hideaki Kuroda Hitomi Sato Junichi Masuda Minako Adachi Morikazu Aoki Shota Kageyama Trainers eyes Meet Tuber Go ichinose ayyri realazy akitoshi corinn
BeatmapID:1489215
BeatmapSetID:703962

[Difficulty]
HPDrainRate:3.5
CircleSize:3
OverallDifficulty:4
ApproachRate:5
SliderMultiplier:1.1
SliderTickRate:1

[Events]
//Background and Video events
0,0,"BG.jpg",0,0
//Break Periods
//Storyboard Layer 0 (Background)
//Storyboard Layer 1 (Fail)
//Storyboard Layer 2 (Pass)
//Storyboard Layer 3 (Foreground)
//Storyboard Sound Samples

[TimingPoints]
461,397.350993377483,4,2,22,52,1,0
858,397.350993377483,4,2,22,52,1,8
2447,397.350993377483,4,2,22,5,1,8
2462,397.350993377483,4,2,22,52,1,0
7230,397.350993377483,4,2,22,52,1,8
7255,397.350993377483,4,2,22,52,1,0
7637,397.350993377483,4,2,22,52,1,8
8445,397.350993377483,4,2,22,52,1,8
8850,397.350993377483,4,2,22,52,1,0
11113,397.350993377483,4,2,22,52,1,8
12063,397.350993377483,4,2,22,52,1,0
15241,397.350993377483,4,2,22,52,1,8
15266,397.350993377483,4,2,22,52,1,0
20034,397.350993377483,4,2,22,52,1,8
20048,397.350993377483,4,2,22,52,1,0
21249,397.350993377483,4,2,22,52,1,8
21659,397.350993377483,4,2,22,52,1,0
23921,397.350993377483,4,2,22,52,1,8
24858,397.350993377483,4,2,22,52,1,0
26870,397.350993377483,4,2,22,52,1,8
27658,397.350993377483,4,2,22,52,1,8
28070,397.350993377483,4,2,22,52,1,0
30330,397.350993377483,4,2,22,42,1,8
31257,397.350993377483,4,2,22,32,1,0

[Colours]
Combo1 : 251,148,145
Combo2 : 247,173,100
Combo3 : 100,249,107
Combo4 : 242,239,98

[HitObjects]
57,96,858,6,0,P|126:47|250:204,1,330,2|8,0:0|0:0,0:0:0:0:
163,302,2462,6,0,L|294:308,1,110,6|10,1:0|0:0,0:0:0:0:
347,353,3124,2,0,L|478:347,1,110,2|2,1:0|1:0,0:0:0:0:
489,318,3654,1,10,0:0:0:0:
503,186,4051,2,0,P|440:166|376:179,1,110,2|10,1:0|0:0,0:0:0:0:
312,194,4713,2,0,P|249:214|185:201,1,110,2|0,1:0|1:0,0:0:0:0:
166,188,5243,1,8,0:0:0:0:
167,56,5640,6,0,P|230:36|294:49,1,110,2|10,1:0|0:0,0:0:0:0:
333,104,6303,2,0,P|396:124|460:111,1,110,2|2,1:0|1:0,0:0:0:0:
480,104,6832,1,10,0:0:0:0:
509,232,7255,1,14,0:0:0:0:
392,299,7637,2,0,P|324:278|270:288,1,110,14|14,0:0|0:0,0:0:0:0:
164,343,8445,1,10,0:0:0:0:
51,268,8850,6,0,L|58:148,1,110,6|10,1:0|0:0,0:0:0:0:
80,73,9512,2,0,P|132:65|197:97,1,110,2|2,1:0|1:0,0:0:0:0:
215,117,10042,1,10,0:0:0:0:
293,223,10439,2,0,L|420:214,1,110,2|8,1:0|0:0,0:0:0:0:
481,168,11113,2,0,P|489:116|457:51,1,110,2|0,1:0|1:0,0:0:0:0:
436,33,11642,1,8,0:0:0:0:
305,82,12063,6,0,P|251:92|193:77,1,110,6|2,1:0|3:0,0:0:0:0:
114,52,12725,2,0,L|104:183,1,110,2|2,1:0|0:0,0:0:0:0:
100,205,13255,1,2,3:0:0:0:
145,328,13652,1,14,0:0:0:0:
272,360,14049,1,14,0:0:0:0:
401,333,14447,2,0,L|411:209,1,110,14|10,0:0|0:0,0:0:0:0:
408,83,15266,6,0,P|351:71|295:83,1,110,6|0,1:0|0:0,0:0:0:0:
237,141,15928,2,0,P|249:198|237:254,1,110,2|2,1:0|1:0,0:0:0:0:
219,287,16458,1,10,0:0:0:0:
91,251,16855,2,0,P|79:194|91:138,1,110,2|10,1:0|0:0,0:0:0:0:
115,60,17517,2,0,L|240:45,1,110,2|0,1:0|1:0,0:0:0:0:
268,42,18047,1,8,0:0:0:0:
396,73,18444,6,0,P|407:131|399:191,1,110,2|10,1:0|0:0,0:0:0:0:
318,210,19107,2,0,P|307:268|315:328,1,110,2|0,1:0|0:0,0:0:0:0:
325,360,19636,1,10,0:0:0:0:
461,367,20048,1,14,0:0:0:0:
501,241,20445,1,14,0:0:0:0:
427,131,20842,1,14,0:0:0:0:
318,210,21249,1,10,0:0:0:0:
206,132,21659,6,0,L|79:124,1,110,6|10,1:0|0:0,0:0:0:0:
35,188,22321,2,0,P|22:247|50:324,1,110,2|2,1:0|1:0,0:0:0:0:
52,333,22851,1,10,0:0:0:0:
163,261,23248,2,0,L|288:268,1,110,2|10,1:0|0:0,0:0:0:0:
354,225,23921,2,0,P|368:166|352:108,1,110,2|0,1:0|1:0,0:0:0:0:
338,78,24450,1,8,0:0:0:0:
206,46,24858,6,0,P|148:64|99:58,1,110,6|2,1:0|3:0,0:0:0:0:
37,120,25520,2,0,P|55:178|49:227,1,110,2|2,1:0|0:0,0:0:0:0:
35,268,26050,1,2,3:0:0:0:
125,364,26447,1,14,0:0:0:0:
256,372,26844,1,14,0:0:0:0:
368,288,27267,1,8,0:0:0:0:
424,172,27658,1,8,0:0:0:0:
364,48,28070,5,6,1:0:0:0:
256,192,28467,12,0,32846,0:0:0:0:
