osu file format v14

[General]
AudioFilename: audio.mp3
AudioLeadIn: 0
PreviewTime: 195937
Countdown: 0
SampleSet: Soft
StackLeniency: 0.4
Mode: 0
LetterboxInBreaks: 0
WidescreenStoryboard: 0

[Editor]
Bookmarks: 4039,46706,89373,110706,132039,174686,196019,217353,238686,260019
DistanceSpacing: 0.6
BeatDivisor: 4
GridSize: 32
TimelineZoom: 1.6

[Metadata]
Title:end of a life
TitleUnicode:end of a life
Artist:Mori Calliope
ArtistUnicode:Mori Calliope
Creator:Mir
Version:lament
Source:
Tags:english pop rap rnb swing Pretty Patterns なつめ千秋 cak_ntm ekao cover corp ホロライブ hololive vtuber
BeatmapID:3249334
BeatmapSetID:1590946

[Difficulty]
HPDrainRate:5
CircleSize:5
OverallDifficulty:7.5
ApproachRate:8.5
SliderMultiplier:2
SliderTickRate:1

[Events]
//Background and Video events
0,0,"calli.jpg",0,0
Video,0,"vid.mp4"
//Break Periods
//Storyboard Layer 0 (Background)
//Storyboard Layer 1 (Fail)
//Storyboard Layer 2 (Pass)
//Storyboard Layer 3 (Foreground)
//Storyboard Layer 4 (Overlay)
//Storyboard Sound Samples

[TimingPoints]
-6646,666.666666666666,4,2,1,30,1,0
4020,-166.666666666667,4,2,3,30,0,0
12020,-333.333333333333,4,2,3,30,0,0
14520,-333.333333333333,4,2,3,5,0,0
14687,-166.666666666667,4,2,3,30,0,0
25270,-166.666666666667,4,2,3,5,0,0
25353,-133.333333333333,4,2,3,30,0,0
27187,-133.333333333333,4,2,3,5,0,0
27353,-133.333333333333,4,2,3,30,0,0
28520,-133.333333333333,4,2,3,5,0,0
28687,-133.333333333333,4,2,3,30,0,0
30687,-105.263157894737,4,2,3,30,0,0
34687,-133.333333333333,4,2,3,30,0,0
41353,-105.263157894737,4,2,3,30,0,0
44020,-133.333333333333,4,2,3,30,0,0
44520,-133.333333333333,4,2,3,5,0,0
44687,-133.333333333333,4,2,3,30,0,0
45353,-117.647058823529,4,2,3,30,0,0
46020,-100,4,2,3,30,0,0
46687,-66.6666666666667,4,2,1,75,0,0
48353,-133.333333333333,4,2,1,75,0,0
49353,-66.6666666666667,4,2,1,75,0,0
53687,-133.333333333333,4,2,1,75,0,0
54020,-66.6666666666667,4,2,1,75,0,0
56353,-133.333333333333,4,2,1,75,0,0
56687,-66.6666666666667,4,2,1,75,0,0
59020,-133.333333333333,4,2,1,75,0,0
60020,-66.6666666666667,4,2,1,75,0,0
63020,-50,4,2,1,75,0,0
63353,-66.6666666666667,4,2,1,75,0,0
63687,-50,4,2,1,75,0,0
65353,-66.6666666666667,4,2,1,75,0,0
67020,-133.333333333333,4,2,1,75,0,0
67353,-66.6666666666667,4,2,1,75,0,0
85687,-133.333333333333,4,2,1,75,0,0
87909,-66.6666666666667,4,2,1,75,0,0
88353,-133.333333333333,4,2,1,75,0,0
89353,-133.333333333333,4,2,1,50,0,0
90353,-200,4,2,2,50,0,0
101020,-133.333333333333,4,2,2,50,0,0
110687,-66.6666666666667,4,2,1,80,0,1
111353,-66.6666666666667,4,2,1,80,0,0
131242,-100,4,2,1,80,0,0
132020,-66.6666666666667,4,2,1,30,0,0
132353,-133.333333333333,4,2,1,30,0,0
142687,-66.6666666666667,4,2,1,75,0,0
144353,-133.333333333333,4,2,1,75,0,0
145576,-66.6666666666667,4,2,1,75,0,0
169353,-40,4,2,1,75,0,0
169687,-66.6666666666667,4,2,1,75,0,0
174687,-66.6666666666667,4,2,1,50,0,0
175687,-166.666666666667,4,2,2,50,0,0
186020,-133.333333333333,4,2,2,50,0,0
196020,-66.6666666666667,4,2,1,80,0,1
196687,-66.6666666666667,4,2,1,80,0,0
217353,-62.5,4,2,1,80,0,0
238853,-100,4,2,2,30,0,0
259353,-200,4,2,2,30,0,0
281353,-200,4,2,2,5,0,0

[Colours]
Combo1 : 149,247,237
Combo2 : 255,170,255
Combo3 : 237,97,170
Combo4 : 145,192,232

[HitObjects]
193,106,4020,6,0,B|113:50|221:-90|381:83|223:198,1,359.999989013672,2|2,0:2|0:2,0:2:0:0:
110,215,6687,6,0,P|165:218|356:272,1,239.999992675781,2|2,0:2|0:2,0:2:0:0:
405,232,8353,1,2,0:2:0:0:
445,295,8687,1,2,0:2:0:0:
456,62,9353,6,0,B|514:23|580:108|483:189|410:136|363:94|363:94|400:60|377:3,1,359.999989013672,2|2,0:2|0:2,0:2:0:0:
313,41,11965,5,0,0:2:0:0:
313,41,12020,2,0,B|231:116|111:49|208:-25|236:48,1,224.999993133545,2|0,0:2|0:2,0:2:0:0:
234,140,14687,6,0,B|206:253|369:236|327:405|158:394|179:266|255:258,1,359.999989013672,2|2,0:2|0:2,0:2:0:0:
349,259,16937,1,2,0:2:0:0:
176,219,17187,1,2,0:2:0:0:
309,165,17353,6,0,P|363:154|495:134,1,179.999994506836,2|0,0:2|0:2,0:2:0:0:
512,73,18687,5,2,0:2:0:0:
422,211,19020,1,2,0:2:0:0:
242,157,19353,1,2,0:2:0:0:
199,221,20020,6,0,B|63:244|0:140|0:140|89:132|84:46,1,359.999989013672,2|2,0:2|0:2,0:2:0:0:
117,151,22270,1,2,0:2:0:0:
0,53,22520,1,2,0:2:0:0:
0,140,22687,6,0,P|178:140|372:338,1,464.999985809327,2|0,0:2|0:2,0:2:0:0:
361,347,25353,6,0,B|308:322|231:220|408:183|414:145|318:8|201:109|268:190,1,412.500015735627,2|0,0:2|0:2,0:2:0:0:
297,247,27353,5,2,0:2:0:0:
501,286,28020,2,0,P|459:281|379:272,1,112.500004291535,2|0,0:2|0:2,0:2:0:0:
331,318,28687,6,0,P|341:338|335:319,1,75.0000028610231,0|0,0:2|0:2,0:2:0:0:
207,234,29353,2,0,P|225:253|211:231,1,75.0000028610231,0|0,0:2|0:2,0:2:0:0:
68,254,30020,2,0,P|88:243|69:249,1,75.0000028610231,0|0,0:2|0:2,0:2:0:0:
89,366,30687,6,0,B|180:289|292:315|292:315|378:210|241:122|241:122|252:205|199:243,1,569.999984779358,2|2,0:2|0:2,0:2:0:0:
159,174,33353,6,0,P|234:184|446:262,1,284.999992389679,2|0,0:2|0:2,0:2:0:0:
511,189,34687,6,0,P|486:186|509:184,1,75.0000028610231,0|0,0:2|0:2,0:2:0:0:
333,110,35353,2,0,P|310:97|336:105,1,75.0000028610231,0|0,0:2|0:2,0:2:0:0:
451,9,36020,6,0,P|433:62|351:386,1,375.000014305115,2|0,0:2|0:2,0:2:0:0:
436,338,38020,5,2,0:2:0:0:
291,314,38270,1,2,0:2:0:0:
450,228,38520,1,2,0:2:0:0:
378,276,38687,6,0,B|280:282|194:317|194:317|234:284|263:228,1,300.000011444092,2|2,0:2|0:2,0:2:0:0:
273,156,40353,1,2,0:2:0:0:
227,99,40687,1,2,0:2:0:0:
156,70,41353,6,0,B|36:61|7:10|7:10|71:18|126:97|122:127|122:127|64:177|68:222|92:287|181:247|158:187,1,569.999984779358,2|2,0:2|0:2,0:2:0:0:
33,122,43603,1,2,0:2:0:0:
134,4,43853,1,2,0:2:0:0:
201,126,44020,6,0,P|261:136|320:153,1,112.500004291535,2|0,0:2|0:2,0:2:0:0:
362,102,44687,6,0,P|389:98|366:113,1,75.0000028610231,0|0,0:2|0:2,0:2:0:0:
454,207,45353,2,0,P|479:225|448:219,1,85.0000016212464,0|0,0:2|0:2,0:2:0:0:
478,336,46020,2,0,P|481:372|468:330,1,150,0|0,0:2|0:2,0:2:0:0:
463,357,46687,6,0,P|414:345|351:334,1,100.000003814697,0|0,3:2|0:2,0:2:0:0:
320,288,47020,1,2,3:2:0:0:
256,212,47242,5,0,0:2:0:0:
245,220,47353,2,0,L|224:330,1,100.000003814697,10|0,0:2|0:2,0:2:0:0:
169,365,47687,1,2,0:2:0:0:
6,321,47909,6,0,P|69:307|201:285,1,150.000005722046,10|8,0:2|0:1,0:2:0:0:
168,231,48353,6,0,L|155:283,1,37.5000014305115,0|0,3:3|0:2,0:2:0:0:
245,220,48687,5,10,0:2:0:0:
118,174,48853,1,0,0:2:0:0:
221,95,49020,2,0,L|287:80,1,50.0000019073487,2|0,0:2|0:2,0:2:0:0:
336,70,49353,5,2,3:2:0:0:
194,155,49687,2,0,P|183:99|150:42,1,100.000003814697,2|0,3:2|0:2,0:2:0:0:
103,28,50020,1,8,0:2:0:0:
34,110,50242,5,0,3:2:0:0:
25,94,50353,1,2,0:2:0:0:
110,131,50576,2,0,P|95:188|72:294,1,150.000005722046,10|8,0:2|0:1,0:2:0:0:
159,227,51020,6,0,P|219:244|278:266,1,75.0000028610231,2|0,3:3|0:2,0:2:0:0:
298,215,51353,1,10,0:2:0:0:
186,312,51520,1,2,0:2:0:0:
194,155,51687,1,2,0:2:0:0:
269,331,51909,5,0,1:2:0:0:
269,331,51965,1,0,3:2:0:0:
269,331,52020,2,0,P|313:316|370:305,1,75.0000028610231,0|0,3:2|0:2,0:2:0:0:
437,340,52353,1,2,3:2:0:0:
505,224,52576,5,0,0:2:0:0:
493,233,52687,2,0,L|470:122,1,100.000003814697,8|0,0:2|3:2,0:2:0:0:
512,80,53020,1,2,0:2:0:0:
403,161,53242,5,8,0:2:0:0:
398,145,53353,1,2,0:2:0:0:
441,75,53576,5,8,0:1:0:0:
432,60,53687,2,0,L|374:71,1,37.5000014305115,2|0,3:3|0:2,0:2:0:0:
283,166,54020,5,10,0:2:0:0:
157,145,54242,5,0,0:2:0:0:
154,166,54353,1,2,0:2:0:0:
222,98,54576,1,8,0:1:0:0:
225,119,54687,1,2,3:2:0:0:
166,37,54909,1,0,0:2:0:0:
163,58,55020,1,2,3:2:0:0:
242,222,55353,6,0,L|339:200,1,100.000003814697,8|0,0:2|3:2,0:2:0:0:
405,233,55687,1,2,0:2:0:0:
496,76,55909,5,8,0:2:0:0:
491,55,56020,1,2,0:2:0:0:
375,122,56242,5,8,0:1:0:0:
399,152,56353,2,0,L|449:167,1,37.5000014305115,2|0,3:3|0:2,0:2:0:0:
496,76,56687,5,10,0:2:0:0:
405,233,56909,1,0,0:2:0:0:
422,242,57020,2,0,P|439:307|450:363,1,100.000003814697,0|8,0:2|0:1,0:2:0:0:
395,384,57353,1,0,3:2:0:0:
508,289,57520,5,0,0:2:0:0:
354,276,57687,1,2,3:2:0:0:
428,111,57853,1,2,0:2:0:0:
482,187,58020,1,10,0:2:0:0:
326,149,58242,5,0,3:2:0:0:
366,158,58353,1,2,0:2:0:0:
208,169,58576,5,8,0:2:0:0:
248,178,58687,1,2,0:2:0:0:
365,63,58909,5,8,0:1:0:0:
325,72,59020,2,0,L|314:12,1,37.5000014305115,2|0,3:3|0:2,0:2:0:0:
248,17,59353,5,10,0:2:0:0:
423,110,59603,1,2,0:2:0:0:
258,92,59853,1,2,0:2:0:0:
351,35,60020,6,0,P|341:100|337:147,1,100.000003814697,0|0,3:2|0:2,0:2:0:0:
353,203,60353,5,2,3:2:0:0:
264,170,60520,1,2,0:2:0:0:
421,114,60687,1,10,0:2:0:0:
357,275,60909,5,0,3:2:0:0:
365,284,61020,2,0,P|431:308|470:325,1,100.000003814697,0|8,0:2|0:2,0:2:0:0:
504,368,61353,1,2,0:2:0:0:
512,184,61576,5,8,0:1:0:0:
504,193,61687,2,0,P|438:217|399:234,1,100.000003814697,2|0,3:3|0:2,0:2:0:0:
365,284,62020,1,10,0:2:0:0:
365,284,62353,1,0,0:2:0:0:
347,213,62576,1,0,1:2:0:0:
347,213,62631,1,0,3:2:0:0:
347,213,62687,6,0,P|309:206|245:196,1,75.0000028610231,2|0,3:2|0:2,0:2:0:0:
43,125,63020,2,0,P|104:117|167:106,1,100,2|0,3:2|0:2,0:2:0:0:
229,0,63353,6,0,P|218:47|207:120,1,100.000003814697,10|0,0:2|3:2,0:2:0:0:
208,305,63687,2,0,P|198:230|187:167,1,133.333333333333,2|8,0:2|0:2,0:2:0:0:
258,154,64020,5,2,3:2:0:0:
84,157,64242,1,8,0:1:0:0:
106,193,64354,1,2,3:3:0:0:
319,113,64576,1,0,0:2:0:0:
297,77,64688,5,10,0:2:0:0:
188,173,64937,1,2,0:2:0:0:
327,217,65187,1,2,0:2:0:0:
376,164,65353,6,0,B|467:159|420:227|545:210,1,150.000005722046,0|0,3:2|0:2,0:2:0:0:
308,330,66020,2,0,B|250:326|280:369|201:359,1,100.000003814697,8|0,0:2|3:2,0:2:0:0:
156,328,66353,1,2,0:2:0:0:
249,232,66576,5,8,0:1:0:0:
266,224,66687,2,0,P|281:191|239:149,1,100.000003814697,2|8,3:2|0:1,0:2:0:0:
79,154,67020,2,0,P|60:149|43:143,1,37.5000014305115,2|0,3:3|0:2,0:2:0:0:
32,78,67353,5,8,0:2:0:0:
146,240,67520,2,0,P|167:138|186:57,1,150.000005722046,2|8,0:2|0:1,0:2:0:0:
244,57,68020,6,0,P|334:74|382:85,1,100.000003814697,0|0,3:2|0:2,0:2:0:0:
392,25,68353,2,0,P|440:14|490:6,1,100.000003814697,2|0,3:2|0:2,0:2:0:0:
512,73,68687,1,8,0:2:0:0:
357,172,68909,5,0,3:2:0:0:
362,147,69020,1,2,0:2:0:0:
448,112,69242,1,8,0:2:0:0:
443,87,69353,5,2,0:2:0:0:
286,151,69520,1,2,0:2:0:0:
506,181,69687,1,2,3:3:0:0:
342,75,69853,6,0,L|381:295,1,150.000005722046,2|0,0:2|0:2,0:2:0:0:
329,279,70353,1,2,0:2:0:0:
486,360,70576,5,8,0:1:0:0:
501,354,70687,2,0,P|530:303|497:263,1,100.000003814697,2|0,3:2|0:2,0:2:0:0:
439,298,71020,2,0,B|389:317|425:346|348:364,1,100.000003814697,2|0,3:2|0:2,0:2:0:0:
295,353,71353,1,8,0:2:0:0:
177,225,71576,5,0,3:2:0:0:
158,233,71687,1,2,0:2:0:0:
41,329,71909,1,8,0:2:0:0:
22,321,72020,5,2,0:2:0:0:
145,164,72187,1,2,0:2:0:0:
190,294,72353,1,2,3:3:0:0:
106,361,72520,6,0,B|132:276|58:315|93:180,1,150.000005722046,2|0,0:2|0:2,0:2:0:0:
135,168,73020,1,0,0:2:0:0:
259,252,73242,5,0,1:2:0:0:
259,252,73298,1,0,3:2:0:0:
259,252,73353,2,0,P|297:238|376:230,1,100.000003814697,0|0,3:2|0:2,0:2:0:0:
417,262,73687,2,0,P|473:239|465:176,1,100.000003814697,2|0,3:2|0:2,0:2:0:0:
436,154,74020,1,8,0:2:0:0:
433,23,74242,5,0,3:2:0:0:
452,19,74353,1,2,0:2:0:0:
291,132,74576,1,8,0:2:0:0:
272,128,74687,5,2,0:2:0:0:
472,83,74853,1,2,0:2:0:0:
319,5,75020,1,0,3:2:0:0:
378,81,75187,6,0,P|364:175|352:249,1,150.000005722046,2|0,0:2|0:2,0:2:0:0:
301,274,75687,5,2,0:2:0:0:
222,232,75853,1,2,0:2:0:0:
138,247,76020,1,2,3:2:0:0:
50,142,76242,1,0,0:2:0:0:
42,122,76353,5,2,3:2:0:0:
164,71,76520,1,2,0:2:0:0:
269,161,76687,1,10,0:2:0:0:
78,47,76909,1,0,3:2:0:0:
86,27,77020,5,2,0:2:0:0:
249,82,77187,1,2,0:2:0:0:
129,141,77353,1,2,0:2:0:0:
192,13,77520,1,2,0:2:0:0:
324,109,77687,1,2,3:3:0:0:
123,150,77853,2,0,P|104:242|94:316,1,150.000005722046,2|0,0:2|0:2,0:2:0:0:
109,365,78353,1,2,0:2:0:0:
264,217,78576,5,0,0:2:0:0:
286,222,78687,1,2,3:2:0:0:
383,283,78909,1,0,0:2:0:0:
405,278,79020,1,2,3:2:0:0:
501,172,79242,5,0,0:2:0:0:
480,235,79353,1,10,0:2:0:0:
300,88,79576,5,0,3:2:0:0:
321,151,79687,1,2,0:2:0:0:
512,35,79909,5,8,0:2:0:0:
490,40,80020,1,2,0:2:0:0:
393,101,80242,1,8,0:1:0:0:
371,96,80353,1,2,3:3:0:0:
311,217,80576,5,0,0:2:0:0:
374,196,80687,1,8,0:2:0:0:
220,2,80910,5,0,0:2:0:0:
283,23,81021,1,2,0:2:0:0:
205,121,81242,5,0,0:2:0:0:
200,102,81353,1,2,3:2:0:0:
30,75,81576,1,0,0:2:0:0:
35,56,81687,5,2,3:2:0:0:
163,44,81853,1,2,0:2:0:0:
103,127,82020,2,0,L|83:261,1,100.000003814697,10|0,0:2|3:2,0:2:0:0:
41,273,82353,1,2,0:2:0:0:
189,353,82576,5,8,0:2:0:0:
193,329,82687,1,2,0:2:0:0:
312,218,82909,1,8,0:1:0:0:
308,194,83020,1,2,3:3:0:0:
266,280,83242,1,0,0:2:0:0:
242,269,83353,5,10,0:2:0:0:
390,215,83520,1,2,0:2:0:0:
240,140,83687,1,2,0:2:0:0:
312,218,83909,5,0,1:2:0:0:
312,218,83965,1,0,3:2:0:0:
312,218,84020,2,0,L|336:107,1,100.000003814697,2|0,3:2|0:2,0:2:0:0:
398,97,84353,2,0,L|374:-14,1,100.000003814697,2|0,3:2|0:2,0:2:0:0:
458,1,84687,5,10,0:2:0:0:
320,54,84909,1,0,3:2:0:0:
306,47,85020,1,2,0:2:0:0:
475,74,85242,6,0,P|402:94|300:134,1,150.000005722046,10|0,0:2|0:2,0:2:0:0:
187,175,85687,2,0,L|240:188,1,37.5000014305115,2|0,3:3|0:2,0:2:0:0:
297,198,86020,1,10,0:2:0:0:
171,110,86242,5,0,0:2:0:0:
168,97,86353,1,2,0:2:0:0:
31,194,86576,1,8,0:1:0:0:
28,207,86687,1,2,3:2:0:0:
178,111,86909,1,0,0:2:0:0:
175,98,87020,1,2,3:2:0:0:
38,195,87243,1,0,0:2:0:0:
35,208,87354,1,10,0:2:0:0:
131,173,87576,5,0,3:2:0:0:
82,128,87687,1,2,0:2:0:0:
207,182,87909,2,0,P|181:252|162:352,1,150.000005722046,10|8,0:2|0:1,0:2:0:0:
102,384,88353,2,0,P|97:354|85:326,1,37.5000014305115,2|0,3:3|0:2,0:2:0:0:
103,278,88687,5,10,0:2:0:0:
180,256,88853,1,2,0:2:0:0:
257,234,89020,1,2,0:2:0:0:
327,218,89353,5,2,0:2:0:0:
327,218,90353,5,2,0:2:0:0:
365,159,90687,2,0,B|355:60|309:124|295:29,1,150,2|2,0:2|0:2,0:2:0:0:
368,30,92020,2,0,B|358:128|312:64|298:159,1,150,2|2,0:2|0:2,0:2:0:0:
327,218,93353,5,2,0:2:0:0:
365,159,93687,1,2,0:2:0:0:
246,90,94020,1,2,0:2:0:0:
152,180,94353,1,2,0:2:0:0:
205,297,94687,2,0,P|252:306|307:345,1,100,2|0,0:2|0:2,0:2:0:0:
346,384,95687,5,2,0:2:0:0:
512,236,96020,2,0,P|446:245|403:254,1,100,2|2,0:2|0:2,0:2:0:0:
215,226,97131,1,2,0:2:0:0:
261,170,97353,6,0,P|266:132|273:113,1,50,2|0,0:2|0:2,0:2:0:0:
162,26,98020,2,0,P|168:50|171:74,1,50,2|0,0:2|0:2,0:2:0:0:
117,137,98687,5,2,0:2:0:0:
292,39,99131,1,2,0:2:0:0:
351,80,99353,2,0,L|401:72,1,33.3333333333333,2|0,0:2|0:2,0:2:0:0:
180,169,99798,1,2,0:2:0:0:
122,209,100020,2,0,P|74:200|13:191,1,100,2|0,0:2|3:2,0:2:0:0:
12,122,101020,5,2,0:2:0:0:
210,209,101353,2,0,P|215:274|226:372,1,150.000005722046,2|0,0:2|3:2,0:2:0:0:
144,285,102353,1,2,0:2:0:0:
298,290,102687,6,0,B|389:295|331:365|456:357,1,150.000005722046,2|0,0:2|3:2,0:2:0:0:
502,309,103687,1,2,0:2:0:0:
428,120,104020,5,2,0:2:0:0:
349,157,104353,1,2,0:3:0:0:
233,146,104687,1,2,3:2:0:0:
101,26,105020,5,2,0:2:0:0:
482,209,105576,5,2,0:2:0:0:
273,322,106020,5,0,3:2:0:0:
261,249,106353,1,2,0:2:0:0:
248,175,106687,2,0,L|163:155,2,75.0000028610231,2|2|2,0:2|0:3|3:2,0:2:0:0:
310,107,107687,1,0,0:2:0:0:
175,45,108020,5,2,0:2:0:0:
175,45,108353,1,0,0:2:0:0:
327,186,108687,5,2,3:2:0:0:
327,186,109020,1,0,0:2:0:0:
165,296,109353,5,2,0:2:0:0:
152,361,109687,1,2,0:3:0:0:
275,378,110020,1,2,3:2:0:0:
447,250,110353,1,2,0:2:0:0:
344,25,110687,6,0,B|209:4|265:135|76:84,1,250.000009536744,6|0,3:2|0:2,0:2:0:0:
72,38,111353,1,8,0:2:0:0:
226,154,111576,1,0,3:2:0:0:
225,169,111687,1,0,0:2:0:0:
91,293,111909,2,0,L|39:308,1,50.0000019073487,8|0,0:2|0:2,0:2:0:0:
264,364,112242,5,8,0:2:0:0:
279,357,112353,1,2,3:3:0:0:
350,333,112687,5,10,0:2:0:0:
165,246,112937,1,2,0:2:0:0:
331,125,113187,1,2,0:2:0:0:
401,161,113353,6,0,P|386:217|378:275,1,100.000003814697,0|0,3:2|0:2,0:2:0:0:
298,278,113687,2,0,P|289:228|276:180,1,100.000003814697,0|0,3:2|0:2,0:2:0:0:
205,159,114020,1,8,0:2:0:0:
318,40,114242,5,0,3:2:0:0:
344,46,114353,1,0,0:2:0:0:
148,7,114576,2,0,P|143:33|133:69,1,50.0000019073487,8|2,0:2|0:2,0:2:0:0:
331,149,114909,5,8,0:1:0:0:
316,117,115020,2,0,P|230:95|185:81,1,100.000003814697,0|0,3:3|0:2,0:2:0:0:
14,178,115353,6,0,P|93:173|106:277,1,150.000005722046,10|0,0:2|0:2,0:2:0:0:
75,337,115909,5,8,0:1:0:0:
86,324,116020,2,0,B|91:275|39:292|60:213,1,100.000003814697,2|0,3:2|0:2,0:2:0:0:
81,169,116353,2,0,P|150:161|182:191,1,100.000003814697,0|0,3:2|0:2,0:2:0:0:
206,245,116687,1,8,0:2:0:0:
19,343,116909,5,0,3:2:0:0:
1,338,117020,1,2,0:2:0:0:
134,230,117242,5,8,0:2:0:0:
156,297,117353,1,2,0:2:0:0:
298,225,117576,5,8,0:1:0:0:
320,157,117687,2,0,L|431:134,1,100.000003814697,2|0,3:3|0:2,0:2:0:0:
512,260,118020,2,0,L|401:237,1,100.000003814697,10|0,0:2|0:2,0:2:0:0:
380,305,118353,1,2,0:2:0:0:
503,178,118576,5,10,0:2:0:0:
496,163,118687,1,0,0:2:0:0:
284,95,118909,6,0,P|207:108|172:113,1,100.000003814697,2|0,0:2|0:2,0:2:0:0:
148,49,119242,2,0,P|110:43|79:42,1,50.0000019073487,2|8,0:2|0:2,0:2:0:0:
221,17,119576,1,2,3:2:0:0:
225,31,119687,1,0,0:2:0:0:
107,171,119909,2,0,L|121:73,1,50.0000019073487,8|0,0:2|0:2,0:2:0:0:
292,172,120242,5,10,0:2:0:0:
230,197,120353,1,2,3:3:0:0:
310,26,120520,2,0,B|393:22|368:70|465:66,1,150.000005722046,2|2,0:2|0:2,0:2:0:0:
508,22,121020,1,10,0:2:0:0:
327,105,121187,6,0,P|315:185|301:285,1,150.000005722046,2|0,0:2|0:2,0:2:0:0:
299,324,121687,1,2,3:2:0:0:
299,324,122020,1,8,0:2:0:0:
107,335,122242,5,2,3:2:0:0:
98,310,122353,1,0,0:2:0:0:
20,212,122520,6,0,P|118:227|203:244,1,150.000005722046,10|8,0:2|0:1,0:2:0:0:
216,294,123020,1,2,3:3:0:0:
216,294,123353,1,8,0:2:0:0:
129,153,123520,5,2,0:2:0:0:
276,89,123687,1,2,0:2:0:0:
213,157,123853,2,0,P|195:80|181:-17,1,150.000005722046,10|0,0:2|0:2,0:2:0:0:
259,0,124353,1,2,3:2:0:0:
259,0,124687,1,8,0:2:0:0:
120,69,124909,5,2,3:2:0:0:
107,64,125020,1,0,0:2:0:0:
276,89,125242,2,0,P|341:110|422:147,1,150.000005722046,10|8,0:2|0:1,0:2:0:0:
479,118,125687,1,2,3:3:0:0:
287,175,125909,5,2,0:2:0:0:
271,228,126020,1,10,0:2:0:0:
410,317,126242,5,2,0:2:0:0:
356,224,126353,1,2,0:2:0:0:
148,285,126576,6,0,L|87:271,1,50.0000019073487,10|0,0:0|3:0,0:0:0:0:
330,364,126909,5,2,0:2:0:0:
342,341,127020,1,0,3:2:0:0:
281,303,127187,2,0,B|197:306|245:368|127:365,1,150.000005722046,2|0,0:2|3:2,0:2:0:0:
73,338,127687,6,0,P|46:262|29:222,1,100.000003814697,10|0,0:2|0:2,0:2:0:0:
187,219,128020,2,0,P|214:143|231:103,1,100.000003814697,10|0,0:2|0:2,0:2:0:0:
292,112,128353,1,2,3:3:0:0:
119,137,128576,1,0,0:2:0:0:
100,128,128687,1,10,0:2:0:0:
292,112,128909,2,0,B|316:89|315:64|315:64|303:87|271:101,1,100.000003814697,2|0,3:2|0:2,0:2:0:0:
221,125,129242,6,0,P|326:148|389:170,1,150.000005722046,10|0,0:2|0:2,0:2:0:0:
405,218,129687,1,0,3:2:0:0:
509,90,130020,1,8,0:2:0:0:
353,59,130242,5,0,3:2:0:0:
348,77,130353,1,2,0:2:0:0:
508,183,130576,5,8,0:2:0:0:
505,175,130687,1,2,0:2:0:0:
319,218,130909,5,8,0:1:0:0:
318,224,131020,1,2,3:2:0:0:
380,338,131242,6,0,P|449:317|474:313,1,66.6666666666667,2|2,0:2|0:2,0:2:0:0:
426,144,131687,2,0,P|413:207|406:273,1,100,10|0,0:2|0:2,0:2:0:0:
297,370,132353,6,0,L|239:357,1,50.0000019073487,2|0,0:2|0:2,0:2:0:0:
207,305,132687,2,0,L|149:318,1,50.0000019073487,2|0,0:2|0:2,0:2:0:0:
92,330,133020,1,2,0:2:0:0:
25,166,133576,5,0,0:2:0:0:
37,173,133687,2,0,L|48:114,1,50.0000019073487,2|0,0:2|0:2,0:2:0:0:
58,59,134020,6,0,L|9:52,1,37.5000014305115,2|0,0:2|0:2,0:2:0:0:
114,168,134353,1,2,0:2:0:0:
186,138,134520,6,0,L|174:52,1,75.0000028610231,2|0,0:2|0:2,0:2:0:0:
219,10,135020,2,0,L|273:17,1,50.0000019073487,2|0,0:2|0:2,0:2:0:0:
317,61,135353,2,0,L|366:54,1,50.0000019073487,2|0,0:2|0:2,0:2:0:0:
419,102,135687,2,0,L|468:108,1,50.0000019073487,2|0,0:2|0:2,0:2:0:0:
353,129,136020,6,0,P|349:174|346:191,1,50.0000019073487,2|0,0:2|0:2,0:2:0:0:
402,227,136353,2,0,P|406:272|409:289,1,50.0000019073487,2|0,0:2|0:2,0:2:0:0:
352,326,136687,2,0,P|348:371|345:388,1,50.0000019073487,2|0,0:2|0:2,0:2:0:0:
365,383,137020,1,2,0:2:0:0:
333,254,137242,1,2,0:2:0:0:
333,254,137687,5,2,0:2:0:0:
248,295,137853,1,0,0:2:0:0:
256,201,138020,1,0,0:0:0:0:
337,47,138242,1,2,0:0:0:0:
344,59,138353,5,2,0:2:0:0:
266,107,138520,1,0,0:2:0:0:
259,18,138687,1,0,0:0:0:0:
186,104,138909,1,2,0:0:0:0:
181,117,139020,5,2,0:2:0:0:
59,9,139187,1,0,0:2:0:0:
134,8,139353,2,0,L|126:75,2,56.2500021457673,2|0|0,0:2|0:2|0:2,0:2:0:0:
62,80,140020,6,0,L|6:88,1,50.0000019073487,2|0,0:2|0:2,0:2:0:0:
24,155,140353,2,0,L|73:147,1,50.0000019073487,2|0,0:2|0:2,0:2:0:0:
149,133,140687,6,0,L|205:141,1,50.0000019073487,2|0,0:2|0:2,0:2:0:0:
187,208,141020,2,0,L|137:200,1,50.0000019073487,2|0,0:2|0:2,0:2:0:0:
75,221,141353,5,2,0:0:0:0:
23,304,141576,1,2,0:0:0:0:
28,315,141687,5,2,0:2:0:0:
107,383,141853,1,0,0:2:0:0:
172,298,142020,2,0,P|195:333|207:385,1,75.0000028610231,2|0,0:2|0:2,0:2:0:0:
203,376,142520,1,0,0:2:0:0:
215,220,142687,5,0,3:2:0:0:
332,266,142909,1,0,0:2:0:0:
335,252,143020,1,2,3:2:0:0:
473,189,143242,1,0,0:2:0:0:
470,175,143353,1,10,0:2:0:0:
313,171,143576,5,0,3:2:0:0:
380,185,143687,1,2,0:2:0:0:
496,271,143909,5,8,0:2:0:0:
493,257,144020,1,2,0:2:0:0:
360,115,144242,1,8,0:1:0:0:
363,101,144353,2,0,L|353:45,1,37.5000014305115,2|0,3:3|0:2,0:2:0:0:
436,123,144687,5,10,0:2:0:0:
281,88,144937,1,2,0:2:0:0:
403,5,145187,1,8,0:1:0:0:
356,64,145353,5,0,3:2:0:0:
203,21,145576,1,0,0:2:0:0:
212,36,145687,2,0,L|196:147,1,100.000003814697,2|0,3:2|0:2,0:2:0:0:
141,177,146020,1,10,0:2:0:0:
296,214,146242,1,0,3:2:0:0:
287,229,146353,2,0,L|303:340,1,100.000003814697,2|8,0:2|0:2,0:2:0:0:
358,370,146686,1,0,0:2:0:0:
220,283,146909,1,8,0:1:0:0:
201,290,147020,5,2,3:3:0:0:
277,137,147187,1,0,0:2:0:0:
147,190,147353,2,0,P|49:169|-17:160,1,150.000005722046,10|0,0:2|0:2,0:2:0:0:
219,68,147909,5,0,1:2:0:0:
219,68,147965,1,0,3:2:0:0:
219,68,148020,2,0,P|267:54|282:-5,1,100.000003814697,2|0,3:2|0:2,0:2:0:0:
354,5,148353,2,0,P|431:27|466:42,1,100.000003814697,2|0,3:2|0:2,0:2:0:0:
509,0,148687,1,10,0:2:0:0:
346,107,148909,5,0,3:2:0:0:
350,87,149020,1,2,0:2:0:0:
512,169,149242,5,8,0:2:0:0:
508,149,149353,1,2,0:2:0:0:
289,173,149576,1,8,0:1:0:0:
285,153,149687,5,2,3:3:0:0:
506,80,149853,1,2,0:2:0:0:
407,162,150020,5,10,0:2:0:0:
314,369,150270,1,2,0:2:0:0:
204,197,150520,1,2,0:2:0:0:
319,294,150687,5,2,3:2:0:0:
238,381,150853,1,0,0:2:0:0:
203,318,151020,1,2,3:2:0:0:
251,264,151187,1,2,0:2:0:0:
136,166,151353,5,10,0:2:0:0:
144,237,151520,1,2,0:2:0:0:
262,153,151687,1,2,0:2:0:0:
195,122,151853,1,10,0:2:0:0:
204,197,152020,1,2,0:2:0:0:
77,209,152242,1,2,0:2:0:0:
61,212,152353,5,2,3:3:0:0:
204,197,152520,1,2,0:2:0:0:
164,18,152687,2,0,P|146:96|133:192,1,150.000005722046,10|2,0:2|0:2,0:2:0:0:
106,374,153242,5,8,0:1:0:0:
100,364,153353,2,0,P|51:342|0:330,1,100.000003814697,2|0,3:2|0:2,0:2:0:0:
0,264,153687,5,2,3:2:0:0:
174,362,153853,1,2,0:2:0:0:
60,216,154020,1,10,0:2:0:0:
197,264,154242,5,0,3:2:0:0:
197,251,154353,2,0,P|128:269|89:282,1,100.000003814697,2|8,0:2|0:2,0:2:0:0:
60,216,154687,5,2,0:2:0:0:
171,349,154853,1,2,0:2:0:0:
209,174,155020,1,2,3:3:0:0:
145,142,155187,1,2,0:2:0:0:
197,264,155353,2,0,B|295:296|205:333|361:369,1,150.000005722046,10|0,0:2|0:2,0:2:0:0:
486,271,155909,5,10,0:2:0:0:
493,259,156020,2,0,L|477:180,1,50.0000019073487,2|0,3:2|0:2,0:2:0:0:
324,180,156242,5,2,0:2:0:0:
317,168,156353,2,0,L|333:89,1,50.0000019073487,2|0,3:2|0:2,0:2:0:0:
507,75,156576,1,2,0:2:0:0:
512,66,156687,6,0,P|460:57|388:36,1,100.000003814697,8|0,0:2|3:2,0:2:0:0:
358,6,157020,1,2,0:2:0:0:
420,130,157242,5,8,0:2:0:0:
416,149,157353,1,2,0:2:0:0:
243,188,157576,1,8,0:1:0:0:
247,207,157687,5,2,3:3:0:0:
395,214,157853,1,2,0:2:0:0:
268,105,158020,2,0,P|191:88|102:70,1,150.000005722046,10|0,0:2|0:2,0:2:0:0:
25,163,158576,5,0,1:2:0:0:
25,163,158631,1,0,3:2:0:0:
25,163,158687,1,2,3:2:0:0:
187,116,158853,1,2,0:2:0:0:
87,6,159020,1,2,3:2:0:0:
82,15,159131,5,2,0:2:0:0:
258,31,159353,1,10,0:2:0:0:
52,81,159603,1,2,0:2:0:0:
183,232,159853,1,2,0:2:0:0:
231,172,160020,5,10,0:2:0:0:
118,143,160242,1,8,0:1:0:0:
117,154,160353,2,0,P|105:224|96:271,1,100.000003814697,2|0,3:3|0:2,0:2:0:0:
2,324,160687,2,0,P|53:373|81:367,1,100.000003814697,10|0,0:2|0:2,0:2:0:0:
128,322,161020,1,2,0:2:0:0:
36,110,161242,5,8,0:1:0:0:
20,126,161353,2,0,P|113:152|150:166,1,100.000003814697,2|0,3:2|0:2,0:2:0:0:
282,206,161687,2,0,P|189:232|152:246,1,100.000003814697,2|0,3:2|0:2,0:2:0:0:
136,315,162020,5,10,0:2:0:0:
201,153,162187,1,2,0:2:0:0:
289,219,162353,1,2,0:2:0:0:
344,158,162520,1,10,0:2:0:0:
174,86,162687,5,2,0:2:0:0:
187,234,162853,1,2,0:2:0:0:
274,147,163020,1,2,3:3:0:0:
131,33,163187,1,2,0:2:0:0:
342,138,163353,6,0,P|439:120|465:115,1,75.0000028610231,10|0,0:2|0:2,0:2:0:0:
485,115,163687,1,8,0:2:0:0:
485,115,163909,5,8,0:1:0:0:
501,122,164020,2,0,P|490:180|486:217,1,75.0000028610231,2|0,3:2|0:2,0:2:0:0:
285,4,164353,2,0,P|296:62|300:99,1,75.0000028610231,2|0,3:2|0:2,0:2:0:0:
274,147,164687,5,10,0:2:0:0:
434,56,164853,1,2,0:2:0:0:
223,51,165020,1,2,0:2:0:0:
223,68,165131,1,2,0:2:0:0:
362,194,165353,5,8,0:1:0:0:
371,93,165520,1,2,0:2:0:0:
274,147,165687,1,2,3:3:0:0:
384,261,165853,1,2,0:2:0:0:
362,194,166020,5,10,0:2:0:0:
188,172,166270,1,2,0:2:0:0:
53,299,166520,1,2,0:2:0:0:
153,372,166687,6,0,B|168:341|168:341|138:266,1,100.000003814697,2|0,3:2|0:2,0:2:0:0:
128,211,167020,1,2,3:2:0:0:
188,172,167187,1,2,0:2:0:0:
69,23,167353,6,0,P|143:38|206:50,1,100.000003814697,10|0,0:0|3:0,0:0:0:0:
237,57,167687,1,2,0:0:0:0:
253,61,167798,1,2,0:0:0:0:
34,212,168020,6,0,B|12:171|12:171|59:101,1,100.000003814697,2|8,0:2|0:1,0:2:0:0:
215,163,168353,2,0,B|247:157|247:157|255:160|255:160|300:150,1,75.0000028610231,2|2,3:3|0:2,0:2:0:0:
488,131,168687,2,0,B|510:90|510:90|463:20,1,100.000003814697,10|0,0:2|0:2,0:2:0:0:
427,3,169020,5,2,0:2:0:0:
510,211,169242,1,0,1:2:0:0:
510,211,169298,1,0,3:2:0:0:
510,211,169353,6,0,B|467:217|467:217|453:248|453:248|368:281,1,125,2|0,3:2|0:2,0:2:0:0:
253,384,169687,2,0,L|238:292,1,75.0000028610231,2|0,3:2|0:2,0:2:0:0:
343,216,170020,1,10,0:2:0:0:
180,273,170242,1,2,3:2:0:0:
165,270,170353,5,2,0:2:0:0:
326,217,170520,1,10,0:2:0:0:
255,90,170687,1,2,0:2:0:0:
98,151,170909,1,8,0:1:0:0:
79,154,171020,5,2,3:3:0:0:
190,200,171187,1,2,0:2:0:0:
195,49,171353,5,10,0:2:0:0:
93,246,171603,1,2,0:2:0:0:
0,160,171853,1,2,0:2:0:0:
94,171,172020,6,0,P|176:195|252:219,1,100.000003814697,2|0,3:2|0:2,0:2:0:0:
229,141,172353,2,0,P|276:126|324:112,1,100.000003814697,2|0,3:2|0:2,0:2:0:0:
387,154,172687,5,10,0:2:0:0:
507,70,172853,1,2,0:2:0:0:
355,43,173020,1,2,0:2:0:0:
426,86,173187,6,0,P|440:181|452:272,1,175.00000667572,10|8,0:2|0:1,0:2:0:0:
412,316,173687,1,0,3:3:0:0:
502,372,173909,5,0,0:2:0:0:
506,358,174020,1,10,0:2:0:0:
321,291,174242,5,2,0:2:0:0:
317,277,174353,1,2,0:2:0:0:
300,210,174520,2,0,L|315:114,1,75.0000028610231,2|0,0:2|3:2,0:2:0:0:
82,59,175687,5,2,0:2:0:0:
36,128,176020,2,0,P|92:139|167:164,1,119.999996337891,2|2,0:2|0:2,0:2:0:0:
194,210,176937,1,2,0:2:0:0:
287,161,177187,1,2,0:2:0:0:
151,157,177353,6,0,P|95:168|20:193,1,119.999996337891,2|0,0:2|0:2,0:2:0:0:
0,248,178353,1,2,0:2:0:0:
115,369,178687,6,0,P|122:322|128:303,1,59.9999981689454,2|2,0:2|0:2,0:2:0:0:
212,201,179353,2,0,P|219:230|222:259,1,59.9999981689454,2|2,0:2|0:2,0:2:0:0:
326,333,180020,2,0,P|391:348|447:367,1,119.999996337891,2|0,0:2|0:2,0:2:0:0:
498,324,181020,1,2,0:2:0:0:
347,261,181353,6,0,P|345:217|329:134,1,119.999996337891,2|2,0:2|0:2,0:2:0:0:
375,84,182270,1,2,0:2:0:0:
240,16,182520,1,2,0:2:0:0:
315,12,182687,6,0,P|309:46|305:79,1,59.9999981689454,2|0,0:2|0:2,0:2:0:0:
205,191,183353,2,0,P|201:161|195:131,1,59.9999981689454,2|0,0:2|0:2,0:2:0:0:
138,84,184020,5,2,0:2:0:0:
275,210,184465,1,2,0:2:0:0:
334,176,184687,2,0,L|384:186,1,39.9999987792969,2|0,0:2|0:2,0:2:0:0:
257,352,185131,1,2,0:2:0:0:
198,318,185353,2,0,L|131:331,1,59.9999981689454,2|0,0:2|0:2,0:2:0:0:
34,248,186020,1,0,3:2:0:0:
125,204,186241,5,0,0:2:0:0:
129,192,186353,2,0,L|143:122,1,50.0000019073487,2|0,0:2|3:2,0:2:0:0:
90,98,186687,2,0,L|71:8,2,75.0000028610231,2|2|0,0:2|0:3|3:2,0:2:0:0:
204,186,187687,1,2,0:2:0:0:
255,115,187909,1,0,0:2:0:0:
264,107,188020,6,0,P|311:117|342:122,1,75.0000028610231,2|0,0:2|0:2,0:2:0:0:
502,132,188687,1,0,3:2:0:0:
506,3,189020,2,0,P|469:9|441:17,1,50.0000019073487,2|0,0:2|0:2,0:2:0:0:
382,27,189353,6,0,P|396:75|398:81,1,50.0000019073487,2|0,0:2|0:2,0:2:0:0:
487,179,189687,2,0,P|501:131|503:125,1,50.0000019073487,2|0,0:3|0:2,0:2:0:0:
320,200,190020,2,0,P|357:190|369:188,1,50.0000019073487,2|0,3:2|0:2,0:2:0:0:
418,143,190353,5,2,0:2:0:0:
226,360,190909,5,2,0:2:0:0:
128,268,191353,6,0,L|200:254,1,50.0000019073487,0|0,3:2|0:2,0:2:0:0:
189,269,191687,1,2,0:2:0:0:
271,290,191909,1,0,0:2:0:0:
278,278,192020,2,0,L|264:219,1,50.0000019073487,2|0,0:2|0:2,0:2:0:0:
207,196,192353,2,0,L|227:108,2,75.0000028610231,2|0|0,0:3|3:2|0:2,0:2:0:0:
299,162,193242,5,0,0:2:0:0:
309,158,193353,2,0,L|363:146,1,50.0000019073487,2|0,0:2|0:2,0:2:0:0:
370,146,193687,1,0,0:2:0:0:
285,96,194020,1,2,3:2:0:0:
207,196,194242,5,0,0:2:0:0:
201,207,194353,1,0,0:2:0:0:
349,221,194576,1,0,0:2:0:0:
355,232,194687,1,2,3:2:0:0:
253,361,194909,5,0,0:2:0:0:
265,348,195020,1,2,3:2:0:0:
195,218,195353,1,2,3:2:0:0:
402,62,195687,1,2,1:2:0:0:
42,43,196020,6,0,P|56:122|86:311,1,250.000009536744,4|0,3:2|0:2,0:2:0:0:
49,354,196687,1,8,0:2:0:0:
154,195,196909,5,0,3:2:0:0:
169,200,197020,1,0,0:2:0:0:
319,319,197242,2,0,P|308:380|307:392,1,50.0000019073487,8|0,0:2|0:2,0:2:0:0:
189,310,197576,5,8,0:1:0:0:
177,322,197687,2,0,P|122:301|71:286,1,100.000003814697,2|0,3:3|0:2,0:2:0:0:
64,298,198020,5,10,0:2:0:0:
249,252,198270,1,2,0:2:0:0:
83,152,198520,1,2,0:2:0:0:
157,222,198687,6,0,P|165:169|175:107,1,100.000003814697,0|0,3:2|0:2,0:2:0:0:
238,98,199020,2,0,P|230:45|220:-17,1,100.000003814697,0|0,3:2|0:2,0:2:0:0:
155,6,199353,1,8,0:2:0:0:
251,187,199576,1,0,3:2:0:0:
264,182,199687,1,0,0:2:0:0:
111,91,199909,1,8,0:2:0:0:
101,79,200020,6,0,P|71:32|39:-1,1,100.000003814697,2|8,0:2|0:1,0:2:0:0:
98,159,200353,2,0,P|43:146|-2:146,1,100.000003814697,2|0,3:3|0:2,0:2:0:0:
106,237,200687,2,0,P|58:267|25:299,1,100.000003814697,10|0,0:2|0:2,0:2:0:0:
30,365,201020,1,0,0:2:0:0:
171,199,201242,5,0,1:2:0:0:
171,199,201298,1,0,3:2:0:0:
171,199,201353,2,0,P|220:207|306:229,1,100.000003814697,2|0,3:2|0:2,0:2:0:0:
310,272,201687,2,0,P|358:260|408:252,1,100.000003814697,0|0,3:2|0:2,0:2:0:0:
472,292,202020,1,8,0:2:0:0:
502,167,202242,1,2,3:2:0:0:
486,161,202353,5,2,0:2:0:0:
364,31,202520,1,10,0:2:0:0:
429,74,202687,2,0,P|410:162|406:191,1,100.000003814697,2|8,0:2|0:1,0:2:0:0:
334,193,203020,2,0,P|325:143|313:95,1,100.000003814697,2|0,3:3|0:2,0:2:0:0:
245,72,203353,1,8,0:2:0:0:
391,242,203687,1,2,0:2:0:0:
258,176,203853,6,0,P|221:180|184:187,1,75.0000028610231,10|0,0:2|3:2,0:2:0:0:
83,17,204187,2,0,P|120:21|157:28,1,75.0000028610231,2|0,0:2|3:2,0:2:0:0:
265,0,204520,2,0,P|245:74|241:103,1,75.0000028610231,2|8,0:2|0:2,0:2:0:0:
118,230,204853,2,0,P|109:193|98:157,1,75.0000028610231,2|0,0:2|0:2,0:2:0:0:
47,96,205242,6,0,L|-22:75,1,50.0000019073487,10|0,0:2|0:2,0:2:0:0:
162,117,205576,1,8,0:1:0:0:
167,105,205687,1,2,3:3:0:0:
43,219,205909,2,0,P|22:296|3:371,1,150.000005722046,2|0,0:2|0:2,0:2:0:0:
0,380,206353,1,2,0:2:0:0:
108,308,206576,5,8,0:1:0:0:
112,299,206687,2,0,P|169:285|214:344,1,100.000003814697,2|0,3:2|0:2,0:2:0:0:
224,372,207020,1,2,3:2:0:0:
224,372,207353,1,8,0:2:0:0:
401,271,207576,5,2,3:2:0:0:
398,260,207687,1,0,0:2:0:0:
292,170,207909,2,0,P|236:186|117:202,1,150.000005722046,10|8,0:2|0:1,0:2:0:0:
77,203,208353,2,0,P|58:151|86:121,1,100.000003814697,2|0,3:3|0:2,0:2:0:0:
154,127,208687,1,8,0:2:0:0:
250,5,208853,2,0,P|257:45|269:96,1,75.0000028610231,2|0,0:2|0:2,0:2:0:0:
403,230,209187,6,0,P|498:217|507:146,1,150.000005722046,10|0,0:2|0:2,0:2:0:0:
508,97,209687,1,2,3:2:0:0:
508,97,210020,1,8,0:2:0:0:
347,88,210242,5,2,3:2:0:0:
340,74,210353,1,0,0:2:0:0:
200,126,210576,6,0,P|188:208|174:309,1,150.000005722046,10|0,0:2|0:2,0:2:0:0:
210,340,211020,1,0,3:3:0:0:
26,268,211242,5,2,0:2:0:0:
79,253,211353,1,10,0:2:0:0:
325,252,211576,5,2,0:2:0:0:
222,210,211687,1,2,0:2:0:0:
150,379,211909,6,0,P|216:354|326:343,1,150.000005722046,10|0,0:2|0:2,0:2:0:0:
309,353,212353,1,2,3:2:0:0:
410,383,212576,6,0,P|422:327|448:238,1,150.000005722046,2|0,0:2|3:2,0:2:0:0:
502,198,213020,1,8,0:2:0:0:
399,94,213242,5,8,0:1:0:0:
387,103,213353,2,0,P|335:91|289:83,1,100.000003814697,2|8,3:2|0:1,0:2:0:0:
280,66,213687,5,2,3:3:0:0:
387,38,213853,1,2,0:2:0:0:
321,162,214020,1,10,0:2:0:0:
197,76,214187,2,0,P|207:39|216:-11,1,75.0000028610231,2|0,0:2|0:2,0:2:0:0:
229,149,214520,6,0,P|240:226|260:392,1,225.000008583069,10|0,0:2|3:2,0:2:0:0:
176,296,215353,1,8,0:2:0:0:
105,215,215520,5,2,0:2:0:0:
144,160,215687,1,2,0:2:0:0:
105,105,215853,1,10,0:2:0:0:
57,266,216020,5,2,0:2:0:0:
40,126,216242,1,8,0:1:0:0:
33,117,216353,1,0,3:2:0:0:
144,160,216576,2,0,P|206:147|288:132,1,100.000003814697,2|0,0:2|0:2,0:2:0:0:
291,91,216909,2,0,P|353:104|477:130,1,150.000005722046,2|8,0:2|0:1,0:2:0:0:
501,365,217353,6,0,B|415:387|313:343|417:289|297:228|211:270,2,320,6|8|8,3:2|0:2|0:1,0:2:0:0:
481,227,218909,5,8,0:1:0:0:
472,229,219020,2,0,B|444:254|454:289|454:289|469:263|505:260,1,106.666666666667,0|0,3:2|0:2,0:2:0:0:
495,254,219353,2,0,L|384:272,1,80,10|2,0:2|0:2,0:2:0:0:
240,155,219687,5,2,0:2:0:0:
286,103,219853,2,0,L|435:127,1,133.333333333333,10|0,0:2|0:2,0:2:0:0:
435,46,220242,2,0,P|501:21|494:128,1,213.333333333333,2|8,0:2|0:2,0:2:0:0:
353,195,220909,5,0,3:2:0:0:
348,183,221020,1,0,0:2:0:0:
214,93,221242,1,8,0:2:0:0:
219,81,221353,1,0,0:2:0:0:
374,6,221576,1,8,0:1:0:0:
367,0,221687,2,0,P|312:13|253:30,1,106.666666666667,2|0,3:3|0:2,0:2:0:0:
250,17,222020,1,8,0:2:0:0:
106,35,222242,5,2,0:2:0:0:
114,49,222353,1,2,0:2:0:0:
300,169,222576,6,0,P|270:224|237:234,1,53.3333333333333,10|0,0:2|3:2,0:2:0:0:
67,213,222909,2,0,P|51:191|46:165,1,53.3333333333333,2|0,0:2|3:2,0:2:0:0:
323,272,223242,2,0,P|262:289|232:273,1,53.3333333333333,2|8,0:2|0:2,0:2:0:0:
127,173,223576,1,2,3:2:0:0:
122,166,223687,2,0,P|126:139|141:117,1,53.3333333333333,2|0,0:2|0:2,0:2:0:0:
200,171,223909,5,8,0:1:0:0:
201,162,224020,2,0,P|222:146|310:143,1,106.666666666667,2|0,3:2|0:2,0:2:0:0:
346,87,224353,2,0,P|372:91|436:150,1,106.666666666667,2|0,3:3|0:2,0:2:0:0:
487,183,224687,5,10,0:2:0:0:
365,179,224853,2,0,P|348:254|345:284,1,80,2|0,3:2|0:2,0:2:0:0:
508,368,225187,2,0,P|503:320|323:273,1,240,10|0,0:2|3:2,0:2:0:0:
210,367,226020,6,0,P|138:325|148:271,1,106.666666666667,10|0,0:2|3:2,0:2:0:0:
160,245,226353,1,0,0:2:0:0:
330,118,226576,2,0,B|331:220|266:150|266:279,1,160,10|8,0:2|0:1,0:2:0:0:
168,172,227020,6,0,B|189:137|226:152|226:152|206:165|196:203,1,106.666666666667,2|0,3:3|0:2,0:2:0:0:
208,191,227353,5,8,0:2:0:0:
269,82,227520,2,0,P|167:62|149:62,1,80,0|0,0:2|0:2,0:2:0:0:
345,250,227853,6,0,P|426:227|505:214,1,160,10|0,0:2|0:2,0:2:0:0:
507,148,228353,1,2,3:2:0:0:
507,148,228687,1,8,0:2:0:0:
374,18,228909,1,0,3:2:0:0:
372,31,229020,1,0,0:2:0:0:
238,96,229242,6,0,P|166:85|70:70,1,160,10|8,0:2|0:1,0:2:0:0:
34,21,229687,1,2,3:3:0:0:
15,227,230020,6,0,B|65:200|33:180|87:149,1,106.666666666667,8|0,0:2|0:2,0:2:0:0:
146,114,230353,1,2,0:2:0:0:
360,180,230576,6,0,P|349:243|248:225,1,160,10|0,0:2|0:2,0:2:0:0:
223,187,231020,2,0,P|152:203|113:217,1,106.666666666667,2|0,3:2|0:2,0:2:0:0:
78,270,231353,1,8,0:2:0:0:
292,155,231576,5,0,3:2:0:0:
297,142,231687,1,0,0:2:0:0:
78,270,231909,2,0,P|99:345|180:326,1,160,10|8,0:2|0:1,0:2:0:0:
283,353,232353,6,0,P|270:294|264:235,1,106.666666666667,2|0,3:3|0:2,0:2:0:0:
209,197,232687,2,0,P|222:138|228:79,1,106.666666666667,8|0,0:2|0:2,0:2:0:0:
191,33,233020,1,0,0:2:0:0:
410,129,233242,5,0,1:2:0:0:
410,129,233298,1,0,3:2:0:0:
410,129,233353,2,0,P|445:113|529:105,1,106.666666666667,2|0,3:2|0:2,0:2:0:0:
512,30,233687,2,0,P|459:24|409:4,1,106.666666666667,2|0,3:2|0:2,0:2:0:0:
342,9,234020,1,8,0:2:0:0:
410,129,234242,5,0,3:2:0:0:
413,137,234353,1,0,0:2:0:0:
329,95,234576,2,0,B|231:101|287:157|158:147,1,160,10|8,0:2|0:1,0:2:0:0:
127,105,235020,2,0,B|115:36|115:36|134:87,1,106.666666666667,2|0,3:3|0:2,0:2:0:0:
136,87,235353,5,10,0:2:0:0:
50,215,235603,1,2,0:2:0:0:
229,271,235853,1,2,0:2:0:0:
175,345,236020,6,0,P|104:362|59:378,1,106.666666666667,2|0,3:2|0:2,0:2:0:0:
58,304,236353,2,0,P|108:287|160:276,1,106.666666666667,2|0,3:2|0:2,0:2:0:0:
229,271,236687,1,8,0:2:0:0:
189,151,236909,5,0,3:2:0:0:
184,140,237020,1,0,0:2:0:0:
208,14,237242,2,0,P|280:37|369:49,1,160,10|8,0:2|0:1,0:2:0:0:
434,86,237687,2,0,P|466:27|522:42,1,106.666666666667,2|0,3:3|0:2,0:2:0:0:
498,26,238020,1,8,0:2:0:0:
431,156,238187,5,2,0:2:0:0:
363,135,238353,1,2,0:2:0:0:
502,172,238520,2,0,P|508:213|521:259,1,80,10|0,0:2|0:2,0:2:0:0:
386,373,238853,6,0,P|401:294|416:214,1,150,2|0,0:2|3:2,0:2:0:0:
335,198,239576,5,0,0:2:0:0:
332,188,239687,1,0,3:2:0:0:
260,210,239909,5,0,0:2:0:0:
257,200,240020,1,0,3:2:0:0:
187,227,240242,5,0,0:2:0:0:
184,217,240353,1,2,3:3:0:0:
208,148,240687,5,2,3:2:0:0:
111,60,240937,1,2,0:2:0:0:
265,12,241187,1,2,0:2:0:0:
201,68,241353,5,0,3:2:0:0:
201,68,241687,1,0,3:2:0:0:
201,68,242020,1,0,3:2:0:0:
123,61,242242,5,0,3:2:0:0:
114,52,242353,2,0,P|72:42|29:30,1,66.6666666666667,0|0,0:2|3:2,0:2:0:0:
15,108,242687,6,0,P|30:166|51:172,1,66.6666666666667,2|0,3:2|0:2,0:2:0:0:
103,152,243020,2,0,P|148:146|180:143,1,66.6666666666667,2|0,3:3|0:2,0:2:0:0:
243,203,243353,2,0,P|228:261|207:267,1,66.6666666666667,2|0,3:2|0:2,0:2:0:0:
155,247,243686,2,0,P|110:241|78:238,1,66.6666666666667,2|0,3:2|0:2,0:2:0:0:
44,295,244020,1,0,3:2:0:0:
202,384,244270,5,2,0:2:0:0:
270,323,244437,1,2,0:2:0:0:
222,265,244603,1,2,0:2:0:0:
243,203,244770,1,2,0:2:0:0:
236,183,245020,5,2,0:2:0:0:
248,87,245242,5,2,3:2:0:0:
241,72,245353,1,2,0:2:0:0:
154,41,245576,1,2,3:2:0:0:
161,26,245687,5,2,0:2:0:0:
229,0,245853,1,2,0:2:0:0:
177,114,246020,5,2,3:2:0:0:
82,32,246270,1,2,0:2:0:0:
118,158,246520,1,2,0:2:0:0:
243,69,246687,6,0,P|304:82|347:91,1,100,0|0,3:2|3:2,0:2:0:0:
512,196,247353,2,0,P|451:209|408:218,1,100,0|0,3:2|0:2,0:2:0:0:
331,201,247909,5,0,3:2:0:0:
327,212,248020,1,0,0:2:0:0:
258,201,248242,5,0,3:2:0:0:
254,212,248353,1,2,0:3:0:0:
181,233,248687,5,0,3:2:0:0:
181,233,249020,1,0,0:2:0:0:
107,358,249242,5,0,0:2:0:0:
100,347,249353,1,2,3:2:0:0:
30,227,249576,5,2,0:2:0:0:
90,263,249742,1,2,0:2:0:0:
120,206,249909,1,2,0:2:0:0:
181,233,250076,1,2,0:2:0:0:
169,69,250270,5,2,0:2:0:0:
274,164,250465,5,2,0:2:0:0:
334,129,250631,1,2,0:2:0:0:
369,188,250798,1,2,0:2:0:0:
502,140,251131,1,2,0:2:0:0:
400,66,251437,5,2,0:2:0:0:
311,224,251742,1,2,0:2:0:0:
368,270,252020,6,0,P|395:294|378:262,1,100,2|0,3:2|0:2,0:2:0:0:
280,326,252687,2,0,P|282:362|292:327,1,100,2|0,3:2|0:2,0:2:0:0:
187,298,253353,5,2,3:2:0:0:
58,196,253687,1,2,0:3:0:0:
40,361,254020,1,2,3:2:0:0:
96,307,254437,5,2,0:2:0:0:
100,318,254520,2,0,L|116:237,1,75,2|0,0:2|0:2,0:2:0:0:
200,91,255103,2,0,P|168:37|79:50,1,150,2|2,0:2|0:2,0:2:0:0:
60,102,255770,1,2,0:2:0:0:
111,149,255937,2,0,P|153:159|181:183,1,75,2|2,0:2|0:2,0:2:0:0:
264,257,256465,5,2,0:2:0:0:
325,227,256742,1,2,0:2:0:0:
435,253,257076,1,2,0:2:0:0:
489,196,257242,1,0,3:2:0:0:
502,197,257353,6,0,P|505:161|493:190,1,100,2|0,3:2|0:2,0:2:0:0:
431,121,258020,2,0,P|407:93|419:122,1,100,2|0,3:2|0:2,0:2:0:0:
330,80,258687,2,0,P|294:77|323:89,1,100,2|2,3:2|0:3,0:2:0:0:
226,116,259353,2,0,P|198:139|227:127,1,100,2|2,3:2|0:2,0:2:0:0:
208,126,260687,1,2,0:2:0:0:
377,252,261353,5,2,0:2:0:0:
153,325,261798,1,2,0:2:0:0:
117,263,262020,5,2,0:2:0:0:
218,363,262270,1,2,0:2:0:0:
330,200,262520,1,2,0:2:0:0:
267,238,262687,5,2,0:2:0:0:
195,32,263353,1,2,0:2:0:0:
264,30,264020,5,2,0:2:0:0:
141,96,264353,1,0,0:2:0:0:
234,171,264687,1,0,0:2:0:0:
184,225,264853,5,2,0:2:0:0:
313,296,265103,1,2,0:2:0:0:
192,384,265353,1,2,0:2:0:0:
192,384,266020,1,2,0:2:0:0:
457,147,267131,5,2,0:2:0:0:
398,92,267353,5,0,0:2:0:0:
300,165,267603,1,2,0:2:0:0:
243,24,267853,1,2,0:2:0:0:
311,83,268020,5,0,0:2:0:0:
311,83,268687,1,2,0:2:0:0:
49,197,269853,5,2,0:2:0:0:
49,197,270520,1,2,0:2:0:0:
95,252,270687,5,2,0:2:0:0:
161,233,271353,1,2,0:2:0:0:
421,358,272020,5,2,0:2:0:0:
496,237,272465,5,2,0:2:0:0:
448,186,272687,1,2,0:2:0:0:
512,58,273131,5,2,0:2:0:0:
450,86,273353,1,2,0:2:0:0:
307,9,274020,1,2,0:2:0:0:
455,17,274687,5,0,0:2:0:0:
279,76,275020,1,0,0:2:0:0:
279,76,275187,1,2,0:2:0:0:
342,191,275520,5,2,0:2:0:0:
205,70,275770,1,2,0:2:0:0:
350,117,276020,1,2,0:2:0:0:
350,117,276687,1,2,0:2:0:0:
350,117,277798,5,2,0:2:0:0:
160,167,278020,1,0,0:2:0:0:
160,167,278465,5,2,0:2:0:0:
347,222,278687,1,0,0:2:0:0:
347,222,279353,1,2,0:2:0:0:
264,372,280465,6,0,L|252:230,1,133.333333333333,2|0,0:2|0:2,0:2:0:0:
