osu file format v14

[General]
AudioFilename: audio.mp3
AudioLeadIn: 0
PreviewTime: 124253
Countdown: 0
SampleSet: Soft
StackLeniency: 0.7
Mode: 0
LetterboxInBreaks: 0
EpilepsyWarning: 1
WidescreenStoryboard: 0

[Editor]
DistanceSpacing: 0.2
BeatDivisor: 6
GridSize: 32
TimelineZoom: 1.7

[Metadata]
Title:Make 'Em Afraid
TitleUnicode:Make 'Em Afraid
Artist:Mori Calliope
ArtistUnicode:Mori Calliope
Creator:SMOKELIND
Version:X
Source:
Tags:森カリオペ shinigami note ホロライブ hololive holomyth hololive-en en バーチャルユーチューバー virtual yt youtube youtuber vtuber english pop hip hop hip-hop Mocaotic iceluin frozz -keqing them extra
BeatmapID:3863692
BeatmapSetID:1877198

[Difficulty]
HPDrainRate:5
CircleSize:4
OverallDifficulty:9
ApproachRate:9.4
SliderMultiplier:2.47
SliderTickRate:1

[Events]
//Background and Video events
Video,0,"vid.mp4"
0,0,"93621361_p0.jpg",0,0
//Break Periods
2,36168,37999
2,39596,41713
2,49682,52142
2,79917,83213
2,111596,113428
2,115025,117142
2,125110,127570
2,163025,168713
2,176539,178999
//Storyboard Layer 0 (Background)
//Storyboard Layer 1 (Fail)
//Storyboard Layer 2 (Pass)
//Storyboard Layer 3 (Foreground)
//Storyboard Layer 4 (Overlay)
//Storyboard Sound Samples

[TimingPoints]
-32,428.571428571429,4,2,77,57,1,0
-32,-93.4579439252336,4,2,77,57,0,0
4039,-93.4579439252336,4,2,77,5,0,0
4110,-93.4579439252336,4,2,77,57,0,0
7039,-93.4579439252336,4,2,77,5,0,0
7110,-93.4579439252336,4,2,77,57,0,0
8110,-175.438596491228,4,2,77,57,0,0
8467,-175.438596491228,4,2,77,5,0,0
8539,-68.0272108843537,4,2,77,67,0,0
8968,-78.7401574803149,4,2,77,67,0,0
11539,-129.87012987013,4,2,77,67,0,0
11896,-129.87012987013,4,2,77,5,0,0
11968,-78.7401574803149,4,2,77,67,0,0
13039,-78.7401574803149,4,2,77,5,0,0
13110,-78.7401574803149,4,2,77,67,0,0
14967,-129.87012987013,4,2,77,67,0,0
15396,-78.7401574803149,4,2,77,67,0,0
15610,-78.7401574803149,4,2,77,5,0,0
15682,-78.7401574803149,4,2,77,67,0,0
15896,-78.7401574803149,4,2,77,5,0,0
15968,-78.7401574803149,4,2,77,67,0,0
16467,-78.7401574803149,4,2,77,5,0,0
16539,-78.7401574803149,4,2,77,67,0,0
17396,-68.0272108843537,4,2,77,67,0,0
17682,-59.8802395209581,4,2,77,67,0,0
18396,-129.87012987013,4,2,77,67,0,0
18610,-129.87012987013,4,2,77,5,0,0
18682,-129.87012987013,4,2,77,67,0,0
18825,-78.7401574803149,4,2,77,67,0,0
19182,-78.7401574803149,4,2,77,5,0,0
19253,-78.7401574803149,4,2,77,67,0,0
19896,-78.7401574803149,4,2,77,5,0,0
19968,-78.7401574803149,4,2,77,67,0,0
20039,-78.7401574803149,4,2,77,5,0,0
20110,-78.7401574803149,4,2,77,67,0,0
21610,-78.7401574803149,4,2,77,5,0,0
21682,-78.7401574803149,4,2,77,67,0,0
22253,-48.3091787439614,4,2,77,77,0,0
22682,-56.4971751412429,4,2,77,77,0,0
23181,-56.4971751412429,4,2,77,5,0,0
23253,-56.4971751412429,4,2,77,77,0,0
23324,-56.4971751412429,4,2,77,5,0,0
23396,-56.4971751412429,4,2,77,77,0,0
23467,-56.4971751412429,4,2,77,5,0,0
23539,-56.4971751412429,4,2,77,77,0,0
24324,-56.4971751412429,4,2,77,5,0,0
24396,-56.4971751412429,4,2,77,77,0,0
24896,-56.4971751412429,4,2,77,5,0,0
24968,-56.4971751412429,4,2,77,77,0,0
25039,-56.4971751412429,4,2,77,5,0,0
25110,-56.4971751412429,4,2,77,77,0,0
25181,-56.4971751412429,4,2,77,5,0,0
25253,-56.4971751412429,4,2,77,77,0,0
25896,-56.4971751412429,4,2,77,5,0,0
25968,-56.4971751412429,4,2,77,77,0,0
26610,-56.4971751412429,4,2,77,5,0,0
26682,-56.4971751412429,4,2,77,77,0,0
26753,-56.4971751412429,4,2,77,5,0,0
26825,-56.4971751412429,4,2,77,77,0,0
28252,-68.0272108843537,4,2,77,77,0,0
28324,-68.0272108843537,4,2,77,5,0,0
28395,-63.6942675159236,4,2,77,77,0,0
28467,-63.6942675159236,4,2,77,5,0,0
28538,-59.8802395209581,4,2,77,77,0,0
28610,-59.8802395209581,4,2,77,5,0,0
28681,-56.4971751412429,4,2,77,77,0,0
28753,-56.4971751412429,4,2,77,5,0,0
28824,-53.475935828877,4,2,77,77,0,0
28896,-53.475935828877,4,2,77,5,0,0
28967,-50.761421319797,4,2,77,77,0,0
29039,-50.761421319797,4,2,77,5,0,0
29109,-48.3091787439614,4,2,77,77,0,0
29467,-48.3091787439614,4,2,77,5,0,0
29539,-56.4971751412429,4,2,77,77,0,0
29610,-56.4971751412429,4,2,77,5,0,0
29682,-56.4971751412429,4,2,77,77,0,0
29896,-56.4971751412429,4,2,77,5,0,0
29968,-56.4971751412429,4,2,77,77,0,0
31039,-56.4971751412429,4,2,77,5,0,0
31110,-56.4971751412429,4,2,77,77,0,0
31181,-56.4971751412429,4,2,77,5,0,0
31253,-56.4971751412429,4,2,77,77,0,0
31753,-56.4971751412429,4,2,77,5,0,0
31825,-56.4971751412429,4,2,77,77,0,0
31896,-56.4971751412429,4,2,77,5,0,0
31968,-56.4971751412429,4,2,77,77,0,0
32039,-56.4971751412429,4,2,77,5,0,0
32110,-56.4971751412429,4,2,77,77,0,0
32753,-56.4971751412429,4,2,77,5,0,0
32825,-56.4971751412429,4,2,77,77,0,0
33324,-56.4971751412429,4,2,77,5,0,0
33396,-56.4971751412429,4,2,77,77,0,0
33610,-56.4971751412429,4,2,77,5,0,0
33682,-56.4971751412429,4,2,77,77,0,0
33753,-56.4971751412429,4,2,77,5,0,0
33825,-56.4971751412429,4,2,77,77,0,0
34324,-56.4971751412429,4,2,77,5,0,0
34396,-56.4971751412429,4,2,77,77,0,0
34610,-56.4971751412429,4,2,77,5,0,0
34682,-56.4971751412429,4,2,77,77,0,0
36396,-93.4579439252337,4,2,77,47,0,0
38574,-93.4579439252337,4,2,77,5,0,0
38825,-93.4579439252337,4,2,77,47,0,0
38860,-93.4579439252337,4,2,77,5,0,0
39110,-93.4579439252337,4,2,77,47,0,0
39145,-93.4579439252337,4,2,77,5,0,0
39396,-93.4579439252337,4,2,77,47,0,0
42825,-78.7401574803149,4,2,77,57,0,0
43039,-78.7401574803149,4,2,77,5,0,0
43110,-78.7401574803149,4,2,77,57,0,0
43896,-78.7401574803149,4,2,77,5,0,0
43968,-78.7401574803149,4,2,77,57,0,0
44753,-78.7401574803149,4,2,77,5,0,0
44825,-78.7401574803149,4,2,77,57,0,0
45896,-78.7401574803149,4,2,77,5,0,0
45968,-78.7401574803149,4,2,77,57,0,0
46039,-78.7401574803149,4,2,77,5,0,0
46110,-78.7401574803149,4,2,77,57,0,0
46253,-63.6942675159236,4,2,77,67,0,0
46467,-63.6942675159236,4,2,77,5,0,0
46539,-63.6942675159236,4,2,77,67,0,0
47968,-59.8802395209581,4,2,77,77,0,0
48039,-59.8802395209581,4,2,77,5,0,0
48110,-59.8802395209581,4,2,77,77,0,0
48181,-59.8802395209581,4,2,77,5,0,0
48253,-59.8802395209581,4,2,77,77,0,0
48324,-59.8802395209581,4,2,77,5,0,0
48396,-59.8802395209581,4,2,77,77,0,0
48825,-212.765957446809,4,2,77,47,0,0
53039,-212.765957446809,4,2,77,5,0,0
53110,-93.4579439252336,4,2,77,57,0,0
53324,-93.4579439252336,4,2,77,5,0,0
53396,-93.4579439252336,4,2,77,57,0,0
53753,-93.4579439252336,4,2,77,5,0,0
53825,-93.4579439252336,4,2,77,57,0,0
55039,-93.4579439252336,4,2,77,5,0,0
55110,-93.4579439252336,4,2,77,57,0,0
55467,-93.4579439252336,4,2,77,5,0,0
55539,-93.4579439252336,4,2,77,57,0,0
59181,-93.4579439252336,4,2,77,5,0,0
59253,-93.4579439252336,4,2,77,57,0,0
59324,-93.4579439252336,4,2,77,5,0,0
59396,-93.4579439252336,4,2,77,57,0,0
59467,-93.4579439252336,4,2,77,5,0,0
59539,-93.4579439252336,4,2,77,57,0,0
59968,-78.7401574803149,4,2,77,67,0,0
60610,-78.7401574803149,4,2,77,5,0,0
60682,-78.7401574803149,4,2,77,67,0,0
61467,-78.7401574803149,4,2,77,5,0,0
61539,-78.7401574803149,4,2,77,67,0,0
61682,-68.0272108843537,4,2,77,67,0,0
62574,-68.0272108843537,4,2,77,5,0,0
62968,-68.0272108843537,4,2,77,67,0,0
63003,-68.0272108843537,4,2,77,5,0,0
63253,-68.0272108843537,4,2,77,67,0,0
63396,-59.8802395209581,4,2,77,77,0,0
64039,-59.8802395209581,4,2,77,5,0,0
64110,-59.8802395209581,4,2,77,77,0,0
64467,-59.8802395209581,4,2,77,5,0,0
64539,-59.8802395209581,4,2,77,77,0,0
65110,-53.475935828877,4,2,77,77,0,0
65181,-53.475935828877,4,2,77,5,0,0
65253,-53.475935828877,4,2,77,77,0,0
65324,-53.475935828877,4,2,77,5,0,0
65396,-53.475935828877,4,2,77,77,0,0
65610,-53.475935828877,4,2,77,5,0,0
65682,-68.0272108843537,4,2,77,77,0,0
65753,-68.0272108843537,4,2,77,5,0,0
65825,-93.4579439252336,4,2,77,77,0,0
65896,-93.4579439252336,4,2,77,5,0,0
65968,-175.438596491228,4,2,77,77,0,0
66182,-175.438596491228,4,2,77,5,0,0
66396,-175.438596491228,4,2,77,77,0,0
66825,-48.3091787439614,4,2,77,87,0,0
66896,-48.3091787439614,4,2,77,5,0,0
66968,-48.3091787439614,4,2,77,87,0,0
67039,-48.3091787439614,4,2,77,5,0,0
67110,-48.3091787439614,4,2,77,87,0,0
67467,-48.3091787439614,4,2,77,5,0,0
67539,-48.3091787439614,4,2,77,87,0,0
68610,-48.3091787439614,4,2,77,5,0,0
68682,-48.3091787439614,4,2,77,87,0,0
68753,-48.3091787439614,4,2,77,5,0,0
68825,-48.3091787439614,4,2,77,87,0,0
69039,-48.3091787439614,4,2,77,5,0,0
69111,-48.3091787439614,4,2,77,87,0,0
69182,-48.3091787439614,4,2,77,5,0,0
69254,-48.3091787439614,4,2,77,87,0,0
69610,-48.3091787439614,4,2,77,5,0,0
69682,-48.3091787439614,4,2,77,87,0,0
70324,-48.3091787439614,4,2,77,5,0,0
70396,-48.3091787439614,4,2,77,87,0,0
70467,-48.3091787439614,4,2,77,5,0,0
70539,-48.3091787439614,4,2,77,87,0,0
70896,-48.3091787439614,4,2,77,5,0,0
70968,-48.3091787439614,4,2,77,87,0,0
72039,-48.3091787439614,4,2,77,5,0,0
72110,-48.3091787439614,4,2,77,87,0,0
72610,-48.3091787439614,4,2,77,5,0,0
72682,-48.3091787439614,4,2,77,87,0,0
73110,-175.438596491228,4,2,77,77,0,0
73253,-175.438596491228,4,2,77,47,0,0
73682,-48.3091787439614,4,2,77,87,0,0
73753,-48.3091787439614,4,2,77,5,0,0
73825,-48.3091787439614,4,2,77,87,0,0
73896,-48.3091787439614,4,2,77,5,0,0
73967,-48.3091787439614,4,2,77,87,0,0
74324,-48.3091787439614,4,2,77,5,0,0
74396,-48.3091787439614,4,2,77,87,0,0
74753,-48.3091787439614,4,2,77,5,0,0
74825,-48.3091787439614,4,2,77,87,0,0
75467,-48.3091787439614,4,2,77,5,0,0
75539,-48.3091787439614,4,2,77,87,0,0
75610,-48.3091787439614,4,2,77,5,0,0
75682,-48.3091787439614,4,2,77,87,0,0
75896,-48.3091787439614,4,2,77,5,0,0
75968,-48.3091787439614,4,2,77,87,0,0
76039,-48.3091787439614,4,2,77,5,0,0
76111,-48.3091787439614,4,2,77,87,0,0
76467,-48.3091787439614,4,2,77,5,0,0
76539,-48.3091787439614,4,2,77,87,0,0
77181,-48.3091787439614,4,2,77,5,0,0
77253,-48.3091787439614,4,2,77,87,0,0
77324,-48.3091787439614,4,2,77,5,0,0
77396,-48.3091787439614,4,2,77,87,0,0
77753,-48.3091787439614,4,2,77,5,0,0
77825,-48.3091787439614,4,2,77,87,0,0
78896,-48.3091787439614,4,2,77,5,0,0
78968,-48.3091787439614,4,2,77,87,0,0
79467,-48.3091787439614,4,2,77,5,0,0
79539,-48.3091787439614,4,2,77,87,0,0
79717,-48.3091787439614,4,2,77,5,0,0
80539,-212.765957446809,4,2,77,27,0,0
83895,-212.765957446809,4,2,77,5,0,0
83968,-59.8802395209581,4,2,77,67,0,0
84610,-59.8802395209581,4,2,77,5,0,0
84682,-129.87012987013,4,2,77,67,0,0
84825,-175.438596491228,4,2,77,67,0,0
85039,-175.438596491228,4,2,77,5,0,0
85110,-175.438596491228,4,2,77,67,0,0
85253,-68.0272108843537,4,2,77,67,0,0
85324,-68.0272108843537,4,2,77,5,0,0
85396,-68.0272108843537,4,2,77,67,0,0
85467,-68.0272108843537,4,2,77,5,0,0
85539,-68.0272108843537,4,2,77,67,0,0
85610,-68.0272108843537,4,2,77,5,0,0
85682,-175.438596491228,4,2,77,67,0,0
86110,-68.0272108843537,4,2,77,67,0,0
86467,-68.0272108843537,4,2,77,5,0,0
86539,-175.438596491228,4,2,77,67,0,0
87182,-175.438596491228,4,2,77,5,0,0
87253,-175.438596491228,4,2,77,67,0,0
87396,-48.3091787439614,4,2,77,67,0,0
87467,-48.3091787439614,4,2,77,5,0,0
87825,-175.438596491228,4,2,77,67,0,0
88253,-48.3091787439614,4,2,77,67,0,0
88324,-48.3091787439614,4,2,77,5,0,0
88682,-48.3091787439614,4,2,77,67,0,0
89110,-68.0272108843537,4,2,77,67,0,0
89181,-68.0272108843537,4,2,77,5,0,0
89253,-68.0272108843537,4,2,77,67,0,0
89324,-68.0272108843537,4,2,77,5,0,0
89396,-68.0272108843537,4,2,77,67,0,0
89467,-68.0272108843537,4,2,77,5,0,0
89539,-68.0272108843537,4,2,77,67,0,0
89610,-68.0272108843537,4,2,77,5,0,0
89682,-68.0272108843537,4,2,77,67,0,0
89753,-68.0272108843537,4,2,77,5,0,0
89825,-68.0272108843537,4,2,77,67,0,0
90539,-175.438596491228,4,2,77,67,0,0
90610,-175.438596491228,4,2,77,5,0,0
90682,-175.438596491228,4,2,77,67,0,0
90753,-175.438596491228,4,2,77,5,0,0
90825,-48.3091787439614,4,2,77,67,0,0
91039,-48.3091787439614,4,2,77,5,0,0
91108,-68.0272108843537,4,2,77,67,0,0
91467,-68.0272108843537,4,2,77,5,0,0
91539,-68.0272108843537,4,2,77,67,0,0
91896,-68.0272108843537,4,2,77,5,0,0
91968,-68.0272108843537,4,2,77,67,0,0
92324,-68.0272108843537,4,2,77,5,0,0
92396,-68.0272108843537,4,2,77,67,0,0
92753,-68.0272108843537,4,2,77,5,0,0
92825,-68.0272108843537,4,2,77,67,0,0
93039,-68.0272108843537,4,2,77,5,0,0
93110,-68.0272108843537,4,2,77,67,0,0
93324,-68.0272108843537,4,2,77,5,0,0
93396,-68.0272108843537,4,2,77,67,0,0
93467,-68.0272108843537,4,2,77,5,0,0
93825,-129.87012987013,4,2,77,67,0,0
94110,-68.0272108843537,4,2,77,67,0,0
94324,-68.0272108843537,4,2,77,5,0,0
94396,-68.0272108843537,4,2,77,67,0,0
94467,-68.0272108843537,4,2,77,5,0,0
94539,-68.0272108843537,4,2,77,67,0,0
94610,-68.0272108843537,4,2,77,5,0,0
94682,-68.0272108843537,4,2,77,67,0,0
94753,-68.0272108843537,4,2,77,5,0,0
94825,-68.0272108843537,4,2,77,67,0,0
94896,-68.0272108843537,4,2,77,5,0,0
94968,-68.0272108843537,4,2,77,67,0,0
95039,-68.0272108843537,4,2,77,5,0,0
95110,-68.0272108843537,4,2,77,67,0,0
95467,-68.0272108843537,4,2,77,5,0,0
95539,-68.0272108843537,4,2,77,67,0,0
95753,-68.0272108843537,4,2,77,5,0,0
95825,-68.0272108843537,4,2,77,67,0,0
97682,-48.3091787439614,4,2,77,77,0,0
98039,-48.3091787439614,4,2,77,5,0,0
98110,-56.4971751412429,4,2,77,77,0,0
98610,-56.4971751412429,4,2,77,5,0,0
98682,-56.4971751412429,4,2,77,77,0,0
99396,-93.4579439252336,4,2,77,77,0,0
99825,-56.4971751412429,4,2,77,77,0,0
101039,-56.4971751412429,4,2,77,5,0,0
101110,-48.3091787439614,4,2,77,77,0,0
101539,-56.4971751412429,4,2,77,77,0,0
102039,-56.4971751412429,4,2,77,5,0,0
102110,-56.4971751412429,4,2,77,77,0,0
102610,-56.4971751412429,4,2,77,5,0,0
102682,-56.4971751412429,4,2,77,77,0,0
103610,-56.4971751412429,4,2,77,5,0,0
103682,-56.4971751412429,4,2,77,77,0,0
103896,-56.4971751412429,4,2,77,5,0,0
103968,-56.4971751412429,4,2,77,77,0,0
104539,-48.3091787439614,4,2,77,77,0,0
104753,-48.3091787439614,4,2,77,5,0,0
104824,-56.4971751412429,4,2,77,77,0,0
105039,-56.4971751412429,4,2,77,5,0,0
105110,-56.4971751412429,4,2,77,77,0,0
105181,-56.4971751412429,4,2,77,5,0,0
105253,-56.4971751412429,4,2,77,77,0,0
105467,-56.4971751412429,4,2,77,5,0,0
105538,-63.6942675159236,4,2,77,77,0,0
105610,-63.6942675159236,4,2,77,5,0,0
105681,-72.992700729927,4,2,77,77,0,0
105753,-72.992700729927,4,2,77,5,0,0
105824,-85.4700854700855,4,2,77,77,0,0
105896,-85.4700854700855,4,2,77,5,0,0
105967,-103.092783505155,4,2,77,77,0,0
106039,-103.092783505155,4,2,77,5,0,0
106109,-129.87012987013,4,2,77,77,0,0
106181,-129.87012987013,4,2,77,5,0,0
106252,-48.3091787439614,4,2,77,77,0,0
106467,-48.3091787439614,4,2,77,5,0,0
106538,-56.4971751412429,4,2,77,77,0,0
107968,-48.3091787439614,4,2,77,77,0,0
108182,-48.3091787439614,4,2,77,5,0,0
108253,-56.4971751412429,4,2,77,77,0,0
108324,-56.4971751412429,4,2,77,5,0,0
108396,-56.4971751412429,4,2,77,77,0,0
108610,-56.4971751412429,4,2,77,5,0,0
108682,-56.4971751412429,4,2,77,77,0,0
108753,-56.4971751412429,4,2,77,5,0,0
108825,-56.4971751412429,4,2,77,77,0,0
108896,-56.4971751412429,4,2,77,5,0,0
108967,-63.6942675159236,4,2,77,77,0,0
109039,-63.6942675159236,4,2,77,5,0,0
109110,-72.992700729927,4,2,77,77,0,0
109181,-72.992700729927,4,2,77,5,0,0
109253,-85.4700854700855,4,2,77,77,0,0
109324,-85.4700854700855,4,2,77,5,0,0
109396,-103.092783505155,4,2,77,77,0,0
109467,-103.092783505155,4,2,77,5,0,0
109538,-129.87012987013,4,2,77,77,0,0
109609,-129.87012987013,4,2,77,5,0,0
109682,-129.87012987013,4,2,77,77,0,0
109968,-68.0272108843537,4,2,77,77,0,0
110039,-68.0272108843537,4,2,77,5,0,0
110110,-68.0272108843537,4,2,77,77,0,0
110181,-68.0272108843537,4,2,77,5,0,0
110253,-56.4971751412429,4,2,77,77,0,0
110753,-56.4971751412429,4,2,77,5,0,0
110825,-56.4971751412429,4,2,77,77,0,0
111824,-93.4579439252337,4,2,77,47,0,0
114003,-93.4579439252337,4,2,77,5,0,0
114254,-93.4579439252337,4,2,77,47,0,0
114289,-93.4579439252337,4,2,77,5,0,0
114539,-93.4579439252337,4,2,77,47,0,0
114574,-93.4579439252337,4,2,77,5,0,0
114825,-93.4579439252337,4,2,77,47,0,0
118253,-78.7401574803149,4,2,77,57,0,0
118467,-78.7401574803149,4,2,77,5,0,0
118539,-78.7401574803149,4,2,77,57,0,0
119324,-78.7401574803149,4,2,77,5,0,0
119397,-78.7401574803149,4,2,77,57,0,0
120182,-78.7401574803149,4,2,77,5,0,0
120253,-78.7401574803149,4,2,77,57,0,0
121324,-78.7401574803149,4,2,77,5,0,0
121396,-78.7401574803149,4,2,77,57,0,0
121467,-78.7401574803149,4,2,77,5,0,0
121539,-78.7401574803149,4,2,77,57,0,0
121681,-63.6942675159236,4,2,77,67,0,0
121895,-63.6942675159236,4,2,77,5,0,0
121968,-63.6942675159236,4,2,77,67,0,0
123396,-59.8802395209581,4,2,77,77,0,0
123467,-59.8802395209581,4,2,77,5,0,0
123539,-59.8802395209581,4,2,77,77,0,0
123610,-59.8802395209581,4,2,77,5,0,0
123682,-59.8802395209581,4,2,77,77,0,0
123753,-59.8802395209581,4,2,77,5,0,0
123824,-59.8802395209581,4,2,77,77,0,0
124253,-212.765957446809,4,2,77,47,0,0
128467,-212.765957446809,4,2,77,5,0,0
128538,-93.4579439252336,4,2,77,57,0,0
128753,-93.4579439252336,4,2,77,5,0,0
128824,-93.4579439252336,4,2,77,57,0,0
129182,-93.4579439252336,4,2,77,5,0,0
129253,-93.4579439252336,4,2,77,57,0,0
130467,-93.4579439252336,4,2,77,5,0,0
130538,-93.4579439252336,4,2,77,57,0,0
130896,-93.4579439252336,4,2,77,5,0,0
130967,-93.4579439252336,4,2,77,57,0,0
134609,-93.4579439252336,4,2,77,5,0,0
134682,-93.4579439252336,4,2,77,57,0,0
134753,-93.4579439252336,4,2,77,5,0,0
134825,-93.4579439252336,4,2,77,57,0,0
134896,-93.4579439252336,4,2,77,5,0,0
134967,-93.4579439252336,4,2,77,57,0,0
135396,-78.7401574803149,4,2,77,67,0,0
136039,-78.7401574803149,4,2,77,5,0,0
136110,-78.7401574803149,4,2,77,67,0,0
137110,-68.0272108843537,4,2,77,67,0,0
138003,-68.0272108843537,4,2,77,5,0,0
138396,-68.0272108843537,4,2,77,67,0,0
138431,-68.0272108843537,4,2,77,5,0,0
138681,-68.0272108843537,4,2,77,67,0,0
138824,-59.8802395209581,4,2,77,77,0,0
139467,-59.8802395209581,4,2,77,5,0,0
139538,-59.8802395209581,4,2,77,77,0,0
139896,-59.8802395209581,4,2,77,5,0,0
139967,-59.8802395209581,4,2,77,77,0,0
140538,-53.475935828877,4,2,77,77,0,0
140609,-53.475935828877,4,2,77,5,0,0
140682,-53.475935828877,4,2,77,77,0,0
140753,-53.475935828877,4,2,77,5,0,0
140825,-53.475935828877,4,2,77,77,0,0
141039,-53.475935828877,4,2,77,5,0,0
141110,-68.0272108843537,4,2,77,77,0,0
141181,-68.0272108843537,4,2,77,5,0,0
141253,-93.4579439252336,4,2,77,77,0,0
141324,-93.4579439252336,4,2,77,5,0,0
141395,-175.438596491228,4,2,77,77,0,0
141609,-175.438596491228,4,2,77,5,0,0
141824,-175.438596491228,4,2,77,77,0,0
142253,-48.3091787439614,4,2,77,87,0,0
142324,-48.3091787439614,4,2,77,5,0,0
142396,-48.3091787439614,4,2,77,87,0,0
142467,-48.3091787439614,4,2,77,5,0,0
142538,-48.3091787439614,4,2,77,87,0,0
142896,-48.3091787439614,4,2,77,5,0,0
142967,-48.3091787439614,4,2,77,87,0,0
144039,-48.3091787439614,4,2,77,5,0,0
144110,-48.3091787439614,4,2,77,87,0,0
144181,-48.3091787439614,4,2,77,5,0,0
144253,-48.3091787439614,4,2,77,87,0,0
144467,-48.3091787439614,4,2,77,5,0,0
144538,-48.3091787439614,4,2,77,87,0,0
144609,-48.3091787439614,4,2,77,5,0,0
144681,-48.3091787439614,4,2,77,87,0,0
145039,-48.3091787439614,4,2,77,5,0,0
145110,-48.3091787439614,4,2,77,87,0,0
145753,-48.3091787439614,4,2,77,5,0,0
145825,-48.3091787439614,4,2,77,87,0,0
145896,-48.3091787439614,4,2,77,5,0,0
145967,-48.3091787439614,4,2,77,87,0,0
146324,-48.3091787439614,4,2,77,5,0,0
146396,-48.3091787439614,4,2,77,87,0,0
147467,-48.3091787439614,4,2,77,5,0,0
147538,-48.3091787439614,4,2,77,87,0,0
148039,-48.3091787439614,4,2,77,5,0,0
148110,-48.3091787439614,4,2,77,87,0,0
148538,-175.438596491228,4,2,77,77,0,0
148682,-175.438596491228,4,2,77,47,0,0
149110,-48.3091787439614,4,2,77,87,0,0
149181,-48.3091787439614,4,2,77,5,0,0
149253,-48.3091787439614,4,2,77,87,0,0
149324,-48.3091787439614,4,2,77,5,0,0
149395,-48.3091787439614,4,2,77,87,0,0
149752,-48.3091787439614,4,2,77,5,0,0
149824,-48.3091787439614,4,2,77,87,0,0
150896,-48.3091787439614,4,2,77,5,0,0
150968,-48.3091787439614,4,2,77,87,0,0
151039,-48.3091787439614,4,2,77,5,0,0
151110,-48.3091787439614,4,2,77,87,0,0
151324,-48.3091787439614,4,2,77,5,0,0
151396,-48.3091787439614,4,2,77,87,0,0
151467,-48.3091787439614,4,2,77,5,0,0
151538,-48.3091787439614,4,2,77,87,0,0
152609,-48.3091787439614,4,2,77,5,0,0
152682,-48.3091787439614,4,2,77,87,0,0
152753,-48.3091787439614,4,2,77,5,0,0
152824,-48.3091787439614,4,2,77,87,0,0
154324,-48.3091787439614,4,2,77,5,0,0
154396,-48.3091787439614,4,2,77,87,0,0
154896,-48.3091787439614,4,2,77,5,0,0
154967,-48.3091787439614,4,2,77,87,0,0
155145,-48.3091787439614,4,2,77,5,0,0
155968,-129.87012987013,4,2,77,57,0,0
156182,-129.87012987013,4,2,77,5,0,0
156253,-129.87012987013,4,2,77,57,0,0
159181,-129.87012987013,4,2,77,5,0,0
159253,-129.87012987013,4,2,77,57,0,0
159324,-129.87012987013,4,2,77,5,0,0
159396,-129.87012987013,4,2,77,57,0,0
163253,-93.4579439252337,4,2,77,47,0,0
169682,-78.7401574803149,4,2,77,57,0,0
169896,-78.7401574803149,4,2,77,5,0,0
169968,-78.7401574803149,4,2,77,57,0,0
170753,-78.7401574803149,4,2,77,5,0,0
170825,-78.7401574803149,4,2,77,57,0,0
171610,-78.7401574803149,4,2,77,5,0,0
171682,-78.7401574803149,4,2,77,57,0,0
172753,-78.7401574803149,4,2,77,5,0,0
172825,-78.7401574803149,4,2,77,57,0,0
172896,-78.7401574803149,4,2,77,5,0,0
172967,-78.7401574803149,4,2,77,57,0,0
173110,-63.6942675159236,4,2,77,67,0,0
173324,-63.6942675159236,4,2,77,5,0,0
173396,-63.6942675159236,4,2,77,67,0,0
174825,-59.8802395209581,4,2,77,77,0,0
174896,-59.8802395209581,4,2,77,5,0,0
174968,-59.8802395209581,4,2,77,77,0,0
175039,-59.8802395209581,4,2,77,5,0,0
175110,-59.8802395209581,4,2,77,77,0,0
175181,-59.8802395209581,4,2,77,5,0,0
175253,-59.8802395209581,4,2,77,77,0,0
175682,-212.765957446809,4,2,77,77,0,0
175825,-212.765957446809,4,2,77,47,0,0
179896,-212.765957446809,4,2,77,5,0,0
179967,-93.4579439252336,4,2,77,57,0,0
180181,-93.4579439252336,4,2,77,5,0,0
180253,-93.4579439252336,4,2,77,57,0,0
180610,-93.4579439252336,4,2,77,5,0,0
180682,-93.4579439252336,4,2,77,57,0,0
181896,-93.4579439252336,4,2,77,5,0,0
181967,-93.4579439252336,4,2,77,57,0,0
182324,-93.4579439252336,4,2,77,5,0,0
182396,-93.4579439252336,4,2,77,57,0,0
186038,-93.4579439252336,4,2,77,5,0,0
186110,-93.4579439252336,4,2,77,57,0,0
186181,-93.4579439252336,4,2,77,5,0,0
186253,-93.4579439252336,4,2,77,57,0,0
186324,-93.4579439252336,4,2,77,5,0,0
186396,-93.4579439252336,4,2,77,57,0,0
186825,-78.7401574803149,4,2,77,67,0,0
187467,-78.7401574803149,4,2,77,5,0,0
187539,-78.7401574803149,4,2,77,67,0,0
188539,-68.0272108843537,4,2,77,67,0,0
189431,-68.0272108843537,4,2,77,5,0,0
189825,-68.0272108843537,4,2,77,67,0,0
189860,-68.0272108843537,4,2,77,5,0,0
190110,-68.0272108843537,4,2,77,67,0,0
190252,-59.8802395209581,4,2,77,77,0,0
191967,-53.475935828877,4,2,77,77,0,0
192039,-53.475935828877,4,2,77,5,0,0
192110,-53.475935828877,4,2,77,77,0,0
192181,-53.475935828877,4,2,77,5,0,0
192253,-53.475935828877,4,2,77,77,0,0
192467,-53.475935828877,4,2,77,5,0,0
192539,-68.0272108843537,4,2,77,77,0,0
192610,-68.0272108843537,4,2,77,5,0,0
192682,-93.4579439252336,4,2,77,77,0,0
192753,-93.4579439252336,4,2,77,5,0,0
192825,-175.438596491228,4,2,77,77,0,0
193039,-175.438596491228,4,2,77,5,0,0
193253,-175.438596491228,4,2,77,77,0,0
193682,-48.3091787439614,4,2,77,87,0,0
193753,-48.3091787439614,4,2,77,5,0,0
193825,-48.3091787439614,4,2,77,87,0,0
193896,-48.3091787439614,4,2,77,5,0,0
193968,-48.3091787439614,4,2,77,87,0,0
194324,-48.3091787439614,4,2,77,5,0,0
194396,-48.3091787439614,4,2,77,87,0,0
195467,-48.3091787439614,4,2,77,5,0,0
195539,-48.3091787439614,4,2,77,87,0,0
195610,-48.3091787439614,4,2,77,5,0,0
195682,-48.3091787439614,4,2,77,87,0,0
195896,-48.3091787439614,4,2,77,5,0,0
195968,-48.3091787439614,4,2,77,87,0,0
196039,-48.3091787439614,4,2,77,5,0,0
196111,-48.3091787439614,4,2,77,87,0,0
197181,-48.3091787439614,4,2,77,5,0,0
197253,-48.3091787439614,4,2,77,87,0,0
197324,-48.3091787439614,4,2,77,5,0,0
197396,-48.3091787439614,4,2,77,87,0,0
197753,-48.3091787439614,4,2,77,5,0,0
197825,-48.3091787439614,4,2,77,87,0,0
198896,-48.3091787439614,4,2,77,5,0,0
198967,-48.3091787439614,4,2,77,87,0,0
199467,-48.3091787439614,4,2,77,5,0,0
199539,-48.3091787439614,4,2,77,87,0,0
199967,-175.438596491228,4,2,77,77,0,0
200110,-175.438596491228,4,2,77,47,0,0
200539,-48.3091787439614,4,2,77,87,0,0
200610,-48.3091787439614,4,2,77,5,0,0
200682,-48.3091787439614,4,2,77,87,0,0
200753,-48.3091787439614,4,2,77,5,0,0
200825,-48.3091787439614,4,2,77,87,0,0
200896,-48.3091787439614,4,2,77,5,0,0
200968,-48.3091787439614,4,2,77,87,0,0
201182,-48.3091787439614,4,2,77,5,0,0
201253,-48.3091787439614,4,2,77,87,0,0
202324,-48.3091787439614,4,2,77,5,0,0
202396,-48.3091787439614,4,2,77,87,0,0
202467,-48.3091787439614,4,2,77,5,0,0
202539,-48.3091787439614,4,2,77,87,0,0
202753,-48.3091787439614,4,2,77,5,0,0
202825,-48.3091787439614,4,2,77,87,0,0
202896,-48.3091787439614,4,2,77,5,0,0
202968,-48.3091787439614,4,2,77,87,0,0
203324,-48.3091787439614,4,2,77,5,0,0
203396,-48.3091787439614,4,2,77,87,0,0
204039,-48.3091787439614,4,2,77,5,0,0
204110,-48.3091787439614,4,2,77,87,0,0
204181,-48.3091787439614,4,2,77,5,0,0
204253,-48.3091787439614,4,2,77,87,0,0
206324,-48.3091787439614,4,2,77,5,0,0
206396,-48.3091787439614,4,2,77,87,0,0
206539,-48.3091787439614,4,2,77,47,0,0

[Colours]
Combo1 : 251,0,125
Combo2 : 255,191,223

[HitObjects]
13,50,1539,5,0,0:0:0:0:
13,50,1610,1,0,0:0:0:0:
13,50,1682,1,12,0:1:0:0:
76,123,1825,1,0,0:0:0:0:
43,214,1968,1,0,0:0:0:0:
118,273,2110,2,0,P|161:280|203:292,1,88.0966639781698,8|0,0:1|0:0,0:0:0:0:
146,359,2396,1,0,0:0:0:0:
266,230,2539,5,8,0:1:0:0:
266,230,2968,5,8,0:1:0:0:
468,338,3253,1,0,0:0:0:0:
399,376,3396,6,0,P|376:337|383:281,1,88.0966639781698,8|0,0:1|0:0,0:0:0:0:
485,186,3682,1,0,0:0:0:0:
430,123,3825,2,0,P|384:110|297:78,1,132.144995967255,8|0,0:1|2:0,0:0:0:0:
297,69,4110,1,0,0:0:0:0:
394,15,4253,5,8,0:1:0:0:
394,15,4682,5,8,0:1:0:0:
239,141,4968,5,0,0:0:0:0:
239,141,5039,1,0,0:0:0:0:
239,141,5110,1,10,0:1:0:0:
246,228,5253,1,2,0:0:0:0:
158,99,5396,1,2,0:0:0:0:
142,102,5539,1,8,0:1:0:0:
20,290,5825,5,2,0:0:0:0:
57,221,5968,2,0,P|97:209|166:198,1,88.0966639781698,10|0,0:1|0:0,0:0:0:0:
292,284,6253,1,2,0:0:0:0:
218,333,6396,2,0,B|192:257|243:232|218:156,1,176.19332795634,10|2,0:1|0:0,0:0:0:0:
292,284,6825,2,0,P|355:315|429:295,1,132.144995967255,8|0,0:1|2:0,0:0:0:0:
417,291,7110,5,0,0:0:0:0:
475,153,7253,1,10,0:1:0:0:
475,153,7539,5,0,0:0:0:0:
417,15,7682,1,8,0:1:0:0:
223,114,8110,6,0,B|233:82|266:69|266:69|237:86|229:115,1,117.32499856781,10|0,0:1|2:0,0:0:0:0:
308,144,8539,6,0,B|277:119|222:126|201:185|201:185|180:243|125:250|94:226|94:226|151:233|173:188,1,363.089983102044,6|0,1:0|0:0,0:0:0:0:
172,189,9110,1,0,0:0:0:0:
344,277,9253,1,2,1:0:0:0:
278,327,9396,6,0,B|249:346|229:334|229:334|241:315|276:319,1,104.563332535578,10|0,0:0|0:0,0:0:0:0:
416,234,9682,2,0,B|444:214|464:226|464:226|452:245|417:241,1,104.563332535578,2|0,0:0|0:0,0:0:0:0:
416,234,9968,1,0,0:0:0:0:
254,167,10110,5,2,1:0:0:0:
178,144,10253,2,0,P|129:164|80:179,1,104.563332535578,2|0,1:0|0:0,0:0:0:0:
235,85,10539,5,2,0:0:0:0:
199,226,10682,2,0,P|241:256|280:290,1,104.563332535578,2|0,0:0|0:0,0:0:0:0:
160,63,10968,5,2,1:0:0:0:
314,103,11110,2,0,P|317:50|325:0,2,104.563332535578,10|0|0,0:0|0:0|0:0,0:0:0:0:
415,183,11539,6,0,L|484:203,1,63.3966654091034,2|0,0:0|0:0,0:0:0:0:
484,196,11753,1,2,0:0:0:0:
492,192,11825,2,0,L|450:180,1,31.6983327045517,0|0,1:0|2:0,0:0:0:0:
355,270,11968,6,0,B|288:329|161:280|170:161|278:134|295:202,1,313.689997606735,2|0,1:0|0:0,0:0:0:0:
294,201,12539,1,0,0:0:0:0:
140,319,12682,1,2,1:0:0:0:
74,280,12825,6,0,P|64:201|52:118,1,156.844998803368,10|0,0:0|2:0,0:0:0:0:
59,116,13110,2,0,P|67:166|75:222,1,104.563332535578,2|0,0:0|0:0,0:0:0:0:
74,219,13396,1,0,0:0:0:0:
190,117,13539,5,2,1:0:0:0:
244,63,13682,2,0,P|280:95|264:142,1,104.563332535578,2|0,1:0|0:0,0:0:0:0:
221,275,13968,5,2,0:0:0:0:
147,257,14111,2,0,P|155:208|203:197,1,104.563332535578,2|0,0:0|0:0,0:0:0:0:
347,168,14396,5,2,1:0:0:0:
371,240,14539,2,0,P|325:258|290:223,2,104.563332535578,10|0|0,0:0|0:0|0:0,0:0:0:0:
494,110,14968,6,0,B|499:62|505:14|505:14|501:18|501:18|496:57,1,126.793330818207,2|0,0:0|0:0,0:0:0:0:
432,154,15325,5,0,0:0:0:0:
424,160,15396,2,0,P|353:136|239:113,1,156.844998803368,6|0,1:0|2:0,0:0:0:0:
209,77,15682,2,0,B|188:35|229:-5|229:-5|209:35|229:77,1,156.844998803368,2|0,0:0|2:0,0:0:0:0:
273,117,15968,1,0,0:0:0:0:
124,179,16110,1,2,1:0:0:0:
146,255,16253,6,0,B|182:239|221:236|221:236|205:199|202:160,1,156.844998803368,10|0,0:0|2:0,0:0:0:0:
126,96,16539,2,0,B|77:117|24:121|24:121|45:169|50:222,1,209.126665071157,2|0,0:0|0:0,0:0:0:0:
350,293,16968,1,2,1:0:0:0:
421,261,17110,6,0,P|427:208|437:153,1,104.563332535578,2|0,1:0|0:0,0:0:0:0:
273,320,17396,2,0,P|283:241|297:158,1,121.029994367348,2|0,0:0|0:0,0:0:0:0:
129,361,17682,2,0,P|139:282|153:199,1,137.4966623657,2|0,0:0|1:0,0:0:0:0:
319,22,17968,5,10,0:0:0:0:
26,154,18253,1,0,0:0:0:0:
21,80,18396,2,0,P|52:60|65:118,1,95.0949981136551,2|0,0:0|2:0,0:0:0:0:
79,101,18682,1,0,1:0:0:0:
26,154,18825,6,0,B|55:130|109:137|129:194|129:194|149:250|202:256|232:233,1,261.408331338946,0|0,1:0|2:0,0:0:0:0:
281,176,19253,1,2,0:0:0:0:
338,72,19396,1,2,0:0:0:0:
251,90,19539,5,2,1:0:0:0:
360,152,19682,2,0,P|435:130|512:114,1,156.844998803368,10|0,0:0|2:0,0:0:0:0:
512,106,19968,2,0,L|455:118,1,52.2816662677892,2|0,0:0|2:0,0:0:0:0:
460,116,20110,1,2,1:0:0:0:
272,254,20396,5,2,1:0:0:0:
202,223,20539,2,0,B|189:197|205:166|205:166|173:197|189:230,1,104.563332535578,10|0,0:0|0:0,0:0:0:0:
278,245,20825,5,10,0:0:0:0:
337,298,20968,2,0,B|350:323|334:354|334:354|366:323|350:291,1,104.563332535578,2|8,0:0|0:0,0:0:0:0:
355,316,21182,1,8,0:0:0:0:
355,316,21253,1,10,0:0:0:0:
260,321,21396,2,0,B|199:328|172:362|111:370,1,156.844998803368,10|0,0:0|2:0,0:0:0:0:
43,335,21682,5,2,0:3:0:0:
46,319,21753,1,2,0:3:0:0:
48,303,21825,1,2,0:3:0:0:
111,251,21968,5,2,0:3:0:0:
60,188,22110,5,2,0:3:0:0:
219,78,22253,6,0,B|267:72|267:72|315:66|307:-6|258:-1|258:-1|185:8|185:8|137:14|122:89|122:89|106:165|37:172|3:129,1,511.290014238041,6|0,1:0|0:0,0:0:0:0:
343,264,22968,1,0,1:0:0:0:
307,194,23110,6,0,P|283:162|243:162,1,72.8650023626424,10|0,0:0|2:0,0:0:0:0:
277,309,23253,2,0,P|262:346|283:380,1,72.8650023626424,2|0,0:0|2:0,0:0:0:0:
415,310,23396,2,0,P|454:302|471:266,1,72.8650023626424,2|0,0:0|2:0,0:0:0:0:
343,264,23539,6,0,P|356:169|374:87,1,145.730004725285,2|0,1:0|0:0,0:0:0:0:
373,117,23753,1,0,0:0:0:0:
379,113,23825,1,0,1:0:0:0:
123,26,23968,1,0,1:0:0:0:
123,26,24253,6,0,L|131:110,1,72.8650023626424,2|0,0:0|2:0,0:0:0:0:
85,176,24396,1,0,0:0:0:0:
59,190,24468,1,0,0:0:0:0:
30,184,24539,1,0,0:0:0:0:
51,108,24682,1,2,1:0:0:0:
172,168,24825,6,0,P|206:177|248:192,1,72.8650023626424,10|0,0:0|2:0,0:0:0:0:
297,38,24968,2,0,P|271:62|236:89,1,72.8650023626424,2|0,0:0|2:0,0:0:0:0:
344,212,25110,2,0,P|337:177|332:133,1,72.8650023626424,2|0,0:0|2:0,0:0:0:0:
146,263,25253,5,2,0:0:0:0:
173,269,25325,1,0,0:0:0:0:
200,278,25396,1,2,0:0:0:0:
433,365,25539,1,2,1:0:0:0:
363,337,25682,6,0,B|319:287|355:192|443:199|464:279|413:292,1,218.595007087927,6|0,1:0|2:0,0:0:0:0:
426,285,25968,1,2,0:0:0:0:
286,366,26110,2,0,B|228:358|196:384|139:377,1,145.730004725285
12,152,26396,1,2,1:0:0:0:
53,217,26539,6,0,P|87:236|137:221,1,72.8650023626424,10|0,0:0|2:0,0:0:0:0:
270,109,26682,2,0,P|234:105|203:124,1,72.8650023626424,2|0,0:0|2:0,0:0:0:0:
242,245,26825,1,2,0:0:0:0:
122,0,26968,6,0,P|104:62|95:153,1,145.730004725285,2|0,1:0|0:0,0:0:0:0:
98,148,27182,1,0,0:0:0:0:
101,154,27253,1,0,1:0:0:0:
17,11,27396,1,0,1:0:0:0:
343,65,27682,6,0,P|361:127|370:218,1,145.730004725285,2|0,0:0|0:0,0:0:0:0:
367,213,27896,1,0,0:0:0:0:
364,219,27967,1,0,0:0:0:0:
416,323,28110,1,0,1:0:0:0:
273,382,28253,6,0,P|277:352|285:322,1,60.514997183674,10|0,0:0|2:0,0:0:0:0:
195,343,28396,2,0,P|191:313|183:272,1,64.6316669132169,2|0,0:0|2:0,0:0:0:0:
324,254,28539,6,0,P|332:220|345:187,1,68.74833118285,2|0,0:3|2:0,0:0:0:0:
145,209,28682,2,0,P|136:177|123:135,1,72.8650023626424,2|0,0:3|2:0,0:0:0:0:
401,130,28825,6,0,P|415:94|434:59,1,76.9816651396256,2|0,0:3|2:0,0:0:0:0:
58,92,28968,2,0,P|43:54|23:18,1,81.0983335189527,2|0,0:3|2:0,0:0:0:0:
479,155,29110,6,0,P|268:187|70:267,1,426.075011865034,6|0,1:0|2:0,0:0:0:0:
2,230,29539,2,0,P|16:199|71:202,1,72.8650023626424,2|0,0:0|2:0,0:0:0:0:
131,269,29682,1,2,0:0:0:0:
265,158,29825,2,0,P|270:121|280:66,1,72.8650023626424,2|0,1:0|2:0,0:0:0:0:
376,264,29968,5,10,0:0:0:0:
234,314,30110,1,2,0:0:0:0:
285,241,30253,1,2,0:0:0:0:
485,366,30396,6,0,P|470:299|462:222,1,145.730004725285,2|2,1:0|0:0,0:0:0:0:
466,216,30610,1,0,0:0:0:0:
470,210,30682,1,2,1:0:0:0:
234,314,30825,6,0,B|115:274|154:393|35:353,1,218.595007087927,2|0,1:0|2:0,0:0:0:0:
33,343,31110,2,0,P|73:354|111:347,1,72.8650023626424,2|0,0:0|2:0,0:0:0:0:
92,210,31253,1,2,0:0:0:0:
78,236,31325,1,0,0:0:0:0:
76,264,31396,1,0,0:0:0:0:
180,172,31539,1,2,1:0:0:0:
80,119,31682,6,0,P|45:124|9:133,1,72.8650023626424,10|0,0:0|2:0,0:0:0:0:
257,86,31825,2,0,P|292:80|328:71,1,72.8650023626424,2|0,0:0|2:0,0:0:0:0:
203,277,31968,2,0,P|208:312|217:348,1,72.8650023626424,2|0,0:0|2:0,0:0:0:0:
337,155,32110,5,2,0:0:0:0:
308,163,32182,1,0,0:0:0:0:
278,168,32253,1,2,0:0:0:0:
503,86,32396,1,2,1:0:0:0:
432,12,32539,6,0,P|416:114|404:247,1,218.595007087927,2|0,1:0|2:0,0:0:0:0:
456,280,32825,2,0,B|497:289|525:243|525:243|492:270|451:261,1,145.730004725285,2|0,0:0|0:0,0:0:0:0:
328,197,33110,1,0,0:0:0:0:
125,259,33253,6,0,P|104:294|114:333,1,72.8650023626424,2|0,1:0|2:0,0:0:0:0:
125,332,33396,2,0,B|152:315|163:271|124:238|124:238|86:205|97:160|124:144,1,218.595007087927,8|0,0:0|2:0,0:0:0:0:
314,124,33682,6,0,P|335:159|325:198,1,72.8650023626424,2|0,0:0|2:0,0:0:0:0:
315,185,33825,2,0,P|281:114|310:42,1,145.730004725285,0|0,1:0|0:0,0:0:0:0:
307,51,34039,1,0,0:0:0:0:
313,49,34110,1,2,1:0:0:0:
240,255,34253,6,0,P|273:264|318:283,1,72.8650023626424,10|0,0:0|2:0,0:0:0:0:
378,233,34396,1,2,0:0:0:0:
470,339,34539,6,0,P|460:305|452:258,1,72.8650023626424,10|0,0:0|2:0,0:0:0:0:
378,233,34682,1,10,0:0:0:0:
471,126,34825,1,8,0:0:0:0:
478,153,34896,1,8,0:0:0:0:
463,178,34968,1,8,0:0:0:0:
339,142,35110,5,10,0:0:0:0:
302,77,35253,1,2,0:0:0:0:
222,96,35396,1,12,0:3:0:0:
214,124,35468,1,12,0:3:0:0:
208,152,35539,1,12,0:3:0:0:
241,243,35682,5,4,0:3:0:0:
160,292,35825,5,4,1:3:0:0:
82,234,35968,5,6,1:0:0:0:
468,90,38539,6,0,L|476:52,1,22.0241659945425,8|0,0:3|2:0,0:0:0:0:
360,141,38825,6,0,L|368:103,1,22.0241659945425,8|0,0:3|2:0,0:0:0:0:
249,177,39110,6,0,L|257:139,1,22.0241659945425,8|0,0:3|2:0,0:0:0:0:
425,346,39396,5,8,0:3:0:0:
51,249,42253,5,2,0:0:0:0:
118,265,42396,1,2,0:0:0:0:
101,333,42539,1,2,0:0:0:0:
33,316,42682,1,2,0:0:0:0:
128,260,42825,6,0,P|207:278|296:292,1,156.844998803368,10|0,0:0|2:0,0:0:0:0:
294,285,43110,2,0,P|333:246|302:195,1,104.563332535578,2|8,0:0|0:0,0:0:0:0:
318,204,43396,1,0,0:0:0:0:
489,97,43539,1,2,0:0:0:0:
438,39,43682,2,0,P|410:132|446:209,1,156.844998803368,10|0,0:0|2:0,0:0:0:0:
441,189,43968,5,2,0:0:0:0:
381,104,44110,1,10,0:0:0:0:
244,176,44253,1,2,0:0:0:0:
162,41,44396,1,2,0:0:0:0:
220,92,44539,6,0,B|204:154|227:192|212:254,1,156.844998803368,10|0,0:0|2:0,0:0:0:0:
219,255,44825,2,0,P|224:192|219:147,1,104.563332535578,2|8,0:0|0:0,0:0:0:0:
21,34,45110,5,0,0:0:0:0:
118,102,45253,1,2,0:0:0:0:
71,218,45396,1,10,0:0:0:0:
304,339,45682,5,10,0:0:0:0:
304,339,45753,1,8,0:0:0:0:
304,339,45825,2,0,P|324:325|372:324,1,52.2816662677892,10|0,0:0|2:0,0:0:0:0:
473,365,45968,2,0,P|450:355|424:315,1,52.2816662677892,8|0,0:0|2:0,0:0:0:0:
403,257,46110,1,10,0:0:0:0:
476,103,46253,6,0,P|510:182|494:294,1,193.895000739651,10|0,0:0|2:0,0:0:0:0:
488,284,46539,2,0,P|505:213|493:154,1,129.263333826434,10|8,0:0|0:0,0:0:0:0:
363,61,46825,5,10,0:0:0:0:
299,121,46968,1,8,0:0:0:0:
192,14,47110,5,10,0:0:0:0:
276,36,47253,1,8,0:0:0:0:
232,187,47396,5,10,0:0:0:0:
206,104,47539,1,8,0:0:0:0:
316,215,47682,1,10,0:0:0:0:
168,265,47825,1,8,0:0:0:0:
233,346,47968,6,0,P|266:353|305:366,1,68.74833118285,10|0,0:0|2:0,0:0:0:0:
232,187,48110,2,0,P|220:155|210:115,1,68.74833118285,8|0,0:0|2:0,0:0:0:0:
72,258,48253,2,0,P|51:284|22:313,1,68.74833118285,10|0,0:0|2:0,0:0:0:0:
245,192,48396,5,0,3:0:0:0:
265,194,48467,1,0,3:0:0:0:
285,198,48538,1,0,3:0:0:0:
306,201,48610,1,0,3:0:0:0:
326,206,48681,1,0,3:0:0:0:
346,211,48753,1,0,3:0:0:0:
366,216,48824,1,2,3:2:0:0:
122,116,52682,6,0,P|79:105|90:62,1,96.741665190506,2|0,0:0|2:0,0:0:0:0:
163,55,53110,5,0,1:0:0:0:
256,153,53253,2,0,P|283:157|317:165,1,44.0483319890849,0|0,0:0|2:0,0:0:0:0:
289,78,53396,5,0,0:0:0:0:
176,181,53539,2,0,B|189:236|157:264|171:319,1,132.144995967255,0|0,1:0|2:0,0:0:0:0:
161,320,53825,1,0,0:0:0:0:
96,211,53968,6,0,P|50:202|4:191,1,88.0966639781698,0|0,1:0|0:0,0:0:0:0:
96,211,54253,1,0,0:0:0:0:
259,284,54396,2,0,P|304:292|351:304,1,88.0966639781698,0|0,1:0|0:0,0:0:0:0:
282,374,54682,5,0,0:0:0:0:
420,351,54825,2,0,P|418:285|398:223,1,132.144995967255,0|0,1:0|2:0,0:0:0:0:
386,213,55110,1,0,0:0:0:0:
402,55,55253,2,0,P|471:90|439:129,1,132.144995967255,0|0,1:0|2:0,0:0:0:0:
447,120,55539,1,0,0:0:0:0:
314,100,55682,1,0,1:0:0:0:
87,226,55968,1,2,0:0:0:0:
153,281,56110,6,0,P|158:240|170:183,1,88.0966639781698,2|0,1:0|0:0,0:0:0:0:
75,31,56396,1,2,0:0:0:0:
64,50,56468,1,0,0:0:0:0:
70,70,56539,1,2,1:0:0:0:
162,94,56682,1,0,0:0:0:0:
254,118,56825,1,0,0:0:0:0:
251,100,56968,1,0,1:0:0:0:
349,220,57253,5,0,0:0:0:0:
312,287,57396,2,0,P|267:297|218:315,2,88.0966639781698,0|0|0,1:0|0:0|0:0,0:0:0:0:
398,153,57825,2,0,P|442:142|492:125,1,88.0966639781698,0|0,1:0|0:0,0:0:0:0:
426,263,58110,1,0,0:0:0:0:
290,167,58253,5,2,1:0:0:0:
258,95,58396,1,2,0:0:0:0:
315,42,58539,5,2,0:0:0:0:
206,160,58682,1,2,1:0:0:0:
440,282,58968,1,2,0:0:0:0:
362,305,59110,6,0,P|335:308|309:314,1,44.0483319890849,2|0,1:0|2:0,0:0:0:0:
265,248,59253,2,0,P|275:223|285:198,1,44.0483319890849,0|0,1:0|2:0,0:0:0:0:
358,193,59396,2,0,P|372:214|389:236,1,44.0483319890849,0|0,1:0|2:0,0:0:0:0:
311,320,59539,5,8,0:0:0:0:
49,46,59825,1,0,0:0:0:0:
51,58,59896,1,0,0:0:0:0:
53,68,59968,1,10,1:2:0:0:
116,121,60110,1,2,0:0:0:0:
58,181,60253,1,2,0:0:0:0:
141,43,60396,6,0,P|223:60|326:74,1,156.844998803368,10|0,1:2|2:0,0:0:0:0:
304,58,60682,1,2,0:0:0:0:
406,285,60825,2,0,P|350:273|280:263,2,104.563332535578,10|0|0,1:2|0:0|0:0,0:0:0:0:
395,38,61253,2,0,B|403:104|361:131|369:197,1,156.844998803368,10|0,1:2|2:0,0:0:0:0:
380,199,61539,1,0,0:0:0:0:
246,328,61682,6,0,P|190:316|112:304,1,121.029994367348,10|0,1:2|0:0,0:0:0:0:
122,309,61896,1,0,0:0:0:0:
116,311,61968,1,2,0:0:0:0:
64,102,62110,2,0,P|122:134|111:178,1,121.029994367348,10|0,1:2|0:0,0:0:0:0:
99,181,62325,1,0,0:0:0:0:
87,185,62396,1,2,0:0:0:0:
222,61,62539,6,0,L|230:20,1,30.257498591837,10|0,1:2|2:0,0:0:0:0:
290,323,62968,6,0,L|282:364,1,30.257498591837,10|0,1:2|2:0,0:0:0:0:
204,166,63253,5,0,0:0:0:0:
250,152,63325,1,0,0:0:0:0:
296,139,63396,1,10,1:2:0:0:
223,80,63539,5,2,0:0:0:0:
270,225,63682,1,2,0:0:0:0:
324,54,63825,6,0,B|364:88|412:107|412:107|378:147|359:196,1,206.24499354855,10|0,1:2|2:0,0:0:0:0:
349,198,64110,1,2,0:0:0:0:
131,111,64253,6,0,B|112:157|78:197|78:197|127:217|167:251,1,206.24499354855,10|0,1:2|2:0,0:0:0:0:
180,249,64539,1,0,0:0:0:0:
347,287,64682,2,0,P|278:281|223:337,1,137.4966623657,10|0,1:2|0:0,0:0:0:0:
229,333,64896,1,0,0:0:0:0:
231,343,64968,1,0,0:0:0:0:
362,151,65110,6,0,P|402:156|452:165,1,76.9816651396256,10|0,1:2|2:0,0:0:0:0:
154,121,65253,2,0,P|114:116|64:107,1,76.9816651396256,2|0,0:0|2:0,0:0:0:0:
257,137,65396,1,2,0:0:0:0:
110,295,65539,6,0,P|105:257|94:210,1,76.9816651396256,8|0,0:3|2:0,0:0:0:0:
384,320,65682,2,0,P|389:282|400:235,1,60.514997183674,8|0,0:3|2:0,0:0:0:0:
192,317,65825,6,0,P|188:278|178:231,1,44.0483319890849,8|0,0:3|2:0,0:0:0:0:
306,327,65968,2,0,P|307:298|314:257,1,70.3949991406861,2|0,1:0|2:0,0:0:0:0:
399,130,66396,1,12,0:0:0:0:
399,130,66825,6,0,P|449:119|492:113,1,85.2150023730069,6|0,1:0|2:0,0:0:0:0:
320,202,66968,2,0,P|270:213|227:218,1,85.2150023730069,2|0,0:0|2:0,0:0:0:0:
424,242,67110,1,2,0:0:0:0:
374,54,67253,6,0,P|356:173|336:338,1,255.645007119021,10|0,0:0|2:0,0:0:0:0:
396,364,67539,1,2,0:0:0:0:
221,139,67682,2,0,B|149:74|10:128|20:257|138:286|156:212,1,340.860009492028,2|0,1:0|0:0,0:0:0:0:
156,211,68110,1,8,0:0:0:0:
301,304,68253,1,0,0:0:0:0:
305,321,68324,1,0,0:0:0:0:
308,338,68396,1,2,0:0:0:0:
330,136,68539,6,0,P|378:141|409:176,1,85.2150023730069,2|0,1:0|2:0,0:0:0:0:
501,141,68682,2,0,P|506:188|479:226,1,85.2150023730069,2|0,0:0|2:0,0:0:0:0:
399,272,68825,1,2,0:0:0:0:
260,184,68968,6,0,P|238:140|252:95,1,85.2150023730069,10|0,0:0|2:0,0:0:0:0:
173,36,69111,2,0,P|210:5|257:8,1,85.2150023730069,2|0,0:0|2:0,0:0:0:0:
338,53,69254,1,2,0:0:0:0:
202,249,69396,6,0,B|172:225|119:232|99:288|99:288|79:344|26:350|-2:327,1,255.645007119021,2|0,1:0|2:0,0:0:0:0:
72,274,69682,1,0,0:0:0:0:
199,361,69825,1,8,0:0:0:0:
353,195,69968,1,0,0:0:0:0:
422,242,70110,5,0,0:0:0:0:
422,242,70182,1,0,0:0:0:0:
422,242,70253,2,0,P|465:232|523:225,1,85.2150023730069,2|0,1:0|2:0,0:0:0:0:
293,145,70396,2,0,P|249:154|192:162,1,85.2150023730069,2|0,0:0|2:0,0:0:0:0:
294,283,70539,1,2,0:0:0:0:
435,18,70682,2,0,P|311:50|185:73,1,255.645007119021,10|0,0:0|2:0,0:0:0:0:
124,14,70968,1,2,0:0:0:0:
88,193,71110,6,0,B|106:266|-10:296|-80:187|17:74|111:98,1,340.860009492028,2|0,1:0|0:0,0:0:0:0:
218,240,71539,2,0,B|261:261|305:218|305:218|261:240|218:218,1,170.430004746014,10|0,0:0|0:0,0:0:0:0:
179,172,71753,1,0,0:0:0:0:
177,163,71825,1,0,0:0:0:0:
332,5,71968,6,0,P|326:47|310:100,1,85.2150023730069,2|0,1:0|2:0,0:0:0:0:
262,148,72110,1,2,0:0:0:0:
488,265,72253,1,2,0:0:0:0:
437,383,72396,2,0,P|402:259|384:133,1,255.645007119021,10|0,0:0|2:0,0:0:0:0:
330,295,72682,1,2,0:0:0:0:
167,168,72825,1,2,1:0:0:0:
109,284,72968,1,0,1:0:0:0:
227,273,73110,1,0,1:0:0:0:
227,273,73253,6,0,P|202:261|175:251,2,46.929999427124
284,84,73682,6,0,P|316:52|364:68,1,85.2150023730069,6|0,1:0|2:0,0:0:0:0:
179,161,73825,2,0,P|134:150|123:101,1,85.2150023730069,2|0,0:0|2:0,0:0:0:0:
289,202,73967,1,2,0:0:0:0:
190,91,74110,6,0,B|220:114|226:168|176:201|176:201|126:234|132:288|162:311,1,255.645007119021,10|0,0:0|2:0,0:0:0:0:
171,311,74396,1,2,0:0:0:0:
416,156,74539,6,0,B|389:145|390:123|390:123|438:147|498:146|498:146|466:201|467:271,1,255.645007119021,2|0,1:0|2:0,0:0:0:0:
458,244,74825,1,0,0:0:0:0:
310,117,74967,1,8,0:0:0:0:
352,50,75110,1,0,0:0:0:0:
369,46,75181,1,0,0:0:0:0:
386,43,75253,1,2,0:0:0:0:
260,184,75396,6,0,P|220:195|165:215,1,85.2150023730069,2|0,1:0|2:0,0:0:0:0:
23,153,75539,2,0,P|62:141|118:122,1,85.2150023730069,2|0,0:0|2:0,0:0:0:0:
103,235,75682,1,2,0:0:0:0:
341,45,75825,6,0,P|347:85|360:143,1,85.2150023730069,10|0,0:0|2:0,0:0:0:0:
282,274,75968,2,0,P|275:233|262:175,1,85.2150023730069,2|0,0:0|2:0,0:0:0:0:
372,207,76111,1,2,0:0:0:0:
150,72,76253,6,0,B|97:27|-7:64|0:162|90:184|104:128,1,255.645007119021,2|0,1:0|2:0,0:0:0:0:
158,63,76539,1,0,0:0:0:0:
272,182,76682,1,8,0:0:0:0:
171,307,76825,1,0,0:0:0:0:
91,271,76968,5,2,0:0:0:0:
91,271,77039,1,0,0:0:0:0:
91,271,77110,2,0,P|105:232|145:224,1,85.2150023730069,2|0,1:0|2:0,0:0:0:0:
314,281,77253,2,0,P|273:289|245:259,1,85.2150023730069,2|0,0:0|2:0,0:0:0:0:
220,150,77396,1,2,0:0:0:0:
388,368,77539,2,0,P|419:232|408:111,1,255.645007119021,10|0,0:0|2:0,0:0:0:0:
327,64,77825,1,2,0:0:0:0:
138,69,77968,6,0,B|167:45|220:52|240:108|240:108|259:164|312:170|342:147|342:147|293:158|267:123,1,340.860009492028,2|0,1:0|0:0,0:0:0:0:
83,9,78396,2,0,P|21:81|19:158,1,170.430004746014,10|0,0:0|0:0,0:0:0:0:
152,269,78610,5,0,0:0:0:0:
152,260,78682,1,0,0:0:0:0:
151,251,78753,1,0,0:0:0:0:
149,242,78825,2,0,P|107:234|55:220,1,85.2150023730069,2|0,1:0|2:0,0:0:0:0:
203,169,78968,1,2,0:0:0:0:
332,376,79110,1,2,0:0:0:0:
263,336,79253,6,0,B|233:313|227:259|277:226|277:226|327:193|321:139|291:116,1,255.645007119021,10|0,0:0|2:0,0:0:0:0:
224,83,79539,1,2,0:0:0:0:
396,320,79682,6,0,L|454:308,1,42.6075011865034,14|0,0:0|2:0,0:0:0:0:
241,0,83753,6,0,L|231:53,1,38.6966660762024,0|0,0:0|2:0,0:0:0:0:
220,113,83968,6,0,B|211:180|279:188|279:188|346:196|346:196|355:189|355:189|490:206|490:206|515:209|525:133|499:130|499:130|348:111|348:111|330:118|330:118|288:112,1,618.73498064565,6|0,1:0|2:0,0:0:0:0:
301,113,84682,1,2,1:0:0:0:
266,265,84825,6,0,L|352:275,1,70.3949991406861,10|0,0:0|2:0,0:0:0:0:
352,275,85110,1,2,0:0:0:0:
177,312,85253,6,0,P|165:285|161:250,1,60.514997183674,2|0,0:0|2:0,0:0:0:0:
79,245,85396,2,0,P|89:217|110:189,1,60.514997183674,2|0,0:0|2:0,0:0:0:0:
53,128,85539,2,0,P|79:115|114:109,1,60.514997183674,2|0,1:0|2:0,0:0:0:0:
277,141,85682,6,0,P|237:160|184:168,1,93.8599988542481,2|0,1:0|0:0,0:0:0:0:
335,83,86110,1,0,0:0:0:0:
407,104,86253,1,0,0:0:0:0:
331,69,86396,2,0,L|323:8,1,60.514997183674,2|0,1:0|2:0,0:0:0:0:
412,117,86539,6,0,L|398:223,1,93.8599988542481,10|0,0:0|0:0,0:0:0:0:
379,368,86968,2,0,L|387:298,1,70.3949991406861,2|0,0:0|2:0,0:0:0:0:
389,288,87253,1,2,1:0:0:0:
163,223,87396,6,0,B|120:228|120:228|163:233,1,85.2150023730069,2|0,1:0|2:0,0:0:0:0:
296,78,87825,1,2,0:0:0:0:
342,18,87968,5,0,0:0:0:0:
215,70,88110,1,2,1:0:0:0:
332,174,88253,6,0,B|375:169|375:169|332:164,1,85.2150023730069,10|0,0:0|2:0,0:0:0:0:
254,345,88682,5,2,0:0:0:0:
116,131,88968,1,2,1:0:0:0:
90,210,89110,6,0,P|86:240|78:279,1,60.514997183674,2|0,1:0|2:0,0:0:0:0:
183,84,89253,2,0,P|211:70|247:57,1,60.514997183674,2|0,0:0|2:0,0:0:0:0:
55,73,89396,2,0,P|28:56|-1:31,1,60.514997183674,2|0,0:0|2:0,0:0:0:0:
211,175,89539,6,0,P|239:161|275:148,1,60.514997183674,2|0,0:0|2:0,0:0:0:0:
472,76,89682,2,0,P|443:89|407:102,1,60.514997183674,2|0,0:0|2:0,0:0:0:0:
387,233,89825,5,2,1:0:0:0:
320,70,89968,1,14,0:0:0:0:
147,212,90539,6,0,L|174:206,1,23.464999713562,2|0,0:0|2:0,0:0:0:0:
99,291,90682,2,0,L|71:296,1,23.464999713562,2|0,0:0|2:0,0:0:0:0:
148,347,90825,6,0,P|124:237|100:85,1,255.645007119021,6|0,1:0|2:0,0:0:0:0:
228,36,91110,2,0,P|280:62|368:80,1,121.029994367348,2|0,0:0|0:0,0:0:0:0:
266,201,91396,2,0,P|260:167|250:128,1,60.514997183674,2|0,0:0|2:0,0:0:0:0:
278,211,91539,1,0,1:0:0:0:
409,160,91682,2,0,P|362:220|350:341,1,181.544991551022,10|0,0:0|2:0,0:0:0:0:
425,323,91968,2,0,P|456:279|461:195,1,121.029994367348,2|0,0:0|0:0,0:0:0:0:
253,348,92253,2,0,P|217:351|184:357,1,60.514997183674,2|0,0:0|2:0,0:0:0:0:
260,360,92396,1,0,1:0:0:0:
70,160,92539,6,0,B|89:115|93:66|93:66|137:86|186:90,1,181.544991551022,2|0,1:0|2:0,0:0:0:0:
263,224,92825,2,0,B|214:231|171:253|171:253|164:205|142:162,1,181.544991551022,2|0,0:0|2:0,0:0:0:0:
223,22,93110,2,0,B|254:58|296:83|296:83|259:115|234:157,1,181.544991551022,2|0,0:0|2:0,0:0:0:0:
93,336,93396,6,0,L|18:347,1,60.514997183674,14|0,0:0|2:0,0:0:0:0:
128,204,93825,6,0,L|216:189,1,63.3966654091034,2|0,0:0|0:0,0:0:0:0:
373,141,94110,1,2,1:0:0:0:
453,100,94253,6,0,P|473:75|475:28,1,60.514997183674,2|0,1:0|2:0,0:0:0:0:
309,75,94396,2,0,P|296:47|305:0,1,60.514997183674,2|0,0:0|2:0,0:0:0:0:
454,182,94539,6,0,P|485:178|519:146,1,60.514997183674,2|0,0:0|2:0,0:0:0:0:
289,153,94682,2,0,P|259:141|233:102,1,60.514997183674,2|0,0:0|2:0,0:0:0:0:
323,222,94825,6,0,P|294:234|248:224,1,60.514997183674,2|0,0:0|2:0,0:0:0:0:
400,247,94968,2,0,P|425:265|472:266,1,60.514997183674,2|0,1:0|2:0,0:0:0:0:
388,42,95110,6,0,P|367:155|348:368,1,302.57498591837,14|0,0:0|2:0,0:0:0:0:
353,350,95539,1,0,0:0:0:0:
216,198,95682,2,0,P|181:192|141:180,1,60.514997183674,2|0,0:0|2:0,0:0:0:0:
280,161,95825,5,2,1:0:0:0:
93,239,95968,1,10,0:0:0:0:
93,239,96253,5,10,0:0:0:0:
49,176,96396,1,2,0:0:0:0:
150,56,96539,1,10,0:0:0:0:
118,40,96611,1,8,0:0:0:0:
84,31,96682,1,10,0:0:0:0:
280,161,96825,1,10,0:0:0:0:
280,161,97110,5,2,0:3:0:0:
282,173,97182,1,2,0:3:0:0:
284,185,97253,1,2,0:3:0:0:
238,248,97396,5,2,0:3:0:0:
293,300,97539,5,2,0:3:0:0:
468,152,97682,6,0,B|496:100|448:64|448:64|411:93|402:161|465:202|465:202|528:244|520:311|482:341,1,426.075011865034,6|0,1:0|2:0,0:0:0:0:
408,358,98110,2,0,P|370:344|320:336,2,72.8650023626424,2|0|0,0:0|0:0|0:0,0:0:0:0:
240,184,98396,1,0,1:0:0:0:
174,229,98539,2,0,P|168:267|158:317,1,72.8650023626424,8|0,0:0|2:0,0:0:0:0:
161,300,98682,1,0,0:0:0:0:
114,171,98825,1,2,0:0:0:0:
215,55,98968,2,0,P|293:43|366:25,1,145.730004725285,2|0,1:0|0:0,0:0:0:0:
361,21,99182,1,0,0:0:0:0:
364,14,99253,1,2,1:0:0:0:
486,172,99396,6,0,P|502:218|429:185,1,176.19332795634,2|0,1:0|0:0,0:0:0:0:
449,0,99825,1,2,0:0:0:0:
455,35,99896,1,0,0:0:0:0:
440,68,99968,1,0,0:0:0:0:
209,193,100110,1,0,1:0:0:0:
269,246,100253,2,0,B|312:255|342:207|342:207|308:236|264:226,1,145.730004725285,8|0,0:0|0:0,0:0:0:0:
221,60,100539,1,2,0:0:0:0:
274,4,100682,2,0,B|266:67|294:103|286:166,1,145.730004725285,2|0,1:0|0:0,0:0:0:0:
82,280,100968,6,0,P|74:239|70:205,1,72.8650023626424,2|0,1:0|2:0,0:0:0:0:
2,295,101110,6,0,P|103:305|356:369,1,340.860009492028,6|0,1:0|0:0,0:0:0:0:
415,355,101468,1,0,0:0:0:0:
421,351,101539,2,0,P|440:325|359:313,1,145.730004725285,2|0,0:0|0:0,0:0:0:0:
209,366,101825,1,0,1:0:0:0:
129,201,101968,2,0,P|136:167|142:125,1,72.8650023626424,8|0,0:0|2:0,0:0:0:0:
141,129,102110,1,0,0:0:0:0:
63,238,102253,5,2,0:0:0:0:
223,172,102396,2,0,B|322:151|346:219|445:199,1,218.595007087927,2|0,1:0|2:0,0:0:0:0:
469,134,102682,5,2,1:0:0:0:
418,41,102825,2,0,P|360:50|392:117,1,145.730004725285,2|0,1:0|0:0,0:0:0:0:
388,118,103039,1,0,0:0:0:0:
394,120,103110,1,0,0:0:0:0:
292,249,103253,2,0,P|217:268|145:294,1,145.730004725285,2|0,0:0|0:0,0:0:0:0:
10,110,103539,2,0,P|30:74|25:29,1,72.8650023626424,2|0,1:0|2:0,0:0:0:0:
145,25,103682,2,0,P|95:109|108:253,1,218.595007087927,10|0,0:0|2:0,0:0:0:0:
152,290,103968,5,0,0:0:0:0:
230,157,104110,1,2,0:3:0:0:
349,250,104253,5,2,0:3:0:0:
363,248,104325,1,2,0:3:0:0:
377,246,104396,1,2,0:3:0:0:
391,244,104468,1,2,0:3:0:0:
407,241,104539,2,0,B|478:233|516:125|437:67|360:120|394:168,1,255.645007119021,6|0,1:0|2:0,0:0:0:0:
421,325,104825,2,0,P|307:344|202:360,1,218.595007087927,2|0,0:0|2:0,0:0:0:0:
141,311,105110,2,0,P|149:276|157:228,1,72.8650023626424,2|0,0:0|2:0,0:0:0:0:
259,137,105253,1,0,1:0:0:0:
102,167,105396,6,0,P|136:161|179:151,1,72.8650023626424,10|0,0:0|2:0,0:0:0:0:
283,47,105539,2,0,P|248:52|206:63,1,64.6316669132169,4|0,0:3|2:0,0:0:0:0:
257,223,105682,2,0,P|291:217|334:207,1,56.3983349253884,4|0,0:3|2:0,0:0:0:0:
362,76,105825,6,0,P|382:46|414:30,1,48.1650001837349,4|0,0:3|2:0,0:0:0:0:
447,189,105968,2,0,P|410:187|380:168,1,39.9316676110955,4|0,0:3|2:0,0:0:0:0:
499,55,106110,2,0,P|511:78|512:104,1,31.6983327045517,4|0,0:3|2:0,0:0:0:0:
439,106,106253,6,0,P|466:229|479:369,1,255.645007119021,2|0,1:0|2:0,0:0:0:0:
318,196,106539,2,0,P|248:214|182:244,1,145.730004725285,2|0,0:0|0:0,0:0:0:0:
180,251,106753,1,0,0:0:0:0:
178,258,106825,1,2,0:0:0:0:
70,84,106968,1,0,1:0:0:0:
42,156,107110,6,0,B|76:164|115:180|115:180|126:142|140:106,1,145.730004725285,10|0,0:0|0:0,0:0:0:0:
472,31,107396,2,0,B|437:22|398:6|398:6|387:44|373:80,1,145.730004725285,2|0,0:0|1:0,0:0:0:0:
490,338,107825,1,2,1:0:0:0:
465,267,107968,6,0,B|435:243|382:250|363:306|363:306|343:362|290:368|261:345,1,255.645007119021,2|0,1:0|2:0,0:0:0:0:
269,338,108253,2,0,P|316:345|346:318,1,72.8650023626424,2|0,0:0|2:0,0:0:0:0:
130,85,108396,2,0,P|116:178|89:301,1,218.595007087927,2|0,0:0|2:0,0:0:0:0:
77,303,108682,2,0,P|86:273|97:225,1,72.8650023626424,2|0,1:0|2:0,0:0:0:0:
309,91,108825,6,0,P|348:87|401:79,1,72.8650023626424,10|0,0:0|2:0,0:0:0:0:
249,168,108968,2,0,P|231:203|210:252,1,64.6316669132169,4|0,0:3|2:0,0:0:0:0:
209,69,109110,2,0,P|188:35|157:-8,1,56.3983349253884,4|0,0:3|2:0,0:0:0:0:
368,188,109253,6,0,P|391:184|415:182,1,48.1650001837349,4|0,0:3|2:0,0:0:0:0:
492,84,109396,2,0,P|483:102|474:120,1,39.9316676110955,4|0,0:3|2:0,0:0:0:0:
512,224,109538,2,0,P|501:211|491:199,1,31.6983327045517,4|0,1:3|2:0,0:0:0:0:
381,82,109682,5,10,1:2:0:0:
271,295,109968,6,0,L|278:373,1,60.514997183674,10|0,0:0|2:0,0:0:0:0:
58,206,110110,2,0,L|51:128,1,60.514997183674,10|0,0:0|2:0,0:0:0:0:
101,269,110253,5,8,0:0:0:0:
151,262,110325,1,8,0:0:0:0:
201,255,110396,1,10,1:2:0:0:
389,178,110539,6,0,B|452:170|486:73|415:21|346:69|377:112,1,218.595007087927,10|0,0:0|2:0,0:0:0:0:
468,284,110825,5,4,0:3:0:0:
433,279,110897,1,4,0:3:0:0:
398,274,110968,1,4,0:3:0:0:
302,346,111110,5,4,0:3:0:0:
288,239,111253,5,4,0:3:0:0:
275,133,111396,5,6,1:0:0:0:
44,294,113968,6,0,L|36:332,1,22.0241659945425,8|0,0:3|2:0,0:0:0:0:
152,243,114254,6,0,L|144:281,1,22.0241659945425,8|0,0:3|2:0,0:0:0:0:
263,207,114539,6,0,L|255:245,1,22.0241659945425,8|0,0:3|2:0,0:0:0:0:
87,38,114825,5,8,0:3:0:0:
299,83,117682,5,2,0:0:0:0:
258,138,117825,1,2,0:0:0:0:
202,95,117968,1,2,0:0:0:0:
246,40,118111,1,2,0:0:0:0:
264,148,118253,6,0,B|286:214|241:236|264:302,1,156.844998803368,10|0,0:0|2:0,0:0:0:0:
273,308,118539,2,0,P|321:314|381:328,1,104.563332535578,2|8,0:0|0:0,0:0:0:0:
375,326,118825,1,0,0:0:0:0:
185,182,118968,1,2,0:0:0:0:
121,217,119110,2,0,B|95:255|131:300|131:300|116:257|141:219,1,156.844998803368,10|0,0:0|2:0,0:0:0:0:
187,172,119397,5,2,0:0:0:0:
82,40,119539,1,10,0:0:0:0:
248,4,119682,1,2,0:0:0:0:
168,82,119825,5,2,0:0:0:0:
331,230,119968,2,0,P|410:245|494:266,1,156.844998803368,10|0,0:0|2:0,0:0:0:0:
493,259,120253,2,0,P|442:245|391:233,1,104.563332535578,2|8,0:0|0:0,0:0:0:0:
252,86,120539,5,0,0:0:0:0:
155,154,120682,1,2,0:0:0:0:
202,270,120825,1,10,0:0:0:0:
344,52,121110,5,10,0:0:0:0:
344,52,121182,1,8,0:0:0:0:
344,52,121253,2,0,P|373:46|411:34,1,52.2816662677892,10|0,0:0|2:0,0:0:0:0:
415,117,121396,2,0,P|385:122|348:135,1,52.2816662677892,8|0,0:0|2:0,0:0:0:0:
472,55,121539,5,10,0:0:0:0:
280,116,121682,2,0,P|266:199|245:311,1,193.895000739651,8|0,0:0|2:0,0:0:0:0:
251,327,121968,2,0,P|264:257|276:183,1,129.263333826434,10|8,0:0|0:0,0:0:0:0:
24,168,122254,5,10,0:0:0:0:
31,200,122397,1,8,0:0:0:0:
84,118,122539,5,10,0:0:0:0:
109,199,122682,1,8,0:0:0:0:
153,80,122825,5,10,0:0:0:0:
189,198,122968,1,8,0:0:0:0:
220,39,123111,5,10,0:0:0:0:
273,199,123254,1,8,0:0:0:0:
446,44,123396,6,0,P|408:36|361:22,1,68.74833118285,10|0,0:0|2:0,0:0:0:0:
472,211,123539,2,0,P|480:173|494:126,1,68.74833118285,8|0,0:0|2:0,0:0:0:0:
272,277,123682,2,0,P|264:315|250:362,1,68.74833118285,10|0,0:0|2:0,0:0:0:0:
366,173,123824,5,0,3:0:0:0:
360,154,123895,1,0,3:0:0:0:
348,139,123967,1,0,3:0:0:0:
331,128,124038,1,0,3:0:0:0:
312,124,124110,1,0,3:0:0:0:
292,127,124181,1,0,3:0:0:0:
275,135,124252,1,2,3:2:0:0:
358,139,128110,6,0,B|347:120|346:92|346:92|324:104|300:104,1,96.741665190506,2|0,0:0|2:0,0:0:0:0:
288,181,128538,5,0,1:0:0:0:
424,94,128682,2,0,P|428:71|432:42,1,44.0483319890849,0|0,0:0|2:0,0:0:0:0:
363,10,128824,5,0,0:0:0:0:
490,143,128968,2,0,P|478:203|465:282,1,132.144995967255,0|0,1:0|2:0,0:0:0:0:
474,282,129253,1,0,0:0:0:0:
268,349,129396,6,0,P|317:342|327:295,1,88.0966639781698,0|0,1:0|0:0,0:0:0:0:
330,310,129681,1,0,0:0:0:0:
278,152,129825,2,0,P|257:197|292:230,1,88.0966639781698,0|0,1:0|0:0,0:0:0:0:
380,224,130110,5,0,0:0:0:0:
207,287,130253,2,0,B|154:283|125:307|72:304,1,132.144995967255,0|0,1:0|2:0,0:0:0:0:
76,294,130538,1,0,0:0:0:0:
16,130,130682,2,0,B|47:135|68:115|68:115|36:153|42:191,1,132.144995967255,0|0,1:0|2:0,0:0:0:0:
52,193,130967,1,0,0:0:0:0:
20,54,131110,1,0,1:0:0:0:
306,192,131396,1,2,0:0:0:0:
270,122,131539,6,0,P|222:110|175:95,1,88.0966639781698,2|0,1:0|0:0,0:0:0:0:
306,192,131825,1,2,0:0:0:0:
327,187,131896,1,0,0:0:0:0:
349,184,131968,1,2,1:0:0:0:
356,104,132110,1,0,0:0:0:0:
225,221,132253,1,0,0:0:0:0:
228,203,132396,1,0,1:0:0:0:
464,372,132681,5,0,0:0:0:0:
393,336,132825,2,0,P|388:286|407:254,2,88.0966639781698,0|0|0,1:0|0:0|0:0,0:0:0:0:
232,354,133253,2,0,P|273:364|320:382,1,88.0966639781698,0|0,1:0|0:0,0:0:0:0:
315,380,133539,1,0,0:0:0:0:
184,281,133681,5,2,1:0:0:0:
152,209,133824,1,2,0:0:0:0:
178,117,133967,5,2,0:0:0:0:
157,194,134110,1,2,1:0:0:0:
366,179,134396,1,2,0:0:0:0:
290,190,134538,6,0,P|263:193|237:199,1,44.0483319890849,2|0,1:0|2:0,0:0:0:0:
284,76,134682,2,0,P|300:97|319:116,1,44.0483319890849,0|0,1:0|2:0,0:0:0:0:
325,305,134825,2,0,P|334:279|340:253,1,44.0483319890849,0|0,1:0|2:0,0:0:0:0:
448,164,134967,5,8,0:0:0:0:
93,334,135253,1,0,0:0:0:0:
95,346,135324,1,0,0:0:0:0:
97,356,135396,1,10,1:2:0:0:
119,254,135538,1,2,0:0:0:0:
41,270,135681,1,2,0:0:0:0:
130,244,135825,6,0,B|146:227|178:227|195:260|195:260|211:292|244:292|260:276,1,156.844998803368,10|0,1:2|2:0,0:0:0:0:
265,271,136110,1,2,0:0:0:0:
54,178,136253,2,0,P|27:126|47:84,2,104.563332535578,10|0|0,1:2|0:0|0:0,0:0:0:0:
149,53,136682,6,0,B|192:15|285:48|278:135|198:155|187:108,1,209.126665071157,10|0,1:2|0:0,0:0:0:0:
304,7,137110,6,0,P|360:4|385:74,1,121.029994367348,10|0,1:2|0:0,0:0:0:0:
382,60,137325,1,0,0:0:0:0:
377,70,137396,1,2,0:0:0:0:
332,257,137539,2,0,P|299:210|346:152,1,121.029994367348,10|0,1:2|0:0,0:0:0:0:
338,157,137753,1,0,0:0:0:0:
350,155,137825,1,2,0:0:0:0:
277,329,137968,6,0,L|236:321,1,30.257498591837,10|0,1:2|2:0,0:0:0:0:
62,93,138396,6,0,L|103:101,1,30.257498591837,10|0,1:2|2:0,0:0:0:0:
158,266,138681,5,0,0:0:0:0:
171,220,138752,1,0,0:0:0:0:
185,174,138824,1,10,1:2:0:0:
256,213,138967,5,2,0:0:0:0:
84,257,139110,1,2,0:0:0:0:
146,71,139253,6,0,P|252:94|376:114,1,206.24499354855,10|0,1:2|2:0,0:0:0:0:
405,50,139538,1,2,0:0:0:0:
152,84,139682,6,0,P|258:107|382:127,1,206.24499354855,10|0,1:2|2:0,0:0:0:0:
411,63,139967,1,0,0:0:0:0:
493,231,140110,6,0,P|421:196|443:145,1,137.4966623657,10|0,1:2|0:0,0:0:0:0:
439,152,140324,1,0,0:0:0:0:
449,150,140396,1,0,0:0:0:0:
373,296,140538,6,0,P|339:311|296:284,1,76.9816651396256,10|0,1:2|2:0,0:0:0:0:
256,201,140682,2,0,P|221:185|187:200,1,76.9816651396256,2|0,0:0|2:0,0:0:0:0:
127,258,140825,1,2,0:0:0:0:
23,156,140968,6,0,P|19:119|10:76,1,76.9816651396256,8|0,0:3|2:0,0:0:0:0:
127,258,141110,2,0,P|131:295|140:338,1,60.514997183674,8|0,0:3|2:0,0:0:0:0:
20,254,141253,6,0,P|16:290|7:332,1,44.0483319890849,8|0,0:3|2:0,0:0:0:0:
121,154,141396,2,0,P|123:129|136:76,1,70.3949991406861,2|0,1:0|2:0,0:0:0:0:
421,303,141824,1,12,0:0:0:0:
421,303,142253,6,0,P|483:287|475:256,1,85.2150023730069,6|0,1:0|2:0,0:0:0:0:
430,142,142396,2,0,P|367:157|375:188,1,85.2150023730069,2|0,0:0|2:0,0:0:0:0:
491,201,142538,1,2,0:0:0:0:
165,290,142682,6,0,P|301:252|430:225,1,255.645007119021,10|0,0:0|2:0,0:0:0:0:
311,336,142967,1,2,0:0:0:0:
54,152,143110,6,0,P|225:105|386:70,1,340.860009492028,2|0,1:0|0:0,0:0:0:0:
183,27,143538,1,8,0:0:0:0:
288,191,143681,1,0,0:0:0:0:
284,208,143752,1,0,0:0:0:0:
281,225,143824,1,2,0:0:0:0:
347,96,143968,6,0,P|393:81|448:68,1,85.2150023730069,2|0,1:0|2:0,0:0:0:0:
195,129,144110,2,0,P|148:143|94:157,1,85.2150023730069,2|0,0:0|2:0,0:0:0:0:
247,17,144253,1,2,0:0:0:0:
221,248,144396,6,0,P|174:262|120:276,1,85.2150023730069,10|0,0:0|2:0,0:0:0:0:
373,215,144538,2,0,P|419:200|474:187,1,85.2150023730069,2|0,0:0|2:0,0:0:0:0:
321,327,144681,1,2,0:0:0:0:
266,75,144825,6,0,B|247:20|333:-9|392:68|326:159|254:147,1,255.645007119021,2|0,1:0|2:0,0:0:0:0:
190,102,145110,1,0,0:0:0:0:
49,221,145253,1,8,0:0:0:0:
39,41,145396,1,0,0:0:0:0:
92,130,145539,5,0,0:0:0:0:
92,130,145610,1,0,0:0:0:0:
92,130,145682,2,0,P|97:172|99:223,1,85.2150023730069,2|0,1:0|2:0,0:0:0:0:
268,316,145825,2,0,P|229:298|185:272,1,85.2150023730069,2|0,0:0|2:0,0:0:0:0:
76,336,145967,1,2,0:0:0:0:
229,194,146110,6,0,B|250:175|290:178|307:219|307:219|324:260|364:263|386:245|386:245|345:252|327:220,1,255.645007119021,10|0,0:0|2:0,0:0:0:0:
331,226,146396,1,2,0:0:0:0:
463,28,146539,2,0,B|486:15|480:-9|480:-9|426:35|342:24|342:24|399:86|379:175,1,340.860009492028,2|0,1:0|0:0,0:0:0:0:
458,300,146968,2,0,P|522:236|458:204,1,170.430004746014,10|0,0:0|0:0,0:0:0:0:
470,203,147181,1,0,0:0:0:0:
461,205,147253,1,0,0:0:0:0:
286,321,147396,6,0,P|245:330|192:349,1,85.2150023730069,2|0,1:0|2:0,0:0:0:0:
325,250,147538,1,2,0:0:0:0:
80,152,147681,1,2,0:0:0:0:
155,171,147825,2,0,B|183:193|189:243|142:276|142:276|141:270|141:270|94:306|100:357|129:379,1,255.645007119021,10|0,0:0|2:0,0:0:0:0:
127,378,148110,1,2,0:0:0:0:
167,168,148253,1,2,1:0:0:0:
8,283,148396,1,0,1:0:0:0:
70,155,148538,1,0,1:0:0:0:
70,155,148681,6,0,L|55:100,2,46.929999427124
224,77,149110,6,0,P|265:86|308:92,1,85.2150023730069,6|0,1:0|2:0,0:0:0:0:
512,200,149253,2,0,P|471:191|428:185,1,85.2150023730069,2|0,0:0|2:0,0:0:0:0:
285,220,149395,1,2,0:0:0:0:
353,28,149538,6,0,B|323:51|317:105|367:138|367:138|417:171|411:225|381:248,1,255.645007119021,10|0,0:0|2:0,0:0:0:0:
374,249,149824,1,2,0:0:0:0:
161,325,149968,6,0,B|66:340|-21:219|56:116|171:155|146:228,1,340.860009492028,2|0,1:0|0:0,0:0:0:0:
269,340,150395,1,8,0:0:0:0:
322,278,150538,1,0,0:0:0:0:
318,261,150609,1,0,0:0:0:0:
315,244,150681,1,2,0:0:0:0:
432,384,150825,6,0,P|391:370|340:357,1,85.2150023730069,2|0,1:0|2:0,0:0:0:0:
384,190,150968,2,0,P|425:204|476:217,1,85.2150023730069,2|0,0:0|2:0,0:0:0:0:
411,286,151110,1,2,0:0:0:0:
198,95,151253,6,0,P|157:109|106:122,1,85.2150023730069,10|0,0:0|2:0,0:0:0:0:
150,289,151396,2,0,P|191:275|242:262,1,85.2150023730069,2|0,0:0|2:0,0:0:0:0:
177,193,151538,1,2,0:0:0:0:
258,364,151682,6,0,P|282:195|320:29,1,340.860009492028,2|0,1:0|0:0,0:0:0:0:
330,23,152039,1,0,0:0:0:0:
338,20,152110,1,8,0:0:0:0:
169,168,152253,1,0,0:0:0:0:
102,32,152396,5,2,0:0:0:0:
102,32,152467,1,0,0:0:0:0:
102,32,152538,2,0,P|125:-2|165:0,1,85.2150023730069,2|0,1:0|2:0,0:0:0:0:
234,137,152682,2,0,P|210:171|170:169,1,85.2150023730069,2|0,0:0|2:0,0:0:0:0:
245,44,152824,1,2,0:0:0:0:
62,146,152968,2,0,P|148:187|169:265,1,170.430004746014,10|0,0:0|0:0,0:0:0:0:
170,169,153253,1,2,0:0:0:0:
224,304,153396,6,0,B|198:339|149:328|149:328|179:351|232:345|251:289|251:289|271:233|324:226|353:250,1,340.860009492028,2|0,1:0|0:0,0:0:0:0:
462,360,153825,2,0,B|422:337|428:287|428:287|410:334|365:335,1,170.430004746014,10|0,0:0|0:0,0:0:0:0:
509,294,154038,5,0,0:0:0:0:
509,285,154110,1,0,0:0:0:0:
510,276,154181,1,0,0:0:0:0:
512,267,154253,2,0,P|509:224|503:170,1,85.2150023730069,2|0,1:0|2:0,0:0:0:0:
438,133,154396,1,2,0:0:0:0:
231,42,154538,1,2,0:0:0:0:
298,0,154682,6,0,P|313:119|325:254,1,255.645007119021,10|0,0:0|2:0,0:0:0:0:
275,320,154967,1,2,0:0:0:0:
77,109,155110,6,0,L|36:118,1,42.6075011865034,14|0,0:0|2:0,0:0:0:0:
25,40,155968,6,0,L|122:59,1,95.0949981136551,8|0,3:2|2:0,0:0:0:0:
134,56,156253,1,0,3:0:0:0:
177,126,156396,1,0,3:0:0:0:
136,190,156539,1,0,3:0:0:0:
200,230,156682,1,0,3:0:0:0:
242,166,156825,1,0,3:0:0:0:
409,290,157110,5,0,3:0:0:0:
391,215,157253,1,0,3:0:0:0:
315,275,157396,1,0,3:0:0:0:
324,273,157468,1,0,3:0:0:0:
333,271,157539,1,0,3:0:0:0:
473,239,157682,5,0,3:0:0:0:
323,34,157968,1,0,3:0:0:0:
195,247,158253,1,0,3:0:0:0:
323,162,158396,5,0,3:0:0:0:
192,101,158539,1,0,3:0:0:0:
59,345,158825,5,0,3:0:0:0:
117,296,158968,1,0,3:0:0:0:
41,238,159110,6,0,L|44:288,1,31.6983327045517,0|0,3:0|2:0,0:0:0:0:
118,219,159253,2,0,L|116:187,1,31.6983327045517,0|0,3:0|2:0,0:0:0:0:
47,151,159396,5,8,3:2:0:0:
179,353,159682,1,0,3:0:0:0:
251,276,159825,1,0,3:0:0:0:
326,262,159968,1,0,3:0:0:0:
375,319,160111,1,0,3:0:0:0:
303,344,160254,1,0,3:0:0:0:
403,174,160539,5,0,3:0:0:0:
417,99,160682,1,0,3:0:0:0:
355,50,160825,1,0,3:0:0:0:
346,52,160896,1,0,3:0:0:0:
337,54,160968,1,0,3:0:0:0:
486,148,161111,5,0,3:0:0:0:
318,192,161397,1,0,3:0:0:0:
150,236,161682,1,0,3:0:0:0:
201,69,161825,5,0,3:0:0:0:
223,158,161968,1,0,3:0:0:0:
66,312,162253,5,0,3:0:0:0:
44,223,162396,1,0,3:0:0:0:
142,240,162539,1,0,3:0:0:0:
130,244,162610,1,0,3:0:0:0:
117,248,162682,1,0,3:0:0:0:
24,142,162825,1,12,3:2:0:0:
491,46,169253,5,2,0:0:0:0:
482,115,169396,1,2,0:0:0:0:
469,184,169539,1,2,0:0:0:0:
452,255,169682,6,0,P|374:277|283:281,1,156.844998803368,10|0,0:0|2:0,0:0:0:0:
292,277,169968,2,0,P|268:228|302:203,1,104.563332535578,2|8,0:0|0:0,0:0:0:0:
301,203,170253,1,0,0:0:0:0:
97,122,170396,1,2,0:0:0:0:
149,70,170539,2,0,P|180:138|127:212,1,156.844998803368,10|0,0:0|2:0,0:0:0:0:
130,203,170825,5,2,0:0:0:0:
49,229,170967,1,10,0:0:0:0:
63,145,171110,5,2,0:0:0:0:
108,288,171253,1,2,0:0:0:0:
209,155,171396,6,0,P|282:158|376:172,1,156.844998803368,10|0,0:0|2:0,0:0:0:0:
368,180,171682,2,0,P|423:164|411:124,1,104.563332535578,2|8,0:0|0:0,0:0:0:0:
476,258,171967,5,0,0:0:0:0:
365,354,172110,1,2,0:0:0:0:
239,263,172253,1,10,0:0:0:0:
318,73,172539,5,10,0:0:0:0:
318,73,172610,1,8,0:0:0:0:
318,73,172682,2,0,L|301:3,1,52.2816662677892,10|0,0:0|2:0,0:0:0:0:
173,158,172825,2,0,L|189:227,1,52.2816662677892,8|0,0:0|2:0,0:0:0:0:
242,116,172967,1,10,0:0:0:0:
8,64,173110,6,0,P|78:31|105:122,1,193.895000739651,10|0,0:0|2:0,0:0:0:0:
109,130,173396,2,0,P|124:64|72:21,1,129.263333826434,10|8,0:0|0:0,0:0:0:0:
80,221,173682,5,10,0:0:0:0:
144,281,173825,1,8,0:0:0:0:
251,174,173967,5,10,0:0:0:0:
167,196,174110,1,8,0:0:0:0:
211,347,174253,5,10,0:0:0:0:
237,264,174396,1,8,0:0:0:0:
428,150,174539,5,10,0:0:0:0:
451,225,174682,1,8,0:0:0:0:
406,291,174825,6,0,P|372:294|345:273,1,68.74833118285,10|0,0:0|2:0,0:0:0:0:
260,60,174968,2,0,P|280:86|277:121,1,68.74833118285,8|0,0:0|2:0,0:0:0:0:
140,314,175110,2,0,P|151:282|182:267,1,68.74833118285,10|0,0:0|2:0,0:0:0:0:
277,205,175253,5,0,3:0:0:0:
256,200,175324,1,0,3:0:0:0:
236,195,175395,1,0,3:0:0:0:
216,190,175467,1,0,3:0:0:0:
196,186,175538,1,0,3:0:0:0:
176,181,175610,1,0,3:0:0:0:
156,176,175681,1,14,0:0:0:0:
389,335,179539,6,0,B|387:352|412:362|412:362|414:336|390:309,1,96.741665190506,2|0,0:0|2:0,0:0:0:0:
311,318,179967,5,0,1:0:0:0:
432,228,180110,2,0,P|438:201|443:176,1,44.0483319890849,0|0,0:0|2:0,0:0:0:0:
477,300,180253,5,0,0:0:0:0:
362,182,180396,2,0,P|304:193|196:206,1,132.144995967255,0|0,1:0|2:0,0:0:0:0:
179,146,180682,1,0,0:0:0:0:
220,47,180825,6,0,P|259:89|242:135,1,88.0966639781698,0|0,1:0|0:0,0:0:0:0:
255,115,181110,1,0,0:0:0:0:
119,301,181253,2,0,P|120:258|154:232,1,88.0966639781698,0|0,1:0|0:0,0:0:0:0:
154,232,181539,5,0,0:0:0:0:
31,84,181682,2,0,B|24:135|47:163|40:215,1,132.144995967255,0|0,1:0|2:0,0:0:0:0:
28,226,181967,1,0,0:0:0:0:
112,106,182110,2,0,P|160:94|130:32,1,132.144995967255,0|0,1:0|2:0,0:0:0:0:
127,29,182396,1,0,0:0:0:0:
239,112,182539,1,0,1:0:0:0:
239,112,182825,1,2,0:0:0:0:
329,5,182967,6,0,P|332:41|314:91,1,88.0966639781698,2|0,1:0|0:0,0:0:0:0:
182,230,183253,1,2,0:0:0:0:
204,227,183325,1,0,0:0:0:0:
225,224,183396,1,2,1:0:0:0:
312,209,183539,1,0,0:0:0:0:
399,196,183682,1,0,0:0:0:0:
396,214,183825,1,0,1:0:0:0:
205,355,184110,5,0,0:0:0:0:
250,286,184253,2,0,P|245:335|211:351,2,88.0966639781698,0|0|0,1:0|0:0|0:0,0:0:0:0:
96,194,184682,2,0,P|60:171|59:129,2,88.0966639781698,0|0|0,1:0|0:0|0:0,0:0:0:0:
265,202,185110,5,2,1:0:0:0:
335,173,185253,1,2,0:0:0:0:
346,98,185396,5,2,0:0:0:0:
328,256,185539,1,2,1:0:0:0:
197,31,185825,1,2,0:0:0:0:
167,103,185967,6,0,P|188:107|210:109,1,44.0483319890849,2|0,1:0|2:0,0:0:0:0:
55,184,186110,2,0,P|47:163|37:143,1,44.0483319890849,0|0,1:0|2:0,0:0:0:0:
189,236,186253,2,0,P|175:253|164:272,1,44.0483319890849,0|0,1:0|2:0,0:0:0:0:
136,177,186396,5,8,0:0:0:0:
376,295,186682,1,0,0:0:0:0:
378,307,186753,1,0,0:0:0:0:
380,317,186825,1,10,1:2:0:0:
451,359,186967,1,2,0:0:0:0:
301,269,187110,1,2,0:0:0:0:
440,169,187253,6,0,P|499:243|439:279,1,156.844998803368,10|0,1:2|2:0,0:0:0:0:
462,279,187539,1,2,0:0:0:0:
367,118,187682,2,0,P|416:85|469:83,2,104.563332535578,10|0|0,1:2|0:0|0:0,0:0:0:0:
244,246,188110,2,0,P|192:239|150:209,1,104.563332535578,10|0,1:2|0:0,0:0:0:0:
311,184,188396,1,0,0:0:0:0:
204,28,188539,6,0,P|216:84|228:162,1,121.029994367348,10|0,1:2|0:0,0:0:0:0:
223,152,188753,1,0,0:0:0:0:
221,158,188825,1,2,0:0:0:0:
74,221,188968,5,10,1:2:0:0:
33,105,189110,1,0,0:0:0:0:
106,143,189253,1,2,0:0:0:0:
29,290,189396,6,0,L|0:284,1,30.257498591837,10|0,1:2|2:0,0:0:0:0:
342,337,189825,6,0,L|371:342,1,30.257498591837,10|0,1:2|2:0,0:0:0:0:
207,157,190110,5,0,0:0:0:0:
215,109,190182,1,0,0:0:0:0:
222,62,190253,1,10,1:2:0:0:
298,125,190396,5,2,0:0:0:0:
129,99,190539,1,2,0:0:0:0:
298,125,190682,6,0,B|338:128|359:81|359:81|332:111|291:107,1,137.4966623657,10|0,1:2|0:0,0:0:0:0:
298,27,190967,1,2,0:0:0:0:
64,149,191110,6,0,B|23:152|2:105|2:105|29:135|70:131,1,137.4966623657,10|0,1:2|0:0,0:0:0:0:
64,51,191395,1,0,0:0:0:0:
205,219,191539,6,0,P|211:282|222:359,1,137.4966623657,10|0,1:2|0:0,0:0:0:0:
227,359,191753,1,0,0:0:0:0:
234,366,191825,1,0,0:0:0:0:
415,174,191968,6,0,P|378:164|341:150,1,76.9816651396256,10|0,1:2|2:0,0:0:0:0:
132,73,192110,2,0,P|168:82|206:97,1,76.9816651396256,2|0,0:0|2:0,0:0:0:0:
293,74,192253,1,2,0:0:0:0:
136,320,192396,6,0,P|127:285|152:235,1,76.9816651396256,8|0,0:3|2:0,0:0:0:0:
257,329,192539,6,0,P|226:310|209:256,1,60.514997183674,8|0,0:3|2:0,0:0:0:0:
330,253,192682,6,0,P|300:259|260:237,1,44.0483319890849,8|0,0:3|2:0,0:0:0:0:
264,163,192825,6,0,P|247:187|203:199,1,70.3949991406861,2|0,1:0|2:0,0:0:0:0:
134,160,193253,1,12,0:0:0:0:
134,160,193682,6,0,P|130:117|123:60,1,85.2150023730069,6|0,1:0|2:0,0:0:0:0:
432,260,193825,2,0,P|436:303|443:360,1,85.2150023730069,2|0,0:0|2:0,0:0:0:0:
274,218,193968,1,2,0:0:0:0:
512,70,194110,6,0,B|490:44|442:41|414:110|414:110|385:179|338:176|316:151,1,255.645007119021,10|0,0:0|2:0,0:0:0:0:
284,82,194396,1,2,0:0:0:0:
145,210,194539,2,0,B|80:282|134:421|263:411|292:293|218:275,1,340.860009492028,2|0,1:0|0:0,0:0:0:0:
132,203,194967,1,8,0:0:0:0:
6,291,195110,1,0,0:0:0:0:
9,308,195181,1,0,0:0:0:0:
13,325,195253,1,2,0:0:0:0:
131,114,195396,6,0,P|173:103|229:85,1,85.2150023730069,2|0,1:0|2:0,0:0:0:0:
382,217,195539,2,0,P|350:187|305:149,1,85.2150023730069,2|0,0:0|2:0,0:0:0:0:
336,26,195682,1,2,0:0:0:0:
251,254,195825,6,0,P|209:265|153:283,1,85.2150023730069,10|0,0:0|2:0,0:0:0:0:
0,151,195968,2,0,P|31:180|76:218,1,85.2150023730069,2|0,0:0|2:0,0:0:0:0:
46,342,196111,1,2,0:0:0:0:
141,134,196253,6,0,P|313:89|492:36,1,340.860009492028,2|0,1:0|0:0,0:0:0:0:
267,14,196682,1,8,0:0:0:0:
323,259,196825,1,0,0:0:0:0:
404,282,196968,5,0,0:0:0:0:
404,282,197039,1,0,0:0:0:0:
404,282,197110,2,0,P|411:243|380:204,1,85.2150023730069,2|0,1:0|2:0,0:0:0:0:
241,236,197253,2,0,P|234:275|265:314,1,85.2150023730069,2|0,0:0|2:0,0:0:0:0:
304,164,197396,1,2,0:0:0:0:
120,338,197539,6,0,B|149:361|202:354|222:298|222:298|242:242|294:236|324:259,1,255.645007119021,10|0,0:0|2:0,0:0:0:0:
322,258,197825,1,2,0:0:0:0:
114,169,197967,6,0,B|30:117|44:-30|171:-56|230:47|165:85,1,340.860009492028,2|0,1:0|0:0,0:0:0:0:
24,196,198396,2,0,P|0:288|57:313,1,170.430004746014,10|0,0:0|0:0,0:0:0:0:
61,310,198610,1,0,0:0:0:0:
68,306,198682,1,0,0:0:0:0:
241,156,198825,6,0,P|288:170|341:181,1,85.2150023730069,2|0,1:0|2:0,0:0:0:0:
382,123,198967,1,2,0:0:0:0:
186,215,199110,1,2,0:0:0:0:
382,123,199253,2,0,B|349:142|337:193|382:232|382:232|427:270|416:310|416:310|412:281|389:261|389:261,1,255.645007119021,10|0,0:0|2:0,0:0:0:0:
342,323,199539,1,2,0:0:0:0:
233,198,199682,1,2,1:0:0:0:
166,353,199825,1,0,1:0:0:0:
246,294,199968,1,0,1:0:0:0:
246,294,200110,6,0,L|287:266,2,46.929999427124
53,122,200539,6,0,P|20:100|37:42,1,85.2150023730069,6|0,1:0|2:0,0:0:0:0:
181,197,200682,2,0,P|179:236|121:252,1,85.2150023730069,2|0,0:0|2:0,0:0:0:0:
186,59,200825,2,0,P|220:38|264:79,1,85.2150023730069,2|0,0:0|2:0,0:0:0:0:
134,127,200968,6,0,P|120:238|94:384,1,255.645007119021,10|0,0:0|2:0,0:0:0:0:
81,380,201253,1,2,0:0:0:0:
394,335,201396,6,0,P|422:178|455:-5,1,340.860009492028,2|0,1:0|0:0,0:0:0:0:
508,187,201824,1,8,0:0:0:0:
333,153,201967,1,0,0:0:0:0:
316,149,202038,1,0,0:0:0:0:
299,146,202110,1,2,0:0:0:0:
294,0,202253,6,0,P|333:29|326:78,1,85.2150023730069,2|0,1:0|2:0,0:0:0:0:
162,262,202396,2,0,P|165:213|211:193,1,85.2150023730069,2|0,0:0|2:0,0:0:0:0:
374,238,202539,1,2,0:0:0:0:
144,64,202682,6,0,P|105:93|112:142,1,85.2150023730069,10|0,0:0|2:0,0:0:0:0:
276,326,202825,2,0,P|272:277|226:257,1,85.2150023730069,2|0,0:0|2:0,0:0:0:0:
64,302,202968,1,2,0:0:0:0:
264,134,203110,6,0,B|293:111|345:117|361:172|361:172|368:173|368:173|384:228|436:234|465:211,1,255.645007119021,2|0,1:0|2:0,0:0:0:0:
470,202,203396,1,0,0:0:0:0:
400,26,203539,1,8,0:0:0:0:
284,230,203682,1,0,0:0:0:0:
214,193,203825,5,2,0:0:0:0:
214,193,203896,1,0,0:0:0:0:
214,193,203968,2,0,P|170:182|124:174,1,85.2150023730069,2|0,1:0|2:0,0:0:0:0:
62,12,204110,2,0,P|105:22|152:31,1,85.2150023730069,2|0,0:0|2:0,0:0:0:0:
114,182,204253,1,2,0:0:0:0:
318,204,204396,6,0,B|321:160|338:121|338:121|295:117|255:100,1,170.430004746014,10|0,0:0|0:0,0:0:0:0:
422,75,204682,1,2,0:0:0:0:
187,273,204825,6,0,B|183:316|166:355|166:355|209:359|249:376,2,170.430004746014,2|0|0,1:0|0:0|0:0,0:0:0:0:
512,318,205253,2,0,P|433:289|341:263,1,170.430004746014,10|0,0:0|0:0,0:0:0:0:
273,277,205467,5,0,0:0:0:0:
273,268,205539,1,0,0:0:0:0:
272,259,205610,1,0,0:0:0:0:
272,250,205682,1,2,1:0:0:0:
305,173,205825,1,2,0:0:0:0:
256,116,205967,1,2,0:0:0:0:
456,118,206110,6,0,P|346:143|196:191,1,255.645007119021,10|0,0:0|2:0,0:0:0:0:
204,196,206396,1,2,0:0:0:0:
259,33,206539,5,2,0:0:0:0:
