osu file format v14

[General]
AudioFilename: audio.mp3
AudioLeadIn: 0
PreviewTime: 257
Countdown: 0
SampleSet: Soft
StackLeniency: 0.7
Mode: 0
LetterboxInBreaks: 0
EpilepsyWarning: 1
WidescreenStoryboard: 0

[Editor]
DistanceSpacing: 0.95
BeatDivisor: 4
GridSize: 32
TimelineZoom: 2.2

[Metadata]
Title:MERA MERA
TitleUnicode:MERA MERA
Artist:Mori Calliope
ArtistUnicode:Mori Calliope
Creator:SMOKELIND
Version:X
Source:
Tags:森カリオペ shinigami note ホロライブ hololive holomyth hololive-en en バーチャルユーチューバー virtual yt youtube youtuber vtuber japanese english pop hip hop hip-hop giga P giga-P Mocaotic iceluin frozz -keqing extra
BeatmapID:3794735
BeatmapSetID:1847288

[Difficulty]
HPDrainRate:5
CircleSize:4
OverallDifficulty:9
ApproachRate:9.4
SliderMultiplier:2.47
SliderTickRate:1

[Events]
//Background and Video events
Video,208,"vid.mp4"
0,0,"98987343_p0.jpg",0,0
//Break Periods
2,101465,103386
2,109206,123225
//Storyboard Layer 0 (Background)
//Storyboard Layer 1 (Fail)
//Storyboard Layer 2 (Pass)
//Storyboard Layer 3 (Foreground)
//Storyboard Layer 4 (Overlay)
//Storyboard Sound Samples

[TimingPoints]
620,483.870967741935,4,2,77,47,1,0
620,-78.7401574803149,4,2,77,47,0,0
4007,-114.942528735632,4,2,77,47,0,0
4430,-114.942528735632,4,2,77,5,0,0
4490,-78.7401574803149,4,2,77,47,0,0
6426,-68.0272108843537,4,2,77,57,0,0
7091,-68.0272108843537,4,2,77,5,0,0
7152,-68.0272108843537,4,2,77,57,0,0
8119,-114.942528735632,4,2,77,57,0,0
8361,-56.4971751412429,4,2,77,67,0,0
9026,-56.4971751412429,4,2,77,5,0,0
9087,-56.4971751412429,4,2,77,67,0,0
10478,-56.4971751412429,4,2,77,5,0,0
10539,-56.4971751412429,4,2,77,67,0,0
12655,-56.4971751412429,4,2,77,5,0,0
12716,-56.4971751412429,4,2,77,67,0,0
14349,-56.4971751412429,4,2,77,5,0,0
14410,-56.4971751412429,4,2,77,67,0,0
16768,-56.4971751412429,4,2,77,5,0,0
16829,-56.4971751412429,4,2,77,67,0,0
18220,-56.4971751412429,4,2,77,5,0,0
18281,-56.4971751412429,4,2,77,67,0,0
22575,-56.4971751412429,4,2,77,5,0,0
22636,-56.4971751412429,4,2,77,67,0,0
23845,-63.6942675159236,4,2,77,67,0,0
24147,-63.6942675159236,4,2,77,5,0,0
24208,-63.6942675159236,4,2,77,67,0,0
25115,-63.6942675159236,4,2,77,5,0,0
25176,-63.6942675159236,4,2,77,67,0,0
26930,-63.6942675159236,4,2,77,5,0,0
26990,-63.6942675159236,4,2,77,67,0,0
28018,-63.6942675159236,4,2,77,5,0,0
28079,-63.6942675159236,4,2,77,67,0,0
28986,-63.6942675159236,4,2,77,5,0,0
29047,-63.6942675159236,4,2,77,67,0,0
31284,-63.6942675159236,4,2,77,5,0,0
31345,-63.6942675159236,4,2,77,67,0,0
31587,-78.7401574803149,4,2,77,57,0,0
38361,-114.942528735632,4,2,77,57,0,0
38845,-56.4971751412429,4,2,77,57,0,0
39268,-56.4971751412429,4,2,77,5,0,0
39329,-56.4971751412429,4,2,77,57,0,0
39389,-56.4971751412429,4,2,77,5,0,0
39692,-56.4971751412429,4,2,77,57,0,0
39813,-53.475935828877,4,2,77,77,0,0
40115,-53.475935828877,4,2,77,5,0,0
40176,-53.475935828877,4,2,77,77,0,0
40236,-53.475935828877,4,2,77,5,0,0
40297,-53.475935828877,4,2,77,77,0,0
40357,-53.475935828877,4,2,77,5,0,0
40418,-53.475935828877,4,2,77,77,0,0
40539,-63.6942675159236,4,2,77,77,0,0
40962,-63.6942675159236,4,2,77,5,0,0
41023,-63.6942675159236,4,2,77,77,0,0
41265,-78.7401574803149,4,2,77,77,0,0
41446,-78.7401574803149,4,2,77,5,0,0
41507,-53.475935828877,4,2,77,77,0,0
42171,-53.475935828877,4,2,77,5,0,0
42232,-53.475935828877,4,2,77,77,0,0
42292,-53.475935828877,4,2,77,5,0,0
42353,-53.475935828877,4,2,77,77,0,0
42474,-56.4971751412429,4,2,77,77,0,0
42655,-56.4971751412429,4,2,77,5,0,0
42716,-68.0272108843537,4,2,77,77,0,0
42897,-68.0272108843537,4,2,77,5,0,0
42957,-48.3091787439614,4,2,77,77,0,0
43200,-56.4971751412429,4,2,77,77,0,0
45559,-56.4971751412429,4,2,77,5,0,0
45619,-56.4971751412429,4,2,77,77,0,0
45679,-56.4971751412429,4,2,77,5,0,0
45861,-56.4971751412429,4,2,77,77,0,0
47071,-48.3091787439614,4,2,77,87,0,0
49671,-48.3091787439614,4,2,77,5,0,0
49732,-48.3091787439614,4,2,77,87,0,0
53542,-48.3091787439614,4,2,77,5,0,0
53603,-48.3091787439614,4,2,77,87,0,0
54026,-48.3091787439614,4,2,77,5,0,0
54087,-48.3091787439614,4,2,77,87,0,0
55962,-48.3091787439614,4,2,77,5,0,0
56023,-48.3091787439614,4,2,77,87,0,0
57413,-48.3091787439614,4,2,77,5,0,0
57474,-48.3091787439614,4,2,77,87,0,0
58381,-48.3091787439614,4,2,77,5,0,0
58442,-48.3091787439614,4,2,77,87,0,0
58684,-40.4858299595142,4,2,77,87,0,0
58865,-40.4858299595142,4,2,77,5,0,0
58926,-59.8802395209581,4,2,77,87,0,0
59652,-48.3091787439614,4,2,77,87,0,0
60135,-40.4858299595142,4,2,77,87,0,0
60317,-40.4858299595142,4,2,77,5,0,0
60377,-48.3091787439614,4,2,77,87,0,0
60559,-48.3091787439614,4,2,77,5,0,0
60619,-48.3091787439614,4,2,77,87,0,0
61587,-48.3091787439614,4,2,77,87,0,0
61889,-48.3091787439614,4,2,77,5,0,0
61950,-48.3091787439614,4,2,77,87,0,0
62071,-78.7401574803149,4,2,77,87,0,0
62555,-56.4971751412429,4,2,77,67,0,0
62676,-78.7401574803149,4,2,77,47,0,0
64007,-56.4971751412429,4,2,77,67,0,0
66123,-56.4971751412429,4,2,77,5,0,0
66184,-129.87012987013,4,2,77,67,0,0
66426,-56.4971751412429,4,2,77,67,0,0
66849,-56.4971751412429,4,2,77,5,0,0
66910,-56.4971751412429,4,2,77,67,0,0
70720,-56.4971751412429,4,2,77,5,0,0
70781,-56.4971751412429,4,2,77,67,0,0
71204,-56.4971751412429,4,2,77,5,0,0
71265,-56.4971751412429,4,2,77,67,0,0
73442,-59.8802395209581,4,2,77,67,0,0
73684,-63.6942675159236,4,2,77,67,0,0
73926,-68.0272108843537,4,2,77,67,0,0
74168,-63.6942675159236,4,2,77,67,0,0
74470,-63.6942675159236,4,2,77,5,0,0
74531,-63.6942675159236,4,2,77,67,0,0
75800,-63.6942675159236,4,2,77,5,0,0
75861,-63.6942675159236,4,2,77,67,0,0
76042,-63.6942675159236,4,2,77,5,0,0
76103,-63.6942675159236,4,2,77,67,0,0
78039,-36.101083032491,4,2,77,77,0,0
78220,-36.101083032491,4,2,77,5,0,0
78281,-53.475935828877,4,2,77,77,0,0
78583,-53.475935828877,4,2,77,5,0,0
78644,-53.475935828877,4,2,77,77,0,0
78704,-53.475935828877,4,2,77,5,0,0
78765,-53.475935828877,4,2,77,77,0,0
78946,-53.475935828877,4,2,77,5,0,0
79007,-53.475935828877,4,2,77,77,0,0
79067,-53.475935828877,4,2,77,5,0,0
79128,-53.475935828877,4,2,77,77,0,0
79490,-40.4858299595142,4,2,77,77,0,0
79671,-40.4858299595142,4,2,77,5,0,0
79732,-40.4858299595142,4,2,77,77,0,0
79974,-53.475935828877,4,2,77,77,0,0
80034,-53.475935828877,4,2,77,5,0,0
80095,-53.475935828877,4,2,77,77,0,0
80155,-53.475935828877,4,2,77,5,0,0
80216,-53.475935828877,4,2,77,77,0,0
80518,-53.475935828877,4,2,77,5,0,0
80579,-53.475935828877,4,2,77,77,0,0
80639,-53.475935828877,4,2,77,5,0,0
80700,-53.475935828877,4,2,77,77,0,0
81184,-32.5732899022801,4,2,77,77,0,0
81365,-32.5732899022801,4,2,77,5,0,0
81426,-32.5732899022801,4,2,77,77,0,0
81910,-53.475935828877,4,2,77,77,0,0
82212,-53.475935828877,4,2,77,5,0,0
82273,-53.475935828877,4,2,77,77,0,0
82333,-53.475935828877,4,2,77,5,0,0
82394,-40.4858299595142,4,2,77,77,0,0
82575,-40.4858299595142,4,2,77,5,0,0
82636,-40.4858299595142,4,2,77,77,0,0
83361,-53.475935828877,4,2,77,77,0,0
83542,-53.475935828877,4,2,77,5,0,0
83603,-53.475935828877,4,2,77,77,0,0
83845,-40.4858299595142,4,2,77,77,0,0
84873,-40.4858299595142,4,2,77,5,0,0
84934,-40.4858299595142,4,2,77,77,0,0
85055,-32.5732899022801,4,2,77,77,0,0
85236,-32.5732899022801,4,2,77,5,0,0
85297,-32.5732899022801,4,2,77,77,0,0
85781,-53.475935828877,4,2,77,77,0,0
86325,-53.475935828877,4,2,77,5,0,0
86386,-53.475935828877,4,2,77,77,0,0
86688,-53.475935828877,4,2,77,5,0,0
86749,-53.475935828877,4,2,77,77,0,0
86809,-53.475935828877,4,2,77,5,0,0
86869,-53.475935828877,4,2,77,77,0,0
86929,-53.475935828877,4,2,77,5,0,0
86990,-53.475935828877,4,2,77,77,0,0
87897,-53.475935828877,4,2,77,5,0,0
87958,-53.475935828877,4,2,77,77,0,0
88018,-53.475935828877,4,2,77,5,0,0
88079,-53.475935828877,4,2,77,77,0,0
88744,-53.475935828877,4,2,77,5,0,0
88805,-53.475935828877,4,2,77,77,0,0
88926,-32.5732899022801,4,2,77,77,0,0
89107,-32.5732899022801,4,2,77,5,0,0
89168,-32.5732899022801,4,2,77,77,0,0
89652,-53.475935828877,4,2,77,77,0,0
90075,-53.475935828877,4,2,77,5,0,0
90136,-40.4858299595142,4,2,77,77,0,0
90317,-40.4858299595142,4,2,77,5,0,0
90378,-40.4858299595142,4,2,77,77,0,0
90619,-53.475935828877,4,2,77,77,0,0
91042,-53.475935828877,4,2,77,5,0,0
91103,-53.475935828877,4,2,77,77,0,0
91284,-53.475935828877,4,2,77,5,0,0
91345,-53.475935828877,4,2,77,77,0,0
91587,-40.4858299595142,4,2,77,77,0,0
91829,-53.475935828877,4,2,77,77,0,0
91889,-53.475935828877,4,2,77,5,0,0
91950,-53.475935828877,4,2,77,77,0,0
92010,-53.475935828877,4,2,77,5,0,0
92071,-40.4858299595142,4,2,77,77,0,0
92555,-40.4858299595142,4,2,77,77,0,0
92978,-40.4858299595142,4,2,77,5,0,0
93039,-78.7401574803149,4,2,77,77,0,0
93523,-46.0829493087558,4,2,77,87,0,0
94671,-46.0829493087558,4,2,77,5,0,0
94733,-46.0829493087558,4,2,77,87,0,0
95155,-46.0829493087558,4,2,77,5,0,0
95216,-46.0829493087558,4,2,77,87,0,0
96123,-46.0829493087558,4,2,77,5,0,0
96184,-46.0829493087558,4,2,77,87,0,0
99994,-46.0829493087558,4,2,77,5,0,0
100055,-46.0829493087558,4,2,77,87,0,0
100478,-46.0829493087558,4,2,77,5,0,0
100539,-46.0829493087558,4,2,77,87,0,0
100781,-50.761421319797,4,2,77,87,0,0
101023,-175.438596491228,4,2,77,87,0,0
101204,-46.0829493087558,4,2,77,5,0,0
101265,-93.4579439252336,4,2,77,47,0,0
108039,-129.87012987013,4,2,77,47,0,0
109007,-149.253731343284,4,2,77,37,0,0
123765,-129.87012987013,4,2,77,47,0,0
124007,-78.7401574803149,4,2,77,57,0,0
124188,-78.7401574803149,4,2,77,5,0,0
124249,-129.87012987013,4,2,77,57,0,0
124490,-78.7401574803149,4,2,77,57,0,0
125397,-78.7401574803149,4,2,77,5,0,0
125458,-78.7401574803149,4,2,77,57,0,0
128542,-78.7401574803149,4,2,77,5,0,0
128603,-78.7401574803149,4,2,77,57,0,0
131990,-370.37037037037,4,2,77,57,0,0
134168,-129.87012987013,4,2,77,57,0,0
141668,-48.3091787439614,4,2,77,57,0,0
141849,-48.3091787439614,4,2,77,5,0,0
141910,-63.6942675159236,4,2,77,67,0,0
148684,-59.8802395209581,4,2,77,77,0,0
149168,-149.253731343284,4,2,77,77,0,0
149349,-149.253731343284,4,2,77,5,0,0
149410,-149.253731343284,4,2,77,77,0,0
149470,-149.253731343284,4,2,77,5,0,0
149652,-44.0528634361233,4,2,77,87,0,0
152252,-44.0528634361233,4,2,77,5,0,0
152313,-44.0528634361233,4,2,77,87,0,0
152373,-44.0528634361233,4,2,77,5,0,0
152555,-44.0528634361233,4,2,77,87,0,0
155155,-44.0528634361233,4,2,77,5,0,0
155216,-44.0528634361233,4,2,77,87,0,0
156123,-44.0528634361233,4,2,77,5,0,0
156184,-44.0528634361233,4,2,77,87,0,0
157091,-44.0528634361233,4,2,77,5,0,0
157152,-44.0528634361233,4,2,77,87,0,0
158542,-44.0528634361233,4,2,77,5,0,0
158603,-44.0528634361233,4,2,77,87,0,0
159994,-44.0528634361233,4,2,77,5,0,0
160055,-44.0528634361233,4,2,77,87,0,0
160115,-44.0528634361233,4,2,77,5,0,0
160297,-44.0528634361233,4,2,77,87,0,0
161265,-37.4531835205993,4,2,77,87,0,0
161446,-37.4531835205993,4,2,77,5,0,0
161507,-53.475935828877,4,2,77,87,0,0
162233,-44.0528634361233,4,2,77,87,0,0
162716,-37.4531835205993,4,2,77,87,0,0
162958,-44.0528634361233,4,2,77,87,0,0
164168,-78.7401574803149,4,2,77,87,0,0
164349,-78.7401574803149,4,2,77,5,0,0
164410,-78.7401574803149,4,2,77,87,0,0
165136,-42.1940928270042,4,2,77,97,0,0
165317,-42.1940928270042,4,2,77,5,0,0
165378,-42.1940928270042,4,2,77,97,0,0
167252,-42.1940928270042,4,2,77,5,0,0
167313,-42.1940928270042,4,2,77,97,0,0
167736,-42.1940928270042,4,2,77,5,0,0
167797,-42.1940928270042,4,2,77,97,0,0
169188,-42.1940928270042,4,2,77,5,0,0
169249,-42.1940928270042,4,2,77,97,0,0
169671,-42.1940928270042,4,2,77,5,0,0
169732,-42.1940928270042,4,2,77,97,0,0
171244,-42.1940928270042,4,2,77,5,0,0
171305,-42.1940928270042,4,2,77,97,0,0
171426,-46.0829493087558,4,2,77,97,0,0
171607,-46.0829493087558,4,2,77,5,0,0
171668,-50.761421319797,4,2,77,97,0,0
171849,-50.761421319797,4,2,77,5,0,0
171910,-56.4971751412429,4,2,77,97,0,0
172091,-56.4971751412429,4,2,77,5,0,0
172152,-56.4971751412429,4,2,77,97,0,0
172636,-78.7401574803149,4,2,77,97,0,0
172878,-32.5732899022801,4,2,77,97,0,0
173059,-32.5732899022801,4,2,77,5,0,0
173119,-40.4858299595142,4,2,77,97,0,0
174510,-40.4858299595142,4,2,77,5,0,0
174571,-40.4858299595142,4,2,77,97,0,0
174994,-40.4858299595142,4,2,77,5,0,0
175055,-40.4858299595142,4,2,77,97,0,0
175478,-40.4858299595142,4,2,77,5,0,0
175539,-40.4858299595142,4,2,77,97,0,0
176204,-40.4858299595142,4,2,77,5,0,0
176265,-40.4858299595142,4,2,77,97,0,0
176446,-40.4858299595142,4,2,77,5,0,0
176507,-40.4858299595142,4,2,77,97,0,0
176749,-48.3091787439614,4,2,77,97,0,0
176930,-48.3091787439614,4,2,77,5,0,0
176990,-48.3091787439614,4,2,77,97,0,0
177232,-44.0528634361233,4,2,77,97,0,0
177413,-44.0528634361233,4,2,77,5,0,0
177473,-44.0528634361233,4,2,77,97,0,0
177716,-40.4858299595142,4,2,77,97,0,0
177776,-40.4858299595142,4,2,77,5,0,0
177837,-40.4858299595142,4,2,77,97,0,0
178018,-40.4858299595142,4,2,77,5,0,0
178079,-40.4858299595142,4,2,77,97,0,0
178200,-36.101083032491,4,2,77,97,0,0
178381,-36.101083032491,4,2,77,5,0,0
178442,-36.101083032491,4,2,77,97,0,0
178502,-36.101083032491,4,2,77,5,0,0
178563,-36.101083032491,4,2,77,97,0,0
178684,-40.4858299595142,4,2,77,97,0,0
179228,-40.4858299595142,4,2,77,5,0,0
179289,-40.4858299595142,4,2,77,97,0,0
179470,-40.4858299595142,4,2,77,5,0,0
179531,-40.4858299595142,4,2,77,97,0,0
179712,-40.4858299595142,4,2,77,5,0,0
179773,-40.4858299595142,4,2,77,97,0,0
179954,-40.4858299595142,4,2,77,5,0,0
180015,-40.4858299595142,4,2,77,97,0,0
180619,-93.4579439252336,4,2,77,77,0,0
180679,-93.4579439252336,4,2,77,5,0,0

[Colours]
Combo1 : 220,185,255
Combo2 : 255,170,213

[HitObjects]
111,84,620,5,2,1:0:0:0:
125,79,740,1,0,0:0:0:0:
140,74,861,1,0,0:0:0:0:
155,69,982,1,0,0:0:0:0:
230,111,1103,6,0,P|235:148|249:195,1,78.4224994016838,2|0,1:0|0:0,0:0:0:0:
322,222,1345,1,0,0:0:0:0:
337,225,1466,1,0,0:0:0:0:
253,272,1587,6,0,P|215:277|169:291,1,78.4224994016838,2|0,1:0|0:0,0:0:0:0:
334,318,1829,1,0,0:0:0:0:
349,315,1950,1,0,0:0:0:0:
418,261,2071,6,0,B|425:197|461:169|469:106,1,156.844998803368,2|0,1:0|0:0,0:0:0:0:
468,113,2434,1,0,0:0:0:0:
310,25,2555,1,0,1:0:0:0:
310,25,2797,6,0,P|348:30|387:39,1,78.4224994016838,2|0,0:0|0:0,0:0:0:0:
227,25,3039,2,0,P|188:30|149:39,1,78.4224994016838,2|0,1:0|0:0,0:0:0:0:
270,134,3281,1,10,0:0:0:0:
270,134,3523,6,0,P|272:174|278:233,1,78.4224994016838,2|0,1:0|0:0,0:0:0:0:
286,383,3765,2,0,P|283:342|278:284,1,78.4224994016838,2|8,0:0|0:0,0:0:0:0:
23,210,4007,6,0,P|90:219|209:266,1,188.028751578,2|0,1:0|0:0,0:0:0:0:
205,275,4490,2,0,P|194:326|157:329,2,78.4224994016838,2|0|0,1:0|0:0|0:0,0:0:0:0:
106,111,4853,5,8,0:0:0:0:
140,43,4974,2,0,P|179:34|228:20,1,78.4224994016838,2|0,1:0|0:0,0:0:0:0:
394,90,5216,1,8,0:0:0:0:
396,74,5337,1,0,0:0:0:0:
312,86,5458,2,0,P|300:162|289:255,1,156.844998803368,2|0,1:0|0:0,0:0:0:0:
224,155,5821,5,8,0:0:0:0:
374,257,5942,2,0,P|320:272|222:322,1,156.844998803368,2|8,1:0|0:0,0:0:0:0:
22,117,6426,5,8,0:2:0:0:
78,60,6547,1,0,0:0:0:0:
198,273,6789,5,8,0:0:0:0:
124,314,6910,2,0,P|111:219|102:152,1,136.158743663266,12|0,0:2|0:0,0:0:0:0:
114,170,7152,2,0,L|164:157,3,45.3862478877555,0|2|2|2,1:0|0:3|0:3|0:3,0:0:0:0:
230,137,7394,5,0,1:2:0:0:
170,384,7636,5,0,1:0:0:0:
414,323,7878,5,8,1:2:0:0:
258,360,8119,6,0,L|278:252,1,107.445000901714,0|4,0:0|1:0,0:0:0:0:
440,129,8603,5,2,0:0:0:0:
461,57,8724,1,10,0:0:0:0:
512,154,8845,6,0,P|433:168|344:200,1,163.946255315945,2|0,1:0|0:0,0:0:0:0:
346,204,9087,2,0,P|297:173|306:123,1,109.297503543964,10|0,0:0|0:0,0:0:0:0:
302,127,9329,1,2,1:0:0:0:
220,4,9450,1,2,0:0:0:0:
159,50,9571,2,0,B|279:9|239:130|359:90,1,218.595007087927,2|0,0:0|1:0,0:0:0:0:
45,249,10055,5,10,0:0:0:0:
26,175,10176,1,2,0:0:0:0:
116,286,10297,6,0,P|200:270|254:351,1,163.946255315945,2|0,1:0|0:0,0:0:0:0:
246,332,10539,1,2,0:0:0:0:
385,230,10660,1,10,0:0:0:0:
394,306,10781,2,0,P|329:303|323:257,1,109.297503543964,2|0,1:0|0:0,0:0:0:0:
363,107,11023,5,10,0:0:0:0:
366,96,11144,1,2,0:0:0:0:
297,164,11265,5,2,1:0:0:0:
446,140,11386,1,2,0:0:0:0:
353,13,11507,2,0,P|252:34|126:52,1,218.595007087927,2|0,0:0|1:0,0:0:0:0:
72,218,11990,5,10,0:0:0:0:
70,229,12111,1,0,0:0:0:0:
6,275,12232,5,2,1:0:0:0:
97,144,12353,1,2,0:0:0:0:
6,275,12474,6,0,P|76:246|158:292,1,163.946255315945,2|0,0:0|0:0,0:0:0:0:
151,295,12716,2,0,P|191:344|220:317,1,109.297503543964,2|0,1:0|0:0,0:0:0:0:
321,177,12958,5,10,0:0:0:0:
260,222,13079,1,2,0:0:0:0:
379,344,13200,5,2,1:0:0:0:
360,271,13321,1,2,0:0:0:0:
304,324,13442,2,0,B|424:283|384:404|504:364,1,218.595007087927,2|0,0:0|1:0,0:0:0:0:
369,127,13926,5,10,0:0:0:0:
322,0,14047,1,2,0:0:0:0:
394,22,14168,6,0,B|333:25|324:50|236:69,1,163.946255315945,2|0,1:0|0:0,0:0:0:0:
227,60,14410,5,2,0:0:0:0:
142,210,14531,1,10,0:0:0:0:
81,165,14652,6,0,P|124:117|166:146,1,109.297503543964,2|0,1:0|0:0,0:0:0:0:
248,235,14894,1,10,0:0:0:0:
251,224,15015,1,2,0:0:0:0:
184,288,15136,5,10,1:2:0:0:
241,337,15257,1,10,0:0:0:0:
308,299,15378,1,10,0:0:0:0:
318,302,15499,1,8,0:0:0:0:
169,362,15619,6,0,P|111:372|45:389,1,109.297503543964,2|0,1:0|0:0,0:0:0:0:
334,223,15861,2,0,P|355:168|376:103,1,109.297503543964,10|0,0:0|0:0,0:0:0:0:
78,59,16103,5,4,1:0:0:0:
267,177,16345,5,2,0:0:0:0:
251,251,16466,1,10,0:0:0:0:
189,199,16587,2,0,P|178:113|163:20,1,163.946255315945,2|0,1:0|0:0,0:0:0:0:
177,32,16829,2,0,P|168:83|149:157,1,109.297503543964,10|0,0:0|0:0,0:0:0:0:
253,60,17071,5,2,1:0:0:0:
108,208,17192,1,2,0:0:0:0:
157,261,17313,2,0,P|222:268|253:329,1,109.297503543964,2|8,0:0|0:0,0:0:0:0:
102,199,17555,1,4,1:3:0:0:
396,331,17797,5,10,0:0:0:0:
469,309,17918,1,2,0:0:0:0:
382,334,18039,6,0,P|354:280|369:160,1,163.946255315945,2|0,1:0|0:0,0:0:0:0:
370,176,18281,1,2,0:0:0:0:
318,264,18402,1,10,0:0:0:0:
442,156,18523,2,0,P|419:102|371:102,1,109.297503543964,2|0,1:0|0:0,0:0:0:0:
226,204,18765,5,10,0:0:0:0:
215,201,18886,1,0,0:0:0:0:
166,140,19007,5,2,1:0:0:0:
98,260,19128,1,2,0:0:0:0:
166,140,19249,6,0,B|191:159|196:204|154:233|154:233|112:261|117:306|143:326,1,218.595007087927,2|4,0:0|1:3,0:0:0:0:
339,81,19732,5,2,0:0:0:0:
410,55,19853,1,2,0:0:0:0:
466,107,19974,1,2,1:0:0:0:
371,220,20216,5,2,0:0:0:0:
389,145,20337,1,10,0:0:0:0:
478,270,20458,2,0,P|428:246|377:227,1,109.297503543964,2|0,1:0|0:0,0:0:0:0:
188,259,20700,5,10,0:0:0:0:
170,184,20821,1,2,0:0:0:0:
114,238,20942,5,2,1:0:0:0:
245,204,21063,1,2,0:0:0:0:
147,103,21184,2,0,P|93:92|23:74,1,109.297503543964,2|8,0:0|0:0,0:0:0:0:
203,51,21426,1,4,1:3:0:0:
401,87,21668,5,10,0:0:0:0:
404,76,21789,1,2,0:0:0:0:
347,153,21910,5,10,0:0:0:0:
428,172,22031,1,2,0:0:0:0:
428,172,22273,5,10,0:0:0:0:
287,287,22394,2,0,P|209:259|230:198,1,163.946255315945,14|0,0:0|0:0,0:0:0:0:
247,199,22636,2,0,P|219:190|218:222,3,54.6487517719818,2|2|2|2,1:0|0:3|0:3|0:3,0:0:0:0:
220,221,22878,5,10,0:0:0:0:
254,17,23119,1,2,1:0:0:0:
37,252,23361,1,10,0:0:0:0:
37,252,23603,1,2,0:0:0:0:
434,165,23845,6,0,B|460:277|371:325|301:260|345:213,1,242.368750924563,6|0,1:0|0:0,0:0:0:0:
357,214,24208,1,8,0:0:0:0:
281,322,24329,2,0,B|189:291|159:352|68:322,1,193.895000739651,2|8,1:0|0:0,0:0:0:0:
178,348,24692,1,0,0:0:0:0:
106,226,24813,2,0,B|49:250|-11:255|-11:255|11:313|17:373,1,242.368750924563,2|0,1:0|0:0,0:0:0:0:
28,379,25176,1,10,0:0:0:0:
113,216,25297,2,0,P|126:161|132:105,1,96.9475003698254,0|0,1:0|0:0,0:0:0:0:
389,138,25539,5,10,0:0:0:0:
380,142,25660,1,0,0:0:0:0:
301,164,25781,6,0,P|257:146|209:122,1,96.9475003698254,0|0,1:0|0:0,0:0:0:0:
410,217,26023,2,0,P|417:263|423:317,1,96.9475003698254,2|8,0:0|0:0,0:0:0:0:
438,64,26265,2,0,P|473:32|516:0,1,96.9475003698254,2|0,1:0|0:0,0:0:0:0:
389,138,26507,1,10,0:0:0:0:
177,32,26749,6,0,P|113:32|113:128,1,145.421250554738,2|0,1:0|0:0,0:0:0:0:
85,111,26990,2,0,P|79:60|112:21,1,96.9475003698254,2|8,0:0|0:0,0:0:0:0:
266,151,27232,2,0,P|292:112|285:65,1,96.9475003698254,2|0,1:0|0:0,0:0:0:0:
164,170,27474,1,10,0:0:0:0:
211,263,27595,1,2,0:0:0:0:
93,274,27716,6,0,P|170:285|358:354,1,242.368750924563,2|0,1:0|0:0,0:0:0:0:
325,348,28079,1,8,0:0:0:0:
467,215,28200,6,0,B|501:178|445:126|374:164|394:254,1,193.895000739651,2|8,1:0|0:0,0:0:0:0:
349,86,28563,1,0,0:0:0:0:
344,87,28624,1,0,0:0:0:0:
339,87,28684,2,0,P|262:98|74:167,1,242.368750924563,2|0,1:0|0:0,0:0:0:0:
100,165,29047,1,10,0:0:0:0:
207,80,29168,2,0,P|212:16|178:-4,1,96.9475003698254,0|0,1:0|0:0,0:0:0:0:
5,35,29410,2,0,P|0:98|33:119,1,96.9475003698254,10|0,0:0|0:0,0:0:0:0:
174,218,29652,6,0,P|179:281|145:302,1,96.9475003698254,0|0,1:0|0:0,0:0:0:0:
152,299,29833,1,0,0:0:0:0:
147,300,29894,1,2,0:0:0:0:
263,219,30015,1,8,0:0:0:0:
336,289,30136,6,0,P|344:335|359:392,1,96.9475003698254,2|0,1:0|0:0,0:0:0:0:
299,132,30378,2,0,P|290:85|276:29,1,96.9475003698254,10|0,0:0|0:0,0:0:0:0:
99,242,30619,6,0,P|47:250|25:218,1,96.9475003698254,2|8,1:0|0:0,0:0:0:0:
25,212,30801,1,0,3:0:0:0:
27,207,30861,1,0,3:0:0:0:
97,153,30982,1,8,0:0:0:0:
187,266,31103,2,0,B|250:273|278:309|341:317,1,145.421250554738,2|0,1:0|0:0,0:0:0:0:
328,307,31345,1,2,3:2:0:0:
409,166,31466,5,0,3:0:0:0:
404,168,31527,1,0,3:0:0:0:
401,171,31587,1,0,1:2:0:0:
401,171,32071,5,0,3:0:0:0:
123,54,32313,1,0,0:0:0:0:
187,14,32434,1,0,0:0:0:0:
191,90,32555,1,0,3:0:0:0:
191,90,33039,5,0,3:0:0:0:
50,244,33281,1,0,0:0:0:0:
48,236,33341,1,0,0:0:0:0:
47,228,33402,1,0,0:0:0:0:
2,308,33523,1,0,3:0:0:0:
2,308,34007,5,0,3:0:0:0:
195,221,34249,1,0,0:0:0:0:
245,278,34369,1,0,0:0:0:0:
318,254,34490,1,0,3:0:0:0:
318,254,34974,5,0,3:0:0:0:
320,34,35216,1,0,0:0:0:0:
315,49,35337,1,0,0:0:0:0:
367,108,35458,5,0,3:0:0:0:
382,104,35579,1,0,0:0:0:0:
394,183,35700,5,0,3:0:0:0:
407,190,35821,1,0,0:0:0:0:
363,253,35942,5,0,3:0:0:0:
371,281,36063,1,0,0:0:0:0:
290,287,36184,5,0,3:0:0:0:
278,313,36305,1,0,0:0:0:0:
249,211,36426,5,0,3:0:0:0:
285,197,36547,1,0,0:0:0:0:
149,266,36668,5,0,3:0:0:0:
113,252,36789,1,0,0:0:0:0:
271,115,36910,5,0,3:0:0:0:
316,97,37031,1,0,0:0:0:0:
101,170,37152,5,0,3:0:0:0:
56,152,37273,1,0,0:0:0:0:
217,223,37394,5,0,3:0:0:0:
414,17,38240,5,2,0:3:0:0:
402,19,38301,1,2,0:3:0:0:
391,20,38361,2,0,P|361:99|423:147,1,161.167501352571,12|2,0:3|0:3,0:0:0:0:
486,168,38785,1,0,0:0:0:0:
492,175,38845,2,0,P|348:181|191:348,1,382.541262403872,12|0,0:2|0:0,0:0:0:0:
199,355,39329,6,0,L|193:289,1,54.6487517719818,4|0,0:3|0:0,0:0:0:0:
33,53,39692,5,8,0:0:0:0:
63,125,39813,2,0,B|190:140|190:140|253:148|265:53|201:45|201:45|169:41,1,288.681244273596,6|0,1:0|0:0,0:0:0:0:
183,49,40176,6,0,P|163:71|163:107,1,57.7362488547192,2|0,0:0|0:0,0:0:0:0:
107,166,40297,2,0,P|113:195|143:215,1,57.7362488547192,2|0,1:0|0:0,0:0:0:0:
231,213,40418,5,2,0:0:0:0:
52,273,40539,2,0,B|71:240|124:226|164:273|164:273|203:319|256:306|276:273|276:273|253:292|224:295|193:279,1,339.316251294389,2|0,0:0|0:0,0:0:0:0:
205,284,41023,5,8,0:0:0:0:
445,42,41265,6,0,L|432:166,1,117.633749102526,0|0,1:0|0:0,0:0:0:0:
424,163,41507,6,0,B|342:232|212:149|237:26|355:11|365:90,1,346.417493128315,2|0,0:0|0:0,0:0:0:0:
362,102,41930,1,0,0:0:0:0:
359,113,41990,1,8,0:0:0:0:
79,202,42111,6,0,P|48:193|14:187,1,57.7362488547192,2|0,0:0|0:0,0:0:0:0:
159,171,42232,2,0,P|190:179|224:186,1,57.7362488547192,2|0,1:0|0:0,0:0:0:0:
98,123,42353,1,2,0:0:0:0:
97,281,42474,6,0,P|112:212|155:99,1,163.946255315945,2|0,0:0|0:0,0:0:0:0:
221,69,42716,6,0,B|227:54|227:54|210:46|203:61|197:75|214:83|214:83|231:91|238:76|244:62|227:54|227:54|221:69,1,136.158743663266,8|0,0:0|0:0,0:0:0:0:
221,69,42958,6,0,L|474:102,1,255.645007119021,2|4,1:0|1:0,0:0:0:0:
474,102,43321,1,0,0:0:0:0:
351,248,43442,1,0,0:0:0:0:
426,261,43563,2,0,P|430:199|388:170,1,109.297503543964,10|0,0:0|1:0,0:0:0:0:
200,295,43805,1,0,0:0:0:0:
210,298,43865,1,0,0:0:0:0:
220,301,43926,2,0,P|288:318|327:335,1,109.297503543964,10|0,0:0|0:0,0:0:0:0:
128,177,44168,5,0,1:0:0:0:
103,103,44289,1,0,0:0:0:0:
62,236,44410,1,2,0:0:0:0:
56,257,44531,1,8,0:0:0:0:
187,114,44652,5,0,1:0:0:0:
212,40,44773,1,0,0:0:0:0:
253,173,44894,1,10,0:0:0:0:
259,194,45015,1,0,0:0:0:0:
129,20,45136,5,10,0:0:0:0:
129,20,45499,6,0,P|97:14|58:3,1,54.6487517719818,10|0,0:0|0:0,0:0:0:0:
388,64,45619,2,0,P|420:70|459:81,1,54.6487517719818,10|0,0:0|0:0,0:0:0:0:
239,219,45861,5,2,1:3:0:0:
240,208,45921,1,2,0:3:0:0:
242,197,45981,1,2,0:3:0:0:
244,186,46042,1,2,0:3:0:0:
246,175,46102,1,14,1:2:0:0:
88,370,46345,5,2,1:0:0:0:
20,149,46587,5,10,1:2:0:0:
20,149,47071,6,0,B|48:125|101:132|120:187|120:187|141:243|192:249|222:226,1,255.645007119021,6|0,1:0|0:0,0:0:0:0:
366,106,47434,1,10,0:0:0:0:
382,180,47555,2,0,B|349:184|333:218|333:218|337:180|310:162,1,127.82250355951,2|0,1:0|0:0,0:0:0:0:
346,31,47797,2,0,B|378:25|394:-8|394:-8|390:29|417:48,1,127.82250355951,10|0,0:0|0:0,0:0:0:0:
268,91,48039,6,0,P|205:79|121:66,1,127.82250355951,2|0,1:0|0:0,0:0:0:0:
64,232,48281,1,2,0:0:0:0:
82,310,48402,1,8,0:0:0:0:
1,185,48523,2,0,P|63:197|148:209,1,127.82250355951,2|0,1:0|0:0,0:0:0:0:
308,371,48765,2,0,P|248:324|275:272,1,127.82250355951,10|0,0:0|0:0,0:0:0:0:
447,74,49007,5,2,1:0:0:0:
472,220,49128,1,2,0:0:0:0:
415,158,49249,5,2,0:0:0:0:
512,141,49369,1,8,0:0:0:0:
356,218,49490,6,0,B|248:182|284:289|177:253,1,191.733755339266,2|0,1:0|0:0,0:0:0:0:
120,214,49732,2,0,B|101:229|104:265|104:265|86:222|113:198,1,127.82250355951,10|0,0:0|0:0,0:0:0:0:
195,177,49974,5,2,1:0:0:0:
99,58,50095,1,2,0:0:0:0:
247,30,50216,1,2,0:0:0:0:
180,92,50337,5,10,0:0:0:0:
270,299,50458,2,0,P|288:205|352:53,1,255.645007119021,2|8,1:0|0:0,0:0:0:0:
375,192,50821,1,0,0:0:0:0:
202,244,50942,6,0,B|172:267|119:260|99:204|99:204|80:148|27:142|-2:165,1,255.645007119021,6|0,1:0|0:0,0:0:0:0:
144,112,51305,1,10,0:0:0:0:
0,243,51426,6,0,B|29:266|82:259|102:203|102:203|121:147|174:141|204:164,1,255.645007119021,2|10,1:0|0:0,0:0:0:0:
202,163,51789,1,0,0:0:0:0:
402,307,51910,6,0,P|427:245|474:185,1,127.82250355951,2|0,1:0|0:0,0:0:0:0:
241,79,52152,2,0,P|279:133|305:204,1,127.82250355951,2|8,0:0|0:0,0:0:0:0:
509,44,52394,2,0,P|442:47|368:32,1,127.82250355951,2|0,1:0|0:0,0:0:0:0:
383,152,52636,1,10,0:0:0:0:
386,139,52757,1,0,0:0:0:0:
253,283,52878,5,2,1:0:0:0:
110,327,52999,1,2,0:0:0:0:
159,267,53119,5,2,0:0:0:0:
170,272,53240,1,10,0:0:0:0:
114,80,53361,6,0,P|50:176|82:272,1,191.733755339266,2|0,1:0|0:0,0:0:0:0:
74,251,53603,2,0,P|57:184|78:122,1,127.82250355951,10|0,0:0|0:0,0:0:0:0:
261,307,53845,2,0,P|350:324|448:376,1,191.733755339266,2|0,1:0|0:0,0:0:0:0:
395,369,54087,5,2,0:0:0:0:
322,220,54208,1,10,0:0:0:0:
420,126,54329,2,0,B|393:145|397:182|397:182|381:149|349:143,1,127.82250355951,2|0,1:0|0:0,0:0:0:0:
482,184,54571,1,10,0:0:0:0:
219,36,54813,6,0,B|159:59|95:66|95:66|118:126|126:190,1,255.645007119021,6|0,1:0|0:0,0:0:0:0:
192,130,55176,1,10,0:0:0:0:
46,154,55297,6,0,B|105:130|169:123|169:123|146:63|138:0,1,255.645007119021,2|8,1:0|0:0,0:0:0:0:
138,0,55660,1,0,0:0:0:0:
253,129,55781,2,0,B|363:106|314:208|425:186,1,191.733755339266,2|0,1:0|0:0,0:0:0:0:
423,175,56023,6,0,P|391:151|325:200,1,127.82250355951,2|8,0:0|0:0,0:0:0:0:
239,355,56265,2,0,P|204:374|141:319,1,127.82250355951,2|0,1:0|0:0,0:0:0:0:
66,169,56507,2,0,P|142:184|213:212,1,127.82250355951,10|0,0:0|0:0,0:0:0:0:
191,206,56688,1,0,0:0:0:0:
193,212,56749,1,0,1:0:0:0:
247,268,56869,1,0,0:0:0:0:
323,253,56990,1,2,0:0:0:0:
281,83,57111,5,8,0:0:0:0:
272,193,57232,2,0,P|257:89|240:1,1,191.733755339266,2|0,1:0|0:0,0:0:0:0:
226,0,57474,5,10,0:0:0:0:
121,282,57716,5,2,1:0:0:0:
9,204,57837,1,2,0:0:0:0:
41,280,57958,5,2,0:0:0:0:
172,219,58079,1,10,0:0:0:0:
265,335,58200,2,0,B|323:403|395:369|386:294|336:300,1,191.733755339266,2|0,1:0|0:0,0:0:0:0:
334,292,58442,2,0,P|380:325|348:374,1,127.82250355951,10|0,0:0|0:0,0:0:0:0:
104,202,58684,6,0,B|75:184|63:138|104:104|104:104|144:70|132:24|104:6,1,228.783758814682,6|0,1:0|0:0,0:0:0:0:
92,5,58926,6,0,P|106:101|113:218,2,206.24499354855,2|0|8,0:0|1:0|0:0,0:0:0:0:
92,5,59531,1,0,0:0:0:0:
281,159,59652,5,2,1:0:0:0:
359,179,59773,1,2,0:0:0:0:
381,253,59894,5,2,0:0:0:0:
343,106,60015,1,10,0:0:0:0:
147,302,60136,2,0,B|210:271|206:192|206:192|225:248|272:258,1,228.783758814682,2|0,1:0|0:0,0:0:0:0:
270,272,60378,6,0,B|246:288|206:283|192:241|192:241|177:199|138:194|115:212,1,191.733755339266,10|0,0:0|0:0,0:0:0:0:
62,274,60619,5,0,1:0:0:0:
182,118,60740,1,0,0:0:0:0:
183,111,60801,1,0,0:0:0:0:
184,104,60861,1,2,0:0:0:0:
125,48,60982,1,8,0:0:0:0:
249,181,61103,2,0,P|365:219|454:319,1,255.645007119021,0|10,1:0|0:0,0:0:0:0:
452,316,61466,1,0,0:0:0:0:
206,366,61587,6,0,L|244:48,1,319.556258898776,6|0,1:3|0:0,0:0:0:0:
309,20,61950,1,0,3:0:0:0:
234,43,62071,6,0,L|195:360,1,313.689997606735,10|4,3:2|1:0,0:0:0:0:
455,107,64007,2,0,P|460:67|498:39,1,72.8650023626424,0|0,1:0|0:0,0:0:0:0:
399,166,64168,1,0,0:0:0:0:
399,166,64249,5,0,0:0:0:0:
377,169,64329,1,0,0:0:0:0:
355,173,64410,1,0,0:0:0:0:
334,176,64490,1,4,1:0:0:0:
73,55,64853,5,8,0:0:0:0:
55,133,65216,5,8,0:0:0:0:
114,324,65458,5,10,0:0:0:0:
152,253,65579,1,2,0:0:0:0:
84,210,65700,5,2,0:0:0:0:
198,321,65821,1,8,0:0:0:0:
266,275,65942,6,0,P|290:184|323:98,1,163.946255315945,8|0,0:0|0:0,0:0:0:0:
307,112,66184,2,0,P|288:138|293:168,1,47.5474990568276,2|0,1:0|0:0,0:0:0:0:
488,263,66426,5,6,1:0:0:0:
385,142,66547,1,2,0:0:0:0:
488,263,66668,2,0,P|410:264|359:344,1,163.946255315945,2|0,0:0|0:0,0:0:0:0:
360,336,66910,2,0,P|296:366|278:345,1,109.297503543964,2|0,1:0|0:0,0:0:0:0:
138,170,67152,5,10,0:0:0:0:
106,239,67273,1,2,0:0:0:0:
68,115,67394,5,6,1:0:0:0:
142,83,67515,1,2,0:0:0:0:
210,125,67636,2,0,B|305:131|333:197|428:204,1,218.595007087927,2|0,0:0|1:0,0:0:0:0:
312,126,67999,5,2,0:0:0:0:
254,285,68119,1,10,0:0:0:0:
234,212,68241,1,2,0:0:0:0:
334,312,68361,5,2,1:0:0:0:
409,302,68482,1,2,0:0:0:0:
400,226,68603,1,2,0:0:0:0:
323,235,68724,1,10,0:0:0:0:
147,326,68845,5,2,1:0:0:0:
72,316,68966,1,2,0:0:0:0:
113,241,69087,1,10,0:0:0:0:
114,251,69208,1,2,0:0:0:0:
254,337,69330,5,2,1:0:0:0:
252,101,69572,1,2,0:0:0:0:
261,96,69693,1,10,0:0:0:0:
183,140,69813,6,0,P|119:108|151:76,1,109.297503543964,2|0,1:0|0:0,0:0:0:0:
331,58,70055,2,0,P|395:90|363:122,1,109.297503543964,10|0,0:0|0:0,0:0:0:0:
212,28,70297,5,4,1:0:0:0:
446,177,70539,2,0,B|441:240|407:270|402:334,1,163.946255315945,2|0,0:0|0:0,0:0:0:0:
411,345,70781,2,0,B|443:361|474:329|474:329|443:345|411:329,1,109.297503543964,2|0,1:0|0:0,0:0:0:0:
340,194,71023,2,0,B|277:199|247:233|183:238,1,163.946255315945,10|0,0:0|0:0,0:0:0:0:
176,232,71265,6,0,P|237:237|292:249,1,109.297503543964,6|0,1:0|0:0,0:0:0:0:
121,164,71507,1,2,0:0:0:0:
94,237,71628,1,10,0:0:0:0:
198,149,71749,2,0,P|183:74|177:18,1,109.297503543964,2|0,1:0|0:0,0:0:0:0:
87,246,71990,2,0,P|102:321|108:377,1,109.297503543964,10|0,0:0|0:0,0:0:0:0:
106,353,72172,5,0,0:0:0:0:
106,353,72232,2,0,B|131:372|176:367|193:319|193:319|210:271|255:265|280:285,1,218.595007087927,6|2,1:0|0:0,0:0:0:0:
217,249,72595,1,8,0:0:0:0:
328,358,72716,2,0,P|366:313|361:255,1,109.297503543964,2|0,1:0|0:0,0:0:0:0:
250,118,72958,2,0,P|267:174|319:200,1,109.297503543964,10|0,0:0|0:0,0:0:0:0:
394,192,73140,5,0,0:0:0:0:
399,190,73200,2,0,P|453:168|509:157,1,109.297503543964,2|0,1:0|0:0,0:0:0:0:
461,72,73442,2,0,P|411:92|359:102,1,103.122496774275,2|8,0:0|0:0,0:0:0:0:
214,212,73684,6,0,P|164:191|112:181,1,96.9475003698254,2|0,1:0|0:0,0:0:0:0:
151,98,73926,2,0,P|200:118|252:128,1,90.772495775511,10|0,0:0|0:0,0:0:0:0:
63,118,74168,2,0,B|-12:110|-46:5|28:-50|100:0|66:48,1,242.368750924563,2|0,1:0|0:0,0:0:0:0:
71,39,74531,1,8,0:0:0:0:
64,129,74652,6,0,B|27:238|136:201|100:311,2,193.895000739651,2|10|2,1:0|0:0|1:0,0:0:0:0:
408,288,75499,1,10,0:0:0:0:
376,217,75619,2,0,B|343:234|308:244|308:244|326:276|335:312,1,145.421250554738,0|0,1:0|0:0,0:0:0:0:
367,382,75861,2,0,B|399:364|434:354|434:354|416:322|407:286,1,145.421250554738,10|0,0:0|0:0,0:0:0:0:
376,217,76103,5,0,1:0:0:0:
422,154,76224,2,0,P|474:169|528:178,1,96.9475003698254,2|0,0:0|0:0,0:0:0:0:
395,78,76466,5,8,0:0:0:0:
337,138,76587,2,0,P|285:123|231:114,1,96.9475003698254,2|0,1:0|0:0,0:0:0:0:
116,0,76829,2,0,P|130:52|151:102,1,96.9475003698254,10|0,0:0|0:0,0:0:0:0:
204,310,77071,5,2,1:0:0:0:
151,252,77192,1,8,0:0:0:0:
174,177,77313,1,8,0:0:0:0:
235,234,77434,1,8,0:0:0:0:
119,326,77555,5,8,0:3:0:0:
99,323,77676,5,8,0:3:0:0:
79,320,77797,5,8,0:3:0:0:
59,317,77918,5,8,0:3:0:0:
303,350,78039,6,0,P|321:222|365:93,1,256.571258417178,6|0,1:0|0:0,0:0:0:0:
407,42,78281,2,0,P|456:60|435:106,1,115.472497709438,2|8,0:0|0:0,0:0:0:0:
176,180,78523,6,0,P|150:166|108:160,1,57.7362488547192,6|0,1:0|0:0,0:0:0:0:
152,82,78644,2,0,P|177:95|219:101,1,57.7362488547192,2|0,0:0|0:0,0:0:0:0:
72,100,78765,6,0,B|53:118|53:154|90:172|90:172|126:190|126:226|108:244,1,173.208746564158,10|0,0:0|0:0,0:0:0:0:
37,267,79007,6,0,P|21:238|29:210,1,57.7362488547192,6|0,1:0|0:0,0:0:0:0:
96,318,79128,2,0,P|151:328|206:352,1,115.472497709438,2|2,0:0|0:0,0:0:0:0:
422,232,79369,1,10,0:0:0:0:
372,288,79490,6,0,B|303:310|232:231|275:154|358:170|347:225,1,228.783758814682,6|0,1:0|0:0,0:0:0:0:
347,212,79732,1,10,0:0:0:0:
506,48,79974,6,0,P|506:81|488:108,1,57.7362488547192,6|0,1:0|0:0,0:0:0:0:
417,93,80095,2,0,P|416:59|434:32,1,57.7362488547192,2|0,0:0|0:0,0:0:0:0:
445,167,80216,5,2,0:0:0:0:
168,75,80337,1,10,0:0:0:0:
242,63,80458,6,0,P|271:55|311:51,1,57.7362488547192,6|0,1:0|0:0,0:0:0:0:
168,75,80579,2,0,P|138:82|99:87,1,57.7362488547192,2|0,0:0|0:0,0:0:0:0:
193,0,80700,5,10,0:0:0:0:
217,142,80821,1,2,0:0:0:0:
122,239,80942,1,6,1:0:0:0:
142,163,81063,1,2,0:0:0:0:
323,295,81184,6,0,B|333:305|344:316|386:316|407:295|407:231|386:210|344:231|301:252|280:231|280:168|301:146|344:146|354:157|365:168,1,284.358733620389,14|0,0:0|0:0,0:0:0:0:
440,205,81426,5,14,0:0:0:0:
454,207,81486,1,2,0:0:0:0:
469,203,81546,1,2,0:0:0:0:
482,195,81607,1,2,0:0:0:0:
490,182,81667,1,2,0:0:0:0:
431,129,81789,5,2,3:2:0:0:
270,77,81910,1,6,1:0:0:0:
215,136,82031,6,0,B|247:232|150:200|182:297,1,173.208746564158,2|0,0:0|0:0,0:0:0:0:
192,300,82273,2,0,L|258:314,1,57.7362488547192,10|0,0:0|0:0,0:0:0:0:
345,330,82394,6,0,B|322:304|274:300|247:347|247:347|219:393|171:390|149:364,1,228.783758814682,4|0,1:0|0:0,0:0:0:0:
141,363,82636,1,10,0:0:0:0:
70,138,82878,5,6,1:0:0:0:
97,63,82999,1,2,0:0:0:0:
145,123,83119,1,2,0:0:0:0:
22,73,83240,5,10,0:0:0:0:
145,123,83361,2,0,P|226:86|331:78,1,173.208746564158,4|0,1:0|0:0,0:0:0:0:
321,88,83603,1,10,0:0:0:0:
462,340,83845,6,0,P|485:301|407:254,1,152.522505876455,6|0,1:0|0:0,0:0:0:0:
403,257,84027,1,0,0:0:0:0:
393,262,84087,1,2,0:0:0:0:
375,340,84208,1,10,0:0:0:0:
248,206,84329,6,0,P|224:244|302:291,1,152.522505876455,6|0,1:0|0:0,0:0:0:0:
307,289,84511,1,0,0:0:0:0:
317,284,84571,1,10,0:0:0:0:
173,358,84692,1,2,0:0:0:0:
110,311,84813,6,0,P|136:277|125:228,1,76.2612529382273,6|0,1:0|0:0,0:0:0:0:
65,203,84934,1,2,0:0:0:0:
166,32,85055,6,0,B|155:22|143:12|101:15|82:37|86:101|109:121|149:97|190:73|213:92|217:155|198:179|155:182|144:171|132:161,1,284.358733620389,14|0,0:0|0:0,0:0:0:0:
56,122,85297,5,14,0:0:0:0:
44,124,85357,1,2,0:0:0:0:
32,126,85418,1,2,0:0:0:0:
20,128,85478,1,2,0:0:0:0:
8,130,85539,1,2,1:0:0:0:
291,22,85781,6,0,P|333:41|337:79,1,76.9816651396256,4|2,1:0|0:0,0:0:0:0:
318,143,85942,6,0,P|311:97|341:73,1,76.9816651396256,2|2,0:0|0:0,0:0:0:0:
493,121,86144,5,8,0:0:0:0:
428,72,86265,2,0,P|422:43|439:13,1,57.7362488547192,6|0,1:0|0:0,0:0:0:0:
493,121,86386,1,2,0:0:0:0:
462,190,86507,6,0,P|384:211|289:273,1,173.208746564158,10|0,0:0|0:0,0:0:0:0:
303,336,86749,6,0,P|328:348|357:345,1,57.7362488547192,6|0,1:0|0:0,0:0:0:0:
228,293,86869,2,0,P|202:280|174:284,1,57.7362488547192,2|0,0:0|0:0,0:0:0:0:
243,206,86990,1,2,0:0:0:0:
219,371,87111,1,10,0:0:0:0:
243,206,87232,2,0,P|228:142|221:88,2,115.472497709438,4|2|10,1:0|0:0|0:0,0:0:0:0:
351,107,87595,5,2,0:0:0:0:
157,210,87716,2,0,B|61:178|93:274|-3:242,1,173.208746564158,6|0,1:0|0:0,0:0:0:0:
2,231,87958,2,0,P|33:223|75:217,1,57.7362488547192,2|0,0:0|0:0,0:0:0:0:
58,218,88079,1,10,0:0:0:0:
132,101,88200,2,0,P|140:39|92:27,1,115.472497709438,6|0,1:0|0:0,0:0:0:0:
213,144,88442,1,6,1:0:0:0:
357,40,88563,1,2,0:0:0:0:
279,37,88684,6,0,P|281:77|305:100,1,57.7362488547192,6|0,1:0|0:0,0:0:0:0:
300,94,88805,1,2,0:0:0:0:
439,251,88926,6,0,B|430:263|421:275|380:283|356:266|344:203|362:178|406:192|452:205|470:181|458:119|434:100|392:108|384:121|374:134,1,284.358733620389,14|0,0:0|0:0,0:0:0:0:
310,181,89168,5,14,0:0:0:0:
297,179,89229,1,2,0:0:0:0:
285,178,89289,1,2,0:0:0:0:
273,177,89350,1,2,0:0:0:0:
261,176,89410,1,2,0:0:0:0:
199,124,89531,1,2,3:2:0:0:
79,246,89652,1,6,1:0:0:0:
148,216,89773,5,2,0:0:0:0:
94,53,89894,1,2,0:0:0:0:
155,12,90015,6,0,P|181:5|218:0,1,57.7362488547192,8|0,0:0|0:0,0:0:0:0:
292,27,90136,6,0,B|269:1|221:-3|194:44|194:44|166:90|118:87|96:61,1,228.783758814682,6|0,1:0|0:0,0:0:0:0:
94,53,90378,1,10,0:0:0:0:
41,119,90499,1,2,0:0:0:0:
226,254,90619,1,6,1:0:0:0:
165,295,90740,2,0,B|130:305|104:268|104:268|133:289|167:279,1,115.472497709438,2|0,0:0|0:0,0:0:0:0:
349,153,90982,6,0,P|365:126|366:78,1,57.7362488547192,10|0,0:0|0:0,0:0:0:0:
360,94,91103,2,0,P|326:147|351:271,1,173.208746564158,4|0,1:0|0:0,0:0:0:0:
401,319,91345,5,2,3:2:0:0:
389,321,91405,1,0,3:0:0:0:
378,325,91465,1,2,3:2:0:0:
368,331,91526,1,0,3:0:0:0:
359,338,91587,2,0,P|283:348|191:369,1,152.522505876455,6|8,1:0|0:0,0:0:0:0:
19,171,91829,6,0,P|18:139|6:108,1,57.7362488547192,2|0,1:0|0:0,0:0:0:0:
94,100,91950,2,0,P|95:132|107:163,1,57.7362488547192,2|0,3:2|0:0,0:0:0:0:
75,226,92071,6,0,P|150:236|243:257,1,152.522505876455,6|0,1:0|3:0,0:0:0:0:
494,216,92555,6,0,B|458:243|394:236|374:136|374:136|354:37|302:31|302:31|259:25|259:25|195:18|184:113|247:121|247:121|295:127,1,533.828770567591,2|0,3:2|0:0,0:0:0:0:
255,136,93039,6,0,B|226:133|226:133|164:125|179:2|241:9|241:9|272:13,1,235.267498205051,0|0,3:0|0:0,0:0:0:0:
93,236,93523,6,0,B|64:289|-22:241|-3:139|117:125|157:190,1,267.994992537066,6|0,1:0|0:0,0:0:0:0:
304,306,93886,1,10,0:0:0:0:
338,234,94007,2,0,B|367:208|410:234|410:234|372:225|342:251,1,133.997496268533,2|0,1:0|0:0,0:0:0:0:
274,377,94249,2,0,B|244:402|201:376|201:376|239:385|269:359,1,133.997496268533,10|0,0:0|0:0,0:0:0:0:
286,122,94490,6,0,B|320:226|181:191|216:295,1,200.996244402799,2|0,1:0|0:0,0:0:0:0:
220,299,94733,1,2,0:0:0:0:
60,176,94854,1,8,0:0:0:0:
126,231,94974,2,0,B|142:182|173:141|173:141|124:125|85:95,1,200.996244402799,2|0,1:0|0:0,0:0:0:0:
84,76,95216,2,0,P|153:122|207:139,1,133.997496268533,10|0,0:0|0:0,0:0:0:0:
357,12,95459,5,2,1:0:0:0:
404,171,95580,1,2,0:0:0:0:
429,77,95701,5,2,0:0:0:0:
337,102,95821,1,8,0:0:0:0:
446,340,95942,6,0,P|459:264|502:142,1,200.996244402799,2|0,1:0|0:0,0:0:0:0:
509,146,96184,2,0,P|456:90|431:122,1,133.997496268533,10|0,0:0|0:0,0:0:0:0:
345,227,96426,5,2,1:0:0:0:
250,314,96547,1,2,0:0:0:0:
155,211,96668,1,2,0:0:0:0:
231,236,96789,5,10,0:0:0:0:
97,361,96910,2,0,P|71:228|33:73,1,267.994992537066,2|8,1:0|0:0,0:0:0:0:
0,267,97273,1,0,0:0:0:0:
222,69,97394,6,0,P|346:92|481:163,1,267.994992537066,6|0,1:0|0:0,0:0:0:0:
379,4,97757,1,10,0:0:0:0:
465,168,97878,6,0,P|346:106|215:80,1,267.994992537066,2|10,1:0|0:0,0:0:0:0:
374,22,98241,1,0,0:0:0:0:
314,202,98361,6,0,P|266:250|211:221,1,133.997496268533,2|0,1:0|0:0,0:0:0:0:
34,18,98603,2,0,P|100:33|104:95,1,133.997496268533,2|8,0:0|0:0,0:0:0:0:
29,352,98845,2,0,P|6:287|57:251,1,133.997496268533,2|0,1:0|0:0,0:0:0:0:
130,200,99088,1,10,0:0:0:0:
133,187,99209,1,0,0:0:0:0:
151,281,99330,5,2,1:0:0:0:
272,352,99451,1,2,0:0:0:0:
246,282,99571,5,2,0:0:0:0:
232,285,99692,1,10,0:0:0:0:
381,371,99813,6,0,B|417:260|307:297|344:186,1,200.996244402799,2|0,1:0|0:0,0:0:0:0:
378,122,100055,2,0,B|409:98|450:127|450:127|412:115|381:139,1,133.997496268533,10|0,0:0|0:0,0:0:0:0:
222,206,100297,6,0,B|111:169|148:279|37:242,1,200.996244402799,2|0,1:0|0:0,0:0:0:0:
31,231,100539,5,2,0:0:0:0:
136,69,100660,1,10,0:0:0:0:
58,28,100781,2,0,P|68:89|84:147,1,121.647500278429,2|0,1:0|0:0,0:0:0:0:
369,236,101023,6,0,P|343:229|309:214,1,52.7962493555145,10|0,0:0|0:0,0:0:0:0:
268,276,101265,1,4,1:2:0:0:
450,36,103926,6,0,P|388:45|294:98,1,132.144995967255,2|0,0:0|0:0,0:0:0:0:
311,239,104410,2,0,P|324:203|333:148,1,66.0724979836274,2|0,0:0|0:0,0:0:0:0:
235,127,104652,1,2,0:0:0:0:
240,141,104773,1,0,0:0:0:0:
250,151,104894,1,0,0:0:0:0:
385,290,105136,6,0,P|422:295|458:304,1,66.0724979836274,2|0,0:0|0:0,0:0:0:0:
320,327,105378,1,0,0:0:0:0:
308,317,105499,2,0,P|272:323|156:358,1,132.144995967255
50,263,105861,1,0,0:0:0:0:
52,248,105982,1,0,0:0:0:0:
55,233,106103,2,0,P|63:197|70:152,1,66.0724979836274,2|0,0:0|0:0,0:0:0:0:
158,77,106345,1,0,0:0:0:0:
150,89,106466,2,0,P|149:173|158:251,1,132.144995967255
337,291,106829,5,0,0:0:0:0:
323,288,106950,1,0,0:0:0:0:
309,285,107071,1,2,0:0:0:0:
296,282,107192,2,0,P|277:250|276:193,1,66.0724979836274
338,144,107434,1,0,0:0:0:0:
348,152,107555,2,0,P|416:175|449:199,2,66.0724979836274,2|0|0,0:0|0:0|0:0,0:0:0:0:
179,40,108039,6,0,B|102:49|69:92|-7:101,2,190.18999622731,2|0|0,0:0|0:0|0:0,0:0:0:0:
6,11,123765,5,0,1:0:0:0:
139,214,124007,2,0,P|197:214|168:155,1,117.633749102526,12|0,0:0|0:0,0:0:0:0:
121,138,124249,2,0,L|115:100,3,23.7737495284138,2|2|2|2,0:3|0:3|0:3|0:3,0:0:0:0:
114,102,124490,1,0,1:0:0:0:
385,283,124732,6,0,P|424:290|465:305,1,78.4224994016838,2|0,0:0|0:0,0:0:0:0:
284,195,124974,2,0,P|244:202|203:217,1,78.4224994016838,10|0,0:0|0:0,0:0:0:0:
332,335,125216,6,0,P|345:266|366:186,1,117.633749102526,2|0,1:0|0:0,0:0:0:0:
358,209,125458,1,2,0:0:0:0:
248,61,125579,2,0,P|208:68|167:83,1,78.4224994016838,2|0,0:0|0:0,0:0:0:0:
45,207,125821,2,0,P|101:234|118:157,1,156.844998803368,2|0,0:0|0:0,0:0:0:0:
76,69,126184,1,2,0:0:0:0:
352,246,126426,1,2,1:0:0:0:
422,216,126547,6,0,P|428:177|439:114,1,78.4224994016838,2|0,0:0|0:0,0:0:0:0:
286,27,126789,2,0,P|293:101|303:200,1,156.844998803368,2|0,0:0|0:0,0:0:0:0:
372,80,127152,1,2,1:0:0:0:
218,266,127394,1,2,0:0:0:0:
160,209,127515,2,0,P|118:214|64:223,1,78.4224994016838,2|0,0:0|0:0,0:0:0:0:
25,363,127757,2,0,P|133:346|200:339,1,156.844998803368,2|0,0:0|0:0,0:0:0:0:
0,273,128119,1,2,0:0:0:0:
203,111,128361,6,0,P|218:62|166:15,1,117.633749102526,0|0,1:0|0:0,0:0:0:0:
162,20,128603,2,0,P|120:25|66:34,1,78.4224994016838,2|0,0:0|0:0,0:0:0:0:
290,127,128845,2,0,P|328:120|367:116,1,78.4224994016838,10|0,0:0|0:0,0:0:0:0:
184,243,129087,2,0,P|145:249|106:253,1,78.4224994016838,2|0,1:0|0:0,0:0:0:0:
296,384,129329,1,2,0:0:0:0:
309,309,129450,2,0,P|312:270|320:222,1,78.4224994016838,2|0,0:0|0:0,0:0:0:0:
488,130,129692,2,0,P|482:197|405:201,1,156.844998803368,2|0,0:0|0:0,0:0:0:0:
334,136,130055,1,2,0:0:0:0:
102,35,130297,5,2,0:0:0:0:
53,93,130418,2,0,P|64:131|72:188,1,78.4224994016838,2|0,0:0|0:0,0:0:0:0:
185,276,130660,2,0,B|249:276|281:308|345:308,1,156.844998803368,2|0,0:0|0:0,0:0:0:0:
178,263,131023,1,2,1:0:0:0:
371,380,131265,5,2,0:0:0:0:
420,322,131386,2,0,P|408:283|400:226,1,78.4224994016838,2|0,0:0|0:0,0:0:0:0:
288,139,131628,2,0,B|224:139|192:107|128:107,1,156.844998803368,2|0,0:0|0:0,0:0:0:0:
11,219,131990,6,0,B|40:200|57:171|57:171|34:226|63:343|63:343|66:311|86:288,1,300.105007326782,2|0,0:0|1:0,0:0:0:0:
266,28,134894,5,0,1:0:0:0:
254,123,135136,1,0,1:0:0:0:
254,123,135619,1,0,1:0:0:0:
227,345,136103,5,0,1:0:0:0:
76,301,136466,1,0,1:0:0:0:
57,145,136829,1,0,1:0:0:0:
126,187,137071,2,0,L|133:236,2,47.5474990568276,0|0|0,1:0|1:0|1:0,0:0:0:0:
111,19,137555,1,0,1:0:0:0:
246,356,138039,5,0,1:0:0:0:
246,356,138765,5,0,1:0:0:0:
258,261,139007,1,0,1:0:0:0:
258,261,139490,1,0,1:0:0:0:
285,39,139974,5,0,1:0:0:0:
436,83,140337,1,0,1:0:0:0:
455,239,140700,1,0,1:0:0:0:
386,197,140942,2,0,L|378:147,2,47.5474990568276,0|0|0,1:0|1:0|1:0,0:0:0:0:
401,365,141426,1,0,1:0:0:0:
180,119,141668,6,0,B|183:93|183:93|152:89|149:115|146:140|176:144|176:144|207:148|210:122|213:97|183:93|183:93,1,191.733755339266,2|0,0:0|0:0,0:0:0:0:
180,119,141910,6,0,B|78:85|112:220|11:186,1,193.895000739651,4|0,1:2|0:0,0:0:0:0:
253,237,142273,1,0,0:0:0:0:
181,298,142394,2,0,P|174:247|161:189,1,96.9475003698254,8|0,1:2|0:0,0:0:0:0:
261,319,142636,1,0,1:0:0:0:
334,284,142757,5,0,0:0:0:0:
335,274,142817,1,0,0:0:0:0:
337,264,142878,1,0,1:0:0:0:
396,213,142999,1,0,0:0:0:0:
359,145,143119,1,0,0:0:0:0:
411,88,143240,1,0,0:0:0:0:
461,157,143361,2,0,P|393:135|262:114,1,193.895000739651,0|0,1:0|0:0,0:0:0:0:
265,121,143664,1,0,0:0:0:0:
258,128,143724,1,0,0:0:0:0:
71,37,143845,6,0,P|122:8|164:113,1,193.895000739651,0|0,1:0|0:0,0:0:0:0:
54,168,144208,1,0,1:0:0:0:
80,239,144329,2,0,P|120:249|191:280,1,96.9475003698254,8|0,1:2|0:0,0:0:0:0:
176,278,144511,1,0,0:0:0:0:
180,286,144571,1,0,1:0:0:0:
413,228,144813,6,0,P|416:194|423:157,1,64.6316669132169,0|0,1:0|0:0,0:0:0:0:
262,229,144974,6,0,P|288:249|316:275,1,64.6316669132169,0|0,1:0|0:0,0:0:0:0:
338,97,145136,6,0,P|306:108|269:119,1,64.6316669132169,0|0,1:0|0:0,0:0:0:0:
336,188,145297,5,0,1:0:0:0:
86,231,145539,5,0,0:0:0:0:
71,306,145660,1,0,0:0:0:0:
113,126,145781,5,4,1:0:0:0:
128,51,145902,1,0,0:0:0:0:
33,161,146023,5,0,0:0:0:0:
13,158,146144,1,8,0:0:0:0:
174,186,146265,5,0,1:0:0:0:
193,188,146386,1,0,3:0:0:0:
212,191,146507,1,8,3:2:0:0:
231,194,146628,1,0,3:0:0:0:
346,286,146749,5,4,1:0:0:0:
372,281,146870,1,0,3:0:0:0:
399,277,146991,1,0,3:0:0:0:
426,274,147112,1,8,3:2:0:0:
339,80,147232,5,4,1:0:0:0:
291,141,147353,1,0,3:0:0:0:
325,210,147474,1,8,3:2:0:0:
269,263,147595,1,0,3:0:0:0:
291,339,147716,5,12,0:0:0:0:
279,48,148563,5,0,3:0:0:0:
279,48,148624,1,0,3:0:0:0:
279,48,148684,2,0,P|245:210|223:377,1,309.367490322825,4|0,1:0|0:0,0:0:0:0:
112,104,149168,6,0,P|88:107|37:118,1,62.0587470644819,12|0,1:2|0:0,0:0:0:0:
49,125,149410,2,0,L|78:118,1,20.686249021494,8|0,3:2|0:0,0:0:0:0:
480,127,149652,6,0,B|447:101|389:108|368:170|368:170|346:231|288:238|256:213,1,280.344995936161,6|0,1:0|0:0,0:0:0:0:
301,93,150015,1,10,0:0:0:0:
481,215,150136,2,0,B|448:240|390:233|369:171|369:171|347:110|289:103|257:128,1,280.344995936161,2|10,1:0|0:0,0:0:0:0:
14,362,150619,6,0,P|83:346|68:276,1,140.172497968081,2|0,1:0|0:0,0:0:0:0:
34,36,150861,2,0,P|10:103|77:127,1,140.172497968081,2|8,0:0|0:0,0:0:0:0:
318,183,151103,2,0,P|273:127|218:171,1,140.172497968081,2|0,1:0|0:0,0:0:0:0:
133,195,151345,1,10,0:0:0:0:
135,208,151466,1,0,0:0:0:0:
185,266,151587,5,2,1:0:0:0:
259,284,151708,1,2,0:0:0:0:
334,303,151829,1,2,0:0:0:0:
339,290,151950,1,8,0:0:0:0:
402,184,152071,2,0,B|440:300|324:261|363:378,1,210.258746952121,2|0,1:0|0:0,0:0:0:0:
371,384,152313,2,0,P|406:376|401:343,1,70.0862489840403,10|0,0:0|0:0,0:0:0:0:
217,270,152555,5,2,1:0:0:0:
72,232,152676,1,2,0:0:0:0:
184,106,152797,1,2,0:0:0:0:
158,191,152918,5,10,0:0:0:0:
29,94,153039,2,0,P|169:70|328:36,1,280.344995936161,2|8,1:0|0:0,0:0:0:0:
411,223,153402,1,0,0:0:0:0:
372,142,153523,6,0,B|329:89|204:121|199:231|297:269|319:211,1,280.344995936161,6|0,1:0|0:0,0:0:0:0:
380,133,153886,1,10,0:0:0:0:
401,229,154007,6,0,B|375:294|465:386|563:335|547:231|482:242,1,280.344995936161,2|10,1:0|0:0,0:0:0:0:
140,202,154490,6,0,B|114:167|145:122|145:122|133:164|158:198,1,140.172497968081,2|0,1:0|0:0,0:0:0:0:
303,101,154732,2,0,B|328:135|297:180|297:180|309:138|284:104,1,140.172497968081,2|8,0:0|0:0,0:0:0:0:
221,155,154974,2,0,P|116:166|12:180,1,210.258746952121,2|0,1:0|0:0,0:0:0:0:
0,173,155216,5,10,0:0:0:0:
34,100,155337,1,0,0:0:0:0:
70,261,155458,5,2,1:0:0:0:
160,280,155579,1,2,0:0:0:0:
129,190,155700,1,2,0:0:0:0:
127,204,155821,1,10,0:0:0:0:
167,290,155942,6,0,B|262:296|292:330|388:337,1,210.258746952121,2|0,1:0|0:0,0:0:0:0:
440,308,156184,2,0,B|419:267|440:226|440:226|424:256|399:267,1,140.172497968081,10|0,0:0|0:0,0:0:0:0:
288,229,156426,6,0,B|237:180|282:59|392:66|420:167|356:184,1,280.344995936161,2|2,1:0|0:0,0:0:0:0:
359,183,156789,1,10,0:0:0:0:
220,77,156910,2,0,P|124:58|-10:37,1,210.258746952121,2|0,1:0|0:0,0:0:0:0:
3,50,157152,1,10,0:0:0:0:
76,355,157394,6,0,P|94:224|122:69,1,280.344995936161,6|0,1:0|0:0,0:0:0:0:
0,187,157757,1,10,0:0:0:0:
64,360,157878,6,0,P|82:229|110:74,1,280.344995936161,2|8,1:0|0:0,0:0:0:0:
13,190,158241,1,0,0:0:0:0:
211,263,158361,2,0,P|265:216|428:208,1,210.258746952121,2|0,1:0|0:0,0:0:0:0:
401,210,158603,6,0,P|350:266|301:245,1,140.172497968081,2|8,0:0|0:0,0:0:0:0:
197,81,158845,2,0,P|134:61|97:115,1,140.172497968081,2|0,1:0|0:0,0:0:0:0:
7,288,159087,2,0,P|69:307|106:253,1,140.172497968081,10|0,0:0|0:0,0:0:0:0:
132,181,159269,1,0,0:0:0:0:
138,179,159330,1,0,1:0:0:0:
192,235,159450,1,0,0:0:0:0:
180,317,159571,1,2,0:0:0:0:
351,188,159692,5,8,0:0:0:0:
250,286,159813,2,0,B|357:250|321:393|428:357,1,210.258746952121,2|0,1:0|0:0,0:0:0:0:
468,300,160055,6,0,L|479:222,1,70.0862489840403,10|0,0:0|0:0,0:0:0:0:
186,51,160297,5,2,1:0:0:0:
112,31,160418,1,2,0:0:0:0:
273,147,160539,5,2,0:0:0:0:
347,127,160660,1,10,0:0:0:0:
169,235,160781,6,0,P|100:221|12:205,1,140.172497968081,2|0,1:0|0:0,0:0:0:0:
282,337,161023,2,0,P|351:323|439:307,1,140.172497968081,10|0,0:0|0:0,0:0:0:0:
273,24,161265,6,0,B|301:42|314:92|271:129|271:129|227:166|240:215|271:235,1,247.308758585013,6|0,1:0|0:0,0:0:0:0:
283,243,161507,6,0,P|276:127|259:13,2,230.944995418877,2|0|8,0:0|1:0|0:0,0:0:0:0:
283,243,162111,1,0,0:0:0:0:
439,280,162233,5,2,1:0:0:0:
489,212,162354,1,2,0:0:0:0:
238,329,162474,5,2,0:0:0:0:
188,261,162595,1,10,0:0:0:0:
359,367,162716,5,2,1:0:0:0:
354,82,162958,1,10,0:0:0:0:
354,82,163200,6,0,B|321:56|263:63|241:125|241:125|219:187|161:194|128:168,1,280.344995936161,0|2,1:0|0:0,0:0:0:0:
131,170,163563,1,8,0:0:0:0:
54,54,163684,2,0,B|92:55|108:95|108:95|102:52|136:33,1,140.172497968081,0|0,1:0|0:0,0:0:0:0:
0,213,163926,2,0,B|38:211|54:171|54:171|48:214|82:233,1,140.172497968081,10|0,0:0|0:0,0:0:0:0:
308,285,164168,6,0,P|325:223|335:150,1,117.633749102526,6|0,1:3|0:0,0:0:0:0:
326,163,164410,1,2,0:0:0:0:
229,41,164652,2,0,P|238:99|250:140,1,78.4224994016838,2|0,0:0|0:0,0:0:0:0:
438,95,164894,5,2,0:0:0:0:
431,97,164954,1,2,0:0:0:0:
424,100,165015,1,2,0:0:0:0:
417,103,165075,1,2,0:0:0:0:
406,106,165136,2,0,P|295:135|177:203,1,219.521255359406,6|0,1:2|0:0,0:0:0:0:
195,178,165378,2,0,P|282:130|332:114,1,146.347503572937,2|8,0:0|0:0,0:0:0:0:
492,324,165619,2,0,P|405:276|355:260,1,146.347503572937,6|0,1:0|0:0,0:0:0:0:
149,358,165861,1,10,0:0:0:0:
219,326,165982,5,0,0:0:0:0:
219,326,166043,1,0,0:0:0:0:
219,326,166103,2,0,B|249:295|249:235|188:204|188:204|128:174|128:114|158:83,1,292.695007145874,6|0,1:0|0:0,0:0:0:0:
79,265,166466,5,10,0:0:0:0:
324,154,166587,1,4,1:0:0:0:
322,151,166829,6,0,B|324:133|324:133|299:129|296:150|294:170|318:173|318:173|343:176|345:156|348:136|324:133|324:133,1,146.347503572937,10|0,0:0|0:0,0:0:0:0:
130,300,167071,6,0,B|78:277|22:273|22:273|44:221|49:165,1,219.521255359406,6|0,1:0|0:0,0:0:0:0:
71,98,167313,2,0,B|104:112|141:115|141:115|126:149|124:186,1,146.347503572937,2|8,0:0|0:0,0:0:0:0:
394,335,167555,6,0,B|445:312|501:308|501:308|479:256|474:200,1,219.521255359406,6|0,1:0|0:0,0:0:0:0:
452,133,167797,2,0,B|418:147|381:150|381:150|396:184|399:220,1,146.347503572937,10|0,0:0|0:0,0:0:0:0:
335,267,167978,5,0,0:0:0:0:
335,267,168039,2,0,P|270:251|192:240,1,146.347503572937,6|0,1:0|0:0,0:0:0:0:
27,29,168281,2,0,P|92:45|170:56,1,146.347503572937,2|8,0:0|0:0,0:0:0:0:
67,308,168523,2,0,P|83:243|94:165,1,146.347503572937,6|0,1:0|0:0,0:0:0:0:
305,0,168765,2,0,P|289:65|278:143,1,146.347503572937,10|0,0:0|0:0,0:0:0:0:
379,295,169007,6,0,B|413:338|515:312|519:222|439:191|422:238,1,219.521255359406,6|0,1:0|0:0,0:0:0:0:
418,220,169249,2,0,P|464:215|465:298,1,146.347503572937,2|8,0:0|0:0,0:0:0:0:
231,156,169490,6,0,B|197:113|95:139|91:229|171:260|188:213,1,219.521255359406,6|0,1:0|0:0,0:0:0:0:
192,231,169732,2,0,P|146:236|145:153,1,146.347503572937,10|0,0:0|0:0,0:0:0:0:
332,44,169974,6,0,P|315:137|295:344,1,292.695007145874,6|0,1:0|0:0,0:0:0:0:
124,71,170337,1,10,0:0:0:0:
116,70,170398,1,8,0:0:0:0:
108,69,170458,1,4,1:0:0:0:
338,100,170700,5,10,0:0:0:0:
405,61,170821,1,0,0:0:0:0:
340,18,170942,5,4,1:0:0:0:
410,140,171063,2,0,B|378:236|442:268|410:364,1,219.521255359406,2|0,0:0|0:0,0:0:0:0:
400,360,171305,1,8,0:0:0:0:
182,181,171426,6,0,P|108:159|154:220,1,200.996244402799,6|0,1:0|0:0,0:0:0:0:
264,176,171668,6,0,P|315:130|246:135,1,182.471250417644,10|0,0:0|0:0,0:0:0:0:
224,252,171910,6,0,P|234:313|263:258,1,163.946255315945,14|0,1:2|0:0,0:0:0:0:
263,258,172152,1,2,0:0:0:0:
108,305,172273,1,10,0:0:0:0:
97,301,172333,1,10,0:0:0:0:
86,298,172394,1,14,1:2:0:0:
424,135,172636,6,0,P|427:98|434:47,1,78.4224994016838,8|2,0:0|0:0,0:0:0:0:
367,23,172817,5,2,0:0:0:0:
359,26,172878,2,0,P|343:161|337:313,1,284.358733620389,6|0,1:2|0:0,0:0:0:0:
377,372,173119,2,0,B|409:400|456:371|456:371|414:381|381:353,1,152.522505876455,2|8,0:0|0:0,0:0:0:0:
185,148,173361,2,0,B|152:119|105:148|105:148|147:138|180:166,1,152.522505876455,6|0,1:0|0:0,0:0:0:0:
270,351,173603,1,10,0:0:0:0:
225,289,173724,5,0,0:0:0:0:
228,273,173785,1,0,0:0:0:0:
232,258,173845,2,0,P|330:226|398:220,2,152.522505876455,6|0|0,1:0|0:0|0:0,0:0:0:0:
108,352,174208,1,10,0:0:0:0:
41,283,174329,2,0,B|82:157|-42:199|0:74,1,228.783758814682,4|0,1:0|0:0,0:0:0:0:
70,47,174571,1,8,0:0:0:0:
84,43,174632,1,0,0:0:0:0:
98,39,174692,1,0,0:0:0:0:
436,190,174813,6,0,P|325:152|183:110,1,228.783758814682,6|0,1:0|0:0,0:0:0:0:
219,111,175055,2,0,P|289:131|369:158,1,152.522505876455,2|8,0:0|0:0,0:0:0:0:
39,252,175297,6,0,B|-14:274|-15:380|70:407|122:338|77:306,1,228.783758814682,6|0,1:0|0:0,0:0:0:0:
122,235,175539,1,10,0:0:0:0:
276,326,175660,1,0,0:0:0:0:
290,323,175720,1,0,0:0:0:0:
304,318,175781,2,0,P|381:298|465:283,1,152.522505876455,6|0,1:0|0:0,0:0:0:0:
392,375,176023,5,2,0:0:0:0:
368,221,176144,2,0,P|364:185|356:136,1,76.2612529382273,8|0,0:0|0:0,0:0:0:0:
365,134,176265,2,0,P|385:261|395:370,1,228.783758814682,6|0,1:0|0:0,0:0:0:0:
392,375,176507,1,10,0:0:0:0:
246,163,176749,6,0,P|154:145|54:131,1,191.733755339266,6|0,1:0|0:0,0:0:0:0:
1,80,176990,2,0,P|49:30|63:79,1,127.82250355951,2|8,0:0|0:0,0:0:0:0:
165,271,177232,6,0,P|265:252|373:236,1,210.258746952121,6|0,1:0|0:0,0:0:0:0:
431,181,177473,2,0,P|379:127|364:180,1,140.172497968081,10|0,0:0|0:0,0:0:0:0:
295,362,177716,6,0,P|289:326|278:275,1,76.2612529382273,6|0,1:0|0:0,0:0:0:0:
270,280,177837,1,0,0:0:0:0:
227,54,177958,6,0,P|233:90|244:141,1,76.2612529382273
252,136,178079,1,10,0:0:0:0:
372,236,178200,6,0,B|347:207|293:203|263:255|263:255|232:306|179:303|154:274,1,256.571258417178,4|0,1:0|0:0,0:0:0:0:
105,218,178442,2,0,P|101:163|96:109,1,85.5237528057261,10|0,0:0|0:0,0:0:0:0:
21,48,178563,5,0,0:0:0:0:
21,65,178624,1,0,0:0:0:0:
22,81,178684,1,4,1:0:0:0:
98,132,178805,1,2,0:0:0:0:
186,71,178926,1,0,0:0:0:0:
268,138,179047,1,8,0:0:0:0:
396,22,179168,6,0,P|389:60|386:108,1,76.2612529382273,6|0,1:0|0:0,0:0:0:0:
397,107,179289,1,0,3:0:0:0:
511,234,179410,6,0,P|482:207|443:179,1,76.2612529382273,10|0,0:0|0:0,0:0:0:0:
438,189,179531,1,0,3:0:0:0:
305,369,179652,6,0,P|312:331|315:283,1,76.2612529382273,6|0,1:0|0:0,0:0:0:0:
304,284,179773,1,0,3:0:0:0:
190,157,179894,6,0,P|219:184|258:212,1,76.2612529382273,0|0,3:0|0:0,0:0:0:0:
263,202,180015,1,0,3:0:0:0:
157,313,180136,5,0,3:0:0:0:
143,314,180257,1,0,3:0:0:0:
128,317,180378,1,0,3:0:0:0:
114,320,180499,1,0,3:0:0:0:
52,275,180619,6,0,L|44:229,1,33.0362489918137,0|0,1:0|0:0,0:0:0:0:
