osu file format v14

[General]
AudioFilename: audio.mp3
AudioLeadIn: 0
PreviewTime:91686
Countdown: 0
SampleSet: Soft
StackLeniency: 0.7
Mode: 0
LetterboxInBreaks: 0
WidescreenStoryboard: 1

[Editor]
DistanceSpacing: 1
BeatDivisor: 4
GridSize: 32
TimelineZoom: 1.699999

[Metadata]
Title:Kamouflage
TitleUnicode:Kamouflage
Artist:Mori Calliope
ArtistUnicode:Mori Calliope
Creator:SMOKELIND
Version:frozz's Insane
Source:
Tags:森カリオペ shinigami note ホロライブ hololive holomyth hololive-en en バーチャルユーチューバー virtual yt youtube youtuber vtuber english pop hip hop hip-hop Mocaotic iceluin frozz -keqing Reform Kujinn extra
BeatmapID:3929890
BeatmapSetID:1882867

[Difficulty]
HPDrainRate:4.5
CircleSize:4
OverallDifficulty:7.7
ApproachRate:9
SliderMultiplier:2.17
SliderTickRate:1

[Events]
//Background and Video events
0,0,"93559590_p0.jpg",0,0
Video,0,"vid.mp4"
//Break Periods
//Storyboard Layer 0 (Background)
//Storyboard Layer 1 (Fail)
//Storyboard Layer 2 (Pass)
//Storyboard Layer 3 (Foreground)
//Storyboard Layer 4 (Overlay)
//Storyboard Sound Samples

[TimingPoints]
2222,476.190476190476,4,2,77,57,1,0
2222,-100,4,2,77,57,0,0
2936,-125,4,2,77,57,0,0
3650,-83.3333333333333,4,2,77,57,0,0
3828,-83.3333333333333,4,2,77,5,0,0
3888,-83.3333333333333,4,2,77,57,0,0
4066,-83.3333333333333,4,2,77,5,0,0
4126,-200,4,2,77,57,0,0
4841,-125,4,2,77,57,0,0
5555,-83.3333333333333,4,2,77,57,0,0
5733,-83.3333333333333,4,2,77,5,0,0
5793,-83.3333333333333,4,2,77,57,0,0
5971,-83.3333333333333,4,2,77,5,0,0
6031,-83.3333333333333,4,2,77,57,0,0
6269,-125,4,2,77,57,0,0
7460,-83.3333333333333,4,2,77,57,0,0
7638,-83.3333333333333,4,2,77,5,0,0
7698,-83.3333333333333,4,2,77,57,0,0
7876,-83.3333333333333,4,2,77,5,0,0
7936,-83.3333333333333,4,2,77,57,0,0
9841,-76.9230769230769,4,2,77,67,0,0
10495,-76.9230769230769,4,2,77,5,0,0
10555,-76.9230769230769,4,2,77,67,0,0
15019,-76.9230769230769,4,2,77,5,0,0
15079,-76.9230769230769,4,2,77,67,0,0
15257,-76.9230769230769,4,2,77,5,0,0
15317,-76.9230769230769,4,2,77,67,0,0
15495,-76.9230769230769,4,2,77,5,0,0
15555,-76.9230769230769,4,2,77,67,0,0
16209,-76.9230769230769,4,2,77,5,0,0
16269,-76.9230769230769,4,2,77,67,0,0
17460,-71.4285714285714,4,2,77,67,0,0
18114,-71.4285714285714,4,2,77,5,0,0
18174,-71.4285714285714,4,2,77,67,0,0
20733,-71.4285714285714,4,2,77,5,0,0
20793,-71.4285714285714,4,2,77,67,0,0
23352,-71.4285714285714,4,2,77,5,0,0
23412,-71.4285714285714,4,2,77,67,0,0
23590,-71.4285714285714,4,2,77,5,0,0
23650,-71.4285714285714,4,2,77,67,0,0
24186,-71.4285714285714,4,2,77,5,0,0
24364,-71.4285714285714,4,2,77,67,0,0
24424,-71.4285714285714,4,2,77,5,0,0
24602,-71.4285714285714,4,2,77,67,0,0
24780,-71.4285714285714,4,2,77,5,0,0
24841,-71.4285714285714,4,2,77,67,0,0
25079,-111.111111111111,4,2,77,77,0,0
26388,-111.111111111111,4,2,77,5,0,0
26507,-111.111111111111,4,2,77,77,0,0
26983,-90.9090909090908,4,2,77,77,0,0
27341,-90.9090909090908,4,2,77,5,0,0
27460,-90.9090909090908,4,2,77,77,0,0
27817,-90.9090909090908,4,2,77,5,0,0
27936,-90.9090909090908,4,2,77,77,0,0
28293,-90.9090909090908,4,2,77,5,0,0
28412,-111.111111111111,4,2,77,77,0,0
30198,-111.111111111111,4,2,77,5,0,0
30317,-111.111111111111,4,2,77,77,0,0
32221,-83.3333333333333,4,2,77,77,0,0
32637,-83.3333333333333,4,2,77,5,0,0
32698,-76.9230769230769,4,2,77,77,0,0
33352,-76.9230769230769,4,2,77,5,0,0
33412,-76.9230769230769,4,2,77,77,0,0
33828,-76.9230769230769,4,2,77,5,0,0
33888,-76.9230769230769,4,2,77,77,0,0
34959,-76.9230769230769,4,2,77,5,0,0
35079,-62.5,4,2,77,77,0,0
35257,-62.5,4,2,77,5,0,0
35317,-76.9230769230769,4,2,77,77,0,0
36507,-71.4285714285714,4,2,77,77,0,0
40317,-52.6315789473684,4,2,77,87,0,0
42876,-52.6315789473684,4,2,77,5,0,0
42936,-71.4285714285714,4,2,77,87,0,0
43412,-52.6315789473684,4,2,77,87,0,0
44423,-52.6315789473684,4,2,77,5,0,0
44483,-52.6315789473684,4,2,77,87,0,0
44780,-52.6315789473684,4,2,77,5,0,0
44841,-62.5,4,2,77,87,0,0
46031,-52.6315789473684,4,2,77,87,0,0
46209,-52.6315789473684,4,2,77,5,0,0
46269,-52.6315789473684,4,2,77,87,0,0
46447,-52.6315789473684,4,2,77,5,0,0
46507,-52.6315789473684,4,2,77,87,0,0
46685,-52.6315789473684,4,2,77,5,0,0
46745,-71.4285714285714,4,2,77,87,0,0
47936,-52.6315789473684,4,2,77,87,0,0
50495,-52.6315789473684,4,2,77,5,0,0
50555,-71.4285714285714,4,2,77,87,0,0
51031,-52.6315789473684,4,2,77,87,0,0
51685,-52.6315789473684,4,2,77,5,0,0
51745,-62.5,4,2,77,87,0,0
52460,-52.6315789473684,4,2,77,87,0,0
52757,-52.6315789473684,4,2,77,5,0,0
52817,-52.6315789473684,4,2,77,87,0,0
52936,-71.4285714285714,4,2,77,87,0,0
53174,-62.5,4,2,77,87,0,0
53531,-62.5,4,2,77,5,0,0
53650,-62.5,4,2,77,87,0,0
54126,-35.7142857142857,4,2,77,87,0,0
54304,-35.7142857142857,4,2,77,5,0,0
54364,-58.8235294117647,4,2,77,87,0,0
54602,-50,4,2,77,87,0,0
54841,-58.8235294117647,4,2,77,87,0,0
55079,-55.5555555555556,4,2,77,87,0,0
55436,-55.5555555555556,4,2,77,5,0,0
55555,-90.9090909090909,4,2,77,57,0,0
56447,-90.9090909090909,4,2,77,5,0,0
56507,-90.9090909090909,4,2,77,57,0,0
56745,-66.6666666666667,4,2,77,57,0,0
56923,-66.6666666666667,4,2,77,5,0,0
56983,-66.6666666666667,4,2,77,57,0,0
57161,-66.6666666666667,4,2,77,5,0,0
57221,-125,4,2,77,57,0,0
57460,-66.6666666666667,4,2,77,57,0,0
58174,-90.9090909090909,4,2,77,57,0,0
58590,-90.9090909090909,4,2,77,5,0,0
58650,-66.6666666666667,4,2,77,57,0,0
58828,-66.6666666666667,4,2,77,5,0,0
58888,-66.6666666666667,4,2,77,57,0,0
59066,-66.6666666666667,4,2,77,5,0,0
59126,-66.6666666666667,4,2,77,57,0,0
59364,-90.9090909090909,4,2,77,57,0,0
60257,-90.9090909090909,4,2,77,5,0,0
60317,-90.9090909090909,4,2,77,57,0,0
60555,-66.6666666666667,4,2,77,57,0,0
60733,-66.6666666666667,4,2,77,5,0,0
60793,-66.6666666666667,4,2,77,57,0,0
60971,-66.6666666666667,4,2,77,5,0,0
61031,-125,4,2,77,57,0,0
61269,-71.4285714285714,4,2,77,57,0,0
61923,-71.4285714285714,4,2,77,5,0,0
61983,-71.4285714285714,4,2,77,57,0,0
62221,-58.8235294117647,4,2,77,57,0,0
62399,-58.8235294117647,4,2,77,5,0,0
62460,-58.8235294117647,4,2,77,57,0,0
63174,-22.2222222222222,4,2,77,67,0,1
63233,-22.2222222222222,4,2,77,67,0,0
63293,-22.2222222222222,4,2,77,67,0,1
63352,-22.2222222222222,4,2,77,67,0,0
63412,-22.2222222222222,4,2,77,67,0,1
63471,-22.2222222222222,4,2,77,67,0,0
63531,-22.2222222222222,4,2,77,67,0,1
63591,-22.2222222222222,4,2,77,67,0,0
63650,-22.2222222222222,4,2,77,67,0,1
63710,-22.2222222222222,4,2,77,67,0,0
63888,-76.9230769230769,4,2,77,67,0,0
64066,-76.9230769230769,4,2,77,5,0,0
64126,-76.9230769230769,4,2,77,67,0,0
64364,-58.8235294117647,4,2,77,67,0,0
64542,-58.8235294117647,4,2,77,5,0,0
64602,-58.8235294117647,4,2,77,67,0,0
64780,-58.8235294117647,4,2,77,5,0,0
64841,-58.8235294117647,4,2,77,67,0,0
65793,-76.9230769230769,4,2,77,67,0,0
65971,-76.9230769230769,4,2,77,5,0,0
66031,-76.9230769230769,4,2,77,67,0,0
66269,-58.8235294117647,4,2,77,67,0,0
66447,-58.8235294117647,4,2,77,5,0,0
66507,-58.8235294117647,4,2,77,67,0,0
66685,-58.8235294117647,4,2,77,5,0,0
66745,-90.9090909090909,4,2,77,67,0,0
66983,-62.5,4,2,77,67,0,0
67161,-62.5,4,2,77,5,0,0
67221,-76.9230769230769,4,2,77,67,0,0
67698,-58.8235294117647,4,2,77,67,0,0
68352,-58.8235294117647,4,2,77,5,0,0
68412,-58.8235294117647,4,2,77,67,0,0
68590,-58.8235294117647,4,2,77,5,0,0
68650,-58.8235294117647,4,2,77,67,0,0
70793,-55.5555555555556,4,2,77,77,0,1
71269,-66.6666666666667,4,2,77,77,0,1
75019,-66.6666666666667,4,2,77,5,0,1
75079,-66.6666666666667,4,2,77,77,0,1
75733,-66.6666666666667,4,2,77,5,0,1
75793,-66.6666666666667,4,2,77,77,0,1
78352,-66.6666666666667,4,2,77,5,0,1
78412,-111.111111111111,4,2,77,77,0,0
79721,-111.111111111111,4,2,77,5,0,0
79841,-111.111111111111,4,2,77,77,0,0
80317,-90.9090909090908,4,2,77,77,0,0
82221,-111.111111111111,4,2,77,77,0,0
83531,-111.111111111111,4,2,77,5,0,0
83650,-111.111111111111,4,2,77,77,0,0
85555,-83.3333333333333,4,2,77,77,0,0
85971,-83.3333333333333,4,2,77,5,0,0
86031,-76.9230769230769,4,2,77,77,0,0
86685,-76.9230769230769,4,2,77,5,0,0
86745,-76.9230769230769,4,2,77,77,0,0
87161,-76.9230769230769,4,2,77,5,0,0
87221,-76.9230769230769,4,2,77,77,0,0
88292,-76.9230769230769,4,2,77,5,0,0
88412,-62.5,4,2,77,77,0,0
88590,-62.5,4,2,77,5,0,0
88650,-76.9230769230769,4,2,77,77,0,0
89841,-71.4285714285714,4,2,77,77,0,0
93650,-52.6315789473684,4,2,77,87,0,0
96209,-52.6315789473684,4,2,77,5,0,0
96269,-71.4285714285714,4,2,77,87,0,0
96745,-52.6315789473684,4,2,77,87,0,0
97757,-52.6315789473684,4,2,77,5,0,0
97817,-52.6315789473684,4,2,77,87,0,0
98114,-52.6315789473684,4,2,77,5,0,0
98174,-62.5,4,2,77,87,0,0
99364,-52.6315789473684,4,2,77,87,0,0
99542,-52.6315789473684,4,2,77,5,0,0
99602,-52.6315789473684,4,2,77,87,0,0
99780,-52.6315789473684,4,2,77,5,0,0
99841,-52.6315789473684,4,2,77,87,0,0
100019,-52.6315789473684,4,2,77,5,0,0
100079,-71.4285714285714,4,2,77,87,0,0
101269,-52.6315789473684,4,2,77,87,0,0
103828,-52.6315789473684,4,2,77,5,0,0
103888,-71.4285714285714,4,2,77,87,0,0
104364,-52.6315789473684,4,2,77,87,0,0
105079,-62.5,4,2,77,87,0,0
105317,-62.5,4,2,77,5,0,0
105436,-62.5,4,2,77,87,0,0
105793,-52.6315789473684,4,2,77,87,0,0
106090,-52.6315789473684,4,2,77,5,0,0
106150,-52.6315789473684,4,2,77,87,0,0
106269,-71.4285714285714,4,2,77,87,0,0
106507,-62.5,4,2,77,87,0,0
106864,-62.5,4,2,77,5,0,0
106983,-62.5,4,2,77,87,0,0
107460,-35.7142857142857,4,2,77,87,0,0
107638,-35.7142857142857,4,2,77,5,0,0
107698,-58.8235294117647,4,2,77,87,0,0
107936,-50,4,2,77,87,0,0
108174,-58.8235294117647,4,2,77,87,0,0
108412,-55.5555555555556,4,2,77,87,0,0
108769,-55.5555555555556,4,2,77,5,0,0
108888,-90.9090909090909,4,2,77,57,0,0
109780,-90.9090909090909,4,2,77,5,0,0
109841,-90.9090909090909,4,2,77,57,0,0
110079,-66.6666666666667,4,2,77,57,0,0
110257,-66.6666666666667,4,2,77,5,0,0
110317,-66.6666666666667,4,2,77,57,0,0
110495,-66.6666666666667,4,2,77,5,0,0
110555,-125,4,2,77,57,0,0
110793,-66.6666666666667,4,2,77,57,0,0
111507,-90.9090909090909,4,2,77,57,0,0
111923,-90.9090909090909,4,2,77,5,0,0
111983,-66.6666666666667,4,2,77,57,0,0
112161,-66.6666666666667,4,2,77,5,0,0
112221,-66.6666666666667,4,2,77,57,0,0
112399,-66.6666666666667,4,2,77,5,0,0
112460,-66.6666666666667,4,2,77,57,0,0
112698,-90.9090909090909,4,2,77,57,0,0
113590,-90.9090909090909,4,2,77,5,0,0
113650,-90.9090909090909,4,2,77,57,0,0
113888,-66.6666666666667,4,2,77,57,0,0
114066,-66.6666666666667,4,2,77,5,0,0
114126,-66.6666666666667,4,2,77,57,0,0
114304,-66.6666666666667,4,2,77,5,0,0
114364,-125,4,2,77,57,0,0
114602,-71.4285714285714,4,2,77,57,0,0
115257,-71.4285714285714,4,2,77,5,0,0
115317,-71.4285714285714,4,2,77,57,0,0
115555,-58.8235294117647,4,2,77,57,0,0
115733,-58.8235294117647,4,2,77,5,0,0
115793,-58.8235294117647,4,2,77,57,0,0
116507,-45.4545454545455,4,2,77,77,0,1
116923,-45.4545454545455,4,2,77,5,0,1
116983,-71.4285714285714,4,2,77,77,0,0
117221,-52.6315789473684,4,2,77,77,0,0
117399,-52.6315789473684,4,2,77,5,0,0
117460,-71.4285714285714,4,2,77,77,0,0
117698,-52.6315789473684,4,2,77,77,0,0
117876,-52.6315789473684,4,2,77,5,0,0
117936,-71.4285714285714,4,2,77,77,0,0
118114,-71.4285714285714,4,2,77,5,0,0
118174,-125,4,2,77,77,0,0
118412,-52.6315789473684,4,2,77,77,0,0
119066,-52.6315789473684,4,2,77,5,0,0
119126,-90.9090909090909,4,2,77,77,0,0
119841,-250,4,2,77,77,0,0
120317,-45.4545454545455,4,2,77,77,0,1
120733,-45.4545454545455,4,2,77,5,0,1
120793,-71.4285714285714,4,2,77,77,0,0
121031,-52.6315789473684,4,2,77,77,0,0
121209,-52.6315789473684,4,2,77,5,0,0
121269,-71.4285714285714,4,2,77,77,0,0
121507,-52.6315789473684,4,2,77,77,0,0
121685,-52.6315789473684,4,2,77,5,0,0
121745,-142.857142857143,4,2,77,77,0,0
121983,-142.857142857143,4,2,77,5,0,0
122221,-71.4285714285714,4,2,77,77,0,0
122876,-71.4285714285714,4,2,77,5,0,0
122936,-45.4545454545455,4,2,77,77,0,0
123114,-45.4545454545455,4,2,77,5,0,0
123174,-71.4285714285714,4,2,77,77,0,0
123412,-45.4545454545455,4,2,77,77,0,0
123590,-45.4545454545455,4,2,77,5,0,0
123650,-71.4285714285714,4,2,77,77,0,0
123888,-45.4545454545455,4,2,77,77,0,0
124066,-45.4545454545455,4,2,77,5,0,0
124126,-35.7142857142857,4,2,77,77,0,1
124542,-35.7142857142857,4,2,77,5,0,1
124602,-71.4285714285714,4,2,77,77,0,0
124841,-52.6315789473684,4,2,77,77,0,0
125019,-52.6315789473684,4,2,77,5,0,0
125079,-71.4285714285714,4,2,77,77,0,0
125317,-52.6315789473684,4,2,77,77,0,0
125495,-52.6315789473684,4,2,77,5,0,0
125555,-71.4285714285714,4,2,77,77,0,0
125733,-71.4285714285714,4,2,77,5,0,0
125793,-125,4,2,77,77,0,0
126031,-55.5555555555556,4,2,77,77,0,0
126745,-45.4545454545455,4,2,77,77,0,0
126923,-45.4545454545455,4,2,77,5,0,0
126983,-71.4285714285714,4,2,77,77,0,0
127221,-45.4545454545455,4,2,77,77,0,0
127399,-45.4545454545455,4,2,77,5,0,0
127460,-71.4285714285714,4,2,77,77,0,0
127936,-35.7142857142857,4,2,77,77,0,1
128352,-35.7142857142857,4,2,77,5,0,1
128412,-71.4285714285714,4,2,77,77,0,0
128650,-52.6315789473684,4,2,77,77,0,0
128828,-52.6315789473684,4,2,77,5,0,0
128888,-71.4285714285714,4,2,77,77,0,0
129126,-52.6315789473684,4,2,77,77,0,0
129304,-52.6315789473684,4,2,77,5,0,0
129364,-142.857142857143,4,2,77,77,0,0
129602,-142.857142857143,4,2,77,5,0,0
129841,-71.4285714285714,4,2,77,77,0,0
130496,-71.4285714285714,4,2,77,5,0,0
130555,-45.4545454545455,4,2,77,77,0,0
130733,-45.4545454545455,4,2,77,5,0,0
130793,-71.4285714285714,4,2,77,77,0,0
131031,-45.4545454545455,4,2,77,77,0,0
131209,-45.4545454545455,4,2,77,5,0,0
131269,-71.4285714285714,4,2,77,77,0,0
131507,-45.4545454545455,4,2,77,77,0,0
131685,-45.4545454545455,4,2,77,5,0,0
131745,-250.000000000001,4,2,77,57,0,0
139364,-90.9090909090909,4,2,77,57,0,0
139542,-90.9090909090909,4,2,77,5,0,0
139602,-90.9090909090909,4,2,77,57,0,0
140019,-90.9090909090909,4,2,77,5,0,0
140079,-90.9090909090909,4,2,77,57,0,0
141150,-90.9090909090909,4,2,77,5,0,0
141269,-90.9090909090909,4,2,77,57,0,0
143174,-62.5,4,2,77,67,0,0
144126,-55.5555555555556,4,2,77,67,0,0
145079,-55.5555555555556,4,2,77,77,0,0
145555,-90.9090909090909,4,2,77,77,0,0
146983,-52.6315789473684,4,2,77,87,0,0
149542,-52.6315789473684,4,2,77,5,0,0
149602,-71.4285714285714,4,2,77,87,0,0
150079,-52.6315789473684,4,2,77,87,0,0
151090,-52.6315789473684,4,2,77,5,0,0
151150,-52.6315789473684,4,2,77,87,0,0
151447,-52.6315789473684,4,2,77,5,0,0
151507,-62.5,4,2,77,87,0,0
152698,-52.6315789473684,4,2,77,87,0,0
152876,-52.6315789473684,4,2,77,5,0,0
152936,-52.6315789473684,4,2,77,87,0,0
153114,-52.6315789473684,4,2,77,5,0,0
153174,-52.6315789473684,4,2,77,87,0,0
153352,-52.6315789473684,4,2,77,5,0,0
153412,-71.4285714285714,4,2,77,87,0,0
154602,-52.6315789473684,4,2,77,87,0,0
157161,-52.6315789473684,4,2,77,5,0,0
157221,-71.4285714285714,4,2,77,87,0,0
157698,-52.6315789473684,4,2,77,87,0,0
158412,-62.5,4,2,77,87,0,0
158650,-62.5,4,2,77,5,0,0
158769,-62.5,4,2,77,87,0,0
159126,-52.6315789473684,4,2,77,87,0,0
159423,-52.6315789473684,4,2,77,5,0,0
159483,-52.6315789473684,4,2,77,87,0,0
159602,-71.4285714285714,4,2,77,87,0,0
160793,-35.7142857142857,4,2,77,87,0,0
160971,-35.7142857142857,4,2,77,5,0,0
161031,-58.8235294117647,4,2,77,87,0,0
161269,-50,4,2,77,87,0,0
161507,-58.8235294117647,4,2,77,87,0,0
161745,-55.5555555555556,4,2,77,87,0,0
162103,-55.5555555555556,4,2,77,5,0,0
162221,-52.6315789473684,4,2,77,87,0,0
164780,-52.6315789473684,4,2,77,5,0,0
164841,-71.4285714285714,4,2,77,87,0,0
165317,-52.6315789473684,4,2,77,87,0,0
166328,-52.6315789473684,4,2,77,5,0,0
166388,-52.6315789473684,4,2,77,87,0,0
166685,-52.6315789473684,4,2,77,5,0,0
166745,-62.5,4,2,77,87,0,0
167936,-52.6315789473684,4,2,77,87,0,0
168114,-52.6315789473684,4,2,77,5,0,0
168174,-52.6315789473684,4,2,77,87,0,0
168352,-52.6315789473684,4,2,77,5,0,0
168412,-52.6315789473684,4,2,77,87,0,0
168590,-52.6315789473684,4,2,77,5,0,0
168650,-71.4285714285714,4,2,77,87,0,0
169841,-52.6315789473684,4,2,77,87,0,0
172399,-52.6315789473684,4,2,77,5,0,0
172460,-71.4285714285714,4,2,77,87,0,0
172936,-52.6315789473684,4,2,77,87,0,0
173590,-52.6315789473684,4,2,77,5,0,0
173650,-62.5,4,2,77,87,0,0
173888,-62.5,4,2,77,5,0,0
174007,-62.5,4,2,77,87,0,0
174364,-45.4545454545455,4,2,77,87,0,0
174542,-45.4545454545455,4,2,77,5,0,0
174602,-71.4285714285714,4,2,77,87,0,0
175079,-45.4545454545455,4,2,77,87,0,0
175436,-45.4545454545455,4,2,77,5,0,0
175555,-45.4545454545455,4,2,77,87,0,0
176031,-71.4285714285714,4,2,77,87,0,0
176507,-52.6315789473684,4,2,77,87,0,0
176685,-52.6315789473684,4,2,77,5,0,0
176745,-52.6315789473684,4,2,77,87,0,0
176923,-52.6315789473684,4,2,77,5,0,0
176983,-52.6315789473684,4,2,77,87,0,0
177340,-52.6315789473684,4,2,77,5,0,0
177460,-45.4545454545455,4,2,77,87,0,1
178055,-45.4545454545455,4,2,77,5,0,1
178174,-45.4545454545455,4,2,77,87,0,1
178352,-45.4545454545455,4,2,77,5,0,1
178412,-83.3333333333333,4,2,77,87,0,1
178650,-50,4,2,77,87,0,1
178828,-50,4,2,77,5,0,1
178888,-50,4,2,77,87,0,1
179066,-50,4,2,77,5,0,1
179126,-200,4,2,77,87,0,1
179364,-50,4,2,77,87,0,1
179542,-50,4,2,77,5,0,1
179602,-50,4,2,77,87,0,1
179959,-50,4,2,77,5,0,1
180079,-45.4545454545455,4,2,77,87,0,1
180257,-45.4545454545455,4,2,77,5,0,1
180317,-83.3333333333333,4,2,77,87,0,1
180555,-50,4,2,77,87,0,1
180733,-50,4,2,77,5,0,1
180793,-62.5,4,2,77,87,0,1
180971,-62.5,4,2,77,5,0,1
181031,-83.3333333333333,4,2,77,87,0,1
181209,-83.3333333333333,4,2,77,5,0,1
181269,-50,4,2,77,87,0,1
182161,-50,4,2,77,5,0,1
182221,-83.3333333333333,4,2,77,87,0,1
182460,-50,4,2,77,87,0,1
182638,-50,4,2,77,5,0,1
182698,-50,4,2,77,87,0,1
182876,-50,4,2,77,5,0,1
182936,-71.4285714285714,4,2,77,87,0,1
184066,-71.4285714285714,4,2,77,5,0,1
184126,-55.5555555555556,4,2,77,87,0,1
184304,-55.5555555555556,4,2,77,5,0,1
184364,-55.5555555555556,4,2,77,87,0,1
184542,-55.5555555555556,4,2,77,5,0,1
184602,-55.5555555555556,4,2,77,87,0,1
184959,-55.5555555555556,4,2,77,5,0,1
185079,-45.4545454545455,4,2,77,87,0,1
185257,-45.4545454545455,4,2,77,5,0,1
185317,-45.4545454545455,4,2,77,87,0,1
185733,-45.4545454545455,4,2,77,5,0,1
185793,-45.4545454545455,4,2,77,87,0,1
186031,-125,4,2,77,87,0,1
186269,-45.4545454545455,4,2,77,87,0,1
186447,-45.4545454545455,4,2,77,5,0,1
186507,-45.4545454545455,4,2,77,87,0,1
186685,-45.4545454545455,4,2,77,5,0,1
186745,-45.4545454545455,4,2,77,87,0,1
186983,-38.4615384615385,4,2,77,87,0,1
187161,-38.4615384615385,4,2,77,5,0,1
187221,-55.5555555555556,4,2,77,87,0,1
188114,-55.5555555555556,4,2,77,5,0,1
188174,-55.5555555555556,4,2,77,87,0,1
188352,-55.5555555555556,4,2,77,5,0,1
188412,-125,4,2,77,87,0,1
188888,-45.4545454545455,4,2,77,87,0,1
189066,-45.4545454545455,4,2,77,5,0,1
189126,-66.6666666666667,4,2,77,87,0,1
189364,-45.4545454545455,4,2,77,87,0,1
189542,-45.4545454545455,4,2,77,5,0,1
189602,-66.6666666666667,4,2,77,87,0,1
190019,-66.6666666666667,4,2,77,5,0,1
190079,-45.4545454545455,4,2,77,87,0,1
190257,-45.4545454545455,4,2,77,5,0,1
190317,-45.4545454545455,4,2,77,87,0,1
190495,-45.4545454545455,4,2,77,5,0,1
190555,-66.6666666666667,4,2,77,87,0,1
191388,-66.6666666666667,4,2,77,5,0,1
191507,-66.6666666666667,4,2,77,87,0,1
191626,-66.6666666666667,4,2,77,5,0,1
191745,-100,4,2,77,47,0,1
191864,-100,4,2,77,5,0,1
191983,-100,4,2,77,47,0,1
192102,-100,4,2,77,5,0,1
192221,-200,4,2,77,47,0,1
192698,-200,4,2,77,47,0,0

[Colours]
Combo1 : 255,193,224
Combo2 : 233,233,233

[HitObjects]
484,18,2222,6,0,B|510:53|497:97|456:124|454:102|423:129|415:174|443:208,1,217,2|0,1:0|1:0,0:0:0:0:
411,329,2936,2,0,P|362:277|320:287,2,86.8,2|2|2,0:0|1:0|0:0,0:0:0:0:
260,363,3650,6,0,P|231:331|257:270,1,97.6499970199586,2|0,1:0|0:0,0:0:0:0:
253,275,3888,2,0,P|265:229|234:193,1,97.6499970199586
165,221,4126,6,0,L|128:234,4,27.125,0|0|0|0|0,1:0|0:0|0:0|0:0|1:0,0:0:0:0:
256,109,4841,2,0,P|198:95|176:58,2,86.8,2|2|2,0:0|1:0|0:0,0:0:0:0:
355,6,5555,6,0,L|339:110,1,97.6499970199586,2|0,1:0|0:0,0:0:0:0:
348,110,5793,2,0,L|332:214,1,97.6499970199586
341,214,6031,1,0,1:0:0:0:
214,295,6269,6,0,L|162:308,1,43.4
51,338,6507,2,0,L|93:327,1,43.4,0|0,1:0|0:0,0:0:0:0:
164,221,6745,2,0,L|67:196,2,86.8,2|2|2,0:0|1:0|0:0,0:0:0:0:
290,346,7460,6,0,P|328:365|380:324,1,97.6499970199586,2|0,1:0|0:0,0:0:0:0:
381,331,7698,2,0,P|422:307|465:328,1,97.6499970199586
464,338,7936,1,2,1:0:0:0:
464,338,9841,6,0,B|496:274|436:234|438:259|376:225|407:156,1,211.574990314866,6|2,1:0|0:0,0:0:0:0:
406,51,10317,2,0,P|366:92|296:76,1,105.787495157433,8|0,0:0|0:0,0:0:0:0:
319,80,10555,1,0,1:0:0:0:
136,42,11031,5,2,1:0:0:0:
51,20,11150,1,2,0:0:0:0:
136,42,11269,2,0,P|184:84|161:173,1,141.049993543244,10|2,0:0|0:0,0:0:0:0:
78,280,11626,5,2,0:0:0:0:
18,216,11745,2,0,B|-38:140|31:42|141:90|142:185|78:228|15:184,1,282.099987086487,0|8,1:0|0:0,0:0:0:0:
51,20,12460,1,0,1:0:0:0:
157,235,12936,5,2,1:0:0:0:
228,271,13055,1,2,0:0:0:0:
294,227,13174,2,0,P|303:177|313:133,1,70.5249967716219,10|0,0:0|3:0,0:0:0:0:
236,121,13412,2,0,P|227:171|217:215,1,70.5249967716219,2|0,3:2|3:0,0:0:0:0:
306,315,13650,6,0,P|383:304|394:231,1,141.049993543244,2|0,1:0|0:0,0:0:0:0:
400,251,14007,2,0,P|410:185|489:161,1,141.049993543244,2|0,0:0|0:0,0:0:0:0:
472,157,14364,1,2,1:0:0:0:
373,365,14721,5,2,1:0:0:0:
303,311,14841,2,0,P|243:281|187:304,1,105.787495157433,0|0,1:0|0:0,0:0:0:0:
131,278,15079,2,0,P|70:245|57:186,1,105.787495157433,10|0,0:0|0:0,0:0:0:0:
64,206,15317,2,0,P|89:251|138:270,1,105.787495157433,10|0,0:3|0:0,0:0:0:0:
207,289,15555,1,2,1:0:0:0:
257,131,15912,5,2,0:0:0:0:
257,131,16031,2,0,P|195:145|141:184,1,105.787495157433,8|0,0:0|0:0,0:0:0:0:
156,177,16269,2,0,P|92:173|126:93,1,141.049993543244,2|0,1:0|0:0,0:0:0:0:
318,64,16745,5,2,1:0:0:0:
245,31,16864,1,2,0:0:0:0:
318,64,16983,2,0,P|343:106|351:155,1,70.5249967716219,10|0,0:0|0:0,0:0:0:0:
300,230,17221,2,0,L|307:188,2,35.2624983858109,10|0|0,0:3|0:0|0:0,0:0:0:0:
378,322,17460,6,0,P|439:304|440:218,1,151.89999536438,6|0,1:0|0:0,0:0:0:0:
348,126,17817,1,2,0:0:0:0:
424,148,17936,2,0,P|474:121|483:58,1,113.924996523285,8|0,0:0|0:0,0:0:0:0:
478,66,18174,1,0,1:0:0:0:
245,31,18650,6,0,B|202:23|202:23|244:48,1,75.94999768219,2|0,1:0|0:0,0:0:0:0:
318,64,18888,2,0,P|291:130|201:134,1,151.89999536438,10|10,0:0|0:3,0:0:0:0:
93,44,19245,1,2,0:0:0:0:
133,112,19364,6,0,B|148:159|112:189|113:170|72:198|90:247,1,151.89999536438,0|0,1:0|0:0,0:0:0:0:
299,276,19841,2,0,P|341:248|345:201,1,75.94999768219,10|0,0:0|0:0,0:0:0:0:
215,313,20079,2,0,P|218:363|256:390,1,75.94999768219,2|0,1:0|0:0,0:0:0:0:
224,222,20317,2,0,P|178:199|136:219,1,75.94999768219,2|0,0:0|0:0,0:0:0:0:
315,357,20555,6,0,P|360:379|424:352,1,113.924996523285,0|0,1:0|0:0,0:0:0:0:
420,345,20793,2,0,P|434:282|444:246,1,75.94999768219,8|0,0:0|3:0,0:0:0:0:
348,225,21031,2,0,P|357:188|365:151,1,75.94999768219,0|0,3:0|3:0,0:0:0:0:
479,70,21269,5,2,1:0:0:0:
479,70,21388,2,0,P|414:76|343:17,1,151.89999536438,2|0,0:0|0:0,0:0:0:0:
287,160,21745,1,10,0:0:0:0:
287,160,21864,2,0,P|222:154|151:213,1,151.89999536438,2|0,0:0|0:0,0:0:0:0:
221,297,22221,5,2,0:0:0:0:
221,297,22341,1,2,1:0:0:0:
221,297,22460,2,0,P|233:239|241:211,1,75.94999768219,0|0,1:0|0:0,0:0:0:0:
99,152,22698,2,0,P|143:191|163:212,1,75.94999768219,10|0,0:0|0:0,0:0:0:0:
285,118,22936,2,0,P|228:136|200:143,1,75.94999768219
52,38,23174,6,0,P|125:53|163:93,1,113.924996523285,2|0,1:0|0:0,0:0:0:0:
156,68,23412,2,0,P|110:34|54:27,1,113.924996523285,2|0,0:0|0:0,0:0:0:0:
0,97,23650,1,10,0:0:0:0:
154,203,23888,1,2,1:0:0:0:
27,339,24126,6,0,L|35:296,1,37.974998841095,12|0,3:3|0:0,0:0:0:0:
221,301,24364,6,0,L|229:258,1,37.974998841095,12|0,1:3|0:0,0:0:0:0:
415,263,24602,6,0,L|439:124,1,113.924996523285,12|0,0:0|0:0,0:0:0:0:
427,145,24841,2,0,L|390:152,2,37.974998841095
497,233,25079,5,6,1:0:0:0:
482,319,25198,1,2,0:0:0:0:
400,349,25317,1,2,0:0:0:0:
415,263,25436,1,2,0:0:0:0:
497,233,25555,6,0,L|487:281,2,48.8249985099793,8|0|0,0:0|0:0|0:0,0:0:0:0:
313,177,26031,2,0,P|260:184|233:278,1,146.474995529938,10|0,0:0|0:0,0:0:0:0:
290,321,26507,6,0,L|282:361,2,24.4124992549896,10|0|0,0:0|0:0|0:0,0:0:0:0:
376,344,26745,2,0,L|416:351,2,24.4124992549896
194,344,26983,5,10,0:0:0:0:
104,355,27221,2,0,P|117:296|122:272,1,59.6750018211365
152,220,27460,5,8,0:0:0:0:
61,230,27698,2,0,P|74:171|79:147,1,59.6750018211365
109,95,27936,5,8,0:0:0:0:
18,105,28174,2,0,P|31:46|36:22,1,59.6750018211365
173,38,28412,6,0,L|209:31,2,24.4124992549896,8|0|0,0:0|0:0|0:0,0:0:0:0:
201,118,28650,2,0,L|208:154,2,24.4124992549896
276,16,28888,5,6,1:2:0:0:
360,33,29007,1,2,0:0:0:0:
387,114,29126,1,2,0:0:0:0:
303,97,29245,1,2,0:0:0:0:
276,16,29364,6,0,L|331:27,2,48.8249985099793,8|0|0,0:0|0:0|0:0,0:0:0:0:
223,221,29841,2,0,P|297:231|331:168,1,146.474995529938,10|0,0:0|0:0,0:0:0:0:
303,97,30317,6,0,L|273:104,2,24.4124992549896,10|0|0,0:0|0:0|0:0,0:0:0:0:
387,114,30555,2,0,L|417:121,2,24.4124992549896
425,227,30793,6,0,P|470:213|496:184,2,65.0999980133057,10|0|0,0:0|0:0|0:0,0:0:0:0:
395,314,31269,2,0,P|384:359|396:396,2,65.0999980133057,8|0|0,0:0|0:0|0:0,0:0:0:0:
335,244,31745,2,0,P|300:212|262:204,2,65.0999980133057,8|0|0,0:0|0:0|0:0,0:0:0:0:
306,358,32221,6,0,P|183:326|59:309,1,227.84999304657,10|0,0:0|0:0,0:0:0:0:
32,384,32698,6,0,B|1:320|53:277|55:301|105:257|85:193,1,211.574990314866,6|2,1:0|0:0,0:0:0:0:
0,131,33174,2,0,P|62:115|73:55,1,105.787495157433,8|0,0:0|0:0,0:0:0:0:
76,68,33412,2,0,P|31:54|-1:59,1,70.5249967716219
152,126,33650,6,0,P|203:92|203:26,1,105.787495157433,8|0,0:0|0:0,0:0:0:0:
203,44,33888,1,2,0:0:0:0:
230,124,34007,1,2,0:0:0:0:
308,135,34126,2,0,L|352:124,2,35.2624983858109,10|0|0,0:0|0:0|0:0,0:0:0:0:
211,220,34364,2,0,L|167:209,2,35.2624983858109,2|0|2,0:0|0:0|0:0,0:0:0:0:
401,285,34602,6,0,B|394:216|315:193|268:234|278:301|335:299,1,211.574990314866,8|0,0:0|0:0,0:0:0:0:
471,372,35079,2,0,P|488:300|504:228,1,130.2,8|0,0:0|0:0,0:0:0:0:
495,227,35317,6,0,P|472:189|421:180,1,70.5249967716219
308,135,35555,2,0,P|352:134|385:94,1,70.5249967716219,8|0,0:0|0:0,0:0:0:0:
481,19,35793,2,0,P|459:57|477:106,1,70.5249967716219
412,253,36031,2,0,L|359:240,2,35.2624983858109,8|0|0,0:0|0:0|0:0,0:0:0:0:
280,338,36269,2,0,L|246:347,2,35.2624983858109,2|0|0,0:0|0:0|0:0,0:0:0:0:
363,375,36507,6,0,B|414:332|414:332|371:226,1,151.89999536438,14|2,1:2|0:0,0:0:0:0:
280,216,36864,1,0,0:0:0:0:
308,135,36983,2,0,P|344:147|381:153,1,75.94999768219,10|0,0:0|3:0,0:0:0:0:
512,106,37221,2,0,P|475:93|438:87,1,75.94999768219,2|0,0:0|3:0,0:0:0:0:
280,216,37460,5,10,0:0:0:0:
243,188,37579,1,0,3:0:0:0:
224,146,37698,1,2,3:2:0:0:
228,100,37817,1,0,3:0:0:0:
253,61,37936,2,0,L|293:54,2,37.974998841095,10|0|0,0:0|0:0|0:0,0:0:0:0:
150,116,38174,2,0,L|110:109,2,37.974998841095,0|0|0,3:0|0:0|0:0,0:0:0:0:
0,192,38412,5,14,1:2:0:0:
0,192,40317,6,0,B|62:161|100:214|82:213|123:268|187:241,1,206.149994495201,4|2,1:0|0:0,0:0:0:0:
310,171,40674,2,0,P|339:118|316:63,1,103.074997247601,2|8,0:0|0:0,0:0:0:0:
228,169,40912,1,2,0:0:0:0:
270,248,41031,2,0,P|323:277|378:254,1,103.074997247601,2|0,0:0|0:0,0:0:0:0:
480,160,41269,1,0,1:0:0:0:
377,368,41507,6,0,P|370:316|361:266,1,103.074997247601,2|0,0:0|0:0,0:0:0:0:
480,160,41745,2,0,B|483:215|483:215|420:257,1,103.074997247601,10|0,0:0|0:0,0:0:0:0:
277,281,41983,2,0,B|274:226|274:226|337:184,1,103.074997247601,2|0,0:0|0:0,0:0:0:0:
459,331,42221,6,0,B|398:356|357:301|375:302|337:249|275:280,1,206.149994495201,2|0,1:0|0:0,0:0:0:0:
162,346,42579,1,2,0:0:0:0:
174,359,42698,2,0,P|244:349|273:264,1,154.612495871401,8|0,0:0|0:0,0:0:0:0:
266,269,42936,2,0,P|253:218|241:168,1,75.94999768219,2|0,0:0|0:0,0:0:0:0:
341,108,43174,5,0,1:0:0:0:
384,45,43293,1,0,0:0:0:0:
341,108,43412,2,0,P|281:96|248:43,1,103.074997247601,2|0,0:0|0:0,0:0:0:0:
95,19,43650,2,0,P|111:102|120:155,1,103.074997247601,10|0,0:0|0:0,0:0:0:0:
187,137,43829,1,0,0:0:0:0:
195,138,43888,2,0,P|179:55|170:2,1,103.074997247601,10|0,0:3|0:0,0:0:0:0:
36,167,44126,6,0,B|-39:226|-7:313|73:335|123:292|101:219|53:217,1,257.687493119002,2|0,1:0|0:0,0:0:0:0:
74,231,44483,1,2,0:0:0:0:
166,292,44602,2,0,P|246:268|333:248,1,154.612495871401,8|0,0:0|0:0,0:0:0:0:
327,253,44841,2,0,P|355:289|340:349,1,86.8,10|0,0:3|0:0,0:0:0:0:
222,221,45079,2,0,P|221:178|248:145,1,86.8,0|0,1:0|0:0,0:0:0:0:
409,110,45317,6,0,P|471:127|513:135,1,86.8,2|0,0:0|0:0,0:0:0:0:
327,132,45555,2,0,P|310:68|296:29,1,86.8,10|0,0:0|0:0,0:0:0:0:
387,191,45793,2,0,P|340:236|313:268,1,86.8,2|0,0:0|0:0,0:0:0:0:
445,378,46031,6,0,P|461:296|478:210,1,154.612495871401,2|0,1:0|0:0,0:0:0:0:
465,224,46269,2,0,P|450:300|436:376,1,154.612495871401,2|0,0:0|0:0,0:0:0:0:
333,356,46507,6,0,P|253:318|251:229,1,154.612495871401,10|0,0:0|0:0,0:0:0:0:
248,252,46745,2,0,P|256:304|274:323,1,75.94999768219,2|0,0:0|0:0,0:0:0:0:
307,180,46983,5,2,1:0:0:0:
232,163,47102,1,8,0:3:0:0:
170,209,47221,1,10,0:3:0:0:
46,25,47460,5,10,0:0:0:0:
103,88,47579,1,4,0:3:0:0:
76,168,47698,1,4,0:3:0:0:
19,105,47817,1,4,0:3:0:0:
130,8,47936,6,0,P|217:29|340:47,1,206.149994495201,12|2,1:2|0:0,0:0:0:0:
504,87,48293,2,0,P|421:105|362:124,1,103.074997247601,2|8,0:0|0:0,0:0:0:0:
332,46,48531,1,2,0:0:0:0:
427,10,48650,2,0,P|409:93|390:152,1,103.074997247601,2|0,0:0|0:0,0:0:0:0:
260,200,48888,1,0,1:0:0:0:
357,364,49126,6,0,P|377:281|390:227,1,103.074997247601,2|0,0:0|0:0,0:0:0:0:
260,200,49364,2,0,P|254:246|307:288,1,103.074997247601,10|0,0:0|0:0,0:0:0:0:
469,270,49602,2,0,P|475:224|422:182,1,103.074997247601,2|0,0:0|0:0,0:0:0:0:
255,110,49841,6,0,P|178:165|190:302,1,206.149994495201,2|0,1:0|0:0,0:0:0:0:
11,371,50198,1,2,0:0:0:0:
27,376,50317,2,0,P|88:338|68:241,1,154.612495871401,8|0,0:0|0:0,0:0:0:0:
76,251,50555,2,0,L|90:161,1,75.94999768219,2|0,0:0|0:0,0:0:0:0:
57,62,50793,5,0,1:0:0:0:
0,0,50912,1,0,0:0:0:0:
57,62,51031,2,0,P|129:46|163:-12,1,103.074997247601,2|0,0:0|0:0,0:0:0:0:
232,186,51269,2,0,P|182:131|114:131,1,103.074997247601,10|0,0:0|0:0,0:0:0:0:
276,0,51507,2,0,P|231:36|312:49,1,154.612495871401,10|0,0:3|0:0,0:0:0:0:
303,87,51745,6,0,P|380:68|483:56,1,173.6,6|0,1:0|0:0,0:0:0:0:
447,179,52102,1,2,0:0:0:0:
433,181,52221,2,0,P|393:141|393:92,1,86.8,8|0,0:0|0:0,0:0:0:0:
414,309,52460,6,0,B|344:364|263:317|256:234|314:187|383:223|368:275,1,257.687493119002,2|0,1:0|0:0,0:0:0:0:
364,250,52817,1,0,1:0:0:0:
424,310,52936,2,0,P|413:364|401:408,1,75.94999768219,0|0,1:0|0:0,0:0:0:0:
258,370,53174,6,0,B|206:324|216:254|216:254|193:324|119:330,1,260.4,8|0,0:0|0:0,0:0:0:0:
10,198,53650,5,2,1:0:0:0:
84,155,53769,1,2,0:0:0:0:
158,198,53888,1,2,0:0:0:0:
84,241,54007,1,2,0:0:0:0:
9,112,54126,6,0,B|-41:47|1:-27|78:-33|121:19|88:83|40:69,1,227.84999304657,10|0,0:0|0:0,0:0:0:0:
71,66,54364,6,0,P|17:49|2:5,1,92.2250017590523,2|0,1:0|0:0,0:0:0:0:
243,136,54602,2,0,P|229:188|216:241,1,108.5,2|0,0:0|0:0,0:0:0:0:
164,48,54841,6,0,P|188:10|232:1,1,92.2250017590523,2|0,1:0|0:0,0:0:0:0:
365,74,55079,2,0,P|247:107|65:160,1,292.949991059876,10|0,0:0|0:0,0:0:0:0:
10,284,55555,6,0,P|22:345|90:350,2,119.350003642273,4|0|0,1:0|0:0|0:0,0:0:0:0:
10,284,56269,2,0,P|84:261|114:255,1,89.5125027317048,14|0,0:3|0:0,0:0:0:0:
113,275,56507,2,0,P|122:246|132:218,1,59.6750018211365,10|0,0:0|0:0,0:0:0:0:
243,136,56745,6,0,P|292:160|292:251,1,122.062504656315,2|0,0:0|0:0,0:0:0:0:
301,234,56983,2,0,P|312:291|364:319,1,122.062504656315,2|0,1:0|0:0,0:0:0:0:
423,270,57221,2,0,L|432:246,3,21.7,0|0|0|0,3:0|3:0|3:0|3:0,0:0:0:0:
365,319,57460,6,0,P|226:347|195:354,1,162.75000620842,12|0,0:3|0:0,0:0:0:0:
63,245,57817,2,0,P|202:217|233:210,1,162.75000620842,12|0,0:3|0:0,0:0:0:0:
205,351,58174,2,0,P|194:298|190:271,1,59.6750018211365,14|0,0:3|0:0,0:0:0:0:
221,135,58412,2,0,P|271:150|296:196,1,89.5125027317048,10|0,0:0|0:0,0:0:0:0:
287,259,58650,6,0,P|401:230|430:223,1,122.062504656315,2|0,0:0|0:0,0:0:0:0:
411,237,58888,2,0,P|379:350|370:378,1,122.062504656315,2|0,1:0|0:0,0:0:0:0:
368,355,59126,1,0,0:0:0:0:
287,341,59245,1,0,0:0:0:0:
458,368,59364,6,0,P|495:324|483:260,2,119.350003642273,12|0|0,0:3|0:0|0:0,0:0:0:0:
458,368,60079,2,0,L|352:351,1,89.5125027317048,14|0,0:3|0:0,0:0:0:0:
359,369,60317,2,0,L|342:307,1,59.6750018211365,10|0,0:0|0:0,0:0:0:0:
222,212,60555,6,0,P|157:218|131:290,1,122.062504656315,2|0,0:0|0:0,0:0:0:0:
128,275,60793,2,0,P|94:323|35:326,1,122.062504656315,2|0,1:0|0:0,0:0:0:0:
14,254,61031,2,0,L|20:220,3,21.7
35,325,61269,6,0,P|88:342|119:354,1,75.94999768219,14|2,0:3|0:0,0:0:0:0:
201,286,61507,2,0,P|148:269|117:257,1,75.94999768219,2|14,0:0|0:3,0:0:0:0:
45,154,61745,2,0,P|110:99|159:116,1,113.924996523285,2|0,0:0|0:0,0:0:0:0:
143,106,61983,2,0,P|145:152|108:175,1,75.94999768219,14|0,0:3|0:0,0:0:0:0:
81,20,62221,6,0,P|169:20|231:79,1,138.337502638578,10|0,0:0|0:0,0:0:0:0:
221,59,62460,2,0,P|274:41|280:-10,1,92.2250017590523,2|0,1:0|0:0,0:0:0:0:
229,147,62698,5,10,0:3:0:0:
229,147,62777,2,0,P|244:187|274:213,1,61.4833345060349,8|8,0:3|0:3,0:0:0:0:
210,277,62936,5,8,0:3:0:0:
210,277,63015,2,0,P|247:298|287:299,1,61.4833345060349,8|8,0:3|0:3,0:0:0:0:
379,248,63174,6,0,B|306:206|306:206|366:240|366:240|297:207|297:207|353:235|353:235|287:210|287:210|338:230|338:230|278:213|278:213|324:227|324:227|268:216|268:216|309:226|309:226|259:221|259:221|294:227|294:227|252:227|252:227|280:230|280:230|243:232|243:232|265:234|265:234|236:239|236:239|252:240|252:240|229:246|229:246|239:248|239:248|223:253|223:253|228:258|228:258|217:262|217:262|218:268|218:268|212:270|212:270|208:280,1,976.50003725052,4|8,1:0|0:0,0:0:0:0:
24,376,63888,6,0,P|68:350|61:273,1,105.787495157433,2|0,1:0|0:0,0:0:0:0:
69,279,64126,2,0,L|-28:300,1,70.5249967716219,2|0,0:0|0:0,0:0:0:0:
26,133,64364,6,0,P|99:137|132:220,1,138.337502638578,2|0,1:0|0:0,0:0:0:0:
136,202,64602,2,0,P|176:255|243:255,1,138.337502638578,10|0,0:0|0:0,0:0:0:0:
270,183,64841,2,0,B|282:148|282:148|214:197,1,92.2250017590523,8|0,0:3|0:0,0:0:0:0:
276,360,65079,5,2,1:0:0:0:
262,341,65198,1,2,0:0:0:0:
284,348,65317,1,2,0:0:0:0:
262,355,65436,1,2,0:0:0:0:
276,337,65555,1,8,0:0:0:0:
452,303,65793,2,0,P|409:252|357:257,1,105.787495157433,2|0,1:0|0:0,0:0:0:0:
369,262,66031,2,0,P|390:302|423:313,1,70.5249967716219,2|0,0:0|0:0,0:0:0:0:
488,172,66269,6,0,L|466:16,1,138.337502638578,2|0,1:0|0:0,0:0:0:0:
456,30,66507,2,0,L|331:127,1,138.337502638578,10|0,0:0|0:0,0:0:0:0:
350,129,66745,2,0,L|449:169,1,59.6750018211365,0|0,3:0|3:0,0:0:0:0:
251,81,66983,6,0,P|179:125|184:196,1,130.2,0|0,1:0|0:0,0:0:0:0:
181,174,67221,2,0,P|232:165|252:145,1,70.5249967716219
92,102,67460,2,0,P|62:83|27:81,1,70.5249967716219,8|0,0:0|0:0,0:0:0:0:
60,258,67698,6,0,B|32:203|79:170|78:186|126:150|102:94,1,184.450003518105,2|2,1:0|0:0,0:0:0:0:
187,251,68055,1,0,1:0:0:0:
181,174,68174,6,0,P|255:157|293:235,1,138.337502638578,2|0,1:0|0:0,0:0:0:0:
297,218,68412,2,0,P|345:262|408:242,1,138.337502638578,10|0,0:0|0:0,0:0:0:0:
409,161,68650,2,0,B|413:124|413:124|374:187,1,92.2250017590523,8|8,0:3|0:3,0:0:0:0:
187,251,68888,1,2,1:0:0:0:
508,133,70555,5,2,0:0:0:0:
450,92,70674,1,2,0:0:0:0:
492,34,70793,2,0,P|474:122|455:247,2,195.299994039917,4|0|0,1:0|1:0|0:0,0:0:0:0:
384,121,71388,5,0,0:0:0:0:
319,74,71507,2,0,P|331:40|390:29,1,81.37500310421,2|2,1:0|0:0,0:0:0:0:
359,200,71745,6,0,P|272:229|182:260,1,162.75000620842,10|2,0:0|0:0,0:0:0:0:
267,367,72102,1,2,0:0:0:0:
333,324,72221,2,0,B|357:275|328:230|279:220|286:240|235:228|204:184|228:136,1,244.12500931263,2|2,0:0|0:0,0:0:0:0:
140,27,72698,5,2,1:0:0:0:
153,105,72817,1,0,1:0:0:0:
99,164,72936,2,0,P|51:172|14:146,1,81.37500310421,0|0,1:0|0:0,0:0:0:0:
225,141,73174,2,0,P|255:177|251:222,1,81.37500310421,8|0,0:0|0:0,0:0:0:0:
138,19,73412,5,2,1:0:0:0:
140,27,73531,1,2,0:0:0:0:
70,78,73650,2,0,P|42:49|37:9,1,81.37500310421,10|0,0:0|0:0,0:0:0:0:
151,97,73888,5,2,1:0:0:0:
153,105,74007,1,2,0:0:0:0:
99,164,74126,2,0,P|60:173|26:158,2,40.687501552105,2|0|0,0:0|0:0|0:0,0:0:0:0:
225,141,74364,2,0,P|252:169|257:208,2,40.687501552105,2|0|2,0:0|0:0|0:0,0:0:0:0:
140,27,74602,5,2,0:0:0:0:
179,261,74841,6,0,P|150:289|69:264,1,122.062504656315,2|0,1:0|0:0,0:0:0:0:
72,264,75079,2,0,L|65:304,2,40.687501552105,0|0|0,1:0|0:0|0:0,0:0:0:0:
201,367,75317,5,2,0:0:0:0:
203,359,75436,1,2,0:0:0:0:
254,297,75555,2,0,P|292:308|311:390,1,122.062504656315,10|0,0:0|0:0,0:0:0:0:
306,384,75793,2,0,P|320:286|336:212,2,162.75000620842,2|10|2,0:0|0:0|0:0,0:0:0:0:
254,202,76507,6,0,B|256:110|173:80|107:125|108:188|175:217|206:183,2,244.12500931263,2|0|2,1:0|1:0|1:0,0:0:0:0:
406,312,77460,5,10,0:0:0:0:
416,231,77579,1,10,0:0:0:0:
433,151,77698,1,10,0:0:0:0:
288,305,77936,6,0,P|187:302|-7:395,1,284.812510864735,14|0,0:0|0:0,0:0:0:0:
26,352,78412,5,6,1:0:0:0:
73,294,78531,1,2,0:0:0:0:
47,224,78650,1,2,0:0:0:0:
0,282,78769,1,2,0:0:0:0:
26,352,78888,6,0,L|78:360,2,48.8249985099793,8|0|0,0:0|0:0|0:0,0:0:0:0:
137,143,79364,2,0,P|199:154|222:229,1,146.474995529938,10|0,0:0|0:0,0:0:0:0:
185,298,79841,6,0,L|176:341,2,24.4124992549896,10|0|0,0:0|0:0|0:0,0:0:0:0:
96,299,80079,2,0,L|53:290,2,24.4124992549896
262,326,80317,5,10,0:0:0:0:
401,304,80555,2,0,L|327:288,1,59.6750018211365
290,212,80793,5,8,0:0:0:0:
429,190,81031,2,0,L|355:174,1,59.6750018211365
318,98,81269,5,8,0:0:0:0:
457,76,81507,2,0,L|383:60,1,59.6750018211365
256,41,81745,6,0,L|267:-10,2,29.8375009105683,8|0|0,0:0|0:0|0:0,0:0:0:0:
179,71,81983,2,0,L|149:64,2,29.8375009105683
84,152,82221,5,6,1:2:0:0:
131,210,82340,1,2,0:0:0:0:
105,280,82459,1,2,0:0:0:0:
58,222,82578,1,2,0:0:0:0:
84,152,82697,6,0,L|136:144,2,48.8249985099793,8|0|0,0:0|0:0|0:0,0:0:0:0:
191,345,83174,2,0,P|251:340|291:258,1,146.474995529938,10|0,0:0|0:0,0:0:0:0:
263,194,83650,6,0,L|254:153,2,24.4124992549896,10|0|0,0:0|0:0|0:0,0:0:0:0:
184,212,83888,2,0,L|143:221,2,24.4124992549896
345,182,84126,6,0,P|383:202|399:248,2,65.0999980133057,10|0|0,0:0|0:0|0:0,0:0:0:0:
512,141,84602,2,0,P|475:163|427:154,2,65.0999980133057,8|0|0,0:0|0:0|0:0,0:0:0:0:
464,306,85079,2,0,P|462:263|494:226,2,65.0999980133057,8|0|0,0:0|0:0|0:0,0:0:0:0:
447,75,85555,6,0,P|330:100|213:91,1,227.84999304657,10|0,0:0|0:0,0:0:0:0:
184,25,86031,6,0,B|153:89|205:132|207:108|257:152|237:216,1,211.574990314866,6|2,1:0|0:0,0:0:0:0:
152,278,86507,2,0,P|214:294|225:354,1,105.787495157433,8|0,0:0|0:0,0:0:0:0:
228,341,86745,2,0,P|183:355|151:350,1,70.5249967716219
304,283,86983,6,0,P|355:317|355:383,1,105.787495157433,8|0,0:0|0:0,0:0:0:0:
355,365,87221,1,2,0:0:0:0:
382,285,87340,1,2,0:0:0:0:
460,274,87459,2,0,L|504:285,2,35.2624983858109,10|0|0,0:0|0:0|0:0,0:0:0:0:
363,189,87697,2,0,L|319:200,2,35.2624983858109,2|0|2,0:0|0:0|0:0,0:0:0:0:
500,79,87935,6,0,B|431:86|408:165|449:212|516:202|514:145,1,211.574990314866,8|0,0:0|0:0,0:0:0:0:
383,56,88412,2,0,P|311:39|239:23,1,130.2,8|0,0:0|0:0,0:0:0:0:
238,32,88650,6,0,P|200:55|191:106,1,70.5249967716219
146,219,88888,2,0,P|145:175|105:142,1,70.5249967716219,8|0,0:0|0:0,0:0:0:0:
30,46,89126,2,0,P|68:68|117:50,1,70.5249967716219
264,115,89364,2,0,L|251:168,2,35.2624983858109,8|0|0,0:0|0:0|0:0,0:0:0:0:
349,247,89602,2,0,L|358:281,2,35.2624983858109,2|0|0,0:0|0:0|0:0,0:0:0:0:
262,384,89841,6,0,B|219:340|219:340|254:235,1,151.89999536438,14|2,1:2|0:0,0:0:0:0:
176,153,90197,1,0,0:0:0:0:
95,181,90317,2,0,P|107:217|113:254,1,75.94999768219,10|0,0:0|3:0,0:0:0:0:
44,362,90554,2,0,P|31:325|25:288,1,75.94999768219,2|0,0:0|3:0,0:0:0:0:
14,142,90793,5,10,0:0:0:0:
42,105,90912,1,0,3:0:0:0:
84,86,91031,1,2,3:2:0:0:
130,90,91150,1,0,3:0:0:0:
169,115,91269,2,0,L|176:155,2,37.974998841095,10|0|0,0:0|0:0|0:0,0:0:0:0:
247,254,91507,2,0,L|254:214,2,37.974998841095,0|0|0,3:0|0:0|0:0,0:0:0:0:
320,384,91745,5,14,1:2:0:0:
320,384,93650,6,0,B|289:322|342:284|341:302|396:261|369:197,1,206.149994495201,4|2,1:0|0:0,0:0:0:0:
286,83,94007,2,0,P|307:22|351:-6,1,103.074997247601,2|8,0:0|0:0,0:0:0:0:
376,112,94245,1,2,0:0:0:0:
282,172,94364,2,0,P|221:151|193:107,1,103.074997247601,2|0,0:0|0:0,0:0:0:0:
32,32,94602,1,0,1:0:0:0:
87,246,94841,6,0,P|102:174|108:137,1,103.074997247601,2|0,0:0|0:0,0:0:0:0:
32,32,95079,2,0,B|8:76|8:76|31:139,1,103.074997247601,10|0,0:0|0:0,0:0:0:0:
192,215,95317,2,0,B|216:171|216:171|193:108,1,103.074997247601,2|0,0:0|0:0,0:0:0:0:
0,256,95555,6,0,B|62:225|100:278|82:277|123:332|187:305,1,206.149994495201,2|0,1:0|0:0,0:0:0:0:
319,371,95912,1,2,0:0:0:0:
305,381,96031,2,0,P|254:359|267:261,1,154.612495871401,8|0,0:0|0:0,0:0:0:0:
269,272,96269,2,0,P|285:226|277:186,1,75.94999768219,2|0,0:0|0:0,0:0:0:0:
197,121,96507,5,0,1:0:0:0:
144,59,96626,1,0,0:0:0:0:
197,121,96745,2,0,B|251:111|251:111|275:57,1,103.074997247601,2|0,0:0|0:0,0:0:0:0:
410,187,96983,2,0,B|390:143|390:143|336:133,1,103.074997247601,10|0,0:0|0:0,0:0:0:0:
286,189,97162,1,0,0:0:0:0:
281,199,97221,2,0,B|300:242|300:242|354:252,1,103.074997247601,10|0,0:3|0:0,0:0:0:0:
508,349,97460,6,0,B|502:253|413:230|349:282|355:348|428:372|457:334,1,257.687493119002,2|0,1:0|0:0,0:0:0:0:
432,342,97817,1,2,0:0:0:0:
490,197,97936,2,0,P|501:104|514:36,1,154.612495871401,8|0,0:0|0:0,0:0:0:0:
501,37,98174,6,0,P|439:55|427:96,1,86.8,10|0,0:3|0:0,0:0:0:0:
276,12,98412,2,0,P|304:43|346:45,1,86.8,0|0,1:0|0:0,0:0:0:0:
367,214,98650,6,0,P|299:239|252:257,1,86.8,2|0,0:0|0:0,0:0:0:0:
422,141,98888,2,0,P|477:186|516:218,1,86.8,10|0,0:0|0:0,0:0:0:0:
332,130,99126,2,0,P|343:59|352:9,1,86.8,2|0,0:0|0:0,0:0:0:0:
438,276,99364,6,0,P|402:326|294:331,1,154.612495871401,2|0,1:0|0:0,0:0:0:0:
312,331,99602,2,0,P|387:324|435:266,1,154.612495871401,2|0,0:0|0:0,0:0:0:0:
367,214,99841,6,0,P|315:153|230:166,1,154.612495871401,10|0,0:0|0:0,0:0:0:0:
245,166,100079,2,0,P|285:159|325:175,1,75.94999768219,2|0,0:0|0:0,0:0:0:0:
195,240,100317,5,2,1:0:0:0:
161,171,100436,1,8,0:3:0:0:
192,100,100555,1,10,0:3:0:0:
99,262,100793,5,10,0:0:0:0:
87,345,100912,1,4,0:3:0:0:
9,376,101031,1,4,0:3:0:0:
21,293,101150,1,4,0:3:0:0:
165,314,101269,6,0,B|227:283|265:336|247:335|288:390|352:363,1,206.149994495201,12|2,1:2|0:0,0:0:0:0:
464,250,101626,2,0,P|395:265|346:273,1,103.074997247601,2|8,0:0|0:0,0:0:0:0:
348,364,101864,1,2,0:0:0:0:
443,350,101983,2,0,P|452:299|463:249,1,103.074997247601,2|0,0:0|0:0,0:0:0:0:
499,72,102221,1,0,1:0:0:0:
271,98,102460,6,0,P|339:113|382:123,1,103.074997247601,2|0,0:0|0:0,0:0:0:0:
459,1,102698,2,0,B|405:-4|405:-4|355:57,1,103.074997247601,10|0,0:0|0:0,0:0:0:0:
395,201,102936,2,0,B|449:206|449:206|499:145,1,103.074997247601,2|0,0:0|0:0,0:0:0:0:
257,8,103174,6,0,B|221:72|280:112|283:89|328:129|310:193,1,206.149994495201,2|0,1:0|0:0,0:0:0:0:
457,314,103531,1,2,0:0:0:0:
441,317,103650,2,0,P|387:282|411:186,1,154.612495871401,8|0,0:0|0:0,0:0:0:0:
402,186,103888,2,0,P|453:183|488:175,1,75.94999768219,2|0,0:0|0:0,0:0:0:0:
285,298,104126,5,0,1:0:0:0:
241,227,104245,1,0,0:0:0:0:
285,298,104364,2,0,P|218:315|173:278,1,103.074997247601,2|0,0:0|0:0,0:0:0:0:
97,144,104602,2,0,P|145:193|135:250,1,103.074997247601,10|0,0:0|0:0,0:0:0:0:
58,384,104840,2,0,P|76:317|131:297,1,103.074997247601,10|0,0:3|0:0,0:0:0:0:
241,227,105079,6,0,P|321:233|421:244,1,173.6,6|0,1:0|0:0,0:0:0:0:
369,371,105436,1,2,0:0:0:0:
358,378,105555,2,0,P|322:353|326:290,1,86.8,8|0,0:0|0:0,0:0:0:0:
349,140,105793,6,0,B|351:51|439:19|508:67|506:141|434:171|404:126,1,257.687493119002,2|0,1:0|0:0,0:0:0:0:
425,139,106150,1,0,1:0:0:0:
348,151,106269,2,0,P|295:146|260:140,1,75.94999768219,0|0,1:0|0:0,0:0:0:0:
157,0,106507,6,0,B|209:46|199:116|199:116|222:46|296:40,1,260.4,8|0,0:0|0:0,0:0:0:0:
79,90,106983,5,2,1:0:0:0:
49,168,107102,1,2,0:0:0:0:
101,232,107221,1,2,0:0:0:0:
131,154,107341,1,2,0:0:0:0:
21,245,107460,6,0,B|-48:288|-34:372|36:404|94:370|85:299|35:296,1,227.84999304657,10|0,0:0|0:0,0:0:0:0:
77,308,107698,6,0,P|18:321|-7:368,1,92.2250017590523,2|0,1:0|0:0,0:0:0:0:
234,252,107936,2,0,L|252:126,1,108.5,2|0,0:0|0:0,0:0:0:0:
165,302,108174,6,0,P|178:361|225:386,1,92.2250017590523,2|0,1:0|0:0,0:0:0:0:
386,292,108412,2,0,P|285:262|88:230,1,292.949991059876,10|0,0:0|0:0,0:0:0:0:
1,100,108888,6,0,P|29:42|83:33,2,119.350003642273,4|0|0,1:0|0:0|0:0,0:0:0:0:
1,100,109602,2,0,L|100:110,1,89.5125027317048,14|0,0:3|0:0,0:0:0:0:
105,106,109841,2,0,L|74:163,1,59.6750018211365,10|0,0:0|0:0,0:0:0:0:
167,272,110079,6,0,P|245:252|261:188,1,122.062504656315,2|0,0:0|0:0,0:0:0:0:
262,205,110317,2,0,P|297:157|356:152,1,122.062504656315,2|0,1:0|0:0,0:0:0:0:
394,222,110555,2,0,L|386:257,3,21.7,0|0|0|0,3:0|3:0|3:0|3:0,0:0:0:0:
356,152,110793,6,0,P|213:126|169:115,1,162.75000620842,12|0,0:3|0:0,0:0:0:0:
352,0,111150,2,0,P|495:26|539:37,1,162.75000620842,12|0,0:3|0:0,0:0:0:0:
439,147,111507,2,0,P|432:106|423:67,1,59.6750018211365,14|0,0:3|0:0,0:0:0:0:
352,306,111745,2,0,P|319:277|314:233,1,89.5125027317048,10|0,0:0|0:0,0:0:0:0:
356,152,111983,6,0,L|207:197,1,122.062504656315,2|0,0:0|0:0,0:0:0:0:
231,182,112221,2,0,L|266:30,1,122.062504656315,2|0,1:0|0:0,0:0:0:0:
267,58,112460,1,0,0:0:0:0:
346,71,112579,1,0,0:0:0:0:
179,50,112698,6,0,P|107:61|86:121,2,119.350003642273,12|0|0,0:3|0:0|0:0,0:0:0:0:
179,50,113412,2,0,L|158:151,1,89.5125027317048,14|0,0:3|0:0,0:0:0:0:
161,152,113650,2,0,L|85:173,1,59.6750018211365,10|0,0:0|0:0,0:0:0:0:
50,359,113888,6,0,P|101:350|137:263,1,122.062504656315,2|0,0:0|0:0,0:0:0:0:
139,284,114126,2,0,P|170:233|228:221,1,122.062504656315,2|0,1:0|0:0,0:0:0:0:
269,283,114364,2,0,L|265:312,3,21.7
228,221,114602,6,0,P|243:153|252:123,1,75.94999768219,14|2,0:3|0:0,0:0:0:0:
179,50,114841,2,0,P|163:117|154:147,1,75.94999768219,2|14,0:0|0:3,0:0:0:0:
357,147,115079,2,0,P|330:89|271:71,1,113.924996523285,2|0,0:0|0:0,0:0:0:0:
282,80,115317,2,0,P|296:122|328:131,1,75.94999768219,14|0,0:3|0:0,0:0:0:0:
401,229,115555,6,0,P|433:183|433:90,1,138.337502638578,10|0,0:0|0:0,0:0:0:0:
428,84,115793,2,0,P|456:41|504:42,1,92.2250017590523,2|0,1:0|0:0,0:0:0:0:
512,196,116031,5,10,0:3:0:0:
512,196,116110,2,0,P|485:181|455:175,1,61.4833345060349,8|8,0:3|0:3,0:0:0:0:
361,151,116269,5,8,0:3:0:0:
361,151,116348,2,0,P|334:166|314:189,1,61.4833345060349,8|8,0:3|0:3,0:0:0:0:
296,275,116507,6,0,B|331:189|281:106|187:74|97:115|97:115|149:147|149:225,1,417.725012747956,4|0,1:0|0:0,0:0:0:0:
133,260,116983,2,0,L|116:354,1,75.94999768219,8|0,0:0|0:0,0:0:0:0:
0,384,117221,6,0,P|36:306|138:308,1,154.612495871401,2|0,1:0|0:0,0:0:0:0:
202,310,117460,2,0,L|185:404,1,75.94999768219,2|0,3:0|3:0,0:0:0:0:
211,226,117698,6,0,P|288:189|365:256,1,154.612495871401,2|0,3:0|0:0,0:0:0:0:
405,269,117936,2,0,L|384:382,1,113.924996523285,10|0,0:0|0:0,0:0:0:0:
376,384,118174,6,0,L|366:327,1,43.4
485,226,118412,6,0,B|512:198|506:149|463:126|464:144|428:125|410:80|438:43,1,206.149994495201,0|0,1:0|0:0,0:0:0:0:
268,68,118769,5,0,1:0:0:0:
330,22,118888,2,0,P|377:46|357:143,1,154.612495871401,8|0,0:0|0:0,0:0:0:0:
354,140,119126,6,0,P|310:150|272:158,1,59.6750018211365,2|0,1:0|0:0,0:0:0:0:
188,309,119364,2,0,P|201:265|213:228,1,59.6750018211365,10|0,0:0|3:0,0:0:0:0:
125,80,119603,2,0,P|155:113|181:142,1,59.6750018211365,2|0,3:0|0:0,0:0:0:0:
222,176,119841,6,0,P|225:165|228:155,2,21.7,10|0|0,0:0|3:0|3:0,0:0:0:0:
485,354,120317,6,0,B|504:261|430:201|335:229|335:229|373:270|355:321|355:321|302:323|277:374,1,417.725012747956,0|0,1:0|0:0,0:0:0:0:
213,377,120793,2,0,L|229:282,1,75.94999768219,8|0,0:0|0:0,0:0:0:0:
103,228,121031,6,0,P|127:299|194:335,1,154.612495871401,2|0,1:0|0:0,0:0:0:0:
289,354,121269,2,0,L|305:259,1,75.94999768219,2|0,3:0|3:0,0:0:0:0:
422,245,121507,6,0,P|398:174|331:138,1,154.612495871401,2|0,3:0|0:0,0:0:0:0:
255,146,121745,2,0,L|239:241,1,75.94999768219,10|0,0:0|0:0,0:0:0:0:
34,124,122221,5,2,1:0:0:0:
103,80,122341,1,2,0:0:0:0:
175,117,122460,1,2,1:0:0:0:
106,161,122579,1,2,1:0:0:0:
34,124,122698,6,0,P|25:55|76:7,1,113.924996523285,10|0,0:0|0:0,0:0:0:0:
126,0,122936,6,2,P|206:6|319:13,1,179.02500546341,2|0,1:0|0:0,0:1:0:0:
314,14,123174,2,0,P|345:38|338:91,1,75.94999768219,2|0,3:0|0:0,0:0:0:0:
488,179,123412,6,2,P|408:173|295:166,1,179.02500546341,2|0,1:0|0:0,0:1:0:0:
300,165,123650,2,0,P|269:141|276:88,1,75.94999768219,10|0,0:0|0:0,0:0:0:0:
424,0,123888,6,2,P|418:80|411:193,1,179.02500546341,0|0,1:0|0:0,0:1:0:0:
488,179,124126,6,0,B|243:243|243:243|315:267|338:322|338:322|296:322|267:358|267:358|270:319|308:295,1,531.64998377533,4|0,1:0|0:0,0:0:0:0:
400,282,124602,2,0,L|473:262,1,75.94999768219,8|0,0:0|0:0,0:0:0:0:
190,338,124841,6,0,P|127:300|137:204,1,154.612495871401,2|0,1:0|0:0,0:0:0:0:
190,175,125079,2,0,L|263:155,1,75.94999768219,2|0,3:0|3:0,0:0:0:0:
411,178,125317,6,0,P|407:103|343:65,1,154.612495871401,2|0,3:0|0:0,0:0:0:0:
258,76,125555,2,0,L|142:107,1,113.924996523285,10|0,0:0|0:0,0:0:0:0:
142,101,125793,6,0,L|156:45,1,43.4
122,225,126031,6,0,P|70:213|41:169,1,97.6499970199586,0|0,1:0|3:0,0:0:0:0:
208,230,126269,5,0,3:0:0:0:
212,218,126388,1,0,1:0:0:0:
263,155,126507,6,0,P|315:167|344:211,1,97.6499970199586,8|0,0:0|3:0,0:0:0:0:
437,321,126745,6,0,L|216:282,1,179.02500546341,2|0,1:0|0:0,0:0:0:0:
247,287,126983,2,0,P|207:243|232:186,1,75.94999768219,10|0,0:0|3:0,0:0:0:0:
258,76,127221,6,0,L|478:114,1,179.02500546341,2|0,3:0|0:0,0:0:0:0:
448,110,127460,2,0,P|487:153|462:210,1,75.94999768219,10|0,0:0|3:0,0:0:0:0:
354,275,127698,6,0,L|338:186,1,75.94999768219,0|0,3:0|0:0,0:0:0:0:
187,111,127936,6,0,B|172:76|187:39|187:39|153:71|116:82|116:82|103:140|142:173|142:173|170:197|202:222|214:300|147:340|63:326|43:262|62:207|92:179|123:190|126:175|126:175,1,531.64998377533,0|0,1:0|0:0,0:0:0:0:
265,187,128412,2,0,L|359:203,1,75.94999768219,8|0,0:0|0:0,0:0:0:0:
466,35,128650,6,0,P|391:49|354:153,1,154.612495871401,2|0,1:0|0:0,0:0:0:0:
411,167,128888,2,0,L|505:183,1,75.94999768219,2|0,3:0|3:0,0:0:0:0:
284,331,129126,6,0,P|359:317|396:213,1,154.612495871401,2|0,3:0|0:0,0:0:0:0:
339,199,129364,2,0,L|245:183,1,75.94999768219,10|0,0:0|0:0,0:0:0:0:
54,355,129841,5,2,1:0:0:0:
109,294,129961,1,2,0:0:0:0:
188,311,130080,1,2,1:0:0:0:
133,372,130199,1,2,1:0:0:0:
54,355,130318,6,0,P|27:290|64:231,1,113.924996523285,10|0,0:0|0:0,0:0:0:0:
108,191,130555,6,2,P|181:215|180:334,1,179.02500546341,2|0,1:0|0:0,0:1:0:0:
188,311,130793,2,0,P|196:262|174:226,1,75.94999768219,2|0,3:0|0:0,0:0:0:0:
22,164,131031,6,2,P|6:88|109:30,1,179.02500546341,2|0,1:0|0:0,0:1:0:0:
85,34,131269,2,0,P|38:51|18:88,1,75.94999768219,10|0,0:0|0:0,0:0:0:0:
185,239,131507,6,2,P|127:290|25:229,1,179.02500546341,0|0,1:0|0:0,0:1:0:0:
40,252,131745,6,0,L|29:352,2,86.8,4|0|0,1:0|1:0|1:0,0:0:0:0:
185,239,133174,1,0,1:0:0:0:
121,298,133650,6,0,L|110:398,2,86.8,0|0|0,1:0|1:0|1:0,0:0:0:0:
266,285,135079,6,0,L|264:297,2,10.85,0|0|0,1:0|0:0|0:0,0:0:0:0:
185,239,135317,2,0,L|186:226,2,10.85
270,198,135555,6,0,L|360:181,2,86.8,0|0|0,1:0|1:0|1:0,0:0:0:0:
412,252,136983,1,0,1:0:0:0:
270,198,137460,5,2,1:0:0:0:
218,148,137579,1,2,0:0:0:0:
268,97,137698,2,0,L|313:89,1,43.4,2|0,0:0|1:0,0:0:0:0:
189,314,138412,5,2,1:0:0:0:
220,249,138531,1,2,0:0:0:0:
156,218,138650,2,0,L|110:225,1,43.4,0|0,0:0|1:0,0:0:0:0:
424,282,139364,6,0,P|473:289|500:340,1,89.5125027317048,0|0,1:0|0:0,0:0:0:0:
491,327,139602,1,0,0:0:0:0:
342,234,139841,2,0,P|293:227|266:176,1,89.5125027317048,0|0,1:0|0:0,0:0:0:0:
275,189,140079,1,0,0:0:0:0:
452,104,140317,5,2,1:0:0:0:
419,198,140555,1,2,0:0:0:0:
509,228,140793,2,0,P|433:260|334:321,1,179.02500546341,2|0,1:0|0:0,0:0:0:0:
248,371,141269,6,0,P|183:357|125:349,1,119.350003642273,2|0,1:0|0:0,0:0:0:0:
114,260,141626,1,0,0:0:0:0:
114,260,141745,2,0,P|179:274|237:282,1,119.350003642273,2|0,1:0|0:0,0:0:0:0:
383,210,142222,5,2,1:0:0:0:
327,289,142460,1,2,0:0:0:0:
169,180,142698,2,0,P|228:188|286:201,1,119.350003642273,2|0,1:0|0:0,0:0:0:0:
512,257,143174,6,0,P|448:278|408:293,1,86.8,0|0,1:0|0:0,0:0:0:0:
339,380,143412,2,0,P|298:365|256:352,1,86.8,10|0,1:2|0:0,0:0:0:0:
500,166,143650,6,0,P|436:187|396:202,1,86.8,2|0,1:0|0:0,0:0:0:0:
327,289,143888,2,0,P|286:274|244:261,1,86.8,10|0,1:2|0:0,0:0:0:0:
84,173,144126,6,0,P|56:211|9:219,1,97.6499970199586,0|0,1:0|0:0,0:0:0:0:
168,72,144364,2,0,P|214:76|245:113,1,97.6499970199586,8|0,1:2|0:0,0:0:0:0:
64,74,144602,6,0,P|24:45|16:-1,1,97.6499970199586,0|0,1:0|0:0,0:0:0:0:
181,181,144840,2,0,P|176:227|139:258,1,97.6499970199586,8|0,1:2|0:0,0:0:0:0:
0,384,145079,5,0,1:0:0:0:
7,330,145198,1,0,1:0:0:0:
46,295,145317,1,8,1:2:0:0:
100,293,145436,1,0,1:0:0:0:
142,326,145555,6,0,L|130:390,1,59.6750018211365,0|0,1:0|1:0,0:0:0:0:
9,219,145793,2,0,L|20:154,1,59.6750018211365,8|0,1:2|1:0,0:0:0:0:
179,14,146031,5,0,1:0:0:0:
168,72,146150,1,0,1:0:0:0:
157,130,146269,1,8,1:2:0:0:
146,188,146388,1,0,1:0:0:0:
146,188,146983,6,0,B|206:158|250:219|227:213|262:264|325:255,1,206.149994495201,4|2,1:0|0:0,0:0:0:0:
433,171,147341,2,0,P|431:99|394:63,1,103.074997247601,2|8,0:0|0:0,0:0:0:0:
350,178,147579,1,2,0:0:0:0:
406,253,147698,2,0,P|478:251|514:214,1,103.074997247601,2|0,0:0|0:0,0:0:0:0:
480,32,147936,1,0,1:0:0:0:
219,77,148174,6,0,P|287:59|331:44,1,103.074997247601,2|0,0:0|0:0,0:0:0:0:
432,170,148412,2,0,B|380:172|380:172|347:134,1,103.074997247601,10|0,0:0|0:0,0:0:0:0:
394,0,148650,2,0,B|447:-6|447:-6|480:32,1,103.074997247601,2|0,0:0|0:0,0:0:0:0:
270,157,148888,6,0,B|208:188|170:135|188:136|147:81|83:108,1,206.149994495201,2|0,1:0|0:0,0:0:0:0:
1,194,149245,1,2,0:0:0:0:
11,204,149364,2,0,P|83:174|76:90,1,154.612495871401,8|0,0:0|0:0,0:0:0:0:
75,101,149602,2,0,L|93:20,1,75.94999768219,2|0,0:0|0:0,0:0:0:0:
195,171,149841,5,0,1:0:0:0:
134,229,149960,1,0,0:0:0:0:
195,171,150079,2,0,P|225:222|197:282,1,103.074997247601,2|0,0:0|0:0,0:0:0:0:
102,384,150317,2,0,P|49:377|-1:367,1,103.074997247601,10|0,0:0|0:0,0:0:0:0:
37,299,150495,1,0,0:0:0:0:
44,295,150555,2,0,P|97:302|147:312,1,103.074997247601,10|0,0:3|0:0,0:0:0:0:
300,255,150793,6,0,B|396:261|419:350|367:414|301:408|277:335|315:306,1,257.687493119002,2|0,1:0|0:0,0:0:0:0:
307,331,151150,1,2,0:0:0:0:
332,175,151269,2,0,P|418:195|494:206,1,154.612495871401,8|0,0:0|0:0,0:0:0:0:
492,197,151507,2,0,P|518:151|510:112,1,86.8,10|0,0:3|0:0,0:0:0:0:
391,21,151745,2,0,P|388:63|412:98,1,86.8,0|0,1:0|0:0,0:0:0:0:
248,175,151983,6,0,P|275:108|290:75,1,86.8,2|0,0:0|0:0,0:0:0:0:
168,202,152221,2,0,P|212:258|233:288,1,86.8,10|0,0:0|0:0,0:0:0:0:
184,119,152460,2,0,P|112:129|76:132,1,86.8,2|0,0:0|0:0,0:0:0:0:
0,0,152698,6,0,P|73:9|154:52,1,154.612495871401,2|0,1:0|0:0,0:0:0:0:
144,52,152936,2,0,P|76:17|0:8,1,154.612495871401,2|0,0:0|0:0,0:0:0:0:
0,98,153174,6,0,P|5:189|79:238,1,154.612495871401,10|0,0:0|0:0,0:0:0:0:
63,225,153412,2,0,P|19:196|7:170,1,75.94999768219,2|0,0:0|0:0,0:0:0:0:
148,194,153650,5,2,1:0:0:0:
139,269,153769,1,8,0:3:0:0:
75,310,153888,1,10,0:3:0:0:
294,353,154126,5,10,0:0:0:0:
359,303,154245,1,4,0:3:0:0:
434,335,154364,1,4,0:3:0:0:
368,384,154483,1,4,0:3:0:0:
284,271,154602,6,0,B|253:211|315:167|309:190|363:153|343:90,1,206.149994495201,12|2,1:2|0:0,0:0:0:0:
488,0,154960,2,0,P|463:67|450:109,1,103.074997247601,2|8,0:0|0:0,0:0:0:0:
344,90,155198,1,2,0:0:0:0:
387,16,155317,2,0,P|438:8|488:0,1,103.074997247601,2|0,0:0|0:0,0:0:0:0:
512,165,155555,1,0,1:0:0:0:
434,335,155793,6,0,P|409:255|392:203,1,103.074997247601,2|0,0:0|0:0,0:0:0:0:
512,165,156031,2,0,B|521:215|521:215|483:269,1,103.074997247601,10|0,0:0|0:0,0:0:0:0:
322,182,156269,2,0,B|313:132|313:132|351:78,1,103.074997247601,2|0,0:0|0:0,0:0:0:0:
327,317,156507,6,0,P|252:303|191:179,1,206.149994495201,2|0,1:0|0:0,0:0:0:0:
262,30,156864,1,2,0:0:0:0:
264,44,156983,2,0,P|231:99|128:85,1,154.612495871401,8|0,0:0|0:0,0:0:0:0:
141,87,157221,2,0,L|157:-5,1,75.94999768219,2|0,0:0|0:0,0:0:0:0:
76,158,157460,5,0,1:0:0:0:
0,146,157579,1,0,0:0:0:0:
76,158,157698,2,0,P|115:202|101:263,1,103.074997247601,2|0,0:0|0:0,0:0:0:0:
0,384,157936,2,0,P|18:328|78:309,1,103.074997247601,10|0,0:0|0:0,0:0:0:0:
234,337,158174,2,0,P|176:348|130:306,1,103.074997247601,10|0,0:3|0:0,0:0:0:0:
194,189,158412,6,0,P|258:200|359:260,1,173.6,6|0,1:0|0:0,0:0:0:0:
378,127,158769,1,2,0:0:0:0:
365,121,158888,2,0,P|319:139|295:187,1,86.8,8|0,0:0|0:0,0:0:0:0:
411,309,159126,6,0,B|481:364|562:317|569:234|511:187|442:223|457:275,1,257.687493119002,2|0,1:0|0:0,0:0:0:0:
462,254,159483,1,0,1:0:0:0:
402,304,159602,6,0,P|415:361|419:389,1,75.94999768219,0|0,1:0|0:0,0:0:0:0:
270,207,159841,2,0,P|214:189|187:179,1,75.94999768219,8|0,0:0|0:0,0:0:0:0:
420,141,160079,2,0,P|462:101|485:83,1,75.94999768219
130,43,160317,5,2,1:0:0:0:
204,86,160436,1,2,0:0:0:0:
278,43,160555,1,2,0:0:0:0:
204,0,160674,1,2,0:0:0:0:
129,129,160793,6,0,B|79:194|121:268|198:274|241:222|208:158|160:172,1,227.84999304657,10|0,0:0|0:0,0:0:0:0:
191,175,161031,6,0,P|137:192|122:236,1,92.2250017590523,2|0,1:0|0:0,0:0:0:0:
363,105,161269,2,0,P|349:53|336:0,1,108.5,2|0,0:0|0:0,0:0:0:0:
284,193,161508,6,0,P|308:231|352:240,1,92.2250017590523,2|0,1:0|0:0,0:0:0:0:
485,167,161746,2,0,P|367:134|185:81,1,292.949991059876,10|0,0:0|0:0,0:0:0:0:
55,42,162221,6,0,B|25:102|86:146|80:123|131:158|122:221,1,206.149994495201,4|2,1:0|0:0,0:0:0:0:
104,357,162579,2,0,P|50:387|5:369,1,103.074997247601,2|8,0:0|0:0,0:0:0:0:
156,288,162817,1,2,0:0:0:0:
68,287,162936,2,0,P|38:233|56:188,1,103.074997247601,2|0,0:0|0:0,0:0:0:0:
131,68,163174,1,0,1:0:0:0:
333,184,163412,6,0,P|260:161|221:151,1,103.074997247601,2|0,0:0|0:0,0:0:0:0:
121,221,163650,2,0,B|162:250|162:250|212:231,1,103.074997247601,10|0,0:0|0:0,0:0:0:0:
221,77,163888,2,0,B|179:47|179:47|130:67,1,103.074997247601,2|0,0:0|0:0,0:0:0:0:
49,196,164126,6,0,B|106:230|154:172|131:176|170:128|235:154,1,206.149994495201,2|0,1:0|0:0,0:0:0:0:
306,261,164483,1,2,0:0:0:0:
296,268,164602,2,0,P|239:237|245:140,1,154.612495871401,8|0,0:0|0:0,0:0:0:0:
245,148,164841,2,0,L|324:136,1,75.94999768219,2|0,0:0|0:0,0:0:0:0:
447,88,165079,5,0,1:0:0:0:
370,72,165198,1,0,0:0:0:0:
447,88,165317,2,0,P|489:140|469:217,1,103.074997247601,2|0,0:0|0:0,0:0:0:0:
376,323,165555,2,0,P|394:248|409:204,1,103.074997247601,10|0,0:0|0:0,0:0:0:0:
472,251,165733,1,0,0:0:0:0:
475,260,165793,2,0,P|457:335|442:379,1,103.074997247601,10|0,0:3|0:0,0:0:0:0:
296,345,166031,6,0,B|200:339|177:250|229:186|295:192|319:265|281:294,1,257.687493119002,2|0,1:0|0:0,0:0:0:0:
289,269,166388,1,2,0:0:0:0:
169,365,166507,2,0,P|89:347|5:332,1,154.612495871401,8|0,0:0|0:0,0:0:0:0:
5,324,166745,6,0,P|7:274|38:243,1,86.8,10|0,0:3|0:0,0:0:0:0:
109,151,166983,2,0,P|134:184|133:227,1,86.8,0|0,1:0|0:0,0:0:0:0:
22,118,167221,6,0,P|65:86|99:58,1,86.8,2|0,0:0|0:0,0:0:0:0:
190,185,167460,2,0,P|141:163|99:148,1,86.8,10|0,0:0|0:0,0:0:0:0:
164,6,167698,2,0,P|169:59|177:102,1,86.8,2|0,0:0|0:0,0:0:0:0:
291,184,167936,6,0,P|383:158|437:129,1,154.612495871401,2|0,1:0|0:0,0:0:0:0:
434,123,168174,2,0,P|364:157|290:176,1,154.612495871401,2|0,0:0|0:0,0:0:0:0:
190,185,168412,6,0,P|117:191|73:280,1,154.612495871401,10|0,0:0|0:0,0:0:0:0:
77,265,168650,2,0,P|105:214|128:198,1,75.94999768219,2|0,0:0|0:0,0:0:0:0:
103,346,168888,5,2,1:0:0:0:
28,334,169007,1,8,0:3:0:0:
1,262,169126,1,10,0:3:0:0:
88,60,169364,5,10,0:0:0:0:
145,123,169483,1,4,0:3:0:0:
118,203,169602,1,4,0:3:0:0:
61,140,169721,1,4,0:3:0:0:
172,43,169841,6,0,P|259:64|391:110,1,206.149994495201,12|2,1:2|0:0,0:0:0:0:
495,1,170198,2,0,P|426:12|371:16,1,103.074997247601,2|8,0:0|0:0,0:0:0:0:
369,101,170436,1,2,0:0:0:0:
463,98,170555,2,0,P|477:48|494:0,1,103.074997247601,2|0,0:0|0:0,0:0:0:0:
323,181,170793,1,0,1:0:0:0:
435,362,171031,6,0,P|447:286|457:239,1,103.074997247601,2|0,0:0|0:0,0:0:0:0:
323,181,171269,2,0,B|321:234|321:234|369:277,1,103.074997247601,10|0,0:0|0:0,0:0:0:0:
498,184,171507,2,0,B|500:131|500:131|452:88,1,103.074997247601,2|0,0:0|0:0,0:0:0:0:
279,69,171745,6,0,P|216:115|223:255,1,206.149994495201,2|0,1:0|0:0,0:0:0:0:
43,371,172102,1,2,0:0:0:0:
54,384,172221,2,0,P|133:313|123:254,1,154.612495871401,8|0,0:0|0:0,0:0:0:0:
117,262,172460,2,0,L|98:176,1,75.94999768219,2|0,0:0|0:0,0:0:0:0:
9,114,172698,5,0,1:0:0:0:
20,35,172817,1,0,0:0:0:0:
9,114,172936,2,0,P|66:99|94:60,1,103.074997247601,2|0,0:0|0:0,0:0:0:0:
257,207,173174,2,0,P|215:165|167:160,1,103.074997247601,10|0,0:0|0:0,0:0:0:0:
184,0,173412,2,0,P|172:44|266:49,1,154.612495871401,10|0,0:3|0:0,0:0:0:0:
275,72,173650,6,0,P|366:61|457:52,1,173.6,6|0,1:0|0:0,0:0:0:0:
429,184,174007,1,2,0:0:0:0:
408,181,174126,2,0,P|367:145|369:103,1,86.8,8|0,0:0|0:0,0:0:0:0:
512,246,174364,6,0,P|473:304|365:271,1,179.02500546341,2|0,1:0|0:0,0:0:0:0:
362,273,174602,2,0,P|280:249|226:314,1,151.89999536438
232,304,174960,1,2,0:0:0:0:
140,220,175079,6,0,B|77:122|147:21|257:22|312:103|255:188|191:153,1,358.050010926819,8|0,0:0|0:0,0:0:0:0:
150,305,175555,5,2,1:0:0:0:
85,356,175674,1,2,0:0:0:0:
7,325,175793,1,2,0:0:0:0:
72,274,175912,1,2,0:0:0:0:
150,305,176031,6,0,L|139:388,1,75.94999768219,10|0,0:0|0:0,0:0:0:0:
0,242,176269,2,0,L|9:166,1,75.94999768219,2|0,1:0|0:0,0:0:0:0:
122,35,176507,6,0,P|182:22|247:112,1,154.612495871401,10|0,0:0|0:0,0:0:0:0:
253,99,176745,2,0,P|302:154|376:146,1,154.612495871401,2|0,1:0|0:0,0:0:0:0:
399,58,176983,6,0,P|293:78|83:125,1,309.224991742802,10|0,0:0|0:0,0:0:0:0:
9,166,177460,6,0,B|-17:136|-21:108|-25:67|-9:-1|96:-14|168:43|147:146|98:172|54:197|54:197|-5:233|-1:314|-1:314|20:261|71:249,1,596.750018211365,4|0,1:0|0:0,0:0:0:0:
209,365,178174,6,0,P|149:353|148:245,1,179.02500546341,2|0,1:0|0:0,0:0:0:0:
151,251,178412,2,0,L|223:265,1,65.0999980133057,10|0,0:0|0:0,0:0:0:0:
431,205,178650,6,0,L|364:23,1,162.75,2|0,0:0|0:0,0:0:0:0:
364,63,178888,2,0,L|239:209,1,162.75,2|0,0:0|0:0,0:0:0:0:
275,192,179126,2,0,L|294:194,2,13.5625,0|0|0,3:0|3:0|3:0,0:0:0:0:
420,288,179364,6,0,P|336:299|298:390,1,162.75,0|0,1:0|0:0,0:0:0:0:
301,369,179602,1,0,0:0:0:0:
209,365,179721,2,0,P|183:304|259:188,1,217,0|0,1:0|0:0,0:0:0:0:
257,69,180079,6,0,P|197:32|73:84,1,179.02500546341,2|0,1:0|0:0,0:0:0:0:
95,70,180317,2,0,L|111:164,1,65.0999980133057,10|0,0:0|0:0,0:0:0:0:
153,278,180555,6,0,P|80:243|0:235,1,162.75,2|0,0:0|0:0,0:0:0:0:
10,256,180793,2,0,P|74:264|133:292,1,130.2,2|0,0:0|0:0,0:0:0:0:
111,303,181031,2,0,P|68:282|20:277,1,97.6499970199586
92,375,181269,6,0,B|152:405|196:344|173:350|209:283|286:314,2,217,2|0|0,1:0|0:0|0:0,0:0:0:0:
346,357,181983,6,0,P|416:341|428:256,1,162.75,2|0,1:0|0:0,0:0:0:0:
415,256,182221,2,0,L|320:272,1,65.0999980133057,10|0,0:0|0:0,0:0:0:0:
191,173,182460,6,0,L|259:-15,1,162.75,2|0,0:0|0:0,0:0:0:0:
256,31,182698,2,0,L|385:184,1,162.75,2|0,1:0|0:0,0:0:0:0:
346,158,182936,2,0,L|211:181,1,75.94999768219
137,80,183174,5,2,1:0:0:0:
54,94,183293,1,2,0:0:0:0:
0,29,183412,1,2,0:0:0:0:
83,15,183531,1,2,1:0:0:0:
108,159,183650,6,0,L|102:205,3,37.974998841095,2|0|0|0,0:0|0:0|0:0|0:0,0:0:0:0:
88,273,183888,2,0,P|42:248|31:178,1,113.924996523285,2|0,1:0|0:0,0:0:0:0:
107,159,184126,6,0,P|179:172|244:205,1,146.474995529938,10|0,0:0|0:0,0:0:0:0:
224,226,184364,2,0,P|152:239|87:272,1,146.474995529938,2|0,0:0|0:0,0:0:0:0:
107,293,184602,6,0,B|186:253|244:333|213:325|261:414|362:373,1,292.949991059876,10|0,3:0|0:0,0:0:0:0:
499,264,185079,6,0,P|403:278|309:297,1,179.02500546341,4|0,1:0|0:0,0:0:0:0:
313,300,185317,2,0,B|272:253|272:253|297:175,1,119.350003642273
303,36,185555,6,0,P|398:21|492:2,1,179.02500546341,8|0,0:0|0:0,0:0:0:0:
489,0,185793,2,0,B|530:47|530:47|505:125,1,119.350003642273,2|0,1:0|0:0,0:0:0:0:
399,160,186031,6,0,L|402:137,2,21.7,10|0|0,0:0|0:0|0:0,0:0:0:0:
259,110,186269,6,0,P|162:127|142:219,1,179.02500546341,2|0,1:0|0:0,0:0:0:0:
139,206,186507,2,0,P|101:283|16:290,1,179.02500546341,10|0,0:0|0:0,0:0:0:0:
15,278,186745,1,0,1:0:0:0:
48,200,186864,1,0,0:0:0:0:
5,122,186983,6,0,B|-30:54|20:-7|92:0|124:55|82:107|42:81,1,211.574990314866,8|0,0:0|0:0,0:0:0:0:
71,87,187221,6,0,P|28:58|26:7,1,97.6499970199586
195,150,187460,2,8,L|173:265,1,97.6499970199586,8|0,0:0|0:0,0:0:0:0:
165,30,187698,6,0,P|211:7|256:31,1,97.6499970199586,2|0,1:0|0:0,0:0:0:0:
345,206,187936,2,0,P|281:166|298:87,1,146.474995529938,10|0,0:0|0:0,0:0:0:0:
293,99,188174,2,0,P|292:168|353:203,1,146.474995529938,2|0,1:0|0:0,0:0:0:0:
420,157,188412,6,0,L|427:128,2,21.7,10|0|0,0:0|0:0|0:0,0:0:0:0:
499,266,188650,2,0,L|491:237,2,21.7,2|0|0,1:0|0:0|0:0,0:0:0:0:
388,350,188888,6,0,L|167:311,1,179.02500546341,6|0,1:0|0:0,0:0:0:0:
198,316,189126,2,0,P|172:278|178:239,1,81.37500310421
293,99,189364,6,0,L|72:60,1,179.02500546341,8|0,0:0|0:0,0:0:0:0:
102,65,189602,2,0,P|64:90|57:130,1,81.37500310421,2|0,1:0|0:0,0:0:0:0:
236,198,189841,6,0,P|173:168|111:201,1,122.062504656315,10|0,0:0|0:0,0:0:0:0:
0,276,190079,6,0,L|189:242,1,179.02500546341,2|0,1:0|0:0,0:0:0:0:
189,242,190317,2,0,L|378:208,1,179.02500546341,10|0,0:0|0:0,0:0:0:0:
378,208,190555,2,0,L|361:302,1,81.37500310421,8|8,0:3|0:3,0:0:0:0:
308,145,190793,5,14,1:2:0:0:
335,65,190912,1,2,0:0:0:0:
279,0,191031,1,2,0:0:0:0:
251,80,191150,1,2,0:0:0:0:
392,130,191269,6,0,P|448:103|484:89,1,81.37500310421,10|0,1:2|0:0,0:0:0:0:
224,160,191507,2,0,P|164:143|125:136,1,81.37500310421,2|0,1:0|0:0,0:0:0:0:
365,210,191745,6,0,P|404:217|430:226,1,54.25,2|0,0:0|0:0,0:0:0:0:
281,225,191983,2,0,P|245:240|217:258,1,54.25,2|0,0:0|0:0,0:0:0:0:
338,290,192221,6,0,L|350:350,1,54.25,2|0,0:0|0:0,0:0:0:0:
308,145,192698,5,0,0:0:0:0:
