osu file format v14

[General]
AudioFilename: audio.mp3
AudioLeadIn: 0
PreviewTime:91686
Countdown: 0
SampleSet: Soft
StackLeniency: 0.7
Mode: 0
LetterboxInBreaks: 0
WidescreenStoryboard: 1

[Editor]
DistanceSpacing: 1
BeatDivisor: 4
GridSize: 32
TimelineZoom: 0.8

[Metadata]
Title:Kamouflage
TitleUnicode:Kamouflage
Artist:Mori Calliope
ArtistUnicode:Mori Calliope
Creator:SMOKELIND
Version:Mocaotic's Normal
Source:
Tags:森カリオペ shinigami note ホロライブ hololive holomyth hololive-en en バーチャルユーチューバー virtual yt youtube youtuber vtuber english pop hip hop hip-hop Mocaotic iceluin frozz -keqing Reform Kujinn extra
BeatmapID:3924835
BeatmapSetID:1882867

[Difficulty]
HPDrainRate:3
CircleSize:3.4
OverallDifficulty:4.5
ApproachRate:5.8
SliderMultiplier:1.6
SliderTickRate:1

[Events]
//Background and Video events
0,0,"93559590_p0.jpg",0,0
Video,0,"vid.mp4"
//Break Periods
//Storyboard Layer 0 (Background)
//Storyboard Layer 1 (Fail)
//Storyboard Layer 2 (Pass)
//Storyboard Layer 3 (Foreground)
//Storyboard Layer 4 (Overlay)
//Storyboard Sound Samples

[TimingPoints]
2222,476.190476190476,4,2,77,57,1,0
9841,-100,4,2,77,67,0,0
25079,-100,4,2,77,77,0,0
40317,-90.9090909090909,4,2,77,87,0,0
55555,-100,4,2,77,57,0,0
63174,-100,4,2,77,67,0,0
70793,-100,4,2,77,77,0,0
93650,-90.9090909090909,4,2,77,87,0,0
108888,-100,4,2,77,57,0,0
116506,-100,4,2,77,77,0,0
131745,-100,4,2,77,57,0,0
132698,-100,4,2,77,57,0,0
143174,-100,4,2,77,67,0,0
145079,-100,4,2,77,77,0,0
146983,-90.9090909090909,4,2,77,87,0,0
177460,-100,4,2,77,87,0,0
191745,-100,4,2,77,47,0,0

[Colours]
Combo1 : 255,193,224
Combo2 : 233,233,233

[HitObjects]
3,275,2222,6,0,B|51:256|84:290|65:302|97:342|146:322,1,160,2|0,1:0|1:0,0:0:0:0:
221,350,2936,1,2,0:0:0:0:
221,350,3174,2,0,P|240:281|289:177,1,160,2|2,1:0|1:0,0:0:0:0:
211,53,4126,6,0,P|130:58|108:163,1,160,0|0,1:0|1:0,0:0:0:0:
75,201,4841,1,2,0:0:0:0:
75,201,5079,2,0,P|37:186|-1:178,2,80,2|2|2,1:0|0:0|1:0,0:0:0:0:
216,275,6031,6,0,P|284:251|405:236,1,160,0|0,1:0|1:0,0:0:0:0:
447,273,6745,1,2,0:0:0:0:
447,273,6983,2,0,P|447:322|415:352,2,80,2|2|2,1:0|0:0|1:0,0:0:0:0:
510,222,7698,1,0,0:0:0:0:
510,222,7936,1,2,1:0:0:0:
510,222,9841,6,0,P|478:140|403:129,1,160,6|8,1:0|0:0,0:0:0:0:
341,158,10555,1,0,1:0:0:0:
225,268,11031,2,0,P|177:255|132:252,1,80,2|10,1:0|0:0,0:0:0:0:
70,273,11507,1,2,0:0:0:0:
70,273,11745,6,0,P|17:240|50:135,1,160,0|8,1:0|0:0,0:0:0:0:
2,75,12460,2,0,P|110:53|180:30,1,160,0|2,1:0|1:0,0:0:0:0:
234,8,13174,1,10,0:0:0:0:
234,8,13412,1,2,3:2:0:0:
309,34,13650,6,0,P|340:97|319:147,1,120,2|2,1:0|0:0,0:0:0:0:
213,186,14364,2,0,P|146:170|79:162,1,120,2|2,1:0|1:0,0:0:0:0:
19,257,15079,1,10,0:0:0:0:
19,257,15317,1,10,0:3:0:0:
66,320,15555,6,0,P|133:336|200:344,1,120,2|2,1:0|0:0,0:0:0:0:
297,379,16269,2,0,P|364:334|332:251,1,160,2|2,1:0|1:0,0:0:0:0:
298,211,16983,1,10,0:0:0:0:
298,211,17221,1,10,0:3:0:0:
222,238,17460,6,0,P|137:217|53:207,1,160,6|8,1:0|0:0,0:0:0:0:
8,151,18174,1,0,1:0:0:0:
108,27,18650,1,2,1:0:0:0:
108,27,18888,2,0,P|165:19|212:9,1,80,10|10,0:0|0:3,0:0:0:0:
259,48,19364,6,0,P|278:148|286:226,1,160,0|10,1:0|0:0,0:0:0:0:
339,264,20079,2,0,P|415:284|489:228,1,160,2|0,1:0|1:0,0:0:0:0:
512,172,20793,1,8,0:0:0:0:
512,172,21031,1,0,3:0:0:0:
486,96,21269,6,0,P|411:83|309:57,1,160,2|10,1:0|0:0,0:0:0:0:
265,24,21983,1,0,1:0:0:0:
265,24,22221,2,0,P|215:45|202:95,1,80,2|0,0:0|1:0,0:0:0:0:
135,108,22698,1,10,0:0:0:0:
20,219,23174,6,0,P|33:261|40:311,1,80,2|2,1:0|0:0,0:0:0:0:
99,349,23650,2,0,P|141:336|191:329,1,80,10|2,0:0|1:0,0:0:0:0:
245,289,24126,1,12,3:3:0:0:
294,351,24364,1,12,1:3:0:0:
363,311,24602,1,12,0:0:0:0:
504,235,25079,6,0,P|509:206|520:140,2,80,6|2|8,1:0|0:0|0:0,0:0:0:0:
443,384,26031,2,0,P|378:363|267:343,1,160,10|10,0:0|0:0,0:0:0:0:
222,309,26745,1,0,0:0:0:0:
222,309,26983,2,0,P|201:244|281:161,3,160,10|8|8|8,0:0|0:0|0:0|0:0,0:0:0:0:
404,138,28888,6,0,P|433:143|488:174,2,80,6|2|8,1:2|0:0|0:0,0:0:0:0:
299,16,29841,2,0,P|240:32|119:47,1,160,10|10,0:0|0:0,0:0:0:0:
69,27,30555,1,0,0:0:0:0:
69,27,30793,2,0,P|21:63|44:183,3,160,10|8|8|10,0:0|0:0|0:0|0:0,0:0:0:0:
0,316,32698,6,0,P|81:290|178:274,1,160,6|8,1:0|0:0,0:0:0:0:
219,331,33412,1,0,0:0:0:0:
219,331,33650,2,0,P|287:317|305:230,1,160,8|10,0:0|0:0,0:0:0:0:
232,96,34602,6,0,P|247:21|321:2,1,160,8|8,0:0|0:0,0:0:0:0:
402,19,35317,1,0,0:0:0:0:
402,19,35555,2,0,P|383:95|372:186,1,160,8|8,0:0|0:0,0:0:0:0:
512,258,36507,6,0,P|503:322|502:355,1,80,14|2,1:2|0:0,0:0:0:0:
437,384,36983,2,0,P|372:375|339:374,1,80,10|2,0:0|0:0,0:0:0:0:
311,309,37460,2,0,P|319:244|320:211,1,80,10|2,0:0|3:2,0:0:0:0:
385,184,37936,2,0,P|449:192|482:193,1,80,10|0,0:0|3:0,0:0:0:0:
511,257,38412,1,14,1:2:0:0:
511,257,40317,6,0,P|455:263|399:275,1,88.000002685547,4|2,1:0|0:0,0:0:0:0:
394,301,40674,2,0,P|338:307|282:319,1,88.000002685547,2|2,0:0|0:0,0:0:0:0:
277,345,41031,2,0,P|221:351|165:363,1,88.000002685547,2|0,0:0|1:0,0:0:0:0:
118,304,41507,1,2,0:0:0:0:
169,232,41745,1,10,0:0:0:0:
102,174,41983,1,2,0:0:0:0:
152,102,42221,6,0,P|198:81|250:101,1,88.000002685547,2|0,1:0|0:0,0:0:0:0:
262,121,42579,2,0,P|266:164|273:208,1,88.000002685547,2|0,0:0|0:0,0:0:0:0:
299,244,42936,2,0,P|379:273|450:209,1,176.000005371094,2|2,0:0|0:0,0:0:0:0:
434,134,43650,1,10,0:0:0:0:
504,81,43888,1,10,0:3:0:0:
462,3,44126,6,0,P|422:12|375:18,1,88.000002685547,2|0,1:0|0:0,0:0:0:0:
339,43,44483,2,0,P|299:34|252:28,1,88.000002685547,2|0,0:0|0:0,0:0:0:0:
213,6,44841,2,0,P|169:36|194:146,1,176.000005371094,10|2,0:3|0:0,0:0:0:0:
280,155,45555,1,10,0:0:0:0:
280,155,45793,1,2,0:0:0:0:
349,209,46031,6,0,P|382:285|325:346,1,176.000005371094,2|10,1:0|0:0,0:0:0:0:
247,383,46745,1,2,0:0:0:0:
247,383,46983,2,0,P|190:368|146:363,1,88.000002685547,2|10,1:0|0:3,0:0:0:0:
74,382,47460,1,10,0:0:0:0:
0,221,47936,6,0,P|57:206|101:201,1,88.000002685547,12|2,1:2|0:0,0:0:0:0:
125,220,48293,2,0,P|182:205|226:200,1,88.000002685547,2|2,0:0|0:0,0:0:0:0:
250,219,48650,2,0,P|307:204|351:199,1,88.000002685547,2|0,0:0|1:0,0:0:0:0:
413,241,49126,1,2,0:0:0:0:
478,181,49364,1,10,0:0:0:0:
435,104,49602,1,2,0:0:0:0:
346,110,49841,6,0,P|302:103|260:91,1,88.000002685547,2|0,1:0|0:0,0:0:0:0:
222,113,50198,2,0,P|215:156|203:198,1,88.000002685547,2|0,0:0|0:0,0:0:0:0:
176,234,50555,2,0,P|95:260|29:182,1,176.000005371094,2|2,0:0|0:0,0:0:0:0:
72,125,51269,1,10,0:0:0:0:
2,71,51507,1,10,0:3:0:0:
56,2,51745,6,0,P|98:14|141:20,1,88.000002685547,6|0,1:0|0:0,0:0:0:0:
173,50,52102,2,0,P|215:37|258:31,1,88.000002685547,2|0,0:0|0:0,0:0:0:0:
297,9,52460,2,0,P|355:44|344:148,1,176.000005371094,2|0,1:0|1:0,0:0:0:0:
275,190,53174,1,8,0:0:0:0:
128,287,53650,6,0,P|94:278|36:261,2,88.000002685547,2|2|10,1:0|0:0|0:0,0:0:0:0:
192,354,54364,1,2,1:0:0:0:
192,354,54602,2,0,P|256:333|302:328,1,88.000002685547,2|2,0:0|1:0,0:0:0:0:
357,364,55079,2,0,P|419:370|455:271,1,176.000005371094,10|4,0:0|1:0,0:0:0:0:
510,46,56269,5,14,0:3:0:0:
510,46,56507,2,0,P|497:102|489:145,1,80,10|2,0:0|0:0,0:0:0:0:
499,203,56983,1,2,1:0:0:0:
339,220,57460,6,0,P|292:199|197:191,2,120,12|12|14,0:3|0:3|0:3,0:0:0:0:
402,268,58412,2,0,P|389:324|381:367,1,80,10|2,0:0|0:0,0:0:0:0:
314,384,58888,2,0,P|240:374|153:337,1,160,2|12,1:0|0:3,0:0:0:0:
7,164,60079,5,14,0:3:0:0:
7,164,60317,2,0,P|22:230|27:264,1,80,10|2,0:0|0:0,0:0:0:0:
0,318,60793,1,2,1:0:0:0:
141,320,61269,6,0,P|149:366|185:377,2,80,14|2|2,0:3|0:0|0:0,0:0:0:0:
218,293,61983,1,14,0:3:0:0:
218,293,62221,2,0,P|203:227|198:193,1,80,10|2,0:0|1:0,0:0:0:0:
233,141,62698,1,10,0:3:0:0:
338,20,63174,6,0,P|423:35|449:101,1,160,4|8,1:0|0:0,0:0:0:0:
512,154,63888,1,2,1:0:0:0:
512,154,64126,2,0,P|497:220|492:254,1,80,2|2,0:0|1:0,0:0:0:0:
511,310,64602,1,2,3:0:0:0:
363,373,65079,6,0,P|334:365|275:356,2,80,2|2|8,1:0|0:0|0:0,0:0:0:0:
428,325,65793,1,2,1:0:0:0:
428,325,66031,2,0,P|443:259|448:225,1,80,2|2,0:0|1:0,0:0:0:0:
497,186,66507,1,10,0:0:0:0:
404,55,66983,6,0,P|326:36|242:25,1,160,0|8,1:0|0:0,0:0:0:0:
180,67,67698,1,2,1:0:0:0:
180,67,67936,2,0,P|165:133|160:167,1,80,2|2,0:0|1:0,0:0:0:0:
210,209,68412,2,0,P|276:224|310:229,1,80,10|8,0:0|0:3,0:0:0:0:
350,276,68888,1,2,1:0:0:0:
350,276,70793,6,0,P|294:261|186:243,1,160,4|0,1:0|0:0,0:0:0:0:
128,288,71507,1,2,1:0:0:0:
128,288,71745,2,0,P|67:277|53:245,1,80,10|2,0:0|0:0,0:0:0:0:
6,205,72221,2,0,P|20:142|26:107,1,80,2|2,0:0|0:0,0:0:0:0:
77,67,72698,6,0,P|136:54|207:137,1,160,2|8,1:0|0:0,0:0:0:0:
251,187,73412,1,2,1:0:0:0:
251,187,73650,2,0,P|308:172|348:166,2,80,10|2|2,0:0|1:0|0:0,0:0:0:0:
190,238,74364,1,2,0:0:0:0:
284,373,74841,5,2,1:0:0:0:
284,373,75079,2,0,P|323:365|361:354,1,80,0|2,1:0|0:0,0:0:0:0:
437,379,75555,2,0,P|501:337|480:242,1,160,10|10,0:0|0:0,0:0:0:0:
439,213,76269,1,2,0:0:0:0:
439,213,76507,5,2,1:0:0:0:
321,237,76864,5,0,1:0:0:0:
206,261,77221,5,2,1:0:0:0:
206,261,77460,2,0,P|167:246|127:236,1,80,10|10,0:0|0:0,0:0:0:0:
51,253,77936,1,14,0:0:0:0:
9,98,78412,6,0,P|19:65|47:11,2,80,6|2|8,1:0|0:0|0:0,0:0:0:0:
51,253,79364,2,0,P|116:232|227:212,1,160,10|10,0:0|0:0,0:0:0:0:
280,255,80078,1,0,0:0:0:0:
280,255,80316,2,0,P|337:207|317:110,3,160,10|8|8|8,0:0|0:0|0:0|0:0,0:0:0:0:
465,52,82221,6,0,P|470:23|516:3,2,80,6|2|8,1:2|0:0|0:0,0:0:0:0:
512,200,83174,2,0,P|447:179|336:159,1,160,10|10,0:0|0:0,0:0:0:0:
296,118,83888,1,0,0:0:0:0:
296,118,84126,2,0,P|239:166|259:263,3,160,10|8|8|10,0:0|0:0|0:0|0:0,0:0:0:0:
165,384,86031,6,0,P|84:358|-13:342,1,160,6|8,1:0|0:0,0:0:0:0:
0,269,86745,1,0,0:0:0:0:
0,269,86983,2,0,P|44:197|140:202,1,160,8|10,0:0|0:0,0:0:0:0:
249,273,87936,6,0,P|330:247|427:231,1,160,8|8,0:0|0:0,0:0:0:0:
474,194,88650,1,0,0:0:0:0:
474,194,88888,2,0,P|493:118|434:61,1,160,8|8,0:0|0:0,0:0:0:0:
293,2,89840,6,0,P|230:16|197:20,1,80,14|2,1:2|0:0,0:0:0:0:
174,88,90316,2,0,P|188:151|192:184,1,80,10|2,0:0|0:0,0:0:0:0:
260,207,90793,2,0,P|324:193|356:189,1,80,10|2,0:0|3:2,0:0:0:0:
378,123,91269,2,0,P|364:59|360:27,1,80,10|0,0:0|3:0,0:0:0:0:
294,3,91745,1,14,1:2:0:0:
294,3,93650,6,0,P|306:58|313:116,1,88.000002685547,4|2,1:0|0:0,0:0:0:0:
285,125,94007,2,0,P|297:180|304:238,1,88.000002685547,2|2,0:0|0:0,0:0:0:0:
276,247,94364,2,0,P|288:302|295:360,1,88.000002685547,2|0,0:0|1:0,0:0:0:0:
220,384,94840,1,2,0:0:0:0:
146,335,95078,1,10,0:0:0:0:
69,378,95316,1,2,0:0:0:0:
0,322,95555,6,0,P|10:279|23:237,1,88.000002685547,2|0,1:0|0:0,0:0:0:0:
58,210,95912,2,0,P|106:209|140:242,1,88.000002685547,2|0,0:0|0:0,0:0:0:0:
160,270,96269,2,0,P|243:283|296:197,1,176.000005371094,2|2,0:0|0:0,0:0:0:0:
252,141,96983,1,10,0:0:0:0:
316,80,97221,1,10,0:3:0:0:
272,3,97459,6,0,P|228:14|180:19,1,88.000002685547,2|0,1:0|0:0,0:0:0:0:
149,45,97817,2,0,P|105:33|57:28,1,88.000002685547,2|0,0:0|0:0,0:0:0:0:
24,7,98174,2,0,P|-7:47|56:151,1,176.000005371094,10|2,0:3|0:0,0:0:0:0:
125,188,98888,1,10,0:0:0:0:
125,188,99126,1,2,0:0:0:0:
205,153,99364,6,0,P|292:134|380:127,1,176.000005371094,2|10,1:0|0:0,0:0:0:0:
464,98,100078,1,2,0:0:0:0:
464,98,100316,2,0,P|505:146|492:197,1,88.000002685547,2|10,1:0|0:3,0:0:0:0:
475,250,100793,1,10,0:0:0:0:
350,384,101269,6,0,P|340:322|325:269,1,88.000002685547,12|2,1:2|0:0,0:0:0:0:
359,262,101626,2,0,P|349:200|334:147,1,88.000002685547,2|2,0:0|0:0,0:0:0:0:
368,140,101983,2,0,P|358:78|343:25,1,88.000002685547,2|0,0:0|1:0,0:0:0:0:
272,14,102459,1,2,0:0:0:0:
207,73,102697,1,10,0:0:0:0:
127,33,102936,1,2,0:0:0:0:
56,85,103174,6,0,P|66:147|81:200,1,88.000002685547,2|0,1:0|0:0,0:0:0:0:
104,201,103531,2,0,P|146:191|190:184,1,88.000002685547,2|0,0:0|0:0,0:0:0:0:
233,194,103888,2,0,P|279:274|227:358,1,176.000005371094,2|2,0:0|0:0,0:0:0:0:
168,383,104602,1,10,0:0:0:0:
81,364,104840,1,10,0:3:0:0:
19,301,105078,6,0,P|31:260|41:213,1,88.000002685547,6|0,1:0|0:0,0:0:0:0:
80,196,105436,2,0,P|123:205|165:217,1,88.000002685547,2|0,0:0|0:0,0:0:0:0:
202,241,105793,2,0,P|269:208|249:102,1,176.000005371094,2|0,1:0|1:0,0:0:0:0:
207,50,106507,1,8,0:0:0:0:
375,0,106983,6,0,P|396:4|469:30,2,88.000002685547,2|2|10,1:0|0:0|0:0,0:0:0:0:
302,46,107697,1,2,1:0:0:0:
302,46,107935,2,0,P|236:28|190:25,1,88.000002685547,2|2,0:0|1:0,0:0:0:0:
134,59,108412,2,0,P|112:132|90:232,1,176.000005371094,10|4,0:0|1:0,0:0:0:0:
282,376,109602,5,14,0:3:0:0:
282,376,109840,2,0,P|288:330|301:273,1,80,10|2,0:0|0:0,0:0:0:0:
343,233,110316,1,2,1:0:0:0:
190,185,110793,6,0,P|129:170|56:165,2,120,12|12|14,0:3|0:3|0:3,0:0:0:0:
268,168,111745,2,0,P|274:122|287:65,1,80,10|2,0:0|0:0,0:0:0:0:
233,24,112221,2,0,P|149:16|67:-3,1,160,2|12,1:0|0:3,0:0:0:0:
7,231,113412,5,14,0:3:0:0:
7,231,113650,2,0,P|13:185|26:128,1,80,10|2,0:0|0:0,0:0:0:0:
3,73,114126,1,2,1:0:0:0:
159,38,114602,6,0,P|162:18|223:16,2,80,14|2|2,0:3|0:0|0:0,0:0:0:0:
98,88,115316,1,14,0:3:0:0:
98,88,115554,2,0,P|113:154|118:188,1,80,10|2,0:0|1:0,0:0:0:0:
71,233,116031,1,10,0:3:0:0:
155,368,116507,6,0,P|236:357|266:287,1,160,4|8,1:0|0:0,0:0:0:0:
328,241,117221,1,2,1:0:0:0:
328,241,117459,2,0,P|335:201|344:162,1,80,2|2,3:0|3:0,0:0:0:0:
306,93,117935,1,10,0:0:0:0:
442,12,118412,6,0,P|500:33|508:97,2,120,0|0|2,1:0|1:0|1:0,0:0:0:0:
384,67,119364,2,0,P|320:56|282:54,1,80,10|2,0:0|3:0,0:0:0:0:
246,0,119840,1,10,0:0:0:0:
96,56,120316,6,0,P|66:131|110:201,1,160,0|8,1:0|0:0,0:0:0:0:
174,240,121031,1,2,1:0:0:0:
174,240,121269,2,0,P|238:229|276:227,1,80,2|2,3:0|0:0,0:0:0:0:
326,195,121745,1,10,0:0:0:0:
454,290,122221,6,0,P|463:255|478:204,2,80,2|2|10,1:0|1:0|0:0,0:0:0:0:
405,354,122936,1,2,1:0:0:0:
405,354,123174,2,0,P|341:343|303:341,1,80,2|2,3:0|1:0,0:0:0:0:
252,373,123650,1,10,0:0:0:0:
103,313,124126,6,0,P|88:236|162:185,1,160,4|8,1:0|0:0,0:0:0:0:
224,166,124840,1,2,1:0:0:0:
224,166,125079,2,0,P|270:182|323:189,1,80,2|2,3:0|3:0,0:0:0:0:
360,240,125554,1,10,0:0:0:0:
486,141,126031,6,0,P|520:97|494:15,2,120,0|0|2,1:0|1:0|1:0,0:0:0:0:
416,180,126983,2,0,P|370:164|317:157,1,80,10|2,0:0|3:0,0:0:0:0:
278,106,127459,1,10,0:0:0:0:
186,236,127935,6,0,P|102:216|8:206,1,160,0|8,1:0|0:0,0:0:0:0:
0,136,128650,1,2,1:0:0:0:
0,136,128888,2,0,P|14:72|18:34,1,80,2|2,3:0|0:0,0:0:0:0:
79,8,129364,1,10,0:0:0:0:
219,84,129841,6,0,P|228:49|258:11,2,80,2|2|10,1:0|0:0|0:0,0:0:0:0:
164,142,130555,1,2,1:0:0:0:
164,142,130793,2,0,P|178:205|184:244,1,80,2|2,3:0|1:0,0:0:0:0:
239,274,131269,2,0,P|307:295|377:225,1,160,10|0,0:0|1:0,0:0:0:0:
371,243,132698,6,0,P|444:226|466:357,1,240,0|0,1:0|0:0,0:0:0:0:
390,335,133650,2,0,P|325:311|144:268,1,240,0|0,1:0|0:0,0:0:0:0:
88,306,134602,2,0,P|77:199|185:193,1,240,0|0,1:0|0:0,0:0:0:0:
252,234,135555,2,0,P|334:230|343:151,3,160,0|0|0|0,1:0|1:0|1:0|1:0,0:0:0:0:
283,19,137460,6,0,P|201:30|89:53,1,160,2|0,1:0|1:0,0:0:0:0:
19,164,138412,2,0,P|20:249|97:288,1,160,2|0,1:0|1:0,0:0:0:0:
236,274,139364,6,0,P|316:255|393:245,2,160,0|0|2,1:0|1:0|1:0,0:0:0:0:
176,327,140555,1,2,0:0:0:0:
176,327,140793,1,2,1:0:0:0:
19,295,141269,6,0,P|-19:242|11:139,1,160,2|2,1:0|1:0,0:0:0:0:
153,117,142221,2,0,P|194:130|256:142,1,80,2|2,1:0|0:0,0:0:0:0:
299,178,142698,1,2,1:0:0:0:
458,164,143174,6,0,P|492:110|439:25,1,160,0|2,1:0|1:0,0:0:0:0:
378,12,143888,1,10,1:2:0:0:
378,12,144126,2,0,P|313:24|214:48,1,160,0|0,1:0|1:0,0:0:0:0:
168,105,144841,1,8,1:2:0:0:
168,105,145079,6,0,P|184:165|191:208,1,80,0|8,1:0|1:2,0:0:0:0:
264,203,145555,2,0,P|324:187|367:180,1,80,0|8,1:0|1:2,0:0:0:0:
417,207,146031,2,0,P|433:267|440:310,1,80,0|8,1:0|1:2,0:0:0:0:
490,343,146507,1,0,0:0:0:0:
317,384,146983,6,0,P|301:320|295:259,1,88.000002685547,4|2,1:0|0:0,0:0:0:0:
323,261,147341,2,0,P|307:197|301:136,1,88.000002685547,2|2,0:0|0:0,0:0:0:0:
327,138,147698,2,0,P|311:74|305:13,1,88.000002685547,2|0,0:0|1:0,0:0:0:0:
230,12,148174,1,2,0:0:0:0:
162,68,148412,1,10,0:0:0:0:
84,25,148650,1,2,0:0:0:0:
21,87,148888,6,0,P|36:150|42:211,1,88.000002685547,2|0,1:0|0:0,0:0:0:0:
68,206,149245,2,0,P|123:210|160:156,1,88.000002685547,2|0,0:0|0:0,0:0:0:0:
173,156,149602,2,0,P|239:113|345:166,1,176.000005371094,2|2,0:0|0:0,0:0:0:0:
371,216,150317,1,10,0:0:0:0:
308,277,150555,1,10,0:3:0:0:
348,355,150793,6,0,P|391:360|434:370,1,88.000002685547,2|0,1:0|0:0,0:0:0:0:
473,350,151150,2,0,P|478:306|488:263,1,88.000002685547,2|0,0:0|0:0,0:0:0:0:
477,220,151508,2,0,P|426:172|326:201,1,176.000005371094,10|2,0:3|0:0,0:0:0:0:
282,270,152222,1,10,0:0:0:0:
282,270,152460,1,2,0:0:0:0:
231,341,152698,6,0,P|144:324|38:312,1,176.000005371094,2|10,1:0|0:0,0:0:0:0:
17,241,153412,1,2,0:0:0:0:
17,241,153650,2,0,P|33:177|39:116,1,88.000002685547,2|10,1:0|0:3,0:0:0:0:
0,74,154127,1,10,0:0:0:0:
162,1,154602,6,0,P|146:65|140:126,1,88.000002685547,12|2,1:2|0:0,0:0:0:0:
168,124,154960,2,0,P|152:188|146:249,1,88.000002685547,2|2,0:0|0:0,0:0:0:0:
172,247,155317,2,0,P|156:311|150:372,1,88.000002685547,2|0,0:0|1:0,0:0:0:0:
225,382,155793,1,2,0:0:0:0:
302,339,156031,1,10,0:0:0:0:
381,377,156270,1,2,0:0:0:0:
449,322,156507,6,0,P|441:278|429:236,1,88.000002685547,2|0,1:0|0:0,0:0:0:0:
390,217,156864,2,0,P|346:224|304:236,1,88.000002685547,2|0,0:0|0:0,0:0:0:0:
265,215,157222,2,0,P|224:165|279:62,1,176.000005371094,2|2,0:0|0:0,0:0:0:0:
345,96,157936,1,10,0:0:0:0:
416,45,158174,1,10,0:3:0:0:
490,92,158412,6,0,P|478:134|470:177,1,88.000002685547,6|0,1:0|0:0,0:0:0:0:
436,205,158769,2,0,P|393:193|350:185,1,88.000002685547,2|0,0:0|0:0,0:0:0:0:
318,155,159127,2,0,P|231:170|129:192,1,176.000005371094,2|0,1:0|1:0,0:0:0:0:
64,153,159841,1,8,0:0:0:0:
4,318,160317,6,0,P|13:348|69:364,2,88.000002685547,2|2|10,1:0|0:0|0:0,0:0:0:0:
51,245,161031,1,2,1:0:0:0:
51,245,161269,2,0,P|94:238|136:224,1,88.000002685547,2|2,0:0|1:0,0:0:0:0:
213,266,161745,1,10,0:0:0:0:
348,377,162221,6,0,P|412:361|473:355,1,88.000002685547,4|2,1:0|0:0,0:0:0:0:
462,324,162579,2,0,P|446:260|440:199,1,88.000002685547,2|2,0:0|0:0,0:0:0:0:
407,212,162936,2,0,P|343:228|282:234,1,88.000002685547,2|0,0:0|1:0,0:0:0:0:
246,276,163412,1,2,0:0:0:0:
181,219,163650,1,10,0:0:0:0:
215,139,163888,1,2,0:0:0:0:
301,146,164126,6,0,P|365:130|426:124,1,88.000002685547,2|0,1:0|0:0,0:0:0:0:
424,105,164483,2,0,P|429:52|382:13,1,88.000002685547,2|0,0:0|0:0,0:0:0:0:
372,3,164841,2,0,P|263:30|159:40,1,176.000005371094,2|2,0:0|0:0,0:0:0:0:
140,103,165555,1,10,0:0:0:0:
60,64,165793,1,10,0:3:0:0:
0,128,166031,6,0,P|10:170|15:214,1,88.000002685547,2|0,1:0|0:0,0:0:0:0:
43,247,166388,2,0,P|85:237|129:232,1,88.000002685547,2|0,0:0|0:0,0:0:0:0:
169,251,166746,2,0,P|226:201|188:100,1,176.000005371094,10|2,0:3|0:0,0:0:0:0:
148,51,167460,1,10,0:0:0:0:
148,51,167698,1,2,0:0:0:0:
222,3,167936,6,0,P|309:20|415:32,1,176.000005371094,2|10,1:0|0:0,0:0:0:0:
466,91,168650,1,2,0:0:0:0:
466,91,168888,2,0,P|451:155|448:217,1,88.000002685547,2|10,1:0|0:3,0:0:0:0:
491,254,169365,1,10,0:0:0:0:
324,310,169841,6,0,P|260:294|199:288,1,88.000002685547,12|2,1:2|0:0,0:0:0:0:
210,257,170199,2,0,P|226:193|232:132,1,88.000002685547,2|2,0:0|0:0,0:0:0:0:
265,145,170555,2,0,P|329:161|390:167,1,88.000002685547,2|0,0:0|1:0,0:0:0:0:
426,209,171031,1,2,0:0:0:0:
491,152,171269,1,10,0:0:0:0:
457,72,171507,1,2,0:0:0:0:
371,79,171745,6,0,P|307:63|246:57,1,88.000002685547,2|0,1:0|0:0,0:0:0:0:
250,32,172102,2,0,P|186:48|125:54,1,88.000002685547,2|0,0:0|0:0,0:0:0:0:
125,73,172460,2,0,P|105:147|177:214,1,176.000005371094,2|2,0:0|0:0,0:0:0:0:
252,239,173174,1,10,0:0:0:0:
320,183,173412,1,10,0:3:0:0:
403,210,173650,6,0,P|410:255|422:295,1,88.000002685547,6|0,1:0|0:0,0:0:0:0:
402,334,174007,2,0,P|359:359|305:344,1,88.000002685547,2|0,0:0|0:0,0:0:0:0:
284,332,174365,2,0,P|193:344|95:377,1,176.000005371094,2|0,1:0|1:0,0:0:0:0:
37,323,175079,1,8,0:0:0:0:
65,149,175555,6,0,P|58:126|49:51,2,88.000002685547,2|2|10,1:0|0:0|0:0,0:0:0:0:
132,213,176269,1,2,1:0:0:0:
132,213,176507,2,0,P|173:199|217:192,1,88.000002685547,10|2,0:0|1:0,0:0:0:0:
292,238,176983,2,0,P|362:232|390:118,1,176.000005371094,10|4,0:0|1:0,0:0:0:0:
204,13,178174,5,2,1:0:0:0:
204,13,178412,2,0,P|158:19|101:32,1,80,10|2,0:0|0:0,0:0:0:0:
45,29,178888,1,2,0:0:0:0:
3,183,179365,6,0,P|18:244|23:317,2,120,0|0|2,1:0|1:0|1:0,0:0:0:0:
49,117,180317,2,0,P|95:111|152:98,1,80,10|2,0:0|0:0,0:0:0:0:
205,123,180793,2,0,P|213:212|235:299,1,160,2|2,0:0|1:0,0:0:0:0:
470,320,181983,5,2,1:0:0:0:
470,320,182221,2,0,P|424:326|367:339,1,80,10|2,0:0|0:0,0:0:0:0:
318,366,182697,1,2,1:0:0:0:
183,278,183174,6,0,P|163:281|102:303,2,80,2|2|2,1:0|0:0|0:0,0:0:0:0:
236,219,183888,1,2,1:0:0:0:
236,219,184126,2,0,P|221:153|216:119,1,80,10|2,0:0|0:0,0:0:0:0:
167,79,184603,1,10,3:0:0:0:
305,22,185079,6,0,P|375:9|435:78,1,160,4|8,1:0|0:0,0:0:0:0:
503,115,185793,1,2,1:0:0:0:
503,115,186031,2,0,P|503:159|475:207,1,80,10|2,0:0|1:0,0:0:0:0:
425,246,186507,1,10,0:0:0:0:
425,246,186745,1,0,1:0:0:0:
470,311,186983,6,0,P|503:306|520:264,2,80,8|0|8,0:0|0:0|0:0,0:0:0:0:
413,368,187698,1,2,1:0:0:0:
413,368,187936,2,0,P|345:347|325:345,1,80,10|2,0:0|1:0,0:0:0:0:
262,377,188412,1,10,0:0:0:0:
117,308,188888,6,0,P|95:251|165:160,1,160,6|8,1:0|0:0,0:0:0:0:
218,144,189602,1,2,1:0:0:0:
218,144,189841,2,0,P|274:154|327:175,1,80,10|2,0:0|1:0,0:0:0:0:
372,131,190317,1,10,0:0:0:0:
372,131,190555,1,8,0:3:0:0:
443,94,190793,6,0,P|477:103|495:150,2,80,14|2|8,1:2|0:0|0:0,0:0:0:0:
404,30,191507,1,2,1:0:0:0:
404,30,191745,2,0,P|348:20|295:-1,1,80,2|0,0:0|0:0,0:0:0:0:
249,35,192221,2,0,P|204:89|248:192,1,160
