osu file format v14

[General]
AudioFilename: audio.mp3
AudioLeadIn: 0
PreviewTime:91686
Countdown: 0
SampleSet: Soft
StackLeniency: 0.5
Mode: 0
LetterboxInBreaks: 0
WidescreenStoryboard: 1

[Editor]
DistanceSpacing: 1
BeatDivisor: 4
GridSize: 32
TimelineZoom: 1.299999

[Metadata]
Title:Kamouflage
TitleUnicode:Kamouflage
Artist:Mori Calliope
ArtistUnicode:Mori Calliope
Creator:SMOKELIND
Version:Iceluin's Hard
Source:
Tags:森カリオペ shinigami note ホロライブ hololive holomyth hololive-en en バーチャルユーチューバー virtual yt youtube youtuber vtuber english pop hip hop hip-hop Mocaotic iceluin frozz -keqing Reform Kujinn extra
BeatmapID:3924827
BeatmapSetID:1882867

[Difficulty]
HPDrainRate:4
CircleSize:3.6
OverallDifficulty:6.5
ApproachRate:7.5
SliderMultiplier:1.87
SliderTickRate:1

[Events]
//Background and Video events
0,0,"93559590_p0.jpg",0,0
Video,0,"vid.mp4"
//Break Periods
//Storyboard Layer 0 (Background)
//Storyboard Layer 1 (Fail)
//Storyboard Layer 2 (Pass)
//Storyboard Layer 3 (Foreground)
//Storyboard Layer 4 (Overlay)
//Storyboard Sound Samples

[TimingPoints]
2222,476.190476190476,4,2,77,57,1,0
2222,-111.111111111111,4,2,77,57,0,0
4602,-86.9565217391304,4,2,77,57,0,0
5079,-111.111111111111,4,2,77,57,0,0
9841,-95.2380952380952,4,2,77,67,0,0
24126,-76.9230769230769,4,2,77,67,0,0
25079,-133.333333333333,4,2,77,77,0,0
32698,-111.111111111111,4,2,77,77,0,0
36507,-95.2380952380952,4,2,77,77,0,0
40317,-66.6666666666667,4,2,77,87,0,0
44841,-57.1428571428571,4,2,77,87,0,0
45317,-66.6666666666667,4,2,77,87,0,0
51745,-74.0740740740741,4,2,77,87,0,0
55555,-95.2380952380952,4,2,77,57,0,0
55793,-76.9230769230769,4,2,77,57,0,0
56031,-95.2380952380952,4,2,77,57,0,0
56745,-76.9230769230769,4,2,77,57,0,0
56983,-95.2380952380952,4,2,77,57,0,0
57698,-76.9230769230769,4,2,77,57,0,0
57936,-95.2380952380952,4,2,77,57,0,0
58650,-76.9230769230769,4,2,77,57,0,0
58888,-95.2380952380952,4,2,77,57,0,0
59602,-76.9230769230769,4,2,77,57,0,0
59840,-95.2380952380952,4,2,77,57,0,0
60555,-76.9230769230769,4,2,77,57,0,0
60793,-95.2380952380952,4,2,77,57,0,0
62460,-76.9230769230769,4,2,77,57,0,0
62698,-95.2380952380952,4,2,77,57,0,0
63174,-86.9565217391304,4,2,77,67,0,0
70793,-95.2380952380952,4,2,77,77,0,0
77936,-76.9230769230769,4,2,77,77,0,0
78412,-133.333333333333,4,2,77,77,0,0
86031,-111.111111111111,4,2,77,77,0,0
89840,-95.2380952380952,4,2,77,77,0,0
93650,-66.6666666666667,4,2,77,87,0,0
98174,-57.1428571428571,4,2,77,87,0,0
98650,-66.6666666666667,4,2,77,87,0,0
105079,-74.0740740740741,4,2,77,87,0,0
108888,-95.2380952380952,4,2,77,57,0,0
109126,-76.9230769230769,4,2,77,57,0,0
109364,-95.2380952380952,4,2,77,57,0,0
110078,-76.9230769230769,4,2,77,57,0,0
110316,-95.2380952380952,4,2,77,57,0,0
111031,-76.9230769230769,4,2,77,57,0,0
111269,-95.2380952380952,4,2,77,57,0,0
111983,-76.9230769230769,4,2,77,57,0,0
112221,-95.2380952380952,4,2,77,57,0,0
112935,-76.9230769230769,4,2,77,57,0,0
113173,-95.2380952380952,4,2,77,57,0,0
113888,-76.9230769230769,4,2,77,57,0,0
114126,-95.2380952380952,4,2,77,57,0,0
115793,-76.9230769230769,4,2,77,57,0,0
116031,-95.2380952380952,4,2,77,57,0,0
116507,-71.4285714285714,4,2,77,77,0,0
117221,-86.9565217391304,4,2,77,77,0,0
118174,-74.0740740740741,4,2,77,77,0,0
118412,-86.9565217391304,4,2,77,77,0,0
120317,-71.4285714285714,4,2,77,77,0,0
121031,-86.9565217391304,4,2,77,77,0,0
122221,-71.4285714285714,4,2,77,77,0,0
123174,-86.9565217391304,4,2,77,77,0,0
124126,-71.4285714285714,4,2,77,77,0,0
124840,-86.9565217391304,4,2,77,77,0,0
125793,-74.0740740740741,4,2,77,77,0,0
126031,-86.9565217391304,4,2,77,77,0,0
127936,-71.4285714285714,4,2,77,77,0,0
128650,-86.9565217391304,4,2,77,77,0,0
129841,-71.4285714285714,4,2,77,77,0,0
130317,-86.9565217391304,4,2,77,77,0,0
131745,-133.333333333333,4,2,77,57,0,0
139364,-111.111111111111,4,2,77,57,0,0
143174,-111.111111111111,4,2,77,67,0,0
145079,-111.111111111111,4,2,77,77,0,0
146983,-66.6666666666667,4,2,77,87,0,0
151507,-57.1428571428571,4,2,77,87,0,0
151983,-66.6666666666667,4,2,77,87,0,0
158412,-74.0740740740741,4,2,77,87,0,0
162221,-66.6666666666667,4,2,77,87,0,0
166745,-58.8235294117647,4,2,77,87,0,0
167221,-66.6666666666667,4,2,77,87,0,0
173650,-60.6060606060606,4,2,77,87,0,0
174841,-66.6666666666667,4,2,77,87,0,0
177460,-60.6060606060606,4,2,77,87,0,0
178650,-66.6666666666667,4,2,77,87,0,0
179364,-60.6060606060606,4,2,77,87,0,0
180555,-66.6666666666667,4,2,77,87,0,0
181269,-60.6060606060606,4,2,77,87,0,0
182460,-66.6666666666667,4,2,77,87,0,0
185079,-60.6060606060606,4,2,77,87,0,0
186269,-66.6666666666667,4,2,77,87,0,0
186983,-60.6060606060606,4,2,77,87,0,0
188174,-66.6666666666667,4,2,77,87,0,0
188888,-60.6060606060606,4,2,77,87,0,0
190079,-66.6666666666667,4,2,77,87,0,0
191745,-100,4,2,77,47,0,0

[Colours]
Combo1 : 255,193,224
Combo2 : 233,233,233

[HitObjects]
192,288,2222,6,0,P|275:301|357:316,1,168.299994863892,2|0,1:0|1:0,0:0:0:0:
468,255,2936,1,2,0:0:0:0:
383,161,3174,2,0,L|391:115,1,42.0749987159729,2|0,1:0|0:0,0:0:0:0:
364,39,3412,2,0,P|404:30|439:51,2,84.1499974319459,2|2|0,0:0|1:0|0:0,0:0:0:0:
251,95,4126,2,0,L|209:86,1,42.0749987159729,0|0,1:0|0:0,0:0:0:0:
156,17,4364,2,0,L|114:8,1,42.0749987159729
45,59,4602,6,0,B|7:98|7:98|28:147,1,107.525002050877,0|2,1:0|0:0,0:0:0:0:
91,257,5079,5,2,1:0:0:0:
212,223,5317,1,2,0:0:0:0:
275,333,5555,2,0,L|399:310,1,126.224996147919,2|0,1:0|0:0,0:0:0:0:
479,290,6031,1,0,1:0:0:0:
408,185,6269,5,0,0:0:0:0:
487,94,6507,1,0,1:0:0:0:
393,16,6745,1,2,0:0:0:0:
314,107,6983,2,0,L|268:98,1,42.0749987159729,2|0,1:0|0:0,0:0:0:0:
196,154,7221,2,0,L|181:71,2,84.1499974319459,2|2|0,0:0|1:0|0:0,0:0:0:0:
224,277,7936,5,2,1:0:0:0:
416,32,9841,6,0,P|396:128|380:225,1,196.349994007874,6|8,1:0|0:0,0:0:0:0:
486,295,10555,2,0,P|393:274|324:338,1,196.349994007874,0|2,1:0|1:0,0:0:0:0:
247,302,11150,1,2,0:0:0:0:
247,302,11269,2,0,L|150:318,1,98.1749970039369,10|2,0:0|0:0,0:0:0:0:
69,335,11626,1,2,0:0:0:0:
69,335,11745,6,0,L|33:141,1,196.349994007874,0|8,1:0|0:0,0:0:0:0:
14,16,12459,2,0,L|207:51,1,196.349994007874,0|2,1:0|1:0,0:0:0:0:
280,7,13054,1,2,0:0:0:0:
280,7,13174,2,0,L|328:15,3,49.0874985019684,10|0|2|0,0:0|3:0|3:2|3:0,0:0:0:0:
378,88,13650,6,0,L|359:195,1,98.1749970039369,2|0,1:0|0:0,0:0:0:0:
289,232,14007,2,0,L|224:219,1,49.0874985019684,2|8,0:0|0:0,0:0:0:0:
141,144,14364,2,0,P|92:140|58:172,1,98.1749970039369,2|0,1:0|0:0,0:0:0:0:
57,187,14721,1,2,1:0:0:0:
63,198,14841,1,0,1:0:0:0:
143,297,15079,2,0,L|133:350,1,49.0874985019684,10|0,0:0|0:0,0:0:0:0:
218,357,15317,2,0,L|227:303,1,49.0874985019684,10|0,0:3|0:0,0:0:0:0:
307,348,15555,6,0,L|403:331,1,98.1749970039369,2|0,1:0|0:0,0:0:0:0:
486,338,15912,2,0,P|491:315|481:293,1,49.0874985019684,2|8,0:0|0:0,0:0:0:0:
424,179,16269,2,0,L|230:213,1,196.349994007874,2|2,1:0|1:0,0:0:0:0:
220,208,16864,1,2,0:0:0:0:
212,202,16983,1,10,0:0:0:0:
115,118,17221,1,10,0:3:0:0:
207,27,17460,6,0,L|400:61,1,196.349994007874,6|8,1:0|0:0,0:0:0:0:
512,0,18174,2,0,P|449:69|484:156,1,196.349994007874,0|2,1:0|1:0,0:0:0:0:
437,227,18769,1,0,0:0:0:0:
437,227,18888,2,0,P|469:261|458:306,1,98.1749970039369,10|10,0:0|0:3,0:0:0:0:
399,367,19245,1,2,0:0:0:0:
399,367,19364,6,0,L|253:341,1,147.262495505905,0|0,1:0|0:0,0:0:0:0:
166,352,19841,2,0,L|174:303,1,49.0874985019684,10|0,0:0|0:0,0:0:0:0:
109,245,20079,2,0,L|117:196,1,49.0874985019684,2|0,1:0|0:0,0:0:0:0:
53,137,20317,1,2,0:0:0:0:
122,33,20555,1,0,1:0:0:0:
122,33,20673,1,0,0:0:0:0:
122,33,20793,2,0,L|170:23,3,49.0874985019684,8|0|0|0,0:0|3:0|3:0|3:0,0:0:0:0:
249,72,21269,5,2,1:0:0:0:
249,72,21388,2,0,L|356:53,1,98.1749970039369,2|0,0:0|0:0,0:0:0:0:
427,13,21745,1,10,0:0:0:0:
427,13,21864,2,0,L|436:61,1,49.0874985019684,2|0,0:0|1:0,0:0:0:0:
512,169,22222,1,2,0:0:0:0:
512,169,22341,2,0,P|465:158|425:184,1,98.1749970039369,2|0,1:0|0:0,0:0:0:0:
360,235,22698,2,0,P|287:221|215:208,1,147.262495505905,10|0,0:0|0:0,0:0:0:0:
166,137,23174,6,0,L|174:88,1,49.0874985019684,2|0,1:0|0:0,0:0:0:0:
93,74,23412,2,0,L|83:127,1,49.0874985019684,2|0,0:0|0:0,0:0:0:0:
110,202,23650,2,0,L|91:309,1,98.1749970039369,10|2,0:0|1:0,0:0:0:0:
204,379,24126,6,0,B|232:387|232:387|255:368,1,60.7749972179414,12|0,3:3|0:0,0:0:0:0:
344,374,24364,2,0,B|352:344|352:344|333:322,1,60.7749972179414,12|0,1:3|0:0,0:0:0:0:
257,281,24602,2,0,B|237:254|237:254|258:138|258:138|288:124,1,182.324991653824,12|0,0:0|0:0,0:0:0:0:
363,77,25079,5,6,1:0:0:0:
363,77,25198,1,2,0:0:0:0:
363,77,25317,2,0,L|357:42,2,35.0625013375283,2|2|8,0:0|0:0|0:0,0:0:0:0:
512,205,26031,1,10,0:0:0:0:
384,354,26507,1,10,0:0:0:0:
235,226,26983,6,0,L|165:237,1,70.1250026750566,10|0,0:0|0:0,0:0:0:0:
188,340,27460,2,0,L|257:328,1,70.1250026750566,8|0,0:0|0:0,0:0:0:0:
335,258,27936,2,0,L|404:246,1,70.1250026750566,8|0,0:0|0:0,0:0:0:0:
382,144,28413,2,0,L|312:155,1,70.1250026750566,8|0,0:0|0:0,0:0:0:0:
233,105,28888,5,6,1:2:0:0:
233,105,29007,1,2,0:0:0:0:
233,105,29126,2,0,L|238:70,2,35.0625013375283,2|2|8,0:0|0:0|0:0,0:0:0:0:
70,216,29841,1,10,0:0:0:0:
181,379,30317,1,10,0:0:0:0:
344,268,30793,6,0,L|393:281,2,46.750001783371,10|0|0,0:0|0:0|0:0,0:0:0:0:
307,223,31269,2,0,L|258:236,2,46.750001783371,8|0|0,0:0|0:0|0:0,0:0:0:0:
344,178,31745,2,0,L|393:191,2,46.750001783371,8|0|0,0:0|0:0|0:0,0:0:0:0:
307,133,32221,1,10,0:0:0:0:
136,15,32698,6,0,P|95:10|64:37,1,84.1499974319459,6|0,1:0|0:0,0:0:0:0:
6,101,33055,2,0,L|13:142,1,42.0749987159729,2|8,0:0|0:0,0:0:0:0:
54,372,33650,1,8,0:0:0:0:
131,284,33888,2,0,L|121:223,2,42.0749987159729,2|2|10,0:0|0:0|0:0,0:0:0:0:
244,342,34364,1,2,0:0:0:0:
244,342,34483,1,2,0:0:0:0:
244,342,34602,6,0,L|368:319,1,126.224996147919,8|0,0:0|0:0,0:0:0:0:
448,353,35079,2,0,L|455:311,1,42.0749987159729,8|0,0:0|0:0,0:0:0:0:
407,244,35317,1,0,0:0:0:0:
487,158,35555,1,8,0:0:0:0:
430,54,35793,1,0,0:0:0:0:
313,77,36031,1,8,0:0:0:0:
298,194,36269,1,2,0:0:0:0:
180,215,36507,6,0,L|127:205,3,49.0874985019684,14|0|2|0,1:2|0:0|0:0|0:0,0:0:0:0:
85,134,36983,2,0,L|94:81,3,49.0874985019684,10|0|2|0,0:0|3:0|0:0|3:0,0:0:0:0:
166,39,37460,2,0,L|218:48,3,49.0874985019684,10|0|2|0,0:0|3:0|3:2|3:0,0:0:0:0:
261,120,37936,2,0,L|251:172,3,49.0874985019684,10|0|0|0,0:0|0:0|3:0|0:0,0:0:0:0:
180,215,38412,1,14,1:2:0:0:
448,351,40317,6,0,P|459:282|472:213,1,140.250005350113,4|2,1:0|0:0,0:0:0:0:
488,131,40674,2,0,P|455:122|426:140,1,70.1250026750566,2|8,0:0|0:0,0:0:0:0:
361,193,40912,1,2,0:0:0:0:
350,206,41031,2,0,P|281:193|211:181,1,140.250005350113,2|0,0:0|1:0,0:0:0:0:
47,145,41507,2,0,L|58:75,1,70.1250026750566,2|0,0:0|0:0,0:0:0:0:
125,25,41745,2,0,P|157:16|186:35,1,70.1250026750566,10|0,0:0|0:0,0:0:0:0:
224,112,41983,2,0,L|211:180,1,70.1250026750566,2|0,0:0|0:0,0:0:0:0:
283,235,42221,6,0,P|218:215|164:255,1,140.250005350113,2|0,1:0|0:0,0:0:0:0:
116,329,42579,2,0,P|180:348|234:308,1,140.250005350113,2|0,0:0|0:0,0:0:0:0:
283,235,42936,2,0,P|386:251|490:270,1,210.37500802517,2|0,0:0|0:0,0:0:0:0:
504,188,43412,2,0,P|469:180|435:174,1,70.1250026750566,2|0,0:0|0:0,0:0:0:0:
389,103,43650,2,0,P|354:95|320:89,1,70.1250026750566,10|0,0:0|0:0,0:0:0:0:
253,142,43888,2,0,P|215:134|176:127,1,70.1250026750566,10|0,0:3|0:0,0:0:0:0:
108,83,44126,6,0,P|153:131|127:193,1,140.250005350113,2|0,1:0|0:0,0:0:0:0:
195,250,44483,2,0,P|146:295|84:270,1,140.250005350113,2|0,0:0|0:0,0:0:0:0:
12,225,44841,6,0,B|23:159|23:159|12:131|12:131|24:65,1,163.62500156045,10|0,0:3|1:0,0:0:0:0:
196,59,45317,6,0,L|183:127,1,70.1250026750566,2|0,0:0|0:0,0:0:0:0:
274,110,45555,2,0,L|260:187,1,70.1250026750566,10|0,0:0|0:0,0:0:0:0:
352,161,45793,2,0,L|338:238,1,70.1250026750566,2|0,0:0|0:0,0:0:0:0:
416,274,46031,6,0,P|348:264|293:305,1,140.250005350113,2|2,1:0|0:0,0:0:0:0:
288,319,46388,1,0,0:0:0:0:
284,331,46507,1,10,0:0:0:0:
122,379,46745,1,2,0:0:0:0:
1,262,46983,1,2,1:0:0:0:
6,248,47102,1,8,0:3:0:0:
12,235,47221,1,10,0:3:0:0:
28,66,47460,1,10,0:0:0:0:
73,54,47579,1,4,0:3:0:0:
117,66,47698,1,4,0:3:0:0:
146,101,47817,1,4,0:3:0:0:
159,147,47936,6,0,P|227:133|296:121,1,140.250005350113,12|2,1:2|0:0,0:0:0:0:
363,174,48293,2,0,L|350:242,1,70.1250026750566,2|8,0:0|0:0,0:0:0:0:
411,308,48531,1,2,0:0:0:0:
427,301,48650,2,0,P|439:232|451:162,1,140.250005350113,2|0,0:0|1:0,0:0:0:0:
350,28,49126,2,0,L|281:40,1,70.1250026750566,2|0,0:0|0:0,0:0:0:0:
199,8,49364,2,0,L|129:20,1,70.1250026750566,10|0,0:0|0:0,0:0:0:0:
69,80,49602,2,0,L|0:91,1,70.1250026750566,2|0,0:0|0:0,0:0:0:0:
49,169,49840,6,0,L|74:306,1,140.250005350113,2|0,1:0|0:0,0:0:0:0:
4,354,50198,2,0,P|69:337|124:377,1,140.250005350113,2|0,0:0|0:0,0:0:0:0:
195,330,50555,2,0,P|298:346|402:365,1,210.37500802517,2|0,0:0|0:0,0:0:0:0:
472,315,51031,6,0,P|483:283|462:257,1,70.1250026750566,2|0,0:0|0:0,0:0:0:0:
476,168,51269,2,0,L|399:181,1,70.1250026750566,10|0,0:0|0:0,0:0:0:0:
334,222,51507,2,0,P|312:195|324:164,1,70.1250026750566,10|0,0:3|0:0,0:0:0:0:
377,98,51745,6,0,P|256:120|167:21,1,252.45000096302,6|8,1:0|0:0,0:0:0:0:
37,108,52460,6,0,P|98:175|79:265,1,189.337500722265,2|0,1:0|1:0,0:0:0:0:
34,344,52936,2,0,L|96:354,1,63.1125002407551,0|0,1:0|0:0,0:0:0:0:
161,298,53174,1,8,0:0:0:0:
302,381,53412,1,0,0:0:0:0:
314,372,53531,1,0,0:0:0:0:
328,363,53650,6,0,L|317:301,1,63.1125002407551,2|2,1:0|0:0,0:0:0:0:
405,317,53888,2,0,L|395:254,1,63.1125002407551,2|2,0:0|0:0,0:0:0:0:
464,205,54126,2,0,P|404:216|357:178,1,126.22500048151,10|2,0:0|1:0,0:0:0:0:
247,55,54602,1,2,0:0:0:0:
214,34,54721,1,0,0:0:0:0:
175,34,54841,1,2,1:0:0:0:
142,53,54960,1,0,0:0:0:0:
125,91,55079,2,0,P|142:184|157:277,1,189.337500722265,10|0,0:0|0:0,0:0:0:0:
153,367,55555,6,0,L|201:357,1,49.0874985019684,4|0,1:0|0:0,0:0:0:0:
259,295,55793,6,0,P|262:269|241:282,1,60.7749972179414
422,345,56269,6,0,L|430:296,1,49.0874985019684,14|0,0:3|0:0,0:0:0:0:
378,226,56507,2,0,L|386:177,1,49.0874985019684,10|0,0:0|0:0,0:0:0:0:
454,125,56745,6,0,P|464:102|440:107,1,60.7749972179414,2|0,0:0|0:0,0:0:0:0:
354,96,56983,6,0,L|305:87,1,49.0874985019684,2|0,1:0|0:0,0:0:0:0:
218,82,57221,2,0,L|224:47,4,24.5437492509842,0|0|0|0|12,3:0|3:0|3:0|3:0|0:3,0:0:0:0:
118,168,57698,6,0,P|93:173|102:150,1,60.7749972179414,0|12,0:0|0:3,0:0:0:0:
256,265,58174,6,0,L|207:273,1,49.0874985019684,14|0,0:3|0:0,0:0:0:0:
225,358,58412,2,0,L|273:349,1,49.0874985019684,10|0,0:0|0:0,0:0:0:0:
339,290,58650,6,0,P|363:284|343:268,1,60.7749972179414,2|0,0:0|0:0,0:0:0:0:
303,191,58888,6,0,L|312:142,1,49.0874985019684,2|0,1:0|0:0,0:0:0:0:
303,60,59126,1,0,0:0:0:0:
324,55,59245,1,0,0:0:0:0:
340,64,59364,1,12,0:3:0:0:
467,8,59602,6,0,P|490:2|477:22,1,60.7749972179414
512,211,60079,6,0,L|503:259,1,49.0874985019684,14|0,0:3|0:0,0:0:0:0:
434,308,60317,2,0,L|385:299,1,49.0874985019684,10|0,0:0|0:0,0:0:0:0:
340,229,60555,6,0,P|320:213|322:238,1,60.7749972179414,2|0,0:0|0:0,0:0:0:0:
304,322,60793,6,0,L|295:376,1,49.0874985019684,2|0,1:0|0:0,0:0:0:0:
211,356,61031,1,0,0:0:0:0:
211,356,61150,1,0,0:0:0:0:
211,356,61269,2,0,L|219:307,3,49.0874985019684,14|2|2|14,0:3|0:0|0:0|0:3,0:0:0:0:
163,237,61745,2,0,L|66:253,1,98.1749970039369,2|14,0:0|0:3,0:0:0:0:
44,127,62221,2,0,L|92:119,1,49.0874985019684,10|0,0:0|3:0,0:0:0:0:
143,52,62460,6,0,P|149:28|164:48,1,60.7749972179414,2|0,1:0|0:0,0:0:0:0:
238,94,62698,6,0,L|270:88,5,32.7249990013123,10|8|8|8|8|8,0:3|0:3|0:3|0:3|0:3|0:3,0:0:0:0:
282,87,63174,6,0,L|244:298,1,215.050004101753,4|8,1:0|0:0,0:0:0:0:
362,372,63888,2,0,L|414:362,1,53.7625010254383,2|0,1:0|0:0,0:0:0:0:
505,374,64126,2,0,L|495:321,1,53.7625010254383,2|0,0:0|0:0,0:0:0:0:
505,233,64364,2,0,L|452:242,1,53.7625010254383,2|0,1:0|0:0,0:0:0:0:
373,269,64602,2,0,P|404:227|397:175,1,107.525002050877,10|8,3:2|0:3,0:0:0:0:
322,68,65079,5,2,1:0:0:0:
283,87,65198,1,2,0:0:0:0:
246,73,65317,1,2,0:0:0:0:
207,97,65436,1,2,0:0:0:0:
170,86,65555,1,8,0:0:0:0:
44,51,65793,2,0,L|34:103,1,53.7625010254383,2|0,1:0|0:0,0:0:0:0:
95,166,66031,2,0,L|85:218,1,53.7625010254383,2|0,0:0|0:0,0:0:0:0:
15,269,66269,2,0,L|5:321,1,53.7625010254383,2|0,1:0|0:0,0:0:0:0:
71,379,66507,2,0,L|123:369,3,53.7625010254383,10|0|0|0,0:0|3:0|3:0|3:0,0:0:0:0:
205,352,66983,5,0,1:0:0:0:
295,260,67221,1,0,0:0:0:0:
175,209,67460,1,8,0:0:0:0:
265,117,67698,2,0,L|318:127,1,53.7625010254383,2|0,1:0|0:0,0:0:0:0:
389,76,67936,2,0,P|414:70|436:84,1,53.7625010254383,2|0,0:0|1:0,0:0:0:0:
476,162,68174,2,0,L|467:214,1,53.7625010254383,2|0,1:0|0:0,0:0:0:0:
498,298,68412,2,0,P|455:266|403:274,1,107.525002050877,10|8,0:0|0:3,0:0:0:0:
303,355,68888,1,2,1:0:0:0:
64,128,70793,6,0,P|72:80|81:31,2,98.1749970039369,4|0|0,1:0|1:0|0:0,0:0:0:0:
17,246,71507,2,0,L|65:254,1,49.0874985019684,2|2,1:0|0:0,0:0:0:0:
133,198,71745,2,0,P|179:186|218:213,1,98.1749970039369,10|2,0:0|0:0,0:0:0:0:
268,291,72102,1,2,0:0:0:0:
268,291,72221,2,0,P|307:317|353:306,1,98.1749970039369,2|2,0:0|0:0,0:0:0:0:
420,252,72579,1,2,0:0:0:0:
420,252,72698,6,0,L|468:260,2,49.0874985019684,2|0|0,1:0|1:0|1:0,0:0:0:0:
334,156,73174,2,0,L|351:59,1,98.1749970039369,8|2,0:0|1:0,0:0:0:0:
355,46,73531,1,2,0:0:0:0:
358,35,73650,1,10,0:0:0:0:
231,17,73888,2,0,L|222:65,1,49.0874985019684,2|2,1:0|0:0,0:0:0:0:
251,146,74126,2,0,P|205:158|165:132,1,98.1749970039369,2|2,0:0|0:0,0:0:0:0:
136,52,74483,2,0,L|87:60,1,49.0874985019684,2|2,0:0|0:0,0:0:0:0:
1,155,74841,5,2,1:0:0:0:
116,210,75079,2,0,L|99:306,1,98.1749970039369,0|2,1:0|0:0,0:0:0:0:
28,353,75436,1,2,0:0:0:0:
28,353,75555,2,0,P|96:334|155:374,1,147.262495505905,10|0,0:0|0:0,0:0:0:0:
222,322,76031,2,0,L|318:338,1,98.1749970039369,10|2,0:0|0:0,0:0:0:0:
431,260,76507,6,0,P|460:194|420:134,2,147.262495505905,2|0|2,1:0|1:0|1:0,0:0:0:0:
314,207,77460,1,10,0:0:0:0:
314,207,77579,1,10,0:0:0:0:
314,207,77698,1,10,0:0:0:0:
225,299,77936,6,0,B|79:273|79:273|48:295,1,182.324991653824,14|0,0:0|0:0,0:0:0:0:
14,212,78412,5,6,1:0:0:0:
14,212,78531,1,2,0:0:0:0:
14,212,78650,2,0,L|20:177,2,35.0625013375283,2|2|8,0:0|0:0|0:0,0:0:0:0:
128,371,79364,1,10,0:0:0:0:
287,257,79840,1,10,0:0:0:0:
173,98,80316,6,0,P|164:64|183:36,1,70.1250026750566,10|0,0:0|0:0,0:0:0:0:
278,84,80793,2,0,P|295:54|328:48,1,70.1250026750566,8|0,0:0|0:0,0:0:0:0:
362,148,81269,2,0,P|395:139|423:158,1,70.1250026750566,8|0,0:0|0:0,0:0:0:0:
376,252,81745,2,0,P|405:269|411:302,1,70.1250026750566,8|0,0:0|0:0,0:0:0:0:
319,345,82221,5,6,1:2:0:0:
319,345,82340,1,2,0:0:0:0:
319,345,82459,2,0,L|324:380,2,35.0625013375283,2|2|8,0:0|0:0|0:0,0:0:0:0:
140,262,83174,1,10,0:0:0:0:
223,83,83650,1,10,0:0:0:0:
402,166,84126,6,0,L|451:153,2,46.750001783371,10|0|0,0:0|0:0|0:0,0:0:0:0:
365,211,84602,2,0,L|316:198,2,46.750001783371,8|0|0,0:0|0:0|0:0,0:0:0:0:
402,256,85078,2,0,L|451:243,2,46.750001783371,8|0|0,0:0|0:0|0:0,0:0:0:0:
365,301,85554,1,10,0:0:0:0:
174,376,86031,6,0,L|90:362,1,84.1499974319459,6|0,1:0|0:0,0:0:0:0:
6,367,86388,2,0,L|13:326,1,42.0749987159729,2|8,0:0|0:0,0:0:0:0:
169,149,86983,1,8,0:0:0:0:
92,74,87221,2,0,L|45:81,2,42.0749987159729,2|2|10,0:0|0:0|0:0,0:0:0:0:
192,9,87697,1,2,0:0:0:0:
192,9,87816,1,2,0:0:0:0:
192,9,87935,6,0,L|316:30,1,126.224996147919,8|0,0:0|0:0,0:0:0:0:
403,22,88412,2,0,L|396:64,1,42.0749987159729,8|0,0:0|0:0,0:0:0:0:
379,144,88650,1,0,0:0:0:0:
270,194,88889,1,8,0:0:0:0:
189,109,89127,1,0,0:0:0:0:
81,158,89365,1,8,0:0:0:0:
96,277,89603,1,2,0:0:0:0:
210,299,89841,6,0,L|258:307,3,49.0874985019684,14|0|2|0,1:2|0:0|0:0|0:0,0:0:0:0:
338,347,90317,2,0,L|346:298,3,49.0874985019684,10|0|2|0,0:0|3:0|0:0|3:0,0:0:0:0:
386,219,90793,2,0,L|337:210,3,49.0874985019684,10|0|2|0,0:0|3:0|3:2|3:0,0:0:0:0:
258,171,91269,2,0,L|249:219,3,49.0874985019684,10|0|0|0,0:0|0:0|3:0|0:0,0:0:0:0:
210,299,91745,1,14,1:2:0:0:
96,96,93650,6,0,P|147:139|214:127,1,140.250005350113,4|2,1:0|0:0,0:0:0:0:
285,78,94007,2,0,L|354:90,1,70.1250026750566,2|8,0:0|0:0,0:0:0:0:
428,46,94245,1,2,0:0:0:0:
417,31,94364,2,0,P|404:100|392:170,1,140.250005350113,2|0,0:0|1:0,0:0:0:0:
458,323,94840,2,0,L|388:335,1,70.1250026750566,2|0,0:0|0:0,0:0:0:0:
325,278,95078,2,0,P|293:269|264:288,1,70.1250026750566,10|0,0:0|0:0,0:0:0:0:
215,360,95316,2,0,L|135:373,1,70.1250026750566,2|0,0:0|0:0,0:0:0:0:
74,320,95554,6,0,L|49:181,1,140.250005350113,2|0,1:0|0:0,0:0:0:0:
2,110,95912,2,0,P|55:151|120:132,1,140.250005350113,2|0,0:0|0:0,0:0:0:0:
186,74,96269,2,0,P|289:90|393:109,1,210.37500802517,2|0,0:0|0:0,0:0:0:0:
485,93,96745,2,0,P|478:128|471:162,1,70.1250026750566,2|0,0:0|0:0,0:0:0:0:
489,255,96983,2,0,P|454:247|420:241,1,70.1250026750566,10|0,0:0|0:0,0:0:0:0:
329,256,97221,2,0,P|337:218|344:179,1,70.1250026750566,10|0,0:3|0:0,0:0:0:0:
393,108,97459,6,0,P|337:147|273:124,1,140.250005350113,2|0,1:0|0:0,0:0:0:0:
211,66,97817,2,0,L|52:93,1,140.250005350113,2|0,0:0|0:0,0:0:0:0:
20,160,98174,6,0,B|-2:206|37:240|43:231|77:260|61:305,1,163.62500156045,10|0,0:3|1:0,0:0:0:0:
213,377,98650,6,0,L|282:364,1,70.1250026750566,2|0,0:0|0:0,0:0:0:0:
367,344,98888,2,0,L|354:274,1,70.1250026750566,10|0,0:0|0:0,0:0:0:0:
340,189,99126,2,0,L|270:201,1,70.1250026750566,2|0,0:0|0:0,0:0:0:0:
222,271,99364,2,0,P|239:205|198:151,1,140.250005350113,2|2,1:0|0:0,0:0:0:0:
188,145,99721,1,0,0:0:0:0:
178,140,99840,1,10,0:0:0:0:
274,2,100078,1,2,0:0:0:0:
416,91,100316,1,2,1:0:0:0:
411,105,100435,1,8,0:3:0:0:
406,120,100554,1,10,0:3:0:0:
512,252,100793,1,10,0:0:0:0:
471,241,100912,1,4,0:3:0:0:
432,257,101031,1,4,0:3:0:0:
408,292,101150,1,4,0:3:0:0:
403,333,101269,6,0,P|335:319|266:307,1,140.250005350113,12|2,1:2|0:0,0:0:0:0:
189,359,101626,2,0,L|176:291,1,70.1250026750566,2|8,0:0|0:0,0:0:0:0:
116,227,101864,1,2,0:0:0:0:
103,242,101983,2,0,P|168:260|223:220,1,140.250005350113,2|0,0:0|1:0,0:0:0:0:
336,96,102459,2,0,L|323:25,1,70.1250026750566,2|0,0:0|0:0,0:0:0:0:
239,43,102698,2,0,L|251:113,1,70.1250026750566,10|0,0:0|0:0,0:0:0:0:
167,127,102936,2,0,L|154:56,1,70.1250026750566,2|0,0:0|0:0,0:0:0:0:
68,68,103173,6,0,L|93:205,1,140.250005350113,2|0,1:0|0:0,0:0:0:0:
25,253,103531,2,0,P|90:236|145:276,1,140.250005350113,2|0,0:0|0:0,0:0:0:0:
205,340,103888,2,0,P|308:321|412:304,1,210.37500802517,2|0,0:0|0:0,0:0:0:0:
493,275,104364,6,0,P|504:243|483:217,1,70.1250026750566,2|0,0:0|0:0,0:0:0:0:
497,132,104602,2,0,P|465:121|439:142,1,70.1250026750566,10|0,0:0|0:0,0:0:0:0:
391,68,104841,2,0,P|360:82|357:116,1,70.1250026750566,10|0,0:3|0:0,0:0:0:0:
372,200,105079,6,0,P|285:96|151:86,1,252.45000096302,6|8,1:0|0:0,0:0:0:0:
12,155,105793,6,0,L|42:341,1,189.337500722265,2|0,1:0|1:0,0:0:0:0:
126,329,106269,2,0,L|116:267,1,63.1125002407551,0|0,1:0|0:0,0:0:0:0:
168,200,106507,1,8,0:0:0:0:
299,274,106745,1,0,0:0:0:0:
308,262,106864,1,0,0:0:0:0:
317,251,106983,6,0,L|379:262,1,63.1125002407551,2|2,1:0|0:0,0:0:0:0:
461,291,107221,2,0,L|471:228,1,63.1125002407551,2|2,0:0|0:0,0:0:0:0:
506,149,107459,2,0,P|458:187|398:176,1,126.22500048151,10|2,0:0|1:0,0:0:0:0:
284,76,107935,1,2,0:0:0:0:
257,48,108054,1,0,0:0:0:0:
221,34,108174,1,2,1:0:0:0:
183,40,108293,1,0,0:0:0:0:
158,68,108412,2,0,P|175:161|190:254,1,189.337500722265,10|0,0:0|0:0,0:0:0:0:
197,343,108888,6,0,L|149:333,1,49.0874985019684,4|0,1:0|0:0,0:0:0:0:
74,365,109126,6,0,P|50:375|56:350,1,60.7749972179414
67,159,109602,6,0,L|59:110,1,49.0874985019684,14|0,0:3|0:0,0:0:0:0:
19,31,109840,2,0,L|68:23,1,49.0874985019684,10|0,0:0|0:0,0:0:0:0:
152,14,110078,6,0,P|175:5|168:29,1,60.7749972179414,2|0,0:0|0:0,0:0:0:0:
145,112,110316,6,0,L|154:161,1,49.0874985019684,2|0,1:0|0:0,0:0:0:0:
173,244,110554,2,0,L|179:279,4,24.5437492509842,0|0|0|0|12,3:0|3:0|3:0|3:0|0:3,0:0:0:0:
283,170,111031,6,0,P|308:165|299:188,1,60.7749972179414,0|12,0:0|0:3,0:0:0:0:
198,355,111507,6,0,L|247:363,1,49.0874985019684,14|0,0:3|0:0,0:0:0:0:
320,318,111745,2,0,L|368:327,1,49.0874985019684,10|0,0:0|0:0,0:0:0:0:
447,290,111983,6,0,P|461:269|436:269,1,60.7749972179414,2|0,0:0|0:0,0:0:0:0:
390,194,112221,6,0,L|399:145,1,49.0874985019684,2|0,1:0|0:0,0:0:0:0:
398,62,112459,1,0,0:0:0:0:
376,58,112578,1,0,0:0:0:0:
361,68,112697,1,12,0:3:0:0:
220,139,112935,6,0,P|206:158|229:152,1,60.7749972179414
99,16,113412,6,0,L|51:25,1,49.0874985019684,14|0,0:3|0:0,0:0:0:0:
0,96,113650,2,0,L|9:145,1,49.0874985019684,10|0,0:0|0:0,0:0:0:0:
81,194,113888,6,0,P|105:196|88:214,1,60.7749972179414,2|0,0:0|0:0,0:0:0:0:
36,286,114126,6,0,L|45:340,1,49.0874985019684,2|0,1:0|0:0,0:0:0:0:
126,384,114364,1,0,0:0:0:0:
126,384,114483,1,0,0:0:0:0:
126,384,114602,2,0,L|175:376,3,49.0874985019684,14|2|2|14,0:3|0:0|0:0|0:3,0:0:0:0:
232,313,115078,2,0,P|279:308|316:338,1,98.1749970039369,2|14,0:0|0:3,0:0:0:0:
436,382,115554,2,0,L|444:334,1,49.0874985019684,10|0,0:0|3:0,0:0:0:0:
508,274,115793,6,0,P|532:268|512:253,1,60.7749972179414,2|0,1:0|0:0,0:0:0:0:
464,181,116031,6,0,L|470:149,5,32.7249990013123,10|8|8|8|8|8,0:3|0:3|0:3|0:3|0:3|0:3,0:0:0:0:
472,136,116507,6,0,B|413:91|348:156|363:169|299:236|241:188,1,261.799992010498,4|8,1:0|0:0,0:0:0:0:
141,270,117221,6,0,L|88:260,1,53.7625010254383,2|0,1:0|0:0,0:0:0:0:
24,195,117460,2,0,L|33:142,1,53.7625010254383,2|0,3:0|3:0,0:0:0:0:
104,81,117698,2,0,L|156:90,1,53.7625010254383,2|0,3:0|3:0,0:0:0:0:
240,104,117936,1,10,0:0:0:0:
360,42,118174,6,0,B|386:29|386:29|411:51,1,63.1125002407551
369,128,118412,6,0,L|336:302,2,161.287503076315,0|0|2,1:0|1:0|1:0,0:0:0:0:
240,104,119364,2,0,L|230:156,1,53.7625010254383,10|0,0:0|3:0,0:0:0:0:
147,143,119602,2,0,L|156:90,1,53.7625010254383,2|0,3:0|0:0,0:0:0:0:
210,25,119841,2,0,P|143:67|66:50,1,161.287503076315,10|0,0:0|0:0,0:0:0:0:
0,0,120317,6,0,B|40:46|40:46|5:244,1,261.799992010498,0|8,1:0|0:0,0:0:0:0:
83,344,121031,6,0,L|135:334,1,53.7625010254383,2|0,1:0|0:0,0:0:0:0:
188,269,121269,2,0,L|240:259,1,53.7625010254383,2|0,3:0|0:0,0:0:0:0:
313,307,121507,2,0,L|365:297,1,53.7625010254383,2|0,0:0|0:0,0:0:0:0:
436,367,121745,2,0,L|455:261,1,107.525002050877,10|0,0:0|3:0,0:0:0:0:
366,170,122221,6,0,B|385:143|385:143|375:113,2,65.4499980026246,2|2|2,1:0|0:0|1:0,0:0:0:0:
281,154,122579,1,2,1:0:0:0:
281,154,122698,2,0,B|270:123|270:123|290:97,1,65.4499980026246,10|0,0:0|0:0,0:0:0:0:
346,35,122936,1,2,1:0:0:0:
221,0,123174,6,0,L|152:13,1,53.7625010254383,2|0,3:0|0:0,0:0:0:0:
79,2,123412,2,0,L|92:66,1,53.7625010254383,2|0,1:0|0:0,0:0:0:0:
24,109,123650,2,0,P|75:101|115:135,1,107.525002050877,10|0,0:0|1:0,0:0:0:0:
179,200,124007,1,0,0:0:0:0:
179,200,124126,6,0,B|272:183|272:183|314:143|314:143|421:124,1,261.799992010498,4|8,1:0|0:0,0:0:0:0:
447,250,124841,6,0,L|381:261,1,53.7625010254383,2|0,1:0|0:0,0:0:0:0:
343,332,125079,2,0,L|277:343,1,53.7625010254383,2|0,3:0|3:0,0:0:0:0:
216,291,125317,2,0,L|150:302,1,53.7625010254383,2|0,3:0|3:0,0:0:0:0:
106,368,125555,1,10,0:0:0:0:
0,290,125793,6,0,B|-13:264|-13:264|9:239,1,63.1125002407551
63,174,126031,6,0,P|140:187|200:137,2,161.287503076315,0|0|2,1:0|1:0|1:0,0:0:0:0:
51,45,126983,2,0,L|103:54,1,53.7625010254383,10|0,0:0|3:0,0:0:0:0:
174,4,127221,2,0,L|226:13,1,53.7625010254383,2|0,3:0|0:0,0:0:0:0:
277,86,127460,2,0,L|435:113,1,161.287503076315,10|0,0:0|0:0,0:0:0:0:
512,75,127936,6,0,B|557:134|492:199|479:184|412:248|460:306,1,261.799992010498,0|8,1:0|0:0,0:0:0:0:
333,333,128650,6,0,P|338:307|325:285,1,53.7625010254383,2|0,1:0|0:0,0:0:0:0:
367,214,128888,2,0,P|347:196|321:196,1,53.7625010254383,2|0,3:0|0:0,0:0:0:0:
280,125,129126,2,0,P|254:132|242:155,1,53.7625010254383,2|0,0:0|0:0,0:0:0:0:
160,142,129364,2,0,P|154:193|190:231,1,107.525002050877,10|0,0:0|3:0,0:0:0:0:
73,291,129841,6,0,B|51:246|7:218|7:218|38:175|41:129,1,196.349994007874,2|2,1:0|1:0,0:0:0:0:
0,49,130317,6,0,L|52:39,1,53.7625010254383,10|0,0:0|0:0,0:0:0:0:
135,20,130555,1,2,1:0:0:0:
245,86,130793,2,0,L|297:76,1,53.7625010254383,2|0,3:0|0:0,0:0:0:0:
352,10,131031,2,0,L|404:0,1,53.7625010254383,2|0,1:0|0:0,0:0:0:0:
473,57,131269,2,0,L|443:215,1,161.287503076315,10|0,0:0|0:0,0:0:0:0:
512,274,131745,6,0,P|444:263|390:306,1,140.250005350113,0|0,1:0|1:0,0:0:0:0:
248,169,132698,2,0,P|137:241|-3:209,2,280.500010700226,0|0|0,1:0|1:0|1:0,0:0:0:0:
248,169,135079,2,0,L|240:128,1,35.0625013375283,0|0,1:0|0:0,0:0:0:0:
173,72,135317,1,0,0:0:0:0:
283,4,135555,6,0,L|421:28,1,140.250005350113,0|0,1:0|1:0,0:0:0:0:
436,160,136269,2,0,L|366:147,1,70.1250026750566,0|0,0:0|1:0,0:0:0:0:
203,272,136983,1,0,1:0:0:0:
203,272,137460,6,0,L|210:307,2,35.0625013375283,2|2|2,1:0|0:0|0:0,0:0:0:0:
181,191,137936,1,0,1:0:0:0:
367,147,138412,2,0,L|373:181,2,35.0625013375283,2|2|0,1:0|0:0|0:0,0:0:0:0:
301,17,138888,2,0,P|250:10|208:41,1,105.187504012585,0|0,1:0|0:0,0:0:0:0:
144,93,139364,6,0,L|50:76,1,84.1499974319459,0|0,1:0|0:0,0:0:0:0:
48,91,139721,1,0,0:0:0:0:
36,102,139841,2,0,L|53:202,1,84.1499974319459,0|0,1:0|0:0,0:0:0:0:
0,300,140317,1,2,1:0:0:0:
113,354,140555,1,2,0:0:0:0:
163,238,140793,2,0,P|222:222|272:257,1,126.224996147919,2|0,1:0|0:0,0:0:0:0:
338,311,141269,2,0,P|419:295|509:279,1,168.299994863892,2|2,1:0|1:0,0:0:0:0:
457,31,142221,5,2,1:0:0:0:
345,91,142460,1,2,0:0:0:0:
235,153,142698,1,2,1:0:0:0:
235,153,143174,6,0,L|220:64,1,84.1499974319459,0|10,1:0|1:2,0:0:0:0:
96,92,143650,2,0,L|111:181,1,84.1499974319459,2|10,1:0|1:2,0:0:0:0:
191,270,144126,2,0,L|204:352,1,84.1499974319459,0|8,1:0|1:2,0:0:0:0:
79,374,144602,2,0,L|65:291,1,84.1499974319459,0|8,1:0|1:2,0:0:0:0:
109,174,145079,6,0,L|150:181,3,42.0749987159729,0|0|8|0,1:0|1:0|1:2|1:0,0:0:0:0:
216,127,145555,2,0,L|257:134,3,42.0749987159729,0|0|8|0,1:0|1:0|1:2|1:0,0:0:0:0:
323,80,146031,2,0,L|364:87,3,42.0749987159729,0|0|8|0,1:0|1:0|1:2|1:0,0:0:0:0:
430,33,146507,1,0,0:0:0:0:
512,211,146983,6,0,P|445:198|393:241,1,140.250005350113,4|2,1:0|0:0,0:0:0:0:
332,301,147340,2,0,L|263:289,1,70.1250026750566,2|8,0:0|0:0,0:0:0:0:
210,358,147578,1,2,0:0:0:0:
224,367,147697,2,0,P|211:296|199:228,1,140.250005350113,2|0,0:0|1:0,0:0:0:0:
204,55,148173,2,0,L|134:67,1,70.1250026750566,2|0,0:0|0:0,0:0:0:0:
150,152,148412,2,0,L|220:140,1,70.1250026750566,10|0,0:0|0:0,0:0:0:0:
285,83,148650,2,0,L|355:71,1,70.1250026750566,2|0,0:0|0:0,0:0:0:0:
428,115,148887,6,0,P|468:169|448:233,1,140.250005350113,2|0,1:0|0:0,0:0:0:0:
498,304,149245,2,0,P|433:324|378:284,1,140.250005350113,2|0,0:0|0:0,0:0:0:0:
333,211,149602,2,0,P|229:228|125:248,1,210.37500802517,2|0,0:0|0:0,0:0:0:0:
42,265,150078,2,0,P|35:231|54:202,1,70.1250026750566,2|0,0:0|0:0,0:0:0:0:
0,140,150317,2,0,P|26:117|60:119,1,70.1250026750566,10|0,0:0|0:0,0:0:0:0:
88,42,150555,2,0,P|120:53|136:83,1,70.1250026750566,10|0,0:3|0:0,0:0:0:0:
216,113,150792,6,0,L|354:89,1,140.250005350113,2|0,1:0|0:0,0:0:0:0:
413,29,151150,2,0,L|389:167,1,140.250005350113,2|0,0:0|0:0,0:0:0:0:
405,248,151507,6,0,B|368:275|327:235|337:227|297:185|261:215,1,163.62500156045,10|0,0:3|1:0,0:0:0:0:
130,125,151983,6,0,L|61:138,1,70.1250026750566,2|0,0:0|0:0,0:0:0:0:
79,219,152221,2,0,L|147:206,1,70.1250026750566,10|0,0:0|0:0,0:0:0:0:
161,288,152460,2,0,L|92:300,1,70.1250026750566,2|0,0:0|0:0,0:0:0:0:
105,384,152697,6,0,L|251:358,1,140.250005350113,2|2,1:0|0:0,0:0:0:0:
257,358,153054,1,0,0:0:0:0:
271,356,153173,1,10,0:0:0:0:
374,223,153411,1,2,0:0:0:0:
225,143,153649,1,2,1:0:0:0:
230,129,153768,1,8,0:3:0:0:
235,114,153887,1,10,0:3:0:0:
367,9,154126,1,10,0:0:0:0:
403,29,154245,1,4,0:3:0:0:
439,50,154364,1,4,0:3:0:0:
476,68,154483,1,4,0:3:0:0:
509,93,154602,6,0,P|495:161|483:230,1,140.250005350113,12|2,1:2|0:0,0:0:0:0:
503,319,154959,2,0,L|433:307,1,70.1250026750566,2|8,0:0|0:0,0:0:0:0:
350,275,155197,1,2,0:0:0:0:
362,260,155316,2,0,P|402:314|384:380,1,140.250005350113,2|0,0:0|1:0,0:0:0:0:
225,324,155792,2,0,L|154:337,1,70.1250026750566,2|0,0:0|0:0,0:0:0:0:
78,384,156031,2,0,L|66:314,1,70.1250026750566,10|0,0:0|0:0,0:0:0:0:
18,235,156269,2,0,L|89:222,1,70.1250026750566,2|0,0:0|0:0,0:0:0:0:
176,245,156506,6,0,L|151:108,1,140.250005350113,2|0,1:0|0:0,0:0:0:0:
101,34,156864,2,0,P|155:74|221:57,1,140.250005350113,2|0,0:0|0:0,0:0:0:0:
292,8,157221,2,0,P|394:26|498:47,1,210.37500802517,2|0,0:0|0:0,0:0:0:0:
483,130,157697,2,0,L|399:114,1,70.1250026750566,2|0,0:0|0:0,0:0:0:0:
340,158,157936,2,0,L|256:142,1,70.1250026750566,10|0,0:0|0:0,0:0:0:0:
197,186,158174,2,0,L|113:170,1,70.1250026750566,10|0,0:3|0:0,0:0:0:0:
68,111,158412,6,0,L|110:359,1,252.45000096302,6|8,1:0|0:0,0:0:0:0:
245,289,159126,2,0,P|338:304|431:320,1,189.337500722265,2|0,1:0|1:0,0:0:0:0:
512,325,159602,2,0,P|516:294|497:271,1,63.1125002407551,0|0,1:0|0:0,0:0:0:0:
449,204,159840,1,8,0:0:0:0:
499,63,160078,1,0,0:0:0:0:
490,50,160197,1,0,0:0:0:0:
477,41,160316,6,0,P|446:34|419:49,1,63.1125002407551,2|2,1:0|0:0,0:0:0:0:
350,98,160555,2,0,L|287:87,1,63.1125002407551,2|2,0:0|0:0,0:0:0:0:
230,21,160793,2,0,P|169:4|121:44,1,126.22500048151,10|2,0:0|1:0,0:0:0:0:
30,174,161268,1,2,0:0:0:0:
40,203,161387,1,0,0:0:0:0:
50,233,161507,1,2,1:0:0:0:
61,262,161626,1,0,0:0:0:0:
74,290,161745,2,0,P|166:271|260:255,1,189.337500722265,10|0,0:0|0:0,0:0:0:0:
298,181,162222,6,0,L|322:319,1,140.250005350113,4|2,1:0|0:0,0:0:0:0:
412,320,162579,2,0,L|424:251,1,70.1250026750566,2|8,0:0|0:0,0:0:0:0:
490,191,162817,1,2,0:0:0:0:
499,207,162936,2,0,P|432:220|382:175,1,140.250005350113,2|0,0:0|1:0,0:0:0:0:
283,32,163412,2,0,P|250:23|221:42,1,70.1250026750566,2|0,0:0|0:0,0:0:0:0:
141,13,163650,2,0,P|116:37|119:71,1,70.1250026750566,10|0,0:0|0:0,0:0:0:0:
48,124,163888,2,0,P|56:156|87:171,1,70.1250026750566,2|0,0:0|0:0,0:0:0:0:
160,223,164126,6,0,L|319:192,1,140.250005350113,2|0,1:0|0:0,0:0:0:0:
311,283,164483,2,0,L|173:309,1,140.250005350113,2|0,0:0|0:0,0:0:0:0:
123,380,164841,2,0,P|107:277|88:173,1,210.37500802517,2|0,0:0|0:0,0:0:0:0:
68,81,165317,2,0,P|103:88|137:95,1,70.1250026750566,2|0,0:0|0:0,0:0:0:0:
205,45,165555,2,0,P|239:51|273:58,1,70.1250026750566,10|0,0:0|0:0,0:0:0:0:
320,131,165793,2,0,P|358:139|397:146,1,70.1250026750566,10|0,0:3|0:0,0:0:0:0:
452,86,166031,6,0,L|424:237,1,140.250005350113,2|0,1:0|0:0,0:0:0:0:
506,269,166389,2,0,P|438:259|384:301,1,140.250005350113,2|0,0:0|0:0,0:0:0:0:
318,352,166745,6,0,B|252:341|252:341|224:352|224:352|163:340,1,158.950003031731,10|0,0:3|1:0,0:0:0:0:
180,177,167221,6,0,L|249:190,1,70.1250026750566,2|0,0:0|0:0,0:0:0:0:
326,238,167460,2,0,L|339:168,1,70.1250026750566,10|0,0:0|0:0,0:0:0:0:
389,87,167698,2,0,L|319:75,1,70.1250026750566,2|0,0:0|0:0,0:0:0:0:
262,7,167936,2,0,P|196:-10|142:31,1,140.250005350113,2|2,1:0|0:0,0:0:0:0:
136,42,168293,1,0,0:0:0:0:
134,55,168412,1,10,0:0:0:0:
20,179,168650,1,2,0:0:0:0:
152,282,168888,1,2,1:0:0:0:
166,277,169007,1,8,0:3:0:0:
181,272,169126,1,10,0:3:0:0:
300,147,169365,1,10,0:0:0:0:
341,136,169484,1,4,0:3:0:0:
380,152,169603,1,4,0:3:0:0:
404,187,169722,1,4,0:3:0:0:
418,221,169841,6,0,L|392:358,1,140.250005350113,12|2,1:2|0:0,0:0:0:0:
304,345,170198,2,0,L|317:277,1,70.1250026750566,2|8,0:0|0:0,0:0:0:0:
249,216,170436,1,2,0:0:0:0:
235,203,170555,2,0,P|169:185|114:225,1,140.250005350113,2|0,0:0|1:0,0:0:0:0:
0,108,171031,2,0,L|13:37,1,70.1250026750566,2|0,0:0|0:0,0:0:0:0:
95,53,171270,2,0,L|83:123,1,70.1250026750566,10|0,0:0|0:0,0:0:0:0:
167,136,171508,2,0,L|180:65,1,70.1250026750566,2|0,0:0|0:0,0:0:0:0:
258,113,171745,6,0,L|412:86,1,140.250005350113,2|0,1:0|0:0,0:0:0:0:
457,28,172102,2,0,L|430:182,1,140.250005350113,2|0,0:0|0:0,0:0:0:0:
501,220,172460,2,0,P|406:219|320:319,1,210.37500802517,2|0,0:0|0:0,0:0:0:0:
263,354,172936,6,0,P|228:358|207:332,1,70.1250026750566,2|0,0:0|0:0,0:0:0:0:
131,369,173174,2,0,P|109:342|120:310,1,70.1250026750566,10|0,0:0|0:0,0:0:0:0:
50,267,173412,2,0,P|62:235|94:229,1,70.1250026750566,10|0,0:3|0:0,0:0:0:0:
178,244,173650,6,0,B|263:135|433:165|433:165|380:151|343:91,1,385.687503678203,6|0,1:0|0:0,0:0:0:0:
403,34,174365,2,0,B|331:3|331:3|276:57,1,154.275001471281,2|0,1:0|0:0,0:0:0:0:
116,5,174841,6,0,L|105:74,1,70.1250026750566,0|0,1:0|0:0,0:0:0:0:
94,156,175079,1,8,0:0:0:0:
14,301,175317,1,0,0:0:0:0:
20,313,175436,1,0,0:0:0:0:
30,323,175555,6,0,P|60:339|94:334,1,70.1250026750566,2|2,1:0|0:0,0:0:0:0:
160,277,175793,2,0,P|193:271|224:288,1,70.1250026750566,2|2,0:0|0:0,0:0:0:0:
278,358,176031,2,0,L|415:332,1,140.250005350113,10|2,0:0|1:0,0:0:0:0:
499,187,176507,1,10,0:0:0:0:
491,145,176626,1,0,0:0:0:0:
459,116,176746,1,2,1:0:0:0:
418,106,176865,1,0,0:0:0:0:
380,124,176984,2,0,P|398:227|415:331,1,210.37500802517,10|0,0:0|0:0,0:0:0:0:
330,304,177460,6,0,B|173:270|60:383|60:383|13:340|67:279,1,385.687503678203,4|0,1:0|0:0,0:0:0:0:
0,222,178174,2,0,B|44:210|69:187|69:187|87:217|123:241,1,154.275001471281,2|10,1:0|0:0,0:0:0:0:
180,108,178650,6,0,L|249:120,1,70.1250026750566,2|0,0:0|0:0,0:0:0:0:
315,59,178888,2,0,L|384:71,1,70.1250026750566,2|0,0:0|0:0,0:0:0:0:
457,16,179126,1,0,3:0:0:0:
468,11,179245,1,0,3:0:0:0:
478,5,179364,6,0,B|452:155|452:155|498:223|498:223|467:390,1,385.687503678203,0|0,1:0|0:0,0:0:0:0:
383,356,180079,2,0,B|404:243|404:243|381:209,1,154.275001471281,2|10,1:0|0:0,0:0:0:0:
324,53,180555,6,0,L|255:65,1,70.1250026750566,2|0,0:0|0:0,0:0:0:0:
191,9,180793,2,0,L|121:21,1,70.1250026750566,2|0,0:0|0:0,0:0:0:0:
80,95,181031,2,0,L|8:105,1,70.1250026750566
14,192,181269,6,0,B|103:178|103:178|188:229|188:229|259:148|259:148|348:133,1,385.687503678203,2|0,1:0|0:0,0:0:0:0:
398,59,181983,2,0,B|450:116|450:116|419:186,1,154.275001471281,2|10,1:0|0:0,0:0:0:0:
422,354,182460,6,0,P|394:333|360:337,1,70.1250026750566,2|0,0:0|0:0,0:0:0:0:
309,264,182698,2,0,P|275:268|253:295,1,70.1250026750566,2|0,1:0|0:0,0:0:0:0:
191,355,182936,1,0,0:0:0:0:
178,345,183055,1,0,0:0:0:0:
164,336,183174,2,0,L|86:349,3,70.1250026750566,2|2|2|2,1:0|0:0|0:0|1:0,0:0:0:0:
183,246,183650,2,0,L|44:270,1,140.250005350113,2|2,0:0|1:0,0:0:0:0:
55,103,184126,6,0,L|124:92,1,70.1250026750566,10|0,0:0|0:0,0:0:0:0:
200,137,184364,2,0,L|269:126,1,70.1250026750566,2|0,0:0|0:0,0:0:0:0:
331,62,184602,2,0,L|294:269,1,210.37500802517,10|0,3:0|0:0,0:0:0:0:
242,343,185079,6,0,B|301:290|301:290|370:320,1,154.275001471281,4|0,1:0|0:0,0:0:0:0:
378,333,185436,1,0,0:0:0:0:
388,345,185555,1,8,0:0:0:0:
496,229,185793,2,0,B|512:134|512:134|495:95|495:95|511:3,1,231.412502206922,2|0,1:0|0:0,0:0:0:0:
425,0,186269,6,0,L|412:69,1,70.1250026750566,2|0,1:0|0:0,0:0:0:0:
334,22,186507,2,0,L|321:91,1,70.1250026750566,10|0,0:0|0:0,0:0:0:0:
243,41,186745,2,0,L|230:110,1,70.1250026750566,0|0,1:0|0:0,0:0:0:0:
279,182,186983,6,0,B|242:153|223:125|223:125|195:145|152:152,1,154.275001471281,8|0,0:0|0:0,0:0:0:0:
142,161,187341,1,0,0:0:0:0:
133,172,187460,1,8,0:0:0:0:
174,331,187698,2,0,B|226:370|283:313|270:301|327:242|378:284,1,231.412502206922,2|0,1:0|0:0,0:0:0:0:
461,291,188174,6,0,P|466:257|444:231,1,70.1250026750566,2|0,1:0|0:0,0:0:0:0:
491,160,188412,2,0,P|464:138|430:144,1,70.1250026750566,10|0,0:0|0:0,0:0:0:0:
393,67,188650,2,0,P|361:79|349:111,1,70.1250026750566,2|0,1:0|0:0,0:0:0:0:
278,164,188888,6,0,B|206:150|206:150|194:156|194:156|121:143,1,154.275001471281,6|0,1:0|0:0,0:0:0:0:
117,151,189246,1,0,0:0:0:0:
108,160,189365,1,8,0:0:0:0:
2,37,189602,2,0,B|-16:0|-16:0|170:32,1,231.412502206922,2|0,1:0|0:0,0:0:0:0:
261,10,190079,6,0,L|248:79,1,70.1250026750566,2|0,1:0|0:0,0:0:0:0:
334,93,190317,2,0,L|346:23,1,70.1250026750566,10|0,0:0|0:0,0:0:0:0:
431,36,190554,2,0,L|419:105,1,70.1250026750566,8|8,0:3|0:3,0:0:0:0:
365,170,190793,2,0,L|352:238,3,70.1250026750566,14|2|2|2,1:2|0:0|0:0|0:0,0:0:0:0:
430,279,191269,2,0,P|362:268|311:313,1,140.250005350113,10|2,1:2|1:0,0:0:0:0:
180,223,191745,5,2,0:0:0:0:
70,295,191983,1,0,0:0:0:0:
0,183,192221,1,0,0:0:0:0:
110,111,192460,2,0,L|90:-1,1,93.5
