osu file format v14

[General]
AudioFilename: audio.mp3
AudioLeadIn: 0
PreviewTime: 47483
Countdown: 0
SampleSet: Soft
StackLeniency: 0.4
Mode: 0
LetterboxInBreaks: 0
EpilepsyWarning: 1
WidescreenStoryboard: 1

[Editor]
Bookmarks: 52063,69054,86045,102771,107151
DistanceSpacing: 0.6
BeatDivisor: 8
GridSize: 32
TimelineZoom: 2.2

[Metadata]
Title:Ibasho
TitleUnicode:居場所
Artist:Mori Calliope
ArtistUnicode:Mori Calliope
Creator:Aurorance
Version:Mocaotic's Insane
Source:プリンセスコネクト!Re:Dive
Tags:森カリオペ japanese english jpop j-pop pop anime video game iredi kennethbbg mocaotic climbx3145 hololive holoen vtuber virtual youtuber elliot hsu where i belong 森美声 princess connect! purinsesu konekuto!
BeatmapID:3796888
BeatmapSetID:1846430

[Difficulty]
HPDrainRate:5
CircleSize:4
OverallDifficulty:8
ApproachRate:9
SliderMultiplier:1.325
SliderTickRate:1

[Events]
//Background and Video events
0,0,"ibasho.jpg",0,0
//Break Periods
//Storyboard Layer 0 (Background)
//Storyboard Layer 1 (Fail)
//Storyboard Layer 2 (Pass)
//Storyboard Layer 3 (Foreground)
//Storyboard Layer 4 (Overlay)
//Storyboard Sound Samples

[TimingPoints]
691,265.486725663717,4,2,1,65,1,0
691,-250,4,2,1,65,0,0
1022,-250,4,2,1,5,0,0
1090,265.486725663717,4,2,1,65,1,0
1090,-111.111111111111,4,2,1,65,0,0
18081,-200,4,2,1,40,0,0
26576,-200,4,2,1,45,0,0
34143,-142.857142857143,4,2,1,45,0,0
35072,-125,4,2,1,50,0,0
43567,-100,4,2,1,60,0,0
44497,-125,4,2,1,60,0,0
45691,-125,4,2,1,45,0,0
47815,-100,4,2,1,60,0,0
49939,-83.3333333333333,4,2,1,60,0,0
51266,-333.333333333333,4,2,1,60,0,0
51996,-333.333333333333,4,2,1,5,0,0
52063,-71.4285714285714,4,2,1,70,0,0
52262,-71.4285714285714,4,2,1,5,0,0
52328,-71.4285714285714,4,2,1,70,0,0
53058,-71.4285714285714,4,2,1,5,0,0
53125,-71.4285714285714,4,2,1,70,0,0
54386,-71.4285714285714,4,2,1,5,0,0
54452,-71.4285714285714,4,2,1,70,0,0
55448,-71.4285714285714,4,2,1,5,0,0
55514,-100,4,2,1,70,0,0
55780,-71.4285714285714,4,2,1,70,0,0
56510,-71.4285714285714,4,2,1,5,0,0
56576,-71.4285714285714,4,2,1,70,0,0
57439,-71.4285714285714,4,2,1,5,0,0
57505,-100,4,2,1,70,0,0
57771,-71.4285714285714,4,2,1,70,0,0
58634,-71.4285714285714,4,2,1,5,0,0
58700,-71.4285714285714,4,2,1,70,0,0
60293,-100,4,2,1,70,0,0
60559,-71.4285714285714,4,2,1,70,0,0
60758,-71.4285714285714,4,2,1,5,0,0
60824,-71.4285714285714,4,2,1,70,0,0
61554,-71.4285714285714,4,2,1,5,0,0
61620,-71.4285714285714,4,2,1,70,0,0
61753,-100,4,2,1,70,0,0
62019,-71.4285714285714,4,2,1,70,0,0
63280,-71.4285714285714,4,2,1,5,0,0
63346,-71.4285714285714,4,2,1,70,0,0
63943,-71.4285714285714,4,2,1,5,0,0
64010,-100,4,2,1,70,0,0
64275,-71.4285714285714,4,2,1,70,0,0
65005,-71.4285714285714,4,2,1,5,0,0
65072,-71.4285714285714,4,2,1,70,0,0
68058,-71.4285714285714,4,2,1,5,0,0
68125,-71.4285714285714,4,2,1,70,0,0
69054,-86.9565217391304,4,2,1,60,0,0
71576,-100,4,2,1,60,0,0
71974,-86.9565217391304,4,2,1,60,0,0
75824,-100,4,2,1,60,0,0
76090,-86.9565217391304,4,2,1,60,0,0
79674,-76.9230769230769,4,2,1,60,0,0
80868,-86.9565217391304,4,2,1,60,0,0
83921,-76.9230769230769,4,2,1,60,0,0
84519,-76.9230769230769,4,2,1,5,0,0
84585,-76.9230769230769,4,2,1,60,0,0
84983,-111.111111111111,4,2,1,60,0,0
86045,-111.111111111111,4,2,1,65,0,0
103036,-111.111111111111,4,2,1,30,0,0
103302,-133.333333333333,4,2,1,30,0,0

[Colours]
Combo1 : 255,0,0
Combo2 : 128,255,255
Combo3 : 235,189,255
Combo4 : 128,255,0
Combo5 : 255,0,255

[HitObjects]
361,235,691,6,0,P|397:240|416:267,1,66.25,2|0,2:0|0:0,0:0:0:0:
413,270,1090,6,0,L|285:305,1,119.25,6|2,3:2|2:0,0:0:0:0:
185,384,1488,2,0,P|218:373|236:336,1,59.6250000000001,10|0,2:0|3:2,0:0:0:0:
282,225,1753,2,0,P|289:206|279:224,1,59.6250000000001,2|8,2:0|2:0,0:0:0:0:
217,276,2019,1,2,2:0:0:0:
217,276,2284,5,10,2:0:0:0:
185,384,2417,2,0,P|218:373|236:336,1,59.6250000000001,2|2,2:0|2:0,0:0:0:0:
282,225,2682,1,10,3:2:0:0:
292,214,2815,1,2,2:0:0:0:
284,201,2948,1,2,2:0:0:0:
271,211,3081,1,10,2:0:0:0:
209,169,3213,6,0,P|222:123|294:116,1,119.25,10|2,3:1|2:0,0:0:0:0:
405,183,3612,2,0,P|421:194|402:186,1,59.6250000000001,10|0,2:0|3:2,0:0:0:0:
383,57,3877,2,0,P|371:89|360:132,1,59.6250000000001,2|8,2:0|2:0,0:0:0:0:
324,180,4143,1,2,2:0:0:0:
324,180,4408,5,8,2:0:0:0:
405,183,4541,2,0,P|421:194|402:186,1,59.6250000000001
364,113,4806,1,8,3:2:0:0:
129,48,5072,5,2,2:0:0:0:
129,48,5205,1,10,2:0:0:0:
129,48,5337,2,0,L|266:77,1,119.25,6|2,3:1|2:0,0:0:0:0:
356,0,5736,2,0,P|317:6|297:28,1,59.6250000000001,10|0,2:0|3:2,0:0:0:0:
263,145,6001,2,0,P|256:164|266:146,1,59.6250000000001,2|8,2:0|2:0,0:0:0:0:
328,95,6266,1,2,2:0:0:0:
328,95,6532,5,10,2:0:0:0:
302,18,6665,1,2,2:0:0:0:
263,145,6797,1,2,2:0:0:0:
263,145,7063,6,0,L|248:101,2,29.8125,2|2|2,2:0|2:0|2:0,0:0:0:0:
328,95,7328,1,10,2:0:0:0:
266,39,7461,2,0,P|215:42|175:114,1,119.25,10|2,3:1|2:0,0:0:0:0:
30,70,7859,2,0,P|23:51|33:69,1,59.6250000000001,10|0,2:0|3:2,0:0:0:0:
89,174,8125,2,0,P|94:139|106:103,1,59.6250000000001,2|8,2:0|2:0,0:0:0:0:
113,31,8390,1,2,2:0:0:0:
113,31,8656,5,8,2:0:0:0:
30,70,8789,2,0,P|23:51|33:69,1,59.6250000000001
100,115,9054,1,8,3:2:0:0:
12,270,9320,5,2,2:0:0:0:
12,270,9452,1,10,2:0:0:0:
12,270,9585,2,0,L|138:239,1,119.25,6|2,3:1|2:0,0:0:0:0:
247,312,9983,2,0,P|212:311|181:284,1,59.6250000000001,10|0,2:0|3:2,0:0:0:0:
151,164,10249,2,0,P|147:144|154:163,1,59.6250000000001,2|8,2:0|2:0,0:0:0:0:
210,219,10514,1,2,2:0:0:0:
210,219,10780,5,10,2:0:0:0:
191,298,10913,1,2,2:0:0:0:
151,164,11045,1,2,2:0:0:0:
151,164,11311,5,2,2:0:0:0:
191,298,11443,1,2,2:0:0:0:
191,298,11709,6,0,P|123:282|117:233,1,119.25,10|2,3:1|2:0,0:0:0:0:
142,167,12107,2,0,P|151:149|144:167,1,59.6250000000001,10|0,2:0|3:2,0:0:0:0:
0,162,12373,2,0,P|36:171|77:185,1,59.6250000000001,2|8,2:0|2:0,0:0:0:0:
211,221,12638,1,2,2:0:0:0:
211,221,12904,5,8,2:0:0:0:
142,167,13036,2,0,P|151:149|144:167,1,59.6250000000001
114,241,13302,1,8,3:2:0:0:
257,384,13567,5,2,2:0:0:0:
257,384,13700,1,10,2:0:0:0:
257,384,13833,2,0,P|272:309|293:240,1,119.25,6|0,3:1|0:0,0:0:0:0:
298,184,14231,1,10,2:0:0:0:
298,184,14497,6,0,P|294:144|260:120,2,59.6250000000001,2|10|2,2:0|2:0|2:0,0:0:0:0:
204,154,14895,2,0,P|208:194|242:218,2,59.6250000000001,2|10|2,3:2|2:0|2:0,0:0:0:0:
278,263,15293,1,2,2:0:0:0:
278,263,15559,6,0,L|287:292,2,29.8125,0|0|2,0:0|0:0|2:0,0:0:0:0:
221,207,15824,1,8,2:0:0:0:
298,184,15957,1,10,3:1:0:0:
298,184,16222,5,2,2:0:0:0:
221,207,16355,1,10,2:0:0:0:
311,363,16620,5,2,3:2:0:0:
201,21,16886,1,6,2:0:0:0:
145,230,17151,5,2,3:2:0:0:
373,162,17417,1,6,3:2:0:0:
221,207,17682,5,10,3:2:0:0:
297,185,17815,1,2,3:2:0:0:
465,352,18081,6,0,P|412:348|386:297,2,99.375,6|10|0,3:1|2:0|3:2,0:0:0:0:
511,291,19010,1,10,2:0:0:0:
511,291,20205,6,0,P|465:289|431:331,1,99.375,2|10,3:2|2:0,0:0:0:0:
430,334,21134,2,0,P|406:358|359:349,1,66.25,10|8,2:0|2:0,0:0:0:0:
313,317,21532,1,0,0:0:0:0:
167,352,21797,5,8,2:0:0:0:
167,352,22063,2,0,L|180:404,1,33.125,8|8,2:0|2:0,0:0:0:0:
234,310,22328,6,0,P|203:275|147:276,2,99.375,10|8|2,3:1|2:0|3:2,0:0:0:0:
167,352,23258,1,10,2:0:0:0:
167,352,24452,6,0,P|118:350|87:315,1,99.375,2|10,3:2|2:0,0:0:0:0:
89,307,25382,2,0,P|60:291|22:309,1,66.25,10|10,2:0|2:0,0:0:0:0:
0,367,25780,1,2,2:0:0:0:
150,260,26045,5,8,2:0:0:0:
150,260,26311,2,0,L|135:201,1,33.125,10|10,2:0|2:0,0:0:0:0:
72,166,26576,6,0,P|122:148|142:91,2,99.375,6|8|2,3:1|2:0|3:2,0:0:0:0:
0,137,27505,1,10,2:0:0:0:
77,21,27771,2,0,L|62:105,1,66.25,8|0,2:0|0:0,0:0:0:0:
65,86,28169,1,10,2:0:0:0:
177,224,28435,6,0,L|187:165,1,33.125,10|10,2:0|2:0,0:0:0:0:
224,120,28700,2,0,P|174:102|154:45,2,99.375,2|10|0,3:2|2:0|3:2,0:0:0:0:
285,169,29629,1,10,2:0:0:0:
285,169,29895,2,0,P|328:154|372:149,1,66.25,8|0,2:0|0:0,0:0:0:0:
416,114,30293,1,10,2:0:0:0:
416,114,30559,6,0,L|433:176,1,33.125,10|8,2:0|2:0,0:0:0:0:
457,224,30824,2,0,P|393:233|366:271,2,99.375,8|8|2,3:1|2:0|3:2,0:0:0:0:
512,282,31753,1,8,2:0:0:0:
426,376,32019,2,0,L|439:291,1,66.25,8|0,2:0|0:0,0:0:0:0:
436,310,32417,1,8,2:0:0:0:
336,155,32682,6,0,L|329:194,1,33.125,10|10,2:0|2:0,0:0:0:0:
316,263,32948,2,0,P|374:251|401:219,2,99.375,2|2|0,3:2|3:2|3:2,0:0:0:0:
252,311,33877,1,10,2:0:0:0:
252,311,34143,6,0,P|262:334|262:381,2,46.375,10|2|10,2:0|2:0|2:0,0:0:0:0:
186,352,34541,1,2,3:2:0:0:
125,303,34674,1,2,3:2:0:0:
154,231,34806,1,2,3:0:0:0:
160,227,34939,1,2,3:2:0:0:
236,233,35072,6,0,P|294:212|286:147,1,106,6|0,3:1|0:0,0:0:0:0:
240,126,35470,2,0,P|232:110|242:125,1,53,2|8,2:0|2:0,0:0:0:0:
498,48,35868,6,0,L|483:115,1,53,2|0,2:0|0:0,0:0:0:0:
428,154,36134,2,0,P|370:133|378:68,1,106,10|0,3:1|0:0,0:0:0:0:
418,41,36532,1,2,2:0:0:0:
418,41,36665,1,8,2:0:0:0:
512,275,36930,5,2,2:0:0:0:
512,275,37196,2,0,P|475:234|399:260,1,106,2|0,3:2|0:0,0:0:0:0:
344,292,37594,2,0,B|462:326,1,106,2|0,2:0|0:0,0:0:0:0:
512,275,37992,1,2,2:0:0:0:
414,149,38258,6,0,P|364:159|366:236,2,106,8|0|8,3:1|0:0|2:0,0:0:0:0:
235,40,39054,5,2,2:0:0:0:
166,72,39187,1,2,2:0:0:0:
235,40,39320,2,0,P|285:50|283:127,1,106,6|2,3:1|2:0,0:0:0:0:
392,180,39718,2,0,B|374:158|375:129|375:129|363:159|332:171,1,106,2|0,2:0|0:0,0:0:0:0:
300,97,40116,1,2,2:0:0:0:
129,177,40382,6,0,L|196:197,1,53,10|0,3:1|0:0,0:0:0:0:
243,146,40647,1,2,2:0:0:0:
131,99,40780,2,0,P|71:119|55:176,1,106,2|0,2:0|0:0,0:0:0:0:
0,256,41178,5,2,2:0:0:0:
0,256,41311,1,2,2:0:0:0:
0,256,41443,2,0,L|140:225,1,106,2|2,3:2|2:0,0:0:0:0:
160,178,41842,1,2,2:0:0:0:
278,299,42107,6,0,P|277:316|274:302,1,53,2|0,2:0|0:0,0:0:0:0:
239,162,42373,2,0,B|252:250|181:226|198:343,1,159,2|0,2:0|0:0,0:0:0:0:
195,310,43036,5,8,2:0:0:0:
162,176,43169,1,8,2:0:0:0:
110,263,43302,2,0,L|70:274,2,26.5,10|8|10,0:2|0:2|2:0,0:0:0:0:
249,220,43567,6,0,L|384:184,1,132.5,14|2,2:0|3:2,0:0:0:0:
498,329,43966,2,0,P|421:324|404:276,1,132.5,14|10,2:0|2:0,0:0:0:0:
458,165,44364,1,10,2:0:0:0:
479,244,44497,6,0,L|314:292,1,159,6|0,2:0|0:0,0:0:0:0:
326,288,45160,1,2,2:0:0:0:
274,350,45426,1,2,2:0:0:0:
200,321,45691,1,4,2:1:0:0:
200,321,47550,5,2,2:0:0:0:
274,350,47682,1,2,2:0:0:0:
326,288,47815,2,0,P|311:223|239:210,1,132.5,10|2,2:0|3:2,0:0:0:0:
130,266,48213,2,0,P|119:286|133:268,1,66.25,10|0,2:0|0:0,0:0:0:0:
212,283,48479,1,10,2:0:0:0:
177,200,48612,1,8,2:0:0:0:
247,72,48744,6,0,P|235:119|199:136,1,66.25,10|0,3:2|0:0,0:0:0:0:
43,96,49010,2,0,L|188:60,1,132.5,2|0,3:2|3:2,0:0:0:0:
218,0,49408,1,10,2:0:0:0:
417,64,49674,6,0,L|423:31,1,33.125,10|8,2:2|0:2,0:0:0:0:
417,26,49806,2,0,L|410:58,1,33.125,10|8,2:0|0:2,0:0:0:0:
496,76,49939,6,0,B|409:62|444:140|358:138,1,159,14|2,2:0|2:0,0:0:0:0:
220,219,50337,2,0,B|191:189|191:189|200:124,1,79.5,2|8,3:2|2:0,0:0:0:0:
298,0,50603,2,0,L|274:169,1,159,2|2,3:2|3:2,0:0:0:0:
466,381,51266,6,0,P|511:367|507:311,1,109.3125
500,307,52063,2,0,L|335:270,1,139.125,6|0,3:2|0:0,0:0:0:0:
327,202,52328,6,0,P|377:210|399:248,1,92.75,10|0,2:0|3:2,0:0:0:0:
340,351,52594,2,0,P|290:343|268:305,1,92.75,2|0,2:0|3:2,0:0:0:0:
144,179,52859,6,0,P|221:178|243:239,1,139.125,10|0,2:0|0:0,0:0:0:0:
236,231,53125,2,0,P|217:183|239:145,1,92.75,2|0,3:2|0:0,0:0:0:0:
330,8,53390,1,10,2:0:0:0:
168,58,53523,6,0,L|359:97,1,185.5,2|0,2:0|3:2,0:0:0:0:
438,223,53921,2,0,P|378:201|370:162,1,92.75,10|0,2:0|0:0,0:0:0:0:
495,4,54187,6,0,B|490:81|440:57|439:133,1,139.125,2|0,3:2|0:0,0:0:0:0:
444,135,54452,1,10,2:0:0:0:
333,35,54585,2,0,P|376:1|426:14,1,92.75,2|0,2:0|0:0,0:0:0:0:
352,123,54851,6,0,L|159:77,1,185.5,2|2,3:2|2:0,0:0:0:0:
20,187,55249,2,0,P|69:196|99:122,1,139.125,2|0,3:2|0:0,0:0:0:0:
91,120,55514,2,0,P|76:102|87:121,1,66.25,8|0,2:0|3:2,0:0:0:0:
129,256,55780,2,0,L|240:285,1,92.75,0|0,0:0|3:2,0:0:0:0:
364,218,56045,5,10,2:0:0:0:
294,253,56178,1,2,3:2:0:0:
373,375,56311,2,0,P|435:340|404:254,1,139.125,6|0,3:1|0:0,0:0:0:0:
424,274,56576,1,10,2:0:0:0:
299,338,56709,6,0,L|188:367,1,92.75,2|0,3:2|0:0,0:0:0:0:
23,349,56974,1,2,3:2:0:0:
92,384,57107,1,10,2:0:0:0:
141,321,57240,2,0,P|141:265|58:232,1,139.125,2|0,2:0|0:0,0:0:0:0:
66,235,57505,2,0,P|54:254|69:237,1,66.25,2|8,2:0|2:0,0:0:0:0:
198,192,57771,6,0,L|219:39,1,92.75,2|0,2:0|3:2,0:0:0:0:
58,33,58036,1,0,3:2:0:0:
208,20,58169,2,0,P|148:36|134:81,1,92.75,10|0,2:0|3:2,0:0:0:0:
0,206,58435,6,0,B|77:201|34:136|142:140,1,139.125,2|0,3:2|0:0,0:0:0:0:
124,145,58700,1,10,2:0:0:0:
198,264,58833,2,0,P|138:247|124:202,1,92.75,2|0,3:2|0:0,0:0:0:0:
201,100,59098,2,0,L|309:116,1,92.75,2|10,3:2|2:0,0:0:0:0:
448,168,59364,1,2,0:0:0:0:
358,60,59497,5,2,3:2:0:0:
310,192,59629,1,8,2:0:0:0:
448,168,59762,5,10,2:0:0:0:
375,140,59895,1,8,2:0:0:0:
390,226,60028,5,10,2:0:0:0:
390,226,60160,1,8,2:0:0:0:
390,226,60293,2,0,L|372:275,3,33.125,2|0|2|0,3:2|3:2|3:2|3:2,0:0:0:0:
452,294,60559,6,0,L|287:317,1,139.125,14|0,3:1|0:0,0:0:0:0:
307,320,60824,1,10,2:0:0:0:
217,203,60957,2,0,P|251:195|297:236,1,92.75,2|0,3:2|0:0,0:0:0:0:
108,331,61222,1,2,3:2:0:0:
187,335,61355,6,0,B|193:260|127:284|141:190,1,139.125,10|0,2:0|0:0,0:0:0:0:
134,203,61620,1,2,3:2:0:0:
225,65,61753,2,0,P|227:47|228:67,1,66.25,2|10,0:2|2:0,0:0:0:0:
51,105,62019,6,0,B|261:149,1,185.5,2|0,2:0|3:2,0:0:0:0:
299,38,62417,2,0,P|250:34|224:67,1,92.75,10|0,2:0|0:0,0:0:0:0:
271,208,62682,2,0,P|320:212|346:179,2,92.75,2|2|8,3:2|2:0|2:0,0:0:0:0:
103,297,63081,6,0,P|164:300|179:210,1,139.125,2|0,2:0|0:0,0:0:0:0:
186,229,63346,1,2,3:2:0:0:
286,117,63479,2,0,L|270:218,1,92.75,10|0,2:0|0:0,0:0:0:0:
422,325,63744,6,0,P|360:322|353:231,1,139.125,2|0,3:2|0:0,0:0:0:0:
345,252,64010,2,0,P|364:240|348:254,1,66.25,8|0,2:0|3:2,0:0:0:0:
287,365,64275,2,0,L|188:386,1,92.75,0|0,0:0|3:2,0:0:0:0:
167,248,64541,5,10,2:0:0:0:
227,300,64674,1,2,3:2:0:0:
117,373,64806,2,0,P|70:344|86:267,1,139.125,6|0,3:1|0:0,0:0:0:0:
91,270,65072,6,0,P|66:302|9:302,1,92.75,10|0,2:0|3:2,0:0:0:0:
99,188,65337,2,0,P|139:193|167:243,1,92.75,2|0,2:0|3:2,0:0:0:0:
24,223,65603,2,0,P|8:185|37:135,1,92.75,10|0,2:0|0:0,0:0:0:0:
186,122,65868,1,2,3:2:0:0:
121,8,66001,6,0,L|104:114,1,92.75,2|8,2:0|2:0,0:0:0:0:
243,183,66266,2,0,P|314:167|307:69,1,185.5,2|0,3:2|3:2,0:0:0:0:
186,122,66665,1,10,2:0:0:0:
229,53,66797,1,2,3:2:0:0:
362,161,66930,6,0,L|343:256,1,92.75,10|0,3:2|3:2,0:0:0:0:
433,227,67196,1,10,2:0:0:0:
319,329,67328,2,0,P|287:317|263:262,1,92.75,2|8,3:2|2:0,0:0:0:0:
411,318,67594,1,2,3:2:0:0:
411,318,67727,1,10,2:0:0:0:
225,198,67859,6,0,P|280:185|338:257,1,139.125,2|0,3:2|0:0,0:0:0:0:
338,247,68125,1,8,2:0:0:0:
404,124,68258,1,0,3:2:0:0:
323,157,68390,1,0,3:2:0:0:
458,203,68523,1,10,2:0:0:0:
458,203,68656,1,8,2:0:0:0:
407,32,68789,6,0,P|357:34|334:94,1,92.75,10|8,2:0|2:0,0:0:0:0:
479,111,69054,2,0,L|295:164,2,152.375,6|2|10,3:1|2:0|2:0,0:0:0:0:
311,311,69851,2,0,L|221:292,1,76.1875,2|0,2:0|3:2,0:0:0:0:
320,231,70116,5,2,2:0:0:0:
383,277,70249,1,8,2:0:0:0:
392,200,70382,1,2,2:0:0:0:
305,316,70514,6,0,L|141:282,1,152.375,2|0,3:2|0:0,0:0:0:0:
38,261,70913,1,2,3:2:0:0:
85,320,71045,1,8,2:0:0:0:
169,207,71178,6,0,B|178:133|102:140|142:46,1,152.375,10|2,3:1|2:0,0:0:0:0:
91,196,71576,2,0,P|86:212|92:201,1,66.25,2|8,3:2|2:0,0:0:0:0:
212,92,71842,1,2,2:0:0:0:
212,92,71974,6,0,L|390:116,1,152.375,0|2,3:2|3:2,0:0:0:0:
504,0,72373,2,0,P|429:9|464:87,1,152.375,8|0,2:0|3:2,0:0:0:0:
511,93,72771,1,8,2:0:0:0:
348,203,73036,5,10,2:0:0:0:
417,171,73169,1,10,2:0:0:0:
348,203,73302,2,0,P|423:212|388:290,1,152.375,6|2,3:1|2:0,0:0:0:0:
512,336,73700,2,0,L|342:370,1,152.375,2|0,3:2|0:0,0:0:0:0:
198,283,74098,5,2,3:2:0:0:
265,248,74231,2,0,P|298:267|304:316,1,76.1875,2|0,3:2|0:0,0:0:0:0:
219,366,74497,2,0,L|43:330,1,152.375,10|2,2:0|3:2,0:0:0:0:
4,368,74895,1,10,2:0:0:0:
75,161,75160,5,2,2:0:0:0:
75,161,75426,2,0,B|82:242|5:216|3:304,1,152.375,10|2,3:1|2:0,0:0:0:0:
84,299,75824,2,0,P|92:318|85:298,1,66.25,2|8,3:2|2:0,0:0:0:0:
0,163,76090,2,0,P|16:111|110:93,1,152.375,2|2,2:0|3:2,0:0:0:0:
244,122,76488,5,10,2:0:0:0:
166,142,76620,1,8,2:0:0:0:
186,67,76753,1,10,2:0:0:0:
186,67,76886,1,8,2:0:0:0:
228,203,77019,2,0,P|267:227|309:215,1,76.1875,10|0,2:0|0:0,0:0:0:0:
429,179,77284,5,2,3:2:0:0:
429,179,77417,1,2,3:2:0:0:
429,179,77550,2,0,L|273:133,1,152.375,6|2,3:1|2:0,0:0:0:0:
117,172,77948,2,0,P|202:138|158:70,1,152.375,2|2,3:2|2:0,0:0:0:0:
263,56,78346,1,2,2:0:0:0:
55,0,78612,5,2,2:0:0:0:
129,19,78744,2,0,L|112:116,1,76.1875,10|0,2:0|0:0,0:0:0:0:
2,154,79010,2,0,P|87:188|43:256,1,152.375,2|0,3:2|0:0,0:0:0:0:
0,295,79408,1,2,3:2:0:0:
0,295,79674,6,0,L|252:340,1,172.25,10|2,3:1|2:0,0:0:0:0:
288,229,80072,2,0,B|244:214|230:169|230:169|238:218|206:252,1,172.25,2|2,3:2|2:0,0:0:0:0:
233,384,80470,2,0,P|252:333|278:295,1,86.125,2|0,3:2|0:0,0:0:0:0:
408,241,80736,5,2,3:2:0:0:
413,318,80868,2,0,P|359:306|343:270,2,76.1875,8|0|0,2:0|0:0|3:2,0:0:0:0:
336,210,81266,1,8,2:0:0:0:
481,91,81532,5,10,2:0:0:0:
461,165,81665,1,10,2:0:0:0:
481,91,81797,2,0,P|389:106|393:163,1,152.375,6|2,3:1|2:0,0:0:0:0:
411,220,82196,1,2,3:2:0:0:
305,357,82328,6,0,L|335:197,1,152.375,8|0,2:0|3:2,0:0:0:0:
364,42,82727,1,2,3:2:0:0:
364,42,82992,1,8,2:0:0:0:
425,95,83125,2,0,P|387:129|354:124,1,76.1875,2|0,2:0|3:2,0:0:0:0:
210,122,83390,6,0,L|296:144,1,76.1875,10|0,2:0|0:0,0:0:0:0:
374,25,83656,1,2,3:2:0:0:
301,60,83789,1,8,2:0:0:0:
341,204,83921,6,0,P|412:182|402:68,1,172.25,6|0,3:2|3:2,0:0:0:0:
246,122,84320,2,0,L|276:281,1,129.1875,10|0,2:0|0:0,0:0:0:0:
266,257,84585,1,10,2:0:0:0:
328,123,84718,1,10,2:0:0:0:
175,208,84851,1,2,3:2:0:0:
342,293,84983,6,0,B|389:288|436:302|410:368|471:369|528:365|515:285|469:279,1,238.5,8|2,3:2|2:0,0:0:0:0:
477,281,86045,6,0,L|328:315,1,119.25,6|2,3:2|2:0,0:0:0:0:
283,206,86443,2,0,P|322:217|340:251,1,59.6250000000001,10|0,2:0|3:2,0:0:0:0:
291,357,86709,2,0,P|285:377|287:357,1,59.6250000000001,2|8,2:0|2:0,0:0:0:0:
268,284,86974,1,2,2:0:0:0:
268,284,87240,5,10,2:0:0:0:
283,206,87373,2,0,P|322:217|340:251,1,59.6250000000001,2|2,2:0|2:0,0:0:0:0:
422,353,87638,1,10,3:2:0:0:
431,363,87771,1,2,2:0:0:0:
444,357,87904,1,2,2:0:0:0:
436,342,88036,1,10,2:0:0:0:
413,271,88169,6,0,P|356:262|320:323,1,119.25,10|2,3:1|2:0,0:0:0:0:
186,251,88567,2,0,P|170:244|184:252,1,59.6250000000001,10|0,2:0|3:2,0:0:0:0:
226,367,88833,2,0,L|247:291,1,59.6250000000001,2|8,2:0|2:0,0:0:0:0:
268,231,89098,1,2,2:0:0:0:
268,231,89364,5,8,2:0:0:0:
182,252,89497,2,0,P|176:232|186:251,1,59.6250000000001
241,309,89762,1,8,3:2:0:0:
74,384,90028,5,2,2:0:0:0:
74,384,90160,1,10,2:0:0:0:
74,384,90293,2,0,L|103:228,1,119.25,6|2,3:1|2:0,0:0:0:0:
11,166,90691,2,0,P|19:210|37:228,1,59.6250000000001,10|0,2:0|3:2,0:0:0:0:
169,234,90957,2,0,P|187:222|167:229,1,59.6250000000001,2|8,2:0|2:0,0:0:0:0:
101,186,91222,1,2,2:0:0:0:
101,186,91488,5,10,2:0:0:0:
27,220,91620,1,2,2:0:0:0:
169,234,91753,1,2,2:0:0:0:
169,234,92019,6,0,L|182:180,2,29.8125,2|2|2,2:0|2:0|2:0,0:0:0:0:
101,186,92284,1,10,2:0:0:0:
160,124,92417,2,0,P|234:141|256:188,1,119.25,10|2,3:1|2:0,0:0:0:0:
369,256,92815,2,0,P|388:252|368:252,1,59.6250000000001,10|0,2:0|3:2,0:0:0:0:
275,306,93081,2,0,L|292:235,1,59.6250000000001,2|8,2:0|2:0,0:0:0:0:
332,178,93346,1,2,2:0:0:0:
332,178,93612,5,8,2:0:0:0:
368,252,93744,2,0,P|388:250|369:256,1,59.6250000000001
289,249,94010,1,8,3:2:0:0:
512,187,94275,5,2,2:0:0:0:
512,187,94408,1,10,2:0:0:0:
512,187,94541,2,0,L|396:164,1,119.25,6|2,3:1|2:0,0:0:0:0:
275,233,94939,2,0,P|310:232|341:205,1,59.6250000000001,10|0,2:0|3:2,0:0:0:0:
371,85,95205,2,0,P|375:65|368:84,1,59.6250000000001,2|8,2:0|2:0,0:0:0:0:
312,140,95470,1,2,2:0:0:0:
312,140,95736,5,10,2:0:0:0:
331,219,95868,1,2,2:0:0:0:
371,85,96001,1,2,2:0:0:0:
371,85,96266,5,2,2:0:0:0:
331,219,96399,1,2,2:0:0:0:
331,219,96665,6,0,P|263:203|257:154,1,119.25,10|2,3:1|2:0,0:0:0:0:
220,84,97063,2,0,P|232:66|226:86,1,59.6250000000001,10|0,2:0|3:2,0:0:0:0:
371,83,97328,2,0,L|301:107,1,59.6250000000001,2|8,2:0|2:0,0:0:0:0:
172,147,97594,1,2,2:0:0:0:
172,147,97859,5,8,2:0:0:0:
220,84,97992,2,0,P|232:66|226:86,1,59.6250000000001
254,162,98258,1,8,3:2:0:0:
33,193,98523,5,2,2:0:0:0:
33,193,98656,1,10,2:0:0:0:
33,193,98789,2,0,P|106:213|170:228,1,119.25,6|0,3:1|0:0,0:0:0:0:
300,204,99187,1,10,2:0:0:0:
300,204,99452,6,0,P|316:179|316:150,2,59.6250000000001,2|10|2,2:0|2:0|2:0,0:0:0:0:
237,129,99851,2,0,P|220:153|222:182,2,59.6250000000001,2|10|2,3:2|2:0|2:0,0:0:0:0:
244,260,100249,1,2,2:0:0:0:
244,260,100514,6,0,L|235:289,2,29.8125,0|0|2,0:0|0:0|2:0,0:0:0:0:
222,182,100780,1,8,2:0:0:0:
300,204,100913,1,10,3:1:0:0:
300,204,101178,5,2,2:0:0:0:
222,182,101311,1,2,3:2:0:0:
311,24,101576,5,2,3:2:0:0:
204,365,101842,1,6,2:0:0:0:
372,230,102107,5,2,3:2:0:0:
149,158,102373,1,6,3:2:0:0:
327,9,102638,2,0,P|295:93|261:191,1,178.875,2|6,3:2|2:0,0:0:0:0:
132,288,103302,6,0,P|112:239|104:224,1,49.6875000000001,2|2,2:0|2:0,0:0:0:0:
106,247,103700,2,0,P|116:270|125:294,2,49.6875000000001,2|2|2,2:0|2:0|2:0,0:0:0:0:
116,298,104231,2,0,P|108:274|97:252,2,49.6875000000001,2|2|2,2:0|2:0|2:0,0:0:0:0:
194,314,104629,5,2,2:0:0:0:
204,305,104762,1,2,2:0:0:0:
213,306,104895,1,2,2:0:0:0:
223,297,105028,1,2,2:0:0:0:
300,323,105160,5,2,2:0:0:0:
300,323,105293,2,0,P|289:345|281:369,2,49.6875000000001,2|2|2,2:0|2:0|2:0,0:0:0:0:
288,374,105824,2,0,P|296:350|306:327,2,49.6875000000001,2|2|2,2:0|2:0|2:0,0:0:0:0:
312,331,106355,2,0,P|302:354|294:378,2,49.6875000000001,2|2|2,2:0|2:0|2:0,0:0:0:0:
316,259,106753,5,2,2:0:0:0:
372,212,106886,1,2,2:0:0:0:
444,225,107019,1,2,2:0:0:0:
479,289,107151,1,6,2:1:0:0:
