osu file format v14

[General]
AudioFilename: audio.mp3
AudioLeadIn: 0
PreviewTime: 47483
Countdown: 0
SampleSet: Soft
StackLeniency: 0.5
Mode: 0
LetterboxInBreaks: 0
EpilepsyWarning: 1
WidescreenStoryboard: 1

[Editor]
Bookmarks: 52063,83590
DistanceSpacing: 2.1
BeatDivisor: 4
GridSize: 32
TimelineZoom: 2.099999

[Metadata]
Title:Ibasho
TitleUnicode:居場所
Artist:Mori Calliope
ArtistUnicode:Mori Calliope
Creator:Aurorance
Version:Bravery
Source:プリンセスコネクト!Re:Dive
Tags:森カリオペ japanese english jpop j-pop pop anime video game iredi kennethbbg mocaotic climbx3145 hololive holoen vtuber virtual youtuber elliot hsu where i belong 森美声 princess connect! purinsesu konekuto!
BeatmapID:3792954
BeatmapSetID:1846430

[Difficulty]
HPDrainRate:5
CircleSize:4
OverallDifficulty:8.5
ApproachRate:9.3
SliderMultiplier:1.4
SliderTickRate:0.5

[Events]
//Background and Video events
0,0,"ibasho.jpg",0,0
//Break Periods
//Storyboard Layer 0 (Background)
//Storyboard Layer 1 (Fail)
//Storyboard Layer 2 (Pass)
//Storyboard Layer 3 (Foreground)
//Storyboard Layer 4 (Overlay)
//Storyboard Sound Samples

[TimingPoints]
691,265.486725663717,4,2,1,65,1,0
1090,265.486725663717,4,2,1,65,1,0
18081,-125,4,2,1,40,0,0
26576,-125,4,2,1,45,0,0
35072,-133.333333333333,4,2,1,50,0,0
43302,-100,4,2,1,50,0,0
43567,-111.111111111111,4,2,1,60,0,0
45691,-117.647058823529,4,2,1,45,0,0
46753,-100,4,2,1,45,0,0
47815,-100,4,2,1,60,0,0
51134,-133.333333333333,4,2,1,60,0,0
52063,-80,4,2,1,70,0,0
52262,-80,4,2,1,5,0,0
52328,-80,4,2,1,70,0,0
53058,-80,4,2,1,5,0,0
53125,-80,4,2,1,70,0,0
53324,-80,4,2,1,5,0,0
53390,-80,4,2,1,70,0,0
54386,-80,4,2,1,5,0,0
54452,-80,4,2,1,70,0,0
54784,-80,4,2,1,5,0,0
54851,-80,4,2,1,70,0,0
56510,-80,4,2,1,5,0,0
56576,-80,4,2,1,70,0,0
56908,-80,4,2,1,5,0,0
56974,-80,4,2,1,70,0,0
57439,-80,4,2,1,5,0,0
57505,-80,4,2,1,70,0,0
58368,-80,4,2,1,5,0,0
58435,-80,4,2,1,70,0,0
58634,-80,4,2,1,5,0,0
58700,-80,4,2,1,70,0,0
59032,-80,4,2,1,5,0,0
59098,-80,4,2,1,70,0,0
60758,-80,4,2,1,5,0,0
60824,-80,4,2,1,70,0,0
61156,-80,4,2,1,5,0,0
61222,-80,4,2,1,70,0,0
61554,-80,4,2,1,5,0,0
61620,-80,4,2,1,70,0,0
63280,-80,4,2,1,5,0,0
63346,-80,4,2,1,70,0,0
63678,-80,4,2,1,5,0,0
63744,-80,4,2,1,70,0,0
65005,-80,4,2,1,5,0,0
65072,-80,4,2,1,70,0,0
65802,-80,4,2,1,5,0,0
65868,-80,4,2,1,70,0,0
69054,-90.9090909090909,4,2,1,60,0,0
73501,-90.9090909090909,4,2,1,5,0,0
73567,-90.9090909090909,4,2,1,60,0,0
74032,-90.9090909090909,4,2,1,5,0,0
74098,-90.9090909090909,4,2,1,60,0,0
74430,-90.9090909090909,4,2,1,5,0,0
74497,-90.9090909090909,4,2,1,60,0,0
75094,-90.9090909090909,4,2,1,5,0,0
75160,-90.9090909090909,4,2,1,60,0,0
75625,-90.9090909090909,4,2,1,5,0,0
75691,-90.9090909090909,4,2,1,60,0,0
77218,-90.9090909090909,4,2,1,5,0,0
77284,-90.9090909090909,4,2,1,60,0,0
77749,-90.9090909090909,4,2,1,5,0,0
77815,-90.9090909090909,4,2,1,60,0,0
78545,-90.9090909090909,4,2,1,5,0,0
78612,-90.9090909090909,4,2,1,60,0,0
79873,-90.9090909090909,4,2,1,5,0,0
79939,-90.9090909090909,4,2,1,60,0,0
80271,-90.9090909090909,4,2,1,5,0,0
80337,-90.9090909090909,4,2,1,60,0,0
82926,-90.9090909090909,4,2,1,5,0,0
82992,-90.9090909090909,4,2,1,60,0,0
83589,-90.9090909090909,4,2,1,5,0,0
83656,-90.9090909090909,4,2,1,60,0,0
84519,-90.9090909090909,4,2,1,5,0,0
84585,-90.9090909090909,4,2,1,60,0,0
84851,-111.111111111111,4,2,1,60,0,0
85182,-111.111111111111,4,2,1,5,0,0
85249,-117.647058823529,4,2,1,60,0,0
85448,-117.647058823529,4,2,1,5,0,0
85514,-117.647058823529,4,2,1,60,0,0
85713,-117.647058823529,4,2,1,5,0,0
85780,-117.647058823529,4,2,1,60,0,0
86045,-90.9090909090909,4,2,1,65,0,0
103036,-133.333333333333,4,2,1,30,0,0

[Colours]
Combo1 : 255,0,0
Combo2 : 128,255,255
Combo3 : 235,189,255
Combo4 : 128,255,0
Combo5 : 255,0,255

[HitObjects]
151,67,691,5,2,2:0:0:0:
77,46,823,1,2,2:0:0:0:
27,104,956,1,2,2:0:0:0:
115,174,1090,6,0,P|179:194|258:181,1,140,6|2,3:2|2:0,0:0:0:0:
239,305,1488,2,0,P|175:285|96:298,1,140,10|2,2:0|2:0,0:0:0:0:
37,231,1886,1,8,2:0:0:0:
37,231,2019,1,2,2:0:0:0:
283,66,2284,5,10,2:0:0:0:
190,41,2417,2,0,P|157:50|148:82,1,70,2|2,2:0|2:0,0:0:0:0:
236,194,2682,1,10,3:2:0:0:
295,145,2815,1,2,2:0:0:0:
223,119,2948,1,2,2:0:0:0:
166,164,3081,1,10,2:0:0:0:
288,250,3213,6,0,P|324:308|297:370,1,140,10|2,3:1|2:0,0:0:0:0:
195,258,3612,2,0,P|168:320|205:377,1,140,10|2,2:0|2:0,0:0:0:0:
301,140,4143,2,0,P|235:163|166:161,1,140,2|8,2:0|2:0,0:0:0:0:
24,111,4541,2,0,P|56:100|90:107,1,70
98,223,4806,2,0,P|64:232|30:225,1,70,8|0,3:2|0:0,0:0:0:0:
113,374,5072,5,2,2:0:0:0:
68,310,5205,1,10,2:0:0:0:
188,349,5337,2,0,P|267:349|328:375,1,140,6|2,3:1|2:0,0:0:0:0:
423,321,5736,2,0,P|393:301|417:322,1,140,10|2,2:0|2:0,0:0:0:0:
296,244,6134,1,8,2:0:0:0:
296,244,6266,1,2,2:0:0:0:
364,101,6532,5,10,2:0:0:0:
294,80,6665,1,2,2:0:0:0:
347,30,6797,1,2,2:0:0:0:
311,151,6930,1,10,3:2:0:0:
224,60,7063,2,0,P|200:70|178:70,1,35,2|2,2:0|2:0,0:0:0:0:
181,163,7196,2,0,P|215:167|246:184,1,70,2|10,2:0|2:0,0:0:0:0:
208,373,7461,6,0,P|219:305|189:243,1,140,10|2,3:1|2:0,0:0:0:0:
111,382,7859,2,0,P|79:320|93:252,1,140,10|2,2:0|2:0,0:0:0:0:
127,116,8258,1,8,2:0:0:0:
196,140,8390,2,0,B|132:169|132:169|65:153,1,140,2|8,2:0|2:0,0:0:0:0:
55,58,8789,2,0,B|119:29|119:29|186:45,1,140,0|8,0:0|3:2,0:0:0:0:
298,149,9187,5,2,2:0:0:0:
255,85,9320,1,2,2:0:0:0:
294,19,9452,1,10,2:0:0:0:
410,77,9585,2,0,P|424:155|410:224,1,140,6|2,3:1|2:0,0:0:0:0:
347,305,9983,2,0,B|359:333|353:374|353:374|377:338|404:326,1,140,10|2,2:0|2:0,0:0:0:0:
327,218,10382,1,8,2:0:0:0:
327,218,10514,1,2,2:0:0:0:
144,246,10780,5,10,2:0:0:0:
197,190,10913,2,0,P|164:171|119:173,1,70,2|2,2:0|2:0,0:0:0:0:
73,280,11178,1,10,3:2:0:0:
135,324,11311,1,2,2:0:0:0:
205,295,11443,2,0,P|244:281|283:282,1,70,2|8,2:0|2:0,0:0:0:0:
423,358,11709,6,0,P|368:317|366:250,1,140,10|2,3:1|2:0,0:0:0:0:
501,311,12107,2,0,P|498:243|443:202,1,140,10|2,2:0|2:0,0:0:0:0:
323,181,12505,1,8,2:0:0:0:
371,170,12638,1,2,2:0:0:0:
404,133,12771,2,0,P|418:100|414:62,1,70,0|8,3:2|2:0,0:0:0:0:
281,15,13036,2,0,P|250:78|263:157,1,140,0|8,0:0|3:2,0:0:0:0:
368,273,13567,5,2,2:0:0:0:
429,226,13700,1,10,2:0:0:0:
402,343,13833,2,0,P|339:344|290:270,1,140,6|0,3:1|0:0,0:0:0:0:
317,215,14231,1,10,2:0:0:0:
150,365,14497,6,0,P|187:353|227:353,2,70,2|10|2,2:0|2:0|2:0,0:0:0:0:
87,318,14895,1,2,3:2:0:0:
111,274,15028,1,10,2:0:0:0:
78,238,15160,1,2,2:0:0:0:
34,259,15293,1,2,2:0:0:0:
39,308,15426,1,10,3:2:0:0:
103,110,15691,5,2,2:0:0:0:
49,164,15824,1,8,2:0:0:0:
179,125,15957,2,0,P|241:132|284:205,1,140,10|2,3:1|2:0,0:0:0:0:
373,342,16355,2,0,P|348:284|389:211,1,140,10|2,2:0|3:2,0:0:0:0:
358,135,16753,1,0,3:2:0:0:
266,271,16886,1,6,2:0:0:0:
351,40,17151,5,2,3:2:0:0:
443,176,17284,1,8,2:0:0:0:
261,123,17417,2,0,P|221:109|176:111,1,70,6|0,3:2|0:0,0:0:0:0:
28,163,17682,1,10,3:2:0:0:
104,85,17815,2,0,L|114:158,1,70,2|2,3:2|3:2,0:0:0:0:
14,251,18081,6,0,P|66:263|90:313,1,112,6|2,3:1|3:2,0:0:0:0:
150,375,18479,2,0,P|207:354|271:352,1,112,10|2,2:0|2:0,0:0:0:0:
402,319,19010,2,0,B|321:322|332:257|250:260,1,168,10|0,2:0|0:0,0:0:0:0:
335,137,19674,1,2,2:0:0:0:
395,236,19939,1,2,2:0:0:0:
250,260,20205,6,0,P|192:278|174:336,1,112,2|2,3:2|3:2,0:0:0:0:
97,379,20603,2,0,P|75:327|10:315,1,112,10|2,2:0|2:0,0:0:0:0:
94,127,21134,2,0,L|124:246,1,112,10|8,2:0|2:0,0:0:0:0:
111,257,21532,1,0,0:0:0:0:
193,164,21797,1,8,2:0:0:0:
16,103,22063,1,8,2:0:0:0:
16,103,22196,1,8,2:0:0:0:
94,127,22328,5,10,3:1:0:0:
124,0,22594,1,2,3:2:0:0:
196,93,22859,2,0,P|177:146|172:218,1,112,2|2,2:0|3:2,0:0:0:0:
192,306,23258,2,0,P|143:281|88:278,1,112,10|2,2:0|2:0,0:0:0:0:
261,362,23789,2,0,P|317:335|389:339,1,112,2|2,2:0|2:0,0:0:0:0:
442,373,24187,1,2,2:0:0:0:
498,228,24452,6,0,P|467:177|455:119,1,112,2|2,3:2|3:2,0:0:0:0:
399,22,24851,2,0,P|463:36|503:0,1,112,10|2,2:0|2:0,0:0:0:0:
371,111,25382,2,0,P|312:92|247:90,1,112,10|10,2:0|2:0,0:0:0:0:
79,67,25780,2,0,P|108:61|140:63,1,56,2|2,2:0|2:0,0:0:0:0:
217,183,26045,2,0,P|197:160|183:130,1,56,8|0,2:0|0:0,0:0:0:0:
210,14,26311,1,10,2:0:0:0:
210,14,26443,1,10,2:0:0:0:
101,157,26576,1,6,3:1:0:0:
142,245,26842,6,0,P|192:266|248:274,1,112,2|2,3:2|2:0,0:0:0:0:
92,303,27373,1,2,3:2:0:0:
112,338,27505,2,0,P|167:346|219:366,1,112,10|8,2:0|2:0,0:0:0:0:
293,338,27904,1,0,0:0:0:0:
213,188,28169,1,10,2:0:0:0:
213,188,28435,1,10,2:0:0:0:
371,296,28700,6,0,P|413:279|412:217,1,112,2|2,3:2|3:2,0:0:0:0:
293,338,29098,2,0,P|289:277|275:207,1,112,10|2,2:0|2:0,0:0:0:0:
155,368,29629,2,0,P|100:340|32:318,1,112,10|8,2:0|2:0,0:0:0:0:
13,339,30028,1,2,2:0:0:0:
172,280,30293,1,10,2:0:0:0:
38,155,30559,1,10,2:0:0:0:
38,155,30691,1,8,2:0:0:0:
96,254,30824,6,0,P|109:198|128:139,1,112,8|2,3:1|3:2,0:0:0:0:
113,61,31222,1,8,2:0:0:0:
113,61,31355,1,2,2:0:0:0:
299,165,31620,1,2,3:2:0:0:
215,125,31753,2,0,P|198:70|214:19,1,112,8|8,2:0|2:0,0:0:0:0:
289,71,32151,1,0,0:0:0:0:
132,135,32417,1,8,2:0:0:0:
208,248,32682,2,0,P|194:214|172:188,1,56,10|10,2:0|2:0,0:0:0:0:
22,270,32948,6,0,B|55:270|74:287|74:287|92:267|123:264,1,112,2|2,3:2|3:2,0:0:0:0:
229,324,33346,2,0,P|172:358|123:335,1,112,2|2,3:2|2:0,0:0:0:0:
171,144,33877,2,0,P|183:201|212:253,1,112,10|10,2:0|2:0,0:0:0:0:
354,280,34275,2,0,P|319:288|301:313,1,56,2|10,2:0|2:0,0:0:0:0:
353,372,34541,1,2,3:2:0:0:
376,376,34674,1,2,3:2:0:0:
459,312,34806,1,2,3:0:0:0:
436,316,34939,1,2,3:2:0:0:
354,280,35072,6,0,B|340:235|373:207|404:179|394:129,2,157.5,6|2|2,3:1|2:0|2:0,0:0:0:0:
236,366,36134,2,0,P|198:363|181:249,2,157.5,10|2|2,3:1|2:0|2:0,0:0:0:0:
370,205,37196,2,0,P|387:157|372:96,1,105,2|0,3:2|0:0,0:0:0:0:
223,94,37594,2,0,P|254:135|303:151,1,105,2|0,2:0|0:0,0:0:0:0:
303,67,37992,1,2,2:0:0:0:
202,201,38258,2,0,P|152:226|97:212,2,105,8|0|8,3:1|0:0|2:0,0:0:0:0:
310,298,39054,1,2,2:0:0:0:
348,315,39187,1,2,2:0:0:0:
408,242,39320,6,0,P|431:196|482:181,1,105,6|2,3:1|2:0,0:0:0:0:
512,82,39718,2,0,P|440:78|415:-8,1,157.5,2|2,2:0|2:0,0:0:0:0:
479,180,40382,1,10,3:1:0:0:
308,145,40647,1,2,2:0:0:0:
342,167,40780,2,0,P|368:161|394:157,1,52.5000000000001,2|8,2:0|2:0,0:0:0:0:
439,324,41178,1,2,2:0:0:0:
405,302,41311,1,2,2:0:0:0:
342,367,41443,6,0,P|302:333|235:325,1,105,2|2,3:2|2:0,0:0:0:0:
198,252,41842,2,0,P|146:258|104:288,1,105,2|2,2:0|2:0,0:0:0:0:
223,383,42373,2,0,B|213:339|249:315|287:289|274:236,1,157.5,2|0,2:0|0:0,0:0:0:0:
120,187,43036,5,8,2:0:0:0:
120,187,43169,1,8,2:0:0:0:
37,215,43302,2,0,B|29:195|29:195|32:177,1,35,10|8,0:2|0:2,0:0:0:0:
74,77,43435,2,0,B|81:96|81:96|78:109,1,35,10|8,2:0|2:0,0:0:0:0:
182,251,43567,6,0,B|238:244|238:244|248:233|248:233|303:225,1,126,14|2,2:0|3:2,0:0:0:0:
402,367,43966,2,0,P|343:377|304:331,1,126,14|10,2:0|2:0,0:0:0:0:
479,299,44364,1,10,2:0:0:0:
422,152,44497,2,0,B|396:170|396:170|384:262,1,126,6|2,2:0|2:0,0:0:0:0:
292,90,45028,1,2,2:0:0:0:
315,122,45160,2,0,B|302:215|302:215|276:233,1,126,2|2,2:0|2:0,0:0:0:0:
110,273,45691,6,0,B|85:324|160:375|203:316|219:254|157:197,1,238.000000000001,4|0,2:1|0:0,0:0:0:0:
161,190,46753,6,0,B|227:248|214:320|163:391|73:330|103:269,1,280,8|8,2:1|2:1,0:0:0:0:
338,242,47550,5,2,2:0:0:0:
320,159,47682,1,2,2:0:0:0:
239,291,47815,6,0,P|182:278|96:272,1,140,10|2,2:0|3:2,0:0:0:0:
20,186,48213,2,0,P|89:181|157:162,1,140,10|10,2:0|2:0,0:0:0:0:
200,92,48612,1,8,2:0:0:0:
129,48,48744,1,10,3:2:0:0:
340,1,49010,6,0,P|313:59|307:141,1,140,2|0,3:2|3:2,0:0:0:0:
287,224,49408,2,0,L|368:209,1,70,10|0,2:0|3:2,0:0:0:0:
473,165,49674,1,10,2:2:0:0:
392,135,49806,1,10,2:0:0:0:
412,310,49939,6,0,L|343:297,1,70,14|8,2:0|2:0,0:0:0:0:
172,331,50205,1,2,2:0:0:0:
248,383,50337,2,0,P|259:349|262:315,1,70,2|8,3:2|2:0,0:0:0:0:
188,182,50603,2,0,P|200:214|204:249,1,70,2|8,3:2|2:0,0:0:0:0:
255,119,50868,1,2,3:2:0:0:
363,293,51266,6,0,B|298:258|265:313|232:364|167:328,1,210.000008010865,0|2,0:0|2:0,0:0:0:0:
54,155,52063,6,0,B|30:141|13:103|13:103|19:144|8:166,1,131.25,6|0,3:2|0:0,0:0:0:0:
48,253,52328,2,0,P|95:240|135:239,1,87.5,10|0,2:0|3:2,0:0:0:0:
319,197,52594,1,2,2:0:0:0:
241,284,52727,1,0,3:2:0:0:
205,147,52859,2,0,P|221:79|303:75,1,131.25,10|0,2:0|0:0,0:0:0:0:
355,14,53125,6,0,P|367:73|394:157,1,131.25,2|0,3:2|0:0,0:0:0:0:
456,197,53390,1,10,2:0:0:0:
386,297,53523,2,0,P|364:232|266:221,1,175,2|0,2:0|3:2,0:0:0:0:
138,299,53921,1,10,2:0:0:0:
182,384,54054,1,0,0:0:0:0:
43,300,54187,6,0,P|27:226|10:166,1,131.25,2|0,3:2|0:0,0:0:0:0:
53,91,54452,1,10,2:0:0:0:
118,215,54585,2,0,P|134:141|151:81,1,131.25,2|0,2:0|0:0,0:0:0:0:
214,24,54851,1,2,3:2:0:0:
322,93,54983,2,0,P|278:99|237:112,1,87.5,8|2,2:0|2:0,0:0:0:0:
179,282,55249,6,0,P|209:359|292:367,1,175,2|8,3:2|2:0,0:0:0:0:
299,213,55647,1,0,3:2:0:0:
431,279,55780,2,0,P|388:288|345:292,1,87.5,0|0,0:0|3:2,0:0:0:0:
210,196,56045,1,10,2:0:0:0:
361,146,56178,1,2,3:2:0:0:
183,35,56311,6,0,B|154:39|118:20|118:20|147:49|152:74,1,131.25,6|0,3:1|0:0,0:0:0:0:
236,108,56576,1,10,2:0:0:0:
327,5,56709,2,0,P|390:10|408:70,1,131.25,2|0,3:2|0:0,0:0:0:0:
361,146,56974,1,2,3:2:0:0:
496,95,57107,1,10,2:0:0:0:
461,271,57240,6,0,P|396:249|325:232,1,131.25,2|0,2:0|0:0,0:0:0:0:
273,167,57505,2,0,P|230:177|185:183,1,87.5,2|8,2:0|2:0,0:0:0:0:
83,280,57771,1,2,2:0:0:0:
146,345,57904,2,0,P|169:308|172:263,1,87.5,0|0,3:2|3:2,0:0:0:0:
0,315,58169,2,0,P|-2:247|43:197,1,131.25,10|0,2:0|0:0,0:0:0:0:
159,142,58435,6,0,P|95:126|33:100,1,131.25,2|0,3:2|0:0,0:0:0:0:
2,15,58700,1,10,2:0:0:0:
142,0,58833,2,0,P|205:15|268:42,1,131.25,2|0,3:2|0:0,0:0:0:0:
321,111,59098,2,0,P|313:159|278:187,1,87.5,2|10,3:2|2:0,0:0:0:0:
123,226,59364,1,2,0:0:0:0:
235,342,59497,5,2,3:2:0:0:
215,248,59629,1,8,2:0:0:0:
398,308,59762,1,10,2:0:0:0:
326,372,59895,1,8,2:0:0:0:
286,184,60028,1,10,2:0:0:0:
379,220,60160,1,8,2:0:0:0:
379,220,60227,1,8,2:0:0:0:
379,220,60293,2,0,L|425:213,3,43.75,2|0|2|0,3:2|3:2|3:2|3:2,0:0:0:0:
495,156,60559,6,0,P|486:91|429:76,1,131.25,14|0,3:1|0:0,0:0:0:0:
347,115,60824,1,10,2:0:0:0:
232,14,60957,2,0,P|180:54|195:111,1,131.25,2|0,3:2|0:0,0:0:0:0:
269,162,61222,1,2,3:2:0:0:
158,298,61355,2,0,P|142:227|122:163,1,131.25,10|0,2:0|0:0,0:0:0:0:
44,128,61620,6,0,P|48:73|92:60,1,87.5,2|2,3:2|0:2,0:0:0:0:
162,90,61820,1,2,0:2:0:0:
162,90,61886,1,10,2:0:0:0:
302,26,62019,2,0,P|376:45|491:68,1,175,2|0,2:0|3:2,0:0:0:0:
306,176,62417,2,0,P|269:154|262:113,1,87.5,10|0,2:0|0:0,0:0:0:0:
473,241,62682,5,2,3:2:0:0:
404,181,62815,2,0,B|383:164|399:143|399:143|419:160|404:181,1,87.5,2|8,2:0|2:0,0:0:0:0:
352,314,63081,2,0,P|288:320|220:342,1,131.25,2|0,2:0|0:0,0:0:0:0:
139,373,63346,1,2,3:2:0:0:
230,239,63479,2,0,P|166:233|98:211,1,131.25,10|0,2:0|0:0,0:0:0:0:
47,139,63744,6,0,P|43:95|19:60,1,87.5,2|0,3:2|0:0,0:0:0:0:
138,127,64010,1,8,2:0:0:0:
212,1,64143,2,0,P|218:87|266:158,1,175,0|0,3:2|3:2,0:0:0:0:
460,197,64541,1,10,2:0:0:0:
376,117,64674,1,2,3:2:0:0:
340,316,64806,6,0,B|362:330|374:369|374:369|372:328|390:306,1,131.25,6|0,3:1|0:0,0:0:0:0:
349,234,65072,2,0,B|326:218|342:196|342:196|362:213|349:234,1,87.5,10|0,2:0|3:2,0:0:0:0:
270,359,65337,1,2,2:0:0:0:
112,288,65470,1,0,3:2:0:0:
178,165,65603,2,0,P|190:229|207:292,1,131.25,10|0,2:0|0:0,0:0:0:0:
155,368,65868,5,2,3:2:0:0:
25,308,66001,2,0,P|18:264|4:214,1,87.5,2|8,2:0|2:0,0:0:0:0:
16,40,66266,2,0,P|29:135|119:127,1,175,2|0,3:2|3:2,0:0:0:0:
243,64,66665,1,10,2:0:0:0:
132,33,66797,1,2,3:2:0:0:
234,185,66930,6,0,P|280:171|329:162,1,87.5,10|0,3:2|3:2,0:0:0:0:
480,68,67196,1,10,2:0:0:0:
511,167,67328,1,2,3:2:0:0:
386,299,67461,1,8,2:0:0:0:
413,199,67594,1,2,3:2:0:0:
457,373,67727,1,10,2:0:0:0:
285,322,67859,6,0,P|234:327|185:341,1,87.5,2|0,3:2|0:0,0:0:0:0:
29,283,68125,2,0,P|80:278|129:264,1,87.5,8|0,2:0|3:2,0:0:0:0:
265,167,68390,1,0,3:2:0:0:
178,181,68523,1,10,2:0:0:0:
321,234,68656,1,8,2:0:0:0:
296,85,68789,2,0,L|287:28,3,43.75,10|8|8|8,2:0|2:0|2:0|2:0,0:0:0:0:
358,1,69054,6,0,P|430:6|461:91,1,154,6|2,3:1|2:0,0:0:0:0:
359,150,69452,1,0,3:2:0:0:
439,274,69585,2,0,P|487:222|448:162,1,154,10|2,2:0|2:0,0:0:0:0:
272,188,69983,1,0,3:2:0:0:
349,244,70116,1,2,2:0:0:0:
204,353,70249,6,0,P|194:276|178:201,1,154,8|2,2:0|3:2,0:0:0:0:
195,36,70647,2,0,P|199:74|207:111,1,77,8|0,2:0|0:0,0:0:0:0:
89,232,70913,1,2,3:2:0:0:
101,125,71045,1,8,2:0:0:0:
272,188,71178,6,0,P|341:173|363:91,1,154,10|2,3:1|2:0,0:0:0:0:
195,36,71576,1,2,3:2:0:0:
271,93,71709,2,0,P|284:54|293:17,1,77,8|2,2:0|2:0,0:0:0:0:
171,179,71974,2,0,P|184:218|193:255,1,77,0|2,3:2|2:0,0:0:0:0:
297,373,72240,5,2,3:2:0:0:
344,227,72373,1,8,2:0:0:0:
447,335,72505,2,0,P|411:320|373:317,1,77,0|0,0:0|3:2,0:0:0:0:
209,338,72771,1,8,2:0:0:0:
76,232,73036,5,10,2:0:0:0:
6,309,73169,1,10,2:0:0:0:
33,137,73302,2,0,B|44:104|15:89|15:89|0:121|33:137,1,115.5,6|0,3:1|0:0,0:0:0:0:
134,79,73567,1,2,2:0:0:0:
67,0,73700,1,2,3:2:0:0:
250,44,73833,2,0,P|234:99|224:158,1,115.5,8|0,2:0|0:0,0:0:0:0:
172,217,74098,1,2,3:2:0:0:
228,351,74231,6,0,P|278:346|301:275,1,115.5,2|0,3:2|0:0,0:0:0:0:
299,203,74497,2,0,P|319:167|365:169,1,77,10|0,2:0|0:0,0:0:0:0:
491,228,74762,1,2,3:2:0:0:
384,350,74895,2,0,P|393:293|404:236,1,115.5,10|0,2:0|0:0,0:0:0:0:
440,155,75160,1,2,2:0:0:0:
317,283,75293,1,8,2:0:0:0:
222,212,75426,6,0,P|157:204|103:191,1,115.5,10|0,3:1|0:0,0:0:0:0:
31,168,75691,1,2,2:0:0:0:
178,115,75824,1,2,3:2:0:0:
167,319,75957,2,0,P|240:296|316:282,1,154,8|0,2:0|0:0,0:0:0:0:
428,163,76355,1,2,3:2:0:0:
284,68,76488,5,10,2:0:0:0:
344,191,76620,1,8,2:0:0:0:
222,126,76753,1,10,2:0:0:0:
359,107,76886,1,8,2:0:0:0:
261,203,77019,2,0,B|229:205|208:223|208:223|194:200|160:188,1,115.5,10|0,2:0|0:0,0:0:0:0:
222,126,77284,1,2,3:2:0:0:
313,272,77417,1,2,3:2:0:0:
142,378,77550,6,0,P|129:313|125:261,1,115.5,6|0,3:1|0:0,0:0:0:0:
63,202,77815,1,2,2:0:0:0:
40,358,77948,2,0,P|36:320|29:281,1,77,2|8,3:2|2:0,0:0:0:0:
72,116,78213,1,2,2:0:0:0:
221,173,78346,2,0,P|276:164|301:114,1,115.50000352478,2|0,2:0|0:0,0:0:0:0:
300,24,78612,5,2,2:0:0:0:
393,137,78744,2,0,P|389:98|382:60,1,77,10|0,2:0|0:0,0:0:0:0:
486,120,79010,1,2,3:2:0:0:
325,203,79143,2,0,P|317:248|314:283,1,77,8|0,2:0|0:0,0:0:0:0:
408,254,79408,1,2,3:2:0:0:
302,115,79541,1,8,2:0:0:0:
235,330,79674,6,0,B|208:349|202:376|202:376|189:351|161:337,1,115.5,10|0,3:1|0:0,0:0:0:0:
191,255,79939,1,2,2:0:0:0:
99,268,80072,2,0,B|69:279|55:303|55:303|51:276|26:255,1,115.5,2|0,3:2|0:0,0:0:0:0:
76,185,80337,1,2,2:0:0:0:
183,147,80470,2,0,P|165:166|179:144,1,77,2|0,3:2|0:0,0:0:0:0:
86,15,80736,5,2,3:2:0:0:
20,56,80868,1,8,2:0:0:0:
17,134,81001,1,0,0:0:0:0:
76,185,81134,1,0,3:2:0:0:
183,147,81266,1,8,2:0:0:0:
74,340,81532,1,10,2:0:0:0:
20,263,81665,1,10,2:0:0:0:
167,319,81797,6,0,P|228:296|230:209,1,154,6|2,3:1|2:0,0:0:0:0:
283,67,82196,1,2,3:2:0:0:
119,96,82328,2,0,P|157:106|193:119,1,77,8|2,2:0|2:0,0:0:0:0:
197,20,82594,1,0,3:2:0:0:
33,59,82727,6,0,P|32:116|60:165,1,115.5,2|0,3:2|0:0,0:0:0:0:
134,202,82992,2,0,B|153:213|167:194|167:194|148:181|134:202,1,77,8|2,2:0|2:0,0:0:0:0:
4,231,83258,1,0,3:2:0:0:
78,379,83390,2,0,P|63:323|81:270,1,115.5,10|0,2:0|0:0,0:0:0:0:
134,202,83656,1,2,3:2:0:0:
224,287,83789,1,8,2:0:0:0:
269,99,83921,6,0,B|332:91|347:153|417:143,1,154,6|0,3:2|3:2,0:0:0:0:
512,8,84320,2,0,P|460:11|454:64,1,115.5,10|0,2:0|0:0,0:0:0:0:
500,140,84585,1,10,2:0:0:0:
372,217,84718,1,10,2:0:0:0:
483,370,84851,2,0,P|466:292|454:215,1,157.5,2|0,3:2|0:0,0:0:0:0:
412,143,85249,6,0,P|367:120|335:142,1,89.2500000000003,2|0,2:0|0:0,0:0:0:0:
245,174,85514,2,0,P|285:210|272:244,1,89.2500000000003,2|0,2:0|0:0,0:0:0:0:
201,276,85780,1,2,3:2:0:0:
175,127,85913,1,0,3:2:0:0:
0,183,86045,6,0,P|73:209|154:206,1,154,6|2,3:2|2:0,0:0:0:0:
95,291,86443,2,0,B|64:305|46:348|46:348|43:301|17:277,1,154,10|2,2:0|2:0,0:0:0:0:
86,127,86842,1,8,2:0:0:0:
86,127,86974,1,2,2:0:0:0:
275,23,87240,5,10,2:0:0:0:
369,62,87373,2,0,P|384:100|358:135,1,77,2|2,2:0|2:0,0:0:0:0:
230,130,87638,1,10,3:2:0:0:
299,96,87771,1,2,2:0:0:0:
294,173,87904,1,2,2:0:0:0:
225,207,88036,1,10,2:0:0:0:
169,82,88169,6,0,P|94:50|11:59,1,154,10|2,3:1|2:0,0:0:0:0:
0,144,88567,2,0,P|75:176|158:167,1,154,10|2,2:0|2:0,0:0:0:0:
286,12,89098,2,0,P|298:88|321:162,1,154,2|8,2:0|2:0,0:0:0:0:
404,191,89497,2,0,P|410:154|398:118,1,77
233,170,89762,2,0,P|245:206|272:234,1,77,8|0,3:2|0:0,0:0:0:0:
441,353,90028,5,2,2:0:0:0:
483,258,90160,1,10,2:0:0:0:
338,354,90293,2,0,P|251:326|175:320,1,154,6|2,3:1|2:0,0:0:0:0:
63,302,90691,2,0,B|49:333|6:351|6:351|53:354|76:379,1,154,10|2,2:0|2:0,0:0:0:0:
141,233,91090,1,8,2:0:0:0:
141,233,91222,1,2,2:0:0:0:
23,98,91488,5,10,2:0:0:0:
94,84,91620,1,2,2:0:0:0:
47,29,91753,1,2,2:0:0:0:
70,153,91886,1,10,3:2:0:0:
166,71,92019,2,0,L|216:62,1,38.5,2|2,2:0|2:0,0:0:0:0:
208,179,92151,2,0,L|131:192,1,77,2|10,2:0|2:0,0:0:0:0:
315,27,92417,6,0,P|284:89|307:185,1,154,10|2,3:1|2:0,0:0:0:0:
409,239,92815,2,0,B|356:219|330:279|259:251,1,154,10|2,2:0|2:0,0:0:0:0:
60,209,93346,2,0,P|136:207|208:179,1,154,2|8,2:0|2:0,0:0:0:0:
187,276,93744,2,0,B|164:300|162:347|162:347|143:304|112:290,1,154,0|8,0:0|3:2,0:0:0:0:
132,126,94143,5,2,2:0:0:0:
204,70,94275,1,2,2:0:0:0:
280,121,94408,1,10,2:0:0:0:
397,14,94541,2,0,P|475:38|473:121,1,154,6|2,3:1|2:0,0:0:0:0:
396,252,94939,2,0,P|387:175|369:101,1,154,10|2,2:0|2:0,0:0:0:0:
485,194,95337,1,8,2:0:0:0:
485,194,95470,1,2,2:0:0:0:
260,289,95736,5,10,2:0:0:0:
312,345,95868,2,0,P|279:363|240:363,1,77,2|2,2:0|2:0,0:0:0:0:
189,255,96134,1,10,3:2:0:0:
251,211,96266,1,2,2:0:0:0:
321,240,96399,2,0,P|356:253|395:252,1,77,2|8,2:0|2:0,0:0:0:0:
493,113,96665,6,0,B|524:81|513:42|513:42|484:71|493:115,1,154,10|2,3:1|2:0,0:0:0:0:
417,163,97063,2,0,P|360:120|269:108,1,154,10|2,2:0|2:0,0:0:0:0:
204,58,97461,1,8,2:0:0:0:
284,15,97594,1,2,2:0:0:0:
200,149,97727,2,0,P|218:183|271:182,1,77,0|8,3:2|2:0,0:0:0:0:
417,163,97992,2,0,P|341:198|345:273,1,154,0|8,0:0|3:2,0:0:0:0:
55,266,98523,5,2,2:0:0:0:
133,221,98656,1,10,2:0:0:0:
172,373,98789,2,0,P|181:300|249:269,1,154,6|0,3:1|0:0,0:0:0:0:
407,312,99187,1,10,2:0:0:0:
304,192,99452,6,0,P|265:183|225:177,2,77,2|10|2,2:0|2:0|2:0,0:0:0:0:
387,225,99851,1,2,3:2:0:0:
376,139,99983,1,10,2:0:0:0:
461,129,100116,1,2,2:0:0:0:
472,214,100249,1,2,2:0:0:0:
304,192,100382,1,10,3:2:0:0:
304,192,100647,5,2,2:0:0:0:
369,57,100780,1,8,2:0:0:0:
204,133,100913,6,0,P|128:104|29:88,1,154,10|2,3:1|2:0,0:0:0:0:
161,19,101311,1,2,3:2:0:0:
82,186,101443,2,0,P|41:189|4:199,1,77,8|2,0:2|3:2,0:0:0:0:
168,216,101709,1,0,3:2:0:0:
64,363,101842,1,6,2:0:0:0:
389,174,102107,5,2,3:2:0:0:
466,344,102240,1,8,2:0:0:0:
247,258,102373,2,0,P|285:255|322:243,1,77,6|0,3:2|0:0,0:0:0:0:
483,148,102638,1,2,3:2:0:0:
309,82,102771,2,0,P|306:120|298:157,1,77,2|2,3:2|3:2,0:0:0:0:
168,216,103036,6,0,L|116:211,3,52.5000000000001,6|2|2|2,2:0|2:0|2:0|2:0,0:0:0:0:
339,240,103700,6,0,P|364:240|391:230,2,52.5000000000001,2|2|2,2:0|2:0|2:0,0:0:0:0:
323,158,104231,2,0,P|347:148|373:148,2,52.5000000000001,2|2|2,2:0|2:0|2:0,0:0:0:0:
254,214,104629,5,2,2:0:0:0:
180,153,104762,1,2,2:0:0:0:
169,79,104895,1,2,2:0:0:0:
191,30,105028,1,2,2:0:0:0:
222,20,105160,6,0,L|215:81,3,52.5000000000001,2|2|2|2,2:0|2:0|2:0|2:0,0:0:0:0:
145,245,105824,6,0,P|145:220|155:193,2,52.5000000000001,2|2|2,2:0|2:0|2:0,0:0:0:0:
227,261,106355,2,0,P|236:236|236:210,2,52.5000000000001,2|2|2,2:0|2:0|2:0,0:0:0:0:
175,329,106753,5,2,2:0:0:0:
223,353,106886,1,2,2:0:0:0:
297,346,107019,1,2,2:0:0:0:
361,276,107151,5,6,2:1:0:0:
