osu file format v14

[General]
AudioFilename: audio.mp3
AudioLeadIn: 0
PreviewTime: 49027
Countdown: 0
SampleSet: Soft
StackLeniency: 0.7
Mode: 0
LetterboxInBreaks: 0
WidescreenStoryboard: 1

[Editor]
Bookmarks: 36248,47324,69478,112863,123940
DistanceSpacing: 0.3
BeatDivisor: 3
GridSize: 8
TimelineZoom: 3.299998

[Metadata]
Title:Excuse My Rudeness, But Could You Please RIP?<3 (t+pazolite Remix)
TitleUnicode:失礼しますが、RIP♡ (t+pazolite Remix)
Artist:Mori Calliope
ArtistUnicode:Mori Calliope
Creator:Amateurre
Version:vikala's Insane
Source:
Tags:vtuber virtual youtuber ホロライブ hololive english holoen en holomyth 森 カリオペ dead beats reaper rap japanese electronic speedcore tpz tpazolite shitsureishimasuga sitsureisimasuga xlolicore- my angel watame kowari pachiru cubby shizuku kazato asa flake toybot vikala
BeatmapID:2714494
BeatmapSetID:1264863

[Difficulty]
HPDrainRate:5
CircleSize:3.8
OverallDifficulty:8
ApproachRate:9
SliderMultiplier:1.7
SliderTickRate:1

[Events]
//Background and Video events
0,0,"mori wallpaper.jpg",0,0
//Break Periods
2,113063,120571
//Storyboard Layer 0 (Background)
//Storyboard Layer 1 (Fail)
//Storyboard Layer 2 (Pass)
//Storyboard Layer 3 (Foreground)
//Storyboard Layer 4 (Overlay)
//Storyboard Sound Samples

[TimingPoints]
248,230.769230769231,4,2,1,40,1,0
6248,-133.333333333333,4,2,1,65,0,0
6709,-100,4,2,1,65,0,0
7401,-100,4,2,3,55,0,0
7632,-100,4,2,1,65,0,0
9824,-125,4,2,1,65,0,0
10401,-100,4,2,1,65,0,0
13401,-100,4,2,2,65,0,0
14094,-100,4,2,1,65,0,0
14786,-100,4,2,3,55,0,0
15017,-100,4,2,1,65,0,0
17324,-66.6666666666667,4,2,1,65,0,0
17555,-100,4,2,1,65,0,0
20671,-133.333333333333,4,2,1,65,0,0
21478,-66.6666666666667,4,2,1,75,0,0
22055,-100,4,2,1,75,0,0
28171,-100,4,2,2,75,0,0
28401,-66.6666666666667,4,2,2,75,0,0
28632,-100,4,2,1,75,0,0
36248,-200,4,2,2,60,0,0
46401,-166.666666666667,4,2,2,60,0,0
47324,-142.857142857143,4,2,2,60,0,0
47382,-142.857142857143,4,2,3,60,0,0
47555,-142.857142857143,4,2,2,60,0,0
47613,-142.857142857143,4,2,3,60,0,0
47786,-142.857142857143,4,2,2,60,0,0
47844,-142.857142857143,4,2,3,60,0,0
48017,-142.857142857143,4,2,2,60,0,0
48074,-142.857142857143,4,2,3,60,0,0
48248,-125,4,2,2,60,0,0
48305,-125,4,2,3,60,0,0
48478,-117.647058823529,4,2,2,60,0,0
48536,-117.647058823529,4,2,3,60,0,0
48709,-111.111111111111,4,2,2,60,0,0
48767,-111.111111111111,4,2,3,60,0,0
48940,-100,4,2,2,60,0,0
48998,-100,4,2,3,60,0,0
49171,-166.666666666667,4,2,2,60,0,0
50555,-100,4,2,2,80,0,0
51017,-100,4,2,1,70,0,0
51171,-100,4,2,3,70,0,0
51478,-111.111111111111,4,2,1,65,0,0
51632,-111.111111111111,4,2,3,65,0,0
51940,-125,4,2,1,60,0,0
52094,-125,4,2,3,60,0,0
52401,-142.857142857143,4,2,1,55,0,0
52555,-142.857142857143,4,2,3,55,0,0
52863,-166.666666666667,4,2,1,50,0,0
53017,-166.666666666667,4,2,3,50,0,0
53324,-200,4,2,1,45,0,0
53478,-200,4,2,3,45,0,0
53786,-200,4,2,1,40,0,0
53940,-200,4,2,3,40,0,0
54248,-100,4,2,1,60,0,0
54709,-100,4,2,2,85,0,0
55632,-100,4,2,1,85,0,0
58286,-100,4,2,3,85,0,0
58401,-111.111111111111,4,2,1,85,0,0
58863,-90.9090909090909,4,2,1,85,0,0
59324,-100,4,2,1,85,0,0
61978,-100,4,2,3,85,0,0
62094,-66.6666666666667,4,2,1,85,0,0
63017,-100,4,2,1,85,0,0
64517,-100,4,2,3,85,0,0
64632,-100,4,2,1,85,0,0
65094,-100,4,2,3,85,0,0
65209,-100,4,2,1,85,0,0
65324,-100,4,2,3,85,0,0
65786,-100,4,2,1,85,0,0
67632,-100,4,2,2,60,0,0
69017,-100,4,2,1,80,0,0
75709,-133.333333333333,4,2,2,80,0,0
75940,-100,4,2,1,80,0,0
82458,-100,4,2,3,80,0,0
82632,-90.9090909090909,4,2,1,80,0,0
82689,-90.9090909090909,4,2,3,80,0,0
82863,-83.3333333333333,4,2,1,80,0,0
82920,-83.3333333333333,4,2,3,80,0,0
83094,-76.9230769230769,4,2,1,80,0,0
83151,-76.9230769230769,4,2,3,80,0,0
83324,-125,4,2,3,60,0,0
83786,-125,4,2,1,60,0,0
84248,-125,4,2,3,60,0,0
84709,-125,4,2,1,60,0,0
85171,-100,4,2,3,60,0,0
87017,-100,4,2,1,65,0,0
90017,-100,4,2,2,50,0,0
90709,-100,4,2,1,65,0,0
91401,-200,4,2,3,55,0,0
91632,-100,4,2,1,80,0,0
92094,-100,4,2,1,70,0,0
92097,-100,4,2,4,70,0,0
92555,-100,4,2,1,65,0,0
94401,-100,4,2,1,70,0,0
96248,-100,4,2,1,75,0,0
97748,-133.333333333333,4,2,1,75,0,0
98094,-100,4,2,1,75,0,0
104786,-100,4,2,2,75,0,0
105478,-100,4,2,1,75,0,0
112863,-100,4,2,1,60,0,0
121171,-100,4,2,3,60,0,0
123940,-100,4,2,2,60,0,0
123998,-100,4,2,3,60,0,0
124171,-100,4,2,2,60,0,0
124229,-100,4,2,3,60,0,0
124401,-100,4,2,2,60,0,0
124460,-100,4,2,3,60,0,0
124632,-100,4,2,2,60,0,0
124690,-100,4,2,3,60,0,0
124863,-100,4,2,2,60,0,0
124921,-100,4,2,3,60,0,0
125094,-100,4,2,2,60,0,0
125152,-100,4,2,3,60,0,0
125324,-100,4,2,2,60,0,0
125383,-100,4,2,3,60,0,0
125555,-100,4,2,2,60,0,0
125614,-100,4,2,3,60,0,0
125787,-100,4,2,2,60,0,0
127171,-1000,4,2,1,80,0,0
127574,-100,4,2,1,5,0,0
127632,-83.3333333333333,4,2,2,85,0,0
127661,-100,4,2,3,85,0,0
128555,-100,4,2,1,85,0,0
131209,-100,4,2,3,85,0,0
131324,-111.111111111111,4,2,1,85,0,0
131786,-90.9090909090909,4,2,1,85,0,0
132248,-100,4,2,1,85,0,0
133517,-100,4,2,3,85,0,0
133632,-100,4,2,1,85,0,0
134209,-100,4,2,3,85,0,0
134324,-100,4,2,1,85,0,0
134901,-100,4,2,3,85,0,0
135017,-66.6666666666667,4,2,1,85,0,0
135940,-100,4,2,1,85,0,0
136171,-100,4,2,3,85,0,0
136286,-100,4,2,1,85,0,0
137440,-100,4,2,3,85,0,0
137555,-100,4,2,1,85,0,0
138017,-100,4,2,3,85,0,0
138132,-100,4,2,1,85,0,0
138248,-100,4,2,3,85,0,0
138709,-100,4,2,1,85,0,0
140555,-100,4,2,2,60,0,0
141940,-100,4,2,1,60,0,0
142171,-100,4,2,1,80,0,0
142401,-100,4,2,3,50,0,0
142863,-200,4,2,3,50,0,0
143324,-133.333333333333,4,2,3,60,0,0
144248,-100,4,2,3,70,0,0
145171,-100,4,2,3,80,0,0
145863,-66.6666666666667,4,2,1,80,0,0
146094,-100,4,2,1,80,0,0
155382,-100,4,2,3,80,0,0
155555,-90.9090909090909,4,2,1,80,0,0
155612,-90.9090909090909,4,2,3,80,0,0
155786,-83.3333333333333,4,2,1,80,0,0
155843,-83.3333333333333,4,2,3,80,0,0
156017,-76.9230769230769,4,2,1,80,0,0
156074,-76.9230769230769,4,2,3,80,0,0
156248,-100,4,2,1,80,0,0
170151,-100,4,2,3,80,0,0
170210,-100,4,2,1,80,0,0
170324,-90.9090909090909,4,2,1,80,0,0
170381,-90.9090909090909,4,2,3,80,0,0
170555,-83.3333333333333,4,2,1,80,0,0
170612,-83.3333333333333,4,2,3,80,0,0
170786,-76.9230769230769,4,2,1,80,0,0
171017,-200,4,2,1,80,0,0
171882,-200,4,2,1,5,0,0
171940,-100,4,2,1,60,0,0

[Colours]
Combo1 : 248,135,152
Combo2 : 233,18,55
Combo3 : 251,203,60

[HitObjects]
256,192,3017,12,2,6132,0:0:0:0:
252,121,6248,6,0,B|233:91|246:60|246:60|268:91|254:124,1,127.500004863739,2|0,3:0|0:0,0:0:0:0:
173,153,6709,6,0,P|256:138|341:138,2,170,4|0|0,3:1|3:0|3:0,0:0:0:0:
102,199,7286,1,0,0:0:0:0:
209,228,7401,2,0,P|246:202|245:146,1,85,2|0,0:0|0:0,0:0:0:0:
152,71,7632,5,0,3:0:0:0:
71,107,7748,2,0,P|65:64|58:22,1,85,0|0,0:0|3:0,0:0:0:0:
209,228,7978,2,0,P|251:233|292:241,2,85,0|0|0,0:0|3:0|0:0,0:0:0:0:
128,280,8324,5,0,0:0:0:0:
114,358,8440,1,0,0:0:0:0:
118,270,8555,6,0,P|163:266|198:209,1,85,0|0,3:0|0:0,0:0:0:0:
236,96,8786,2,0,L|329:115,1,85,0|0,3:0|0:0,0:0:0:0:
419,153,9017,2,0,P|387:180|380:221,1,85,0|0,3:0|0:0,0:0:0:0:
486,353,9248,1,0,3:0:0:0:
495,325,9363,1,0,0:0:0:0:
418,316,9478,6,0,B|332:285|339:376|256:338,1,170,0|0,3:0|0:0,0:0:0:0:
191,286,9824,2,0,P|175:185|148:86,1,204
139,98,10286,1,0,0:0:0:0:
212,156,10401,6,0,B|238:118|238:118|228:46,1,85,4|0,3:1|0:0,0:0:0:0:
80,37,10632,2,0,B|55:74|55:74|64:147,1,85,0|0,3:0|0:0,0:0:0:0:
154,211,10863,2,0,P|215:195|279:191,1,127.5,0|0,3:0|0:0,0:0:0:0:
295,198,11094,2,0,P|333:240|324:297,1,85,0|0,3:0|0:0,0:0:0:0:
495,206,11324,6,0,P|453:204|426:173,1,85,0|0,3:0|0:0,0:0:0:0:
471,100,11555,1,0,3:0:0:0:
352,130,11671,2,0,P|399:190|414:303,1,170
331,345,12017,6,0,B|290:358|276:318|276:318|300:343|336:341,1,127.5
343,352,12248,6,0,P|256:360|173:369,1,170,0|0,3:0|3:0,0:0:0:0:
119,202,12594,1,0,0:0:0:0:
46,236,12709,2,0,P|100:236|150:313,1,127.5,0|0,3:0|0:0,0:0:0:0:
139,298,12940,2,0,P|131:261|124:214,1,85,0|0,3:0|0:0,0:0:0:0:
266,77,13171,6,0,P|259:119|255:161,1,85,0|0,3:0|0:0,0:0:0:0:
257,171,13344,1,0,0:0:0:0:
264,176,13401,2,0,P|287:181|315:178,3,42.5,8|8|8|8,0:0|0:0|0:0|0:0,0:0:0:0:
375,222,13632,6,0,P|291:213|209:233,1,170,8|8,0:0|0:0,0:0:0:0:
209,232,14094,5,4,3:1:0:0:
159,155,14209,1,0,0:0:0:0:
65,191,14324,2,0,P|107:181|149:174,1,85,8|0,3:2|0:0,0:0:0:0:
284,54,14555,6,0,P|246:48|218:6,1,85,0|0,3:1|0:0,0:0:0:0:
360,33,14786,2,0,P|330:62|288:68,1,85,2|0,0:0|0:0,0:0:0:0:
254,147,15017,5,0,3:1:0:0:
327,224,15132,1,0,0:0:0:0:
451,211,15248,2,0,P|447:171|368:152,1,127.5,8|0,3:2|0:0,0:0:0:0:
368,136,15478,6,0,P|362:144|360:155,6,21.25,2|2|2|2|2|2|2,3:2|0:2|0:2|0:2|0:2|0:2|0:2,0:0:0:0:
311,216,15709,2,0,P|319:258|326:299,1,85,2|2,0:2|0:2,0:0:0:0:
496,329,15940,6,0,B|454:325|454:325|415:346,1,85,0|0,3:1|0:0,0:0:0:0:
230,292,16171,2,0,L|313:309,1,85,8|0,3:2|0:0,0:0:0:0:
432,189,16401,5,0,3:1:0:0:
451,114,16517,1,0,0:0:0:0:
311,50,16632,5,8,3:2:0:0:
328,123,16748,1,0,0:0:0:0:
384,74,16863,6,0,P|343:81|302:93,1,85,0|0,3:1|0:0,0:0:0:0:
147,82,17094,2,0,P|138:40|126:0,1,85
235,53,17324,6,0,B|185:123|109:105|109:105|139:98|160:63,1,191.250007295609
212,136,17555,2,0,P|200:176|195:218,1,85
11,320,17786,6,0,B|78:310|141:298|141:298|160:314|171:320,1,170,4|8,3:1|3:2,0:0:0:0:
265,327,18132,1,0,0:0:0:0:
204,230,18248,2,0,L|316:252,1,85,0|0,3:1|0:0,0:0:0:0:
355,356,18478,1,8,3:2:0:0:
434,326,18594,6,0,P|393:319|360:344,1,85,0|4,0:0|3:1,0:0:0:0:
504,375,18824,2,0,P|482:315|474:252,1,127.5
484,243,19055,1,0,0:0:0:0:
406,133,19171,2,0,L|393:217,1,85,0|0,3:1|0:0,0:0:0:0:
482,89,19401,2,0,P|477:47|451:14,1,85,8|0,3:2|0:0,0:0:0:0:
314,67,19632,6,0,P|271:72|229:79,1,85,4|0,3:2|0:0,0:0:0:0:
123,148,19863,1,8,3:2:0:0:
103,73,19978,1,0,0:0:0:0:
114,158,20094,6,0,P|156:163|198:170,1,85,4|0,3:2|0:0,0:0:0:0:
323,253,20324,1,8,3:2:0:0:
256,347,20440,6,0,P|259:305|230:275,1,85,0|4,0:0|3:1,0:0:0:0:
226,288,20671,2,0,P|224:319|243:343,1,63.7500024318696
144,348,20959,1,0,0:0:0:0:
144,348,21017,6,0,L|78:329,1,63.7500024318696
256,347,21248,2,0,P|305:337|350:329,1,95.6250036478044
424,314,21478,6,0,B|410:264|355:253|355:253|362:204|387:143|387:143|384:167|388:186,2,255.000009727478,4|10|2,3:1|3:2|3:2,0:0:0:0:
462,166,22055,2,0,L|503:176,2,42.5,0|0|8,0:0|0:0|3:2,0:0:0:0:
313,12,22286,6,0,P|321:53|326:95,1,85,2|0,0:0|0:0,0:0:0:0:
276,185,22517,2,0,P|295:147|312:108,1,85,2|8,0:0|3:2,0:0:0:0:
244,64,22748,1,0,0:0:0:0:
391,21,22863,6,0,P|437:27|460:74,1,85,2|0,3:2|0:0,0:0:0:0:
232,58,23094,2,0,P|170:61|132:109,1,127.5,10|0,3:2|0:0,0:0:0:0:
120,105,23324,6,0,L|137:207,1,85,0|2,3:1|0:0,0:0:0:0:
182,305,23555,1,8,3:2:0:0:
95,283,23671,1,2,0:0:0:0:
174,292,23786,2,0,B|279:274|279:274|335:290,1,127.5,0|0,3:1|0:0,0:0:0:0:
292,293,24017,1,8,3:2:0:0:
386,334,24132,6,0,P|391:291|400:250,1,85,2|0,0:0|0:0,0:0:0:0:
325,138,24363,2,0,P|285:149|266:186,1,85,2|8,0:0|3:2,0:0:0:0:
407,141,24594,1,0,0:0:0:0:
329,152,24709,2,0,P|275:143|242:34,1,170,2|10,3:2|3:2,0:0:0:0:
237,44,25171,5,0,3:1:0:0:
313,22,25286,1,2,0:0:0:0:
170,7,25401,2,0,P|161:51|157:91,1,85,8|0,3:2|0:0,0:0:0:0:
67,90,25632,2,0,P|75:131|90:171,1,85,0|0,3:1|0:0,0:0:0:0:
99,309,25863,1,8,3:2:0:0:
24,269,25978,1,2,0:0:0:0:
106,290,26094,6,0,P|134:265|206:279,1,85,0|2,3:0|0:0,0:0:0:0:
261,358,26324,1,8,3:2:0:0:
170,350,26440,2,0,P|229:337|252:216,1,170,2|2,0:0|0:0,0:0:0:0:
230,104,26786,1,8,3:2:0:0:
205,180,26901,1,2,0:0:0:0:
343,235,27017,5,0,3:1:0:0:
355,229,27132,2,0,P|389:232|424:281,1,85,2|0,0:0|0:0,0:0:0:0:
504,180,27363,2,0,P|483:184|462:186,2,42.5,2|2|0,0:0|0:0|3:1,0:0:0:0:
397,138,27594,1,2,0:0:0:0:
464,89,27709,2,0,P|467:49|473:4,1,85,8|2,3:2|0:0,0:0:0:0:
330,85,27940,6,0,P|299:112|258:115,1,85,0|0,3:1|0:0,0:0:0:0:
247,109,28113,1,0,0:0:0:0:
249,99,28171,2,0,P|269:102|288:112,3,42.5,8|8|8|8,0:0|0:0|0:0|0:0,0:0:0:0:
184,19,28401,6,0,P|202:112|203:208,1,191.250007295609,8|0,0:0|0:0,0:0:0:0:
188,214,28632,2,0,P|163:182|165:140,1,85,8|0,0:0|0:0,0:0:0:0:
0,126,28863,6,0,P|41:116|83:110,1,85,4|2,3:1|0:0,0:0:0:0:
250,293,29094,2,0,P|201:245|91:252,2,170,8|2|10,3:2|3:2|3:2,0:0:0:0:
201,360,29671,1,0,0:0:0:0:
329,318,29786,6,0,L|343:208,1,85,2|0,3:2|0:0,0:0:0:0:
422,248,30017,2,0,L|436:138,1,85,8|0,3:2|0:0,0:0:0:0:
289,141,30248,1,0,3:1:0:0:
314,155,30363,2,0,L|323:70,1,85,2|8,0:0|3:2,0:0:0:0:
191,45,30594,6,0,P|221:45|264:-4,1,85,2|0,0:0|0:0,0:0:0:0:
123,90,30824,1,2,0:0:0:0:
143,112,30940,2,0,P|91:107|48:43,1,127.5,10|0,3:2|0:0,0:0:0:0:
39,60,31171,2,0,P|46:101|51:144,1,85,2|0,3:2|0:0,0:0:0:0:
105,280,31401,1,10,3:2:0:0:
24,266,31517,1,0,0:0:0:0:
99,246,31632,6,0,L|209:226,2,85,0|2|8,3:1|0:0|3:2,0:0:0:0:
219,157,31978,1,0,0:0:0:0:
287,198,32094,2,0,P|307:259|292:306,1,85,0|2,3:1|0:0,0:0:0:0:
281,369,32324,2,0,P|271:328|285:288,1,85,8|2,3:2|0:0,0:0:0:0:
376,183,32555,6,0,P|307:192|208:110,1,170,0|8,3:1|3:2,0:0:0:0:
428,123,32901,1,2,0:0:0:0:
385,195,33017,2,0,P|340:207|291:198,1,85,0|0,3:1|0:0,0:0:0:0:
207,66,33248,2,0,P|248:66|281:92,1,85,8|2,3:2|0:0,0:0:0:0:
390,210,33478,6,0,L|474:198,1,85,0|2,3:1|0:0,0:0:0:0:
413,351,33709,1,8,3:2:0:0:
361,289,33824,1,2,0:0:0:0:
279,313,33940,2,0,B|181:301|181:301|147:274,1,127.5,0|0,3:1|0:0,0:0:0:0:
147,294,34171,2,0,P|116:262|122:208,1,85,8|0,3:2|0:0,0:0:0:0:
255,84,34401,6,0,L|313:73,7,42.5,4|0|0|0|0|0|0|0,3:1|0:0|0:0|0:0|0:0|0:0|0:0|0:0,0:0:0:0:
167,49,34863,2,0,L|221:58,7,42.5,4|0|0|0|0|0|0|0,3:1|0:0|0:0|0:0|0:0|0:0|0:0|0:0,0:0:0:0:
87,89,35324,6,0,L|77:55,28,21.25,4|0|0|0|0|0|0|0|0|0|0|0|0|0|0|0|0|0|0|0|0|0|0|0|0|0|0|0|0,3:1|0:0|0:0|0:0|0:0|0:0|0:0|0:0|0:0|0:0|0:0|0:0|0:0|0:0|0:0|0:0|0:0|0:0|0:0|0:0|0:0|0:0|0:0|0:0|0:0|0:0|0:0|0:0|0:0,0:0:0:0:
56,313,36248,5,8,0:1:0:0:
129,333,36709,1,8,0:1:0:0:
56,313,37171,5,8,0:1:0:0:
129,333,37632,1,8,0:1:0:0:
56,313,38094,5,8,0:1:0:0:
129,333,38555,1,8,0:1:0:0:
56,313,39017,5,8,0:1:0:0:
129,332,39478,1,8,0:1:0:0:
129,332,39709,2,0,P|146:320|166:315,1,42.5
195,244,39940,6,0,L|186:198,2,42.5,8|0|0,0:1|0:0|0:0,0:0:0:0:
252,155,40286,1,0,0:0:0:0:
244,147,40401,2,0,L|250:92,2,42.5,8|0|0,0:1|0:0|0:0,0:0:0:0:
382,247,40863,5,8,0:1:0:0:
390,240,40978,2,0,P|373:225|338:221,1,42.5
282,249,41209,1,0,0:0:0:0:
432,165,41440,2,0,L|484:172,2,42.5
375,109,41786,5,8,0:1:0:0:
303,27,42017,1,0,0:0:0:0:
288,36,42132,1,0,0:0:0:0:
286,54,42248,1,8,0:1:0:0:
179,49,42478,1,0,0:0:0:0:
167,86,42594,1,0,0:0:0:0:
195,115,42709,5,8,0:1:0:0:
207,109,42824,2,0,L|203:169,1,42.5
128,192,43055,2,0,P|156:222|169:263,1,85
239,299,43401,2,0,L|291:287,1,42.5
429,347,43632,6,0,P|409:338|388:335,2,42.5,8|0|8,0:1|0:0|0:1,0:0:0:0:
325,225,44094,2,0,L|337:174,2,42.5,8|0|8,0:1|0:0|0:1,0:0:0:0:
173,98,44555,1,8,0:1:0:0:
185,105,44671,2,0,P|212:100|230:86,1,42.5,0|8,0:0|0:1,0:0:0:0:
442,41,45017,2,0,L|341:22,1,85,8|8,0:1|0:1,0:0:0:0:
300,75,45363,1,0,0:0:0:0:
397,113,45478,6,0,L|413:167,1,42.5,8|0,0:1|0:0,0:0:0:0:
303,191,45709,1,8,0:1:0:0:
314,200,45824,2,0,L|321:250,1,42.5,8|8,0:2|0:1,0:0:0:0:
205,250,46055,2,0,L|196:308,2,42.5,8|8|8,0:2|0:1|0:2,0:0:0:0:
145,197,46401,6,0,L|86:205,1,50.9999984436036,8|0,0:1|0:0,0:0:0:0:
286,258,46632,1,8,0:1:0:0:
275,269,46748,2,0,L|211:256,1,50.9999984436036,8|8,0:2|0:1,0:0:0:0:
351,381,46978,2,0,L|301:359,2,50.9999984436036,8|8|8,0:2|0:1|0:2,0:0:0:0:
443,259,47324,6,0,L|456:296,2,29.7499990921021,8|0|0,3:1|3:0|3:0,0:0:0:0:
431,130,47555,1,8,3:1:0:0:
443,125,47671,2,0,L|456:88,2,29.7499990921021,0|0|8,3:0|3:0|3:1,0:0:0:0:
355,203,47901,1,0,3:0:0:0:
365,193,48017,2,0,L|420:201,2,29.7499990921021,8|0|0,3:1|3:0|3:0,0:0:0:0:
262,167,48248,6,0,L|250:123,3,34,8|0|0|0,3:1|3:0|3:0|3:0,0:0:0:0:
184,95,48478,2,0,L|196:54,3,36.1250006890297,8|0|0|0,3:1|3:0|3:0|3:0,0:0:0:0:
195,213,48709,6,0,P|177:220|163:233,3,38.2499988327027,8|0|0|0,3:1|3:0|3:0|3:0,0:0:0:0:
106,180,48940,2,0,P|65:167|29:128,1,85,8|0,3:1|3:0,0:0:0:0:
249,310,49171,6,0,B|284:275|335:285|373:307|368:363|362:370|362:370|378:368|404:326|359:277|317:272|317:272|309:240|299:210|299:210|304:167|341:150|389:154|404:183|392:214,1,509.999984436036,8|0,3:1|0:0,0:0:0:0:
382,199,50555,6,0,L|340:191,1,42.5,8|0,0:1|0:0,0:0:0:0:
167,41,51017,6,0,B|106:33|106:33|65:65,2,113.333333333333,0|0|0,3:0|3:0|3:0,0:0:0:0:
73,76,51478,2,0,B|111:46|111:46|164:53,2,101.999996887207,0|0|0,3:0|3:0|3:0,0:0:0:0:
163,239,51940,6,0,L|145:140,2,90.6666666666667,0|0|0,3:0|3:0|3:0,0:0:0:0:
180,154,52401,2,0,L|176:237,2,79.3333309122722,0|0|0,3:0|3:0|3:0,0:0:0:0:
140,337,52863,6,0,P|112:317|78:314,2,67.9999979248048,0|0|0,3:0|3:0|3:0,0:0:0:0:
67,300,53324,2,0,P|40:306|19:324,2,56.6666666666667,0|0|0,3:0|3:0|3:0,0:0:0:0:
218,352,53786,5,0,3:0:0:0:
294,340,53940,1,0,3:0:0:0:
370,327,54094,1,0,3:0:0:0:
290,353,54248,6,0,B|296:298|296:298|299:296|299:296|305:241,1,113.333333333333,0|0,3:0|0:0,0:0:0:0:
421,40,54709,6,0,L|447:32,30,21.25,6|0|0|0|0|0|0|0|0|0|0|0|0|0|0|0|0|0|0|0|0|0|0|0|0|0|0|0|0|0|0,3:2|0:0|0:0|0:0|0:0|0:0|0:0|0:0|0:0|0:0|0:0|0:0|0:0|0:0|0:0|0:0|0:0|0:0|0:0|0:0|0:0|0:0|0:0|0:0|0:0|0:0|0:0|0:0|0:0|0:0|0:0,0:0:0:0:
362,91,55632,6,0,L|275:76,2,85,2|0|0,3:0|3:0|3:0,0:0:0:0:
285,215,55978,1,0,3:0:0:0:
210,189,56094,6,0,P|181:151|175:94,2,85,2|0|0,3:0|3:0|3:0,0:0:0:0:
136,328,56440,1,0,3:0:0:0:
136,328,56498,1,0,3:0:0:0:
136,328,56555,6,0,P|139:290|147:243,2,85,2|0|0,3:0|3:0|3:0,0:0:0:0:
227,268,56901,1,0,3:0:0:0:
101,173,57017,6,0,P|66:149|24:147,1,85,2|0,3:0|3:0,0:0:0:0:
97,38,57248,2,0,L|107:97,3,42.5,0|0|0|0,3:0|3:0|3:0|3:0,0:0:0:0:
116,29,57478,6,0,L|109:124,2,85,2|0|0,3:0|3:0|3:0,0:0:0:0:
232,100,57824,1,0,3:0:0:0:
232,100,57882,1,0,3:0:0:0:
232,100,57940,6,0,L|169:109,4,42.5,2|0|0|0|0,3:0|3:0|3:0|3:0|3:0,0:0:0:0:
342,147,58286,2,0,L|347:116,2,21.25,0|0|0,3:0|3:0|3:0,0:0:0:0:
312,53,58401,6,0,P|325:201|332:334,1,267.749991828919,6|0,3:1|0:0,0:0:0:0:
323,328,58863,6,0,B|226:263|304:179|356:194|404:119|360:48|306:52,1,327.250009986878,6|0,3:1|0:0,0:0:0:0:
242,20,59324,6,0,L|142:38,2,85,2|0|0,3:3|3:0|3:0,0:0:0:0:
118,109,59671,1,0,3:0:0:0:
179,197,59786,6,0,P|187:151|214:111,2,85,2|0|0,3:0|3:0|3:0,0:0:0:0:
315,256,60132,1,0,3:0:0:0:
315,256,60190,1,0,3:0:0:0:
315,256,60248,6,0,P|294:214|250:201,2,85,2|0|0,3:0|3:0|3:0,0:0:0:0:
271,355,60594,1,0,3:0:0:0:
403,371,60709,6,0,P|395:329|390:286,1,85,2|0,3:0|3:0,0:0:0:0:
458,174,60940,2,0,P|456:196|450:217,3,42.5,0|0|0|0,3:0|3:0|3:0|3:0,0:0:0:0:
427,151,61171,6,0,P|464:146|503:104,2,85,2|0|0,3:0|3:0|3:0,0:0:0:0:
333,100,61517,1,0,3:0:0:0:
333,100,61574,1,0,3:0:0:0:
333,100,61632,6,0,L|385:91,4,42.5,2|0|0|0|0,3:0|3:0|3:0|3:0|3:0,0:0:0:0:
216,175,61978,2,0,L|209:140,2,21.25,0|0|0,3:0|3:0|0:0,0:0:0:0:
259,242,62094,6,0,B|201:177|90:203|90:203|129:173|132:132,3,255.000009727478,4|4|4|4,3:2|3:2|3:2|3:2,0:0:0:0:
111,136,63017,6,0,P|126:183|130:233,2,85,2|0|0,3:0|3:0|3:0,0:0:0:0:
89,290,63363,1,0,3:0:0:0:
203,356,63478,6,0,P|208:336|231:305,4,42.5,2|0|0|0|0,3:0|3:0|3:0|3:0|3:0,0:0:0:0:
332,266,63824,1,0,3:0:0:0:
332,266,63882,1,0,3:0:0:0:
332,266,63940,6,0,L|273:274,2,42.5,2|0|0,3:0|3:0|3:0,0:0:0:0:
280,182,64171,2,0,P|246:156|204:156,1,85,0|0,3:0|3:0,0:0:0:0:
78,216,64401,5,2,3:0:0:0:
87,202,64517,2,0,L|83:181,4,21.25,0|0|0|0|0,3:0|3:0|3:0|3:0|3:0,0:0:0:0:
16,137,64748,1,0,3:0:0:0:
111,73,64863,6,0,L|118:16,3,42.5,2|0|0|0,3:0|3:0|3:0|3:0,0:0:0:0:
155,141,65094,2,0,L|147:93,3,42.5,0|0|0|0,3:0|3:0|3:0|3:0,0:0:0:0:
98,210,65324,6,0,L|74:216,6,21.25,2|0|0|0|0|0|0,3:0|3:0|3:0|3:0|3:0|3:0|3:0,0:0:0:0:
165,251,65555,2,0,L|185:256,6,21.25,0|0|0|0|0|0|0,3:0|3:0|3:0|3:0|3:0|3:0|3:0,0:0:0:0:
130,322,65786,5,6,3:1:0:0:
256,192,67632,12,2,69017,0:0:0:0:
421,38,69478,6,0,P|404:121|398:205,2,170,4|8|0,3:1|3:2|3:1,0:0:0:0:
496,81,70055,1,2,0:0:0:0:
370,107,70171,2,0,P|339:72|337:27,1,85,8|0,3:2|0:0,0:0:0:0:
479,227,70401,5,0,3:1:0:0:
495,241,70517,2,0,P|511:295|513:338,1,85,2|8,0:0|3:2,0:0:0:0:
357,343,70748,1,2,0:0:0:0:
428,309,70863,2,0,P|369:296|301:283,1,127.5,0|0,3:1|0:0,0:0:0:0:
296,271,71094,2,0,L|379:288,1,85,10|0,3:2|0:0,0:0:0:0:
238,197,71324,6,0,P|196:196|165:223,1,85,0|0,3:1|0:0,0:0:0:0:
99,285,71555,2,0,P|112:326|118:368,1,85,8|2,3:2|0:0,0:0:0:0:
176,230,71786,2,0,P|204:193|181:113,1,127.5,0|0,3:1|0:0,0:0:0:0:
174,125,72017,1,8,3:2:0:0:
97,75,72132,2,0,P|181:88|265:98,1,170,2|0,0:0|0:0,0:0:0:0:
94,157,72478,6,0,B|30:175|30:175|48:176,1,85,10|0,3:2|0:0,0:0:0:0:
176,42,72709,2,0,L|169:-17,2,42.5,2|0|0,3:2|0:0|0:0,0:0:0:0:
277,138,72940,2,0,B|377:158|377:158|341:130,1,127.5,10|0,3:2|0:0,0:0:0:0:
344,133,73171,6,0,P|340:175|333:217,1,85,2|0,3:2|0:0,0:0:0:0:
475,291,73401,2,0,P|442:248|391:242,1,85,10|0,3:2|0:0,0:0:0:0:
264,268,73632,2,0,P|271:309|277:351,1,85,2|0,3:2|0:0,0:0:0:0:
450,308,73863,2,0,P|411:292|372:307,1,85,10|0,3:2|0:0,0:0:0:0:
196,368,74094,5,0,3:1:0:0:
124,332,74209,2,0,B|134:281|134:281|154:272|154:272|165:219,1,127.5,2|0,0:0|0:0,0:0:0:0:
155,228,74440,1,2,0:0:0:0:
53,277,74555,2,0,P|47:234|38:193,1,85,0|0,3:1|0:0,0:0:0:0:
165,53,74786,2,0,B|177:96|177:96|154:129,1,85,8|0,3:2|0:0,0:0:0:0:
154,130,75017,6,0,B|132:60|29:51|-61:109|-58:205|77:260|82:134|37:87,1,340,2|0,3:1|0:0,0:0:0:0:
54,117,75709,2,0,P|45:69|41:22,1,95.6250036478044,8|0,0:1|0:0,0:0:0:0:
50,29,75940,6,0,P|92:24|125:49,1,85,4|0,3:1|0:0,0:0:0:0:
237,78,76171,2,0,P|278:70|320:62,1,85,8|0,3:2|0:0,0:0:0:0:
197,8,76401,2,0,P|161:59|170:121,1,127.5,0|0,3:1|0:0,0:0:0:0:
182,133,76632,1,8,3:2:0:0:
119,190,76748,1,0,0:0:0:0:
267,241,76863,5,0,3:1:0:0:
267,241,76978,2,0,P|260:198|256:156,1,85,0|8,0:0|3:2,0:0:0:0:
328,292,77209,2,0,P|369:304|396:336,1,85,2|0,0:0|3:1,0:0:0:0:
512,270,77440,2,0,P|471:258|444:226,1,85,2|8,0:0|3:2,0:0:0:0:
409,326,77671,1,2,0:0:0:0:
316,302,77786,6,0,P|273:304|231:311,1,85,0|0,3:1|0:0,0:0:0:0:
63,354,78017,1,10,3:2:0:0:
74,279,78132,1,0,0:0:0:0:
149,303,78248,2,0,P|151:260|157:218,1,85,0|0,3:1|0:0,0:0:0:0:
9,67,78478,5,8,3:2:0:0:
23,173,78594,1,0,0:0:0:0:
130,142,78709,2,0,B|185:131|219:166|219:166|216:146|204:136,1,127.5,0|0,3:1|0:0,0:0:0:0:
203,127,78940,1,8,3:2:0:0:
162,52,79055,2,0,P|120:58|83:79,1,85,2|0,0:0|0:0,0:0:0:0:
262,57,79286,2,0,P|225:36|183:32,2,85,2|8|0,0:0|3:2|0:0,0:0:0:0:
479,187,79632,6,0,B|442:144|442:144|457:89,2,113.333333333333,4|0|0,3:1|0:0|0:0,0:0:0:0:
379,82,80094,2,0,B|357:164|357:164|412:228,1,170,4|0,3:2|0:0,0:0:0:0:
356,293,80440,1,2,0:0:0:0:
356,293,80555,6,0,P|319:274|277:268,1,85,4|0,3:2|0:0,0:0:0:0:
353,373,80786,2,0,P|389:376|426:330,1,85,8|2,3:2|0:0,0:0:0:0:
266,251,81017,2,0,P|201:248|165:298,1,127.5,4|2,3:2|0:0,0:0:0:0:
178,307,81248,1,8,3:2:0:0:
92,349,81363,1,2,0:0:0:0:
53,254,81478,6,0,P|51:232|46:213,15,42.5,4|0|0|0|0|0|0|0|2|0|2|0|2|0|2|0,3:1|0:0|0:0|0:0|0:0|0:0|0:0|0:0|0:0|0:0|0:0|0:0|0:0|0:0|0:0|0:0,0:0:0:0:
84,147,82401,6,0,P|147:175|156:243,1,127.5,8|0,3:2|0:0,0:0:0:0:
164,233,82632,6,0,P|192:173|154:117,1,140.25000428009,8|0,3:2|0:0,0:0:0:0:
229,126,82863,6,0,P|227:199|165:239,1,152.999995330811,8|0,3:2|0:0,0:0:0:0:
165,246,83094,6,0,P|244:243|290:178,1,165.749992412568,8|0,3:2|0:0,0:0:0:0:
267,57,83324,6,0,L|247:328,1,272,0|8,3:0|0:0,0:0:0:0:
347,104,84248,2,0,L|332:307,1,204,0|0,3:0|0:0,0:0:0:0:
416,285,84709,2,0,L|425:150,1,136,8|0,0:0|0:0,0:0:0:0:
425,150,85171,6,0,B|320:95|221:180|273:223|170:399|4:394|11:191|98:91|185:101|232:306|243:268|298:339|364:297,1,680,0|0,3:0|0:0,0:0:0:0:
394,245,86324,5,0,0:0:0:0:
390,225,86440,1,0,0:0:0:0:
372,239,86555,6,0,P|393:236|414:234,7,42.5
462,300,87017,6,0,P|492:271|496:230,1,85,4|0,3:1|0:0,0:0:0:0:
424,149,87248,2,0,P|410:110|375:89,1,85,0|0,3:0|0:0,0:0:0:0:
284,125,87478,2,0,P|246:106|205:114,1,85,0|0,3:0|0:0,0:0:0:0:
111,61,87709,2,0,P|122:123|125:187,1,127.5,0|0,3:0|0:0,0:0:0:0:
117,200,87940,6,0,P|79:185|64:147,1,85,0|0,3:0|0:0,0:0:0:0:
227,204,88171,2,0,P|218:245|175:263,1,85,0|0,3:0|0:0,0:0:0:0:
205,114,88401,2,0,P|247:110|289:103,1,85,0|0,3:0|0:0,0:0:0:0:
355,35,88632,1,0,0:0:0:0:
343,26,88863,6,0,P|328:109|319:194,1,170,0|0,3:0|3:0,0:0:0:0:
393,249,89209,1,0,0:0:0:0:
360,337,89324,2,0,P|329:307|288:300,1,85,0|0,3:0|0:0,0:0:0:0:
155,261,89555,2,0,P|195:253|221:220,1,85,0|0,3:0|0:0,0:0:0:0:
162,133,89786,6,0,P|120:140|77:145,1,85,0|0,3:0|0:0,0:0:0:0:
68,137,89959,1,0,0:0:0:0:
73,125,90017,2,0,P|102:130|119:159,3,42.5,8|8|8|8,0:0|0:0|0:0|0:0,0:0:0:0:
31,210,90248,2,0,L|45:316,1,85,8|8,0:0|0:0,0:0:0:0:
9,65,90478,1,8,0:0:0:0:
14,54,90709,5,4,3:1:0:0:
99,30,90824,1,0,0:0:0:0:
167,87,90940,2,0,P|204:86|248:32,1,85,8|0,3:2|0:0,0:0:0:0:
398,129,91171,2,0,B|302:107|302:107|323:128,1,127.5,0|0,3:1|0:0,0:0:0:0:
332,137,91401,6,0,L|326:94,1,42.5,2|0,0:0|0:0,0:0:0:0:
249,232,91632,5,0,3:1:0:0:
331,274,91748,2,0,P|299:246|258:240,1,85,0|8,0:0|3:2,0:0:0:0:
168,199,91978,2,0,L|49:225,1,85,0|8,0:0|2:2,0:0:0:0:
153,289,92171,5,2,2:2:0:0:
153,289,92248,2,0,L|168:209,3,56.6666666666667,8|8|2|8,2:2|2:2|2:2|2:2,0:0:0:0:
107,133,92555,5,0,3:1:0:0:
192,109,92671,1,0,0:0:0:0:
113,117,92786,2,0,P|105:83|100:32,1,85,8|0,3:2|0:0,0:0:0:0:
255,57,93017,5,0,3:1:0:0:
237,176,93132,1,0,0:0:0:0:
318,166,93248,2,0,P|328:124|329:82,1,85,8|0,3:2|0:0,0:0:0:0:
511,157,93478,6,0,B|435:128|372:202|412:200|353:277|267:232,1,255,0|0,3:1|0:0,0:0:0:0:
279,248,94401,6,0,P|214:211|130:239,1,127.5,4|0,3:1|0:0,0:0:0:0:
151,212,94632,2,0,L|163:312,1,85,8|0,3:2|0:0,0:0:0:0:
84,169,94863,2,0,B|97:84|97:84|146:55,1,127.5,0|0,3:1|0:0,0:0:0:0:
140,73,95094,2,0,P|87:72|56:36,1,85,8|0,3:2|0:0,0:0:0:0:
211,24,95324,5,4,3:1:0:0:
276,68,95440,1,0,0:0:0:0:
351,57,95555,1,8,3:2:0:0:
411,107,95671,2,0,P|420:190|433:275,1,170
374,329,96017,2,0,P|326:334|287:368,1,85,8|0,3:2|0:0,0:0:0:0:
274,230,96248,6,0,P|281:188|290:146,1,85,4|0,3:2|0:0,0:0:0:0:
194,258,96478,1,8,3:2:0:0:
206,287,96594,1,0,0:0:0:0:
208,143,96709,6,0,P|198:101|187:60,1,85,4|0,3:2|0:0,0:0:0:0:
40,144,96940,2,0,P|81:134|123:127,1,85,8|0,3:2|0:0,0:0:0:0:
271,37,97171,6,0,B|228:44|228:44|188:15,2,85,4|0|0,3:1|0:0|0:0,0:0:0:0:
348,2,97517,1,0,0:0:0:0:
254,214,97748,5,0,0:0:0:0:
242,205,97863,2,0,L|251:289,1,63.7500024318696
205,335,98094,6,0,P|164:323|122:313,1,85,4|0,3:1|0:0,0:0:0:0:
312,322,98324,2,0,P|274:343|238:365,1,85,8|0,3:2|0:0,0:0:0:0:
379,238,98555,2,0,P|367:278|356:320,1,85,0|0,3:1|0:0,0:0:0:0:
366,130,98786,1,8,3:2:0:0:
366,130,99017,5,0,3:1:0:0:
294,166,99132,2,0,P|328:142|370:140,1,85,0|8,0:0|3:2,0:0:0:0:
243,100,99363,2,0,P|221:64|182:50,1,85,0|0,0:0|3:0,0:0:0:0:
130,125,99594,1,0,0:0:0:0:
38,111,99709,2,0,P|48:153|53:195,1,85,8|0,3:2|0:0,0:0:0:0:
87,307,99940,6,0,P|34:293|18:251,1,85,0|0,3:1|0:0,0:0:0:0:
132,232,100171,1,8,3:2:0:0:
214,246,100286,1,0,0:0:0:0:
138,214,100401,2,0,P|141:152|193:120,1,127.5,0|0,3:1|0:0,0:0:0:0:
205,130,100632,2,0,L|289:122,1,85,8|0,3:2|0:0,0:0:0:0:
447,193,100863,5,0,3:1:0:0:
427,208,100978,2,0,P|378:202|351:172,1,85,0|8,0:0|3:2,0:0:0:0:
470,107,101209,1,0,0:0:0:0:
470,107,101324,2,0,P|471:191|488:274,1,170,0|8,3:1|3:2,0:0:0:0:
431,336,101671,1,0,0:0:0:0:
316,291,101786,6,0,L|420:311,1,85,0|0,3:1|0:0,0:0:0:0:
213,345,102017,1,8,3:2:0:0:
213,345,102248,2,0,P|257:345|303:305,1,85,0|0,3:1|0:0,0:0:0:0:
241,239,102478,1,8,3:2:0:0:
298,183,102594,2,0,L|284:60,1,85
228,40,102824,5,0,0:0:0:0:
304,54,102940,1,8,3:2:0:0:
371,13,103055,1,0,0:0:0:0:
218,52,103171,2,0,P|131:66|50:82,1,170,0|8,3:1|3:2,0:0:0:0:
130,116,103517,1,0,0:0:0:0:
61,220,103632,6,0,P|26:196|17:155,1,85,0|0,3:1|0:0,0:0:0:0:
153,215,103863,1,8,3:2:0:0:
144,234,103978,2,0,P|106:251|65:243,1,85,0|0,0:0|3:1,0:0:0:0:
205,152,104209,1,0,0:0:0:0:
267,201,104324,1,8,3:2:0:0:
339,174,104440,2,0,P|345:134|355:90,1,85
287,46,104671,5,0,0:0:0:0:
436,90,104786,2,0,L|482:79,4,42.5,8|8|8|8|8,0:0|0:0|0:0|0:0|0:0,0:0:0:0:
377,142,105132,1,0,0:0:0:0:
352,217,105248,1,8,0:0:0:0:
364,295,105363,1,0,0:0:0:0:
357,304,105478,6,0,B|302:291|302:291|319:320,1,85,4|0,3:2|0:0,0:0:0:0:
483,291,105940,6,0,P|398:301|314:314,2,170,4|8|0,3:1|3:2|3:1,0:0:0:0:
428,219,106517,1,0,0:0:0:0:
420,346,106632,2,0,P|452:371|515:365,1,85,8|0,3:2|0:0,0:0:0:0:
414,209,106863,2,0,P|371:213|329:221,1,85,2|0,3:2|0:0,0:0:0:0:
258,178,107094,1,8,3:2:0:0:
258,178,107324,6,0,P|311:185|379:209,1,85,0|2,3:1|0:0,0:0:0:0:
260,263,107555,1,8,3:2:0:0:
180,220,107671,2,0,L|160:111,1,85,2|0,0:0|0:0,0:0:0:0:
114,275,107901,2,0,L|97:359,1,85,2|8,0:0|3:2,0:0:0:0:
70,188,108132,6,0,P|58:104|46:20,1,170,2|2,0:0|0:0,0:0:0:0:
172,34,108478,1,8,3:2:0:0:
164,136,108594,1,2,0:0:0:0:
155,239,108709,2,0,P|183:242|243:190,1,85,2|0,3:2|0:0,0:0:0:0:
365,135,108940,1,10,3:2:0:0:
365,135,109171,6,0,L|264:156,1,85,0|0,3:1|0:0,0:0:0:0:
244,84,109401,2,0,P|248:41|255:0,1,85,8|2,3:2|0:0,0:0:0:0:
449,39,109632,2,0,P|391:27|379:125,1,170,0|8,3:1|3:2,0:0:0:0:
418,313,110094,6,0,L|334:298,1,85,0|0,3:1|0:0,0:0:0:0:
258,335,110324,1,8,3:2:0:0:
167,325,110440,1,2,0:0:0:0:
249,351,110555,2,0,P|245:292|234:224,1,127.5,0|0,3:1|0:0,0:0:0:0:
301,188,110786,2,0,P|275:155|234:147,1,85,8|0,3:2|0:0,0:0:0:0:
129,60,111017,6,0,L|189:50,7,42.5,4|0|0|0|0|0|0|0,3:2|0:0|0:0|0:0|0:0|0:0|0:0|0:0,0:0:0:0:
254,26,111478,2,0,L|191:14,7,42.5,4|0|0|0|0|0|0|0,3:2|0:0|0:0|0:0|0:0|0:0|0:0|0:0,0:0:0:0:
339,73,111940,6,0,L|334:39,28,21.25,4|0|0|0|0|0|0|0|0|0|0|0|0|0|0|0|0|0|0|0|0|0|0|0|0|0|0|0|0,3:1|0:0|0:0|0:0|0:0|0:0|0:0|0:0|0:0|0:0|0:0|0:0|0:0|0:0|0:0|0:0|0:0|0:0|0:0|0:0|0:0|0:0|0:0|0:0|0:0|0:0|0:0|0:0|0:0,0:0:0:0:
367,264,112863,5,2,0:0:0:0:
256,192,121171,12,0,123709,3:0:0:0:
174,372,123940,6,0,L|172:325,7,42.5,8|0|0|0|8|0|0|0,3:1|3:0|3:0|3:0|3:1|3:0|3:0|3:0,0:0:0:0:
250,333,124401,2,0,L|251:271,7,42.5,8|0|0|0|8|0|0|0,3:1|3:0|3:0|3:0|3:1|3:0|3:0|3:0,0:0:0:0:
335,264,124863,6,0,L|338:218,3,42.5,8|0|0|0,3:1|3:0|3:0|3:0,0:0:0:0:
300,215,125094,2,0,L|297:158,3,42.5,8|0|0|0,3:1|3:0|3:0|3:0,0:0:0:0:
189,189,125324,6,0,L|182:133,3,42.5,8|0|0|0,3:1|3:0|3:0|3:0,3:0:0:0:
217,134,125555,2,0,L|223:61,3,42.5,8|0|0|0,3:1|3:0|3:0|3:0,3:0:0:0:
254,20,125786,5,8,3:1:0:0:
481,243,127171,2,2,L|485:214,1,29.75,2|0,0:1|0:1,0:1:0:0:
486,214,127632,6,0,P|473:215|461:218,28,25.4999992218018,6|0|0|0|0|0|0|0|0|0|0|0|0|0|0|0|0|0|0|0|0|0|0|0|0|0|0|0|0,3:2|3:0|3:0|3:0|3:0|3:0|3:0|3:0|3:0|3:0|3:0|3:0|3:0|3:0|3:0|3:0|3:0|3:0|3:0|3:0|3:0|3:0|3:0|3:0|3:0|3:0|3:0|3:0|3:0,0:0:0:0:
383,247,128555,6,0,P|384:208|393:162,2,85,2|0|0,3:0|3:0|3:0,0:0:0:0:
308,342,128901,1,0,3:0:0:0:
200,294,129017,6,0,P|231:294|277:253,2,85,2|0|0,3:0|3:0|3:0,0:0:0:0:
191,167,129363,1,0,3:0:0:0:
191,167,129421,1,0,3:0:0:0:
191,167,129478,6,0,P|201:205|203:226,4,42.5,2|0|0|0|0,3:0|3:0|3:0|3:0|3:0,0:0:0:0:
108,64,129824,1,0,3:0:0:0:
201,78,129940,6,0,L|112:53,1,85,2|0,3:0|3:0,0:0:0:0:
23,142,130171,2,0,P|42:133|63:131,3,42.5,0|0|0|0,3:0|3:0|3:0|3:0,0:0:0:0:
115,193,130401,6,0,P|99:230|99:274,2,85,2|0|0,3:0|3:0|3:0,0:0:0:0:
262,146,130748,1,0,3:0:0:0:
262,146,130805,1,0,3:0:0:0:
262,146,130863,6,0,L|247:54,2,85,2|0|0,3:0|3:0|3:0,0:0:0:0:
182,249,131209,2,0,L|212:255,2,21.25,0|0|0,3:0|3:0|3:0,0:0:0:0:
111,286,131324,6,0,P|243:269|376:250,1,267.749991828919,6|0,3:1|0:0,0:0:0:0:
386,265,131786,6,0,B|319:196|208:270|276:282|159:367|90:287,1,327.250009986878,6|0,3:1|0:0,0:0:0:0:
48,225,132248,6,0,P|47:205|53:182,4,42.5,2|0|0|0|0,3:0|3:0|3:0|3:0|3:0,0:0:0:0:
187,148,132594,1,0,3:0:0:0:
124,76,132709,6,0,L|31:51,2,85,2|0|0,3:0|3:0|3:0,0:0:0:0:
271,10,133055,1,0,3:0:0:0:
271,10,133113,1,0,3:0:0:0:
271,10,133171,6,0,P|214:17|183:48,2,85,2|0|0,3:0|3:0|3:0,0:0:0:0:
380,76,133517,2,0,L|387:39,2,28.3333333333333,0|0|0,3:0|3:0|3:0,0:0:0:0:
326,139,133632,6,0,L|343:228,1,85,2|0,3:0|3:0,0:0:0:0:
258,339,133863,2,0,P|260:319|270:296,2,42.5,0|0|0,3:0|3:0|3:0,0:0:0:0:
358,337,134094,6,0,L|337:342,8,21.25,2|0|0|0|0|0|0|0|0,3:0|3:0|3:0|3:0|3:0|3:0|3:0|3:0|3:0,0:0:0:0:
465,186,134440,1,0,3:0:0:0:
465,186,134498,1,0,3:0:0:0:
466,186,134555,6,0,P|471:166|471:145,4,42.5,2|0|0|0|0,3:0|3:0|3:0|3:0|3:0,0:0:0:0:
296,169,134901,2,0,L|261:178,2,21.25,0|0|0,3:0|3:0|3:0,0:0:0:0:
369,209,135017,6,0,B|378:152|378:152|241:127|241:127|252:60,3,255.000009727478,6|6|6|6,3:2|3:2|3:2|3:2,0:0:0:0:
111,333,135940,6,0,L|97:283,4,42.5,2|0|0|0|0,3:0|3:0|3:0|3:0|3:0,0:0:0:0:
181,220,136286,1,0,3:0:0:0:
265,328,136401,6,0,P|236:313|216:312,4,42.5,2|0|0|0|0,3:0|3:0|3:0|3:0|3:0,0:0:0:0:
356,272,136748,1,0,3:0:0:0:
300,207,136863,6,0,P|263:230|221:233,1,85,2|0,3:0|3:0,0:0:0:0:
374,355,137094,2,0,L|382:305,2,42.5,0|0|0,3:0|3:0|3:0,0:0:0:0:
464,254,137324,5,2,3:0:0:0:
445,239,137440,2,0,L|437:193,2,42.5,0|0|0,3:0|3:0|3:0,0:0:0:0:
490,127,137671,1,0,3:0:0:0:
411,82,137786,6,0,P|391:89|370:90,3,42.5,2|0|0|0,3:0|3:0|3:0|3:0,0:0:0:0:
293,107,138017,2,0,P|318:117|351:115,3,42.5,0|0|0|0,3:0|3:0|3:0|3:0,0:0:0:0:
222,56,138248,6,0,L|215:20,6,21.25,2|0|0|0|0|0|0,3:0|3:0|3:0|3:0|3:0|3:0|3:0,0:0:0:0:
223,163,138478,2,0,L|217:197,6,21.25,0|0|0|0|0|0|0,3:0|3:0|3:0|3:0|3:0|3:0|3:0,0:0:0:0:
158,112,138709,5,6,3:1:0:0:
256,192,140555,12,2,141940,0:0:0:0:
256,264,142401,5,4,3:0:0:0:
257,29,142632,1,0,3:0:0:0:
178,66,142863,2,0,P|160:57|139:53,2,42.5,0|0|0,3:0|3:0|3:0,0:0:0:0:
259,135,143324,5,0,3:0:0:0:
272,126,143440,2,0,P|301:115|333:113,1,63.7500024318696,0|0,3:0|3:0,0:0:0:0:
400,163,143671,1,0,3:0:0:0:
400,163,143786,2,0,P|400:195|374:226,1,63.7500024318696,0|0,3:0|3:0,0:0:0:0:
331,340,144017,2,0,P|326:305|320:277,1,63.7500024318696,0|0,3:0|3:0,0:0:0:0:
250,374,144248,6,0,L|198:364,3,42.5,0|0|0|0,3:0|3:0|3:0|3:0,0:0:0:0:
163,305,144478,2,0,L|109:320,3,42.5,0|0|0|0,3:0|3:0|3:0|3:0,0:0:0:0:
211,239,144709,2,0,L|219:188,3,42.5,0|0|0|0,3:0|3:0|3:0|3:0,0:0:0:0:
162,143,144940,2,0,L|150:87,3,42.5,0|0|0|0,3:0|3:0|3:0|3:0,0:0:0:0:
81,51,145171,6,0,P|60:50|42:61,11,42.5,2|0|0|0|2|0|0|0|2|0|0|0,3:3|3:0|3:0|3:0|3:0|3:0|3:0|3:0|3:0|3:0|3:0|3:0,0:0:0:0:
32,157,145863,6,0,P|16:70|99:40,1,191.250007295609,10|0,3:2|0:0,0:0:0:0:
155,88,146094,6,0,P|148:129|145:172,1,85,6|0,3:1|0:0,0:0:0:0:
60,283,146324,1,10,3:2:0:0:
133,317,146440,1,0,0:0:0:0:
185,254,146555,2,0,P|233:232|271:242,1,85,2|0,3:2|0:0,0:0:0:0:
437,303,146786,2,0,B|357:284|357:284|319:326,1,127.5,10|0,3:2|0:0,0:0:0:0:
335,326,147017,5,0,3:1:0:0:
379,246,147132,2,0,P|375:203|369:161,1,85,2|8,0:0|0:0,0:0:0:0:
301,63,147363,1,2,0:0:0:0:
388,75,147478,2,0,B|312:61|320:137|218:123,1,170,0|8,3:1|3:2,0:0:0:0:
197,201,147824,1,0,0:0:0:0:
86,165,147940,6,0,P|129:173|168:183,1,85,2|0,3:1|0:0,0:0:0:0:
145,79,148171,1,0,0:0:0:0:
152,92,148286,2,0,P|131:174|113:257,1,170
221,324,148632,6,0,B|237:296|271:301|271:301|234:312|219:349,1,127.5,8|0,0:1|0:0,0:0:0:0:
220,344,148863,6,0,P|267:339|310:233,1,170,4|10,3:1|3:2,0:0:0:0:
225,178,149209,1,0,0:0:0:0:
157,257,149324,2,0,P|115:264|73:274,1,85,0|0,3:1|0:0,0:0:0:0:
237,167,149555,2,0,P|243:128|254:83,1,85,10|0,3:2|0:0,0:0:0:0:
186,37,149786,5,0,3:1:0:0:
297,6,149901,2,0,P|326:16|341:68,1,85,0|8,0:0|3:2,0:0:0:0:
407,121,150132,2,0,P|387:182|377:245,1,127.5,2|0,0:0|0:0,0:0:0:0:
370,253,150363,1,2,0:0:0:0:
470,318,150478,2,0,B|481:275|481:275|457:241,1,85,8|2,3:2|0:0,0:0:0:0:
316,312,150709,6,0,L|216:329,1,85,0|0,3:1|0:0,0:0:0:0:
236,209,150940,2,0,L|152:192,1,85,8|2,3:2|0:0,0:0:0:0:
113,270,151171,2,0,P|104:206|89:144,1,127.5,0|0,3:1|0:0,0:0:0:0:
98,134,151401,1,8,3:2:0:0:
149,57,151517,1,2,0:0:0:0:
60,41,151632,6,0,P|19:49|0:85,1,85,0|0,3:1|0:0,0:0:0:0:
201,122,151863,1,8,3:2:0:0:
202,219,151978,2,0,L|192:134,1,85,2|0,0:0|3:1,0:0:0:0:
273,270,152209,2,0,L|261:354,2,85,2|10|0,0:0|3:2|0:0,0:0:0:0:
136,370,152555,6,0,B|88:336|88:336|18:348,2,113.333333333333,4|0|0,3:1|0:0|0:0,0:0:0:0:
23,270,153017,2,0,B|107:255|107:255|176:303,1,170,4|8,3:2|3:2,0:0:0:0:
225,210,153363,1,2,0:0:0:0:
202,196,153478,6,0,P|200:154|186:114,1,85,4|0,3:2|0:0,0:0:0:0:
38,96,153709,2,0,P|66:126|107:134,1,85,8|2,3:2|0:0,0:0:0:0:
172,35,153940,2,0,P|236:24|298:16,1,127.5,4|2,3:2|0:0,0:0:0:0:
315,29,154171,1,8,3:2:0:0:
291,126,154286,1,2,0:0:0:0:
394,145,154401,6,0,L|464:131,15,42.5,0|0|0|0|0|0|0|0|2|0|2|0|2|0|2|0,3:1|0:0|0:0|0:0|0:0|0:0|0:0|0:0|0:0|0:0|0:0|0:0|0:0|0:0|0:0|0:0,0:0:0:0:
457,213,155324,6,0,P|396:198|331:190,1,127.5,8|0,3:2|0:0,0:0:0:0:
321,202,155555,6,0,P|390:209|458:226,1,140.25000428009,8|0,3:2|0:0,0:0:0:0:
460,243,155786,6,0,P|386:223|310:214,1,152.999995330811,8|0,3:2|0:0,0:0:0:0:
302,228,156017,6,0,P|384:237|464:259,1,165.749992412568,8|0,3:2|0:0,0:0:0:0:
508,328,156248,5,8,3:2:0:0:
228,188,156478,2,0,B|189:145|231:90|231:90|272:119|318:120,2,170,2|2|2,0:0|0:0|0:0,0:0:0:0:
228,188,157171,6,0,P|186:188|155:216,1,85,6|0,3:1|0:0,0:0:0:0:
44,103,157401,2,0,B|87:100|126:133|126:133|113:103|82:94,1,127.5,10|0,3:2|0:0,0:0:0:0:
94,98,157632,2,0,L|79:-1,1,85,0|2,3:1|0:0,0:0:0:0:
2,181,157863,1,8,3:2:0:0:
68,235,157978,6,0,P|109:244|151:248,1,85,0|0,0:0|3:1,0:0:0:0:
80,349,158209,2,0,P|120:334|161:324,1,85,2|8,0:0|3:2,0:0:0:0:
324,306,158440,1,2,0:0:0:0:
286,376,158555,2,0,P|251:344|246:295,1,85,0|0,3:1|0:0,0:0:0:0:
308,229,158786,2,0,P|318:166|322:102,1,127.5,10|0,3:2|0:0,0:0:0:0:
313,94,159017,6,0,L|230:112,1,85,0|0,3:1|0:0,0:0:0:0:
362,30,159248,1,8,3:2:0:0:
451,74,159363,1,2,0:0:0:0:
378,20,159478,2,0,P|355:81|371:129,1,85,0|0,3:1|0:0,0:0:0:0:
472,195,159709,1,8,3:2:0:0:
448,271,159824,2,0,P|429:211|328:188,1,170,2|0,0:0|0:0,0:0:0:0:
282,254,160171,6,0,B|290:313|290:313|295:283,1,85,10|0,3:2|0:0,0:0:0:0:
194,184,160401,2,0,L|132:177,2,42.5,2|0|0,3:2|0:0|0:0,0:0:0:0:
284,116,160632,2,0,B|295:18|295:18|267:61,1,127.5,10|0,3:2|0:0,0:0:0:0:
268,46,160863,6,0,P|223:43|184:22,1,85,0|0,3:1|0:0,0:0:0:0:
61,110,161094,1,8,3:2:0:0:
138,89,161209,1,0,0:0:0:0:
53,92,161324,2,0,P|36:131|35:174,1,85,0|0,3:1|0:0,0:0:0:0:
174,273,161555,2,0,P|179:235|100:222,1,127.5,8|0,3:2|0:0,0:0:0:0:
109,230,161786,5,0,3:1:0:0:
86,317,161901,2,0,L|3:298,1,85,2|8,0:0|3:2,0:0:0:0:
181,366,162132,1,2,0:0:0:0:
165,355,162248,2,0,P|195:327|236:319,1,85,2|0,3:2|0:0,0:0:0:0:
290,231,162478,2,0,P|348:251|378:306,1,127.5,10|0,3:2|0:0,0:0:0:0:
378,306,162709,6,0,B|324:267|349:175|416:202|504:132|466:9|306:20|295:171|422:171,1,425,2|0,3:1|0:0,0:0:0:0:
377,50,163401,1,8,0:1:0:0:
377,50,163632,6,0,L|284:36,1,85,4|0,3:1|0:0,0:0:0:0:
174,135,163863,2,0,P|211:110|268:111,1,85,10|0,3:2|0:0,0:0:0:0:
308,189,164094,2,0,P|293:149|259:123,1,85,2|0,3:2|0:0,0:0:0:0:
110,87,164324,2,0,P|124:152|131:212,1,127.5,10|0,3:2|0:0,0:0:0:0:
122,223,164555,5,2,3:2:0:0:
18,333,164671,2,0,P|46:302|87:298,1,85,0|8,0:0|3:2,0:0:0:0:
233,265,164901,2,0,L|150:244,1,85,2|0,0:0|3:1,0:0:0:0:
304,330,165132,2,0,L|216:308,1,85,2|8,0:0|3:2,0:0:0:0:
338,249,165363,1,2,0:0:0:0:
274,188,165478,6,0,B|264:89|264:89|233:63,1,127.5,0|0,3:1|0:0,0:0:0:0:
233,81,165709,1,8,3:2:0:0:
175,152,165824,1,2,0:0:0:0:
75,116,165940,2,0,P|72:81|105:43,1,85,0|0,3:1|0:0,0:0:0:0:
182,162,166171,2,0,P|183:204|155:234,1,85,10|0,3:2|0:0,0:0:0:0:
230,62,166401,6,0,B|315:48|302:132|381:121,1,170,0|8,3:1|3:2,0:0:0:0:
457,84,166748,2,0,P|455:52|445:-2,1,85,2|0,0:0|0:0,0:0:0:0:
502,178,166978,1,2,0:0:0:0:
438,234,167094,2,0,P|424:275|422:317,1,85,8|2,3:2|0:0,0:0:0:0:
228,354,167324,6,0,B|278:327|278:327|332:341,2,113.333333333333,4|0|0,3:1|0:0|0:0,0:0:0:0:
347,265,167786,2,0,B|266:243|266:243|192:286,1,170,4|0,3:2|0:0,0:0:0:0:
33,246,168132,1,2,0:0:0:0:
107,293,168248,6,0,P|111:253|144:217,1,85,4|0,3:2|0:0,0:0:0:0:
148,72,168478,2,0,P|170:107|175:155,1,85,8|2,3:2|0:0,0:0:0:0:
94,138,168709,2,0,P|53:135|21:108,1,85,4|0,3:2|0:0,0:0:0:0:
241,70,168940,2,0,P|270:35|359:32,1,127.5,8|0,3:2|0:0,0:0:0:0:
408,80,169171,6,0,P|402:100|401:121,15,42.5,4|0|0|0|0|0|0|0|2|0|2|0|2|0|2|0,3:1|0:0|0:0|0:0|0:0|0:0|0:0|0:0|0:0|0:0|0:0|0:0|0:0|0:0|0:0|0:0,0:0:0:0:
422,197,170094,6,0,P|360:192|324:140,1,127.5,8|0,3:2|0:0,0:0:0:0:
339,38,170324,6,0,P|294:87|311:153,1,140.25000428009,8|0,3:2|0:0,0:0:0:0:
353,285,170555,6,0,P|356:211|299:164,1,152.999995330811,8|0,3:2|0:0,0:0:0:0:
198,76,170786,6,0,P|273:100|287:178,1,165.749992412568,8|0,3:2|0:0,0:0:0:0:
225,224,171017,6,0,B|40:256|-8:264|-8:264|12:267|84:287,1,318.75,2|0,0:0|0:0,0:0:0:0:
80,278,171940,6,0,L|69:236,1,42.5,2|0,0:0|0:0,0:0:0:0:
