osu file format v14

[General]
AudioFilename: audio.mp3
AudioLeadIn: 0
PreviewTime:49027
Countdown: 0
SampleSet: Soft
StackLeniency: 0.7
Mode: 0
LetterboxInBreaks: 0
WidescreenStoryboard: 1

[Editor]
Bookmarks: 5324,5440,5555,5671,5786,5901,6017,6132,6248,6710,21479,36248,43633,54710,69479,83325,98094,112863,120248,127633,142402,157171,171017,171940
DistanceSpacing: 1.4
BeatDivisor: 4
GridSize: 32
TimelineZoom: 1.399999

[Metadata]
Title:Excuse My Rudeness, But Could You Please RIP?<3 (t+pazolite Remix)
TitleUnicode:失礼しますが、RIP♡ (t+pazolite Remix)
Artist:Mori Calliope
ArtistUnicode:Mori Calliope
Creator:Amateurre
Version:Normal
Source:
Tags:vtuber virtual youtuber ホロライブ hololive english holoen en holomyth 森 カリオペ dead beats reaper rap japanese electronic speedcore tpz tpazolite shitsureishimasuga sitsureisimasuga xlolicore- my angel watame kowari pachiru cubby shizuku kazato asa flake toybot vikala
BeatmapID:2631900
BeatmapSetID:1264863

[Difficulty]
HPDrainRate:4
CircleSize:3.2
OverallDifficulty:4.6
ApproachRate:6
SliderMultiplier:0.799999999999999
SliderTickRate:1

[Events]
//Background and Video events
0,0,"mori wallpaper.jpg",0,0
//Break Periods
2,36447,42582
2,65986,68428
2,113063,119198
//Storyboard Layer 0 (Background)
//Storyboard Layer 1 (Fail)
//Storyboard Layer 2 (Pass)
//Storyboard Layer 3 (Foreground)
//Storyboard Layer 4 (Overlay)
//Storyboard Sound Samples

[TimingPoints]
248,230.769230769231,4,2,1,40,1,0
6248,-100,4,2,1,65,0,0
6709,-100,4,2,1,65,0,0
7401,-100,4,2,3,55,0,0
7632,-100,4,2,1,65,0,0
13401,-100,4,2,2,65,0,0
14094,-100,4,2,1,65,0,0
14786,-100,4,2,3,55,0,0
15017,-100,4,2,1,65,0,0
21478,-100,4,2,1,75,0,0
28170,-100,4,2,2,75,0,0
28632,-100,4,2,1,75,0,0
28863,-100,4,2,1,75,0,0
36247,-100,4,2,2,60,0,0
47382,-100,4,2,3,60,0,0
47554,-100,4,2,2,60,0,0
47613,-100,4,2,3,60,0,0
47786,-100,4,2,2,60,0,0
47844,-100,4,2,3,60,0,0
48016,-100,4,2,2,60,0,0
48074,-100,4,2,3,60,0,0
48247,-100,4,2,2,60,0,0
48305,-100,4,2,3,60,0,0
48478,-100,4,2,2,60,0,0
48536,-100,4,2,3,60,0,0
48709,-100,4,2,2,60,0,0
48767,-100,4,2,3,60,0,0
48939,-100,4,2,2,60,0,0
48998,-100,4,2,3,60,0,0
49171,-100,4,2,2,60,0,0
50555,-100,4,2,2,80,0,0
51017,-100,4,2,1,70,0,0
51171,-100,4,2,3,70,0,0
51478,-100,4,2,1,65,0,0
51632,-100,4,2,3,65,0,0
51940,-100,4,2,1,60,0,0
52094,-100,4,2,3,60,0,0
52401,-100,4,2,1,55,0,0
52555,-100,4,2,3,55,0,0
52863,-100,4,2,1,50,0,0
53017,-100,4,2,3,50,0,0
53324,-100,4,2,1,45,0,0
53478,-100,4,2,3,45,0,0
53786,-100,4,2,1,40,0,0
53940,-100,4,2,3,40,0,0
54248,-100,4,2,1,60,0,0
54709,-100,4,2,2,85,0,0
55632,-100,4,2,1,85,0,0
58286,-100,4,2,3,85,0,0
58401,-100,4,2,1,85,0,0
61978,-100,4,2,3,85,0,0
62094,-100,4,2,1,85,0,0
64517,-100,4,2,3,85,0,0
64631,-100,4,2,1,85,0,0
65093,-100,4,2,3,85,0,0
65209,-100,4,2,1,85,0,0
65324,-100,4,2,3,85,0,0
65786,-100,4,2,1,85,0,0
67632,-100,4,2,2,60,0,0
68555,-100,4,2,2,60,0,0
69017,-100,4,2,1,80,0,0
69478,-100,4,2,1,80,0,0
75709,-100,4,2,2,80,0,0
75940,-100,4,2,1,80,0,0
82458,-100,4,2,3,80,0,0
82631,-100,4,2,1,80,0,0
82689,-100,4,2,3,80,0,0
82863,-100,4,2,1,80,0,0
82920,-100,4,2,3,80,0,0
83093,-100,4,2,1,80,0,0
83151,-100,4,2,3,80,0,0
83324,-100,4,2,3,60,0,0
83786,-100,4,2,1,60,0,0
84248,-100,4,2,3,60,0,0
84709,-100,4,2,1,60,0,0
85171,-100,4,2,3,60,0,0
87017,-100,4,2,1,65,0,0
90017,-100,4,2,2,50,0,0
90709,-100,4,2,1,65,0,0
91401,-100,4,2,3,55,0,0
91632,-100,4,2,1,80,0,0
92097,-100,4,2,4,70,0,0
92555,-100,4,2,1,65,0,0
94401,-100,4,2,1,70,0,0
96248,-100,4,2,1,75,0,0
104786,-100,4,2,2,75,0,0
105478,-100,4,2,1,75,0,0
105940,-100,4,2,1,75,0,0
112863,-100,4,2,1,60,0,0
121171,-100,4,2,3,60,0,0
123940,-100,4,2,2,60,0,0
123998,-100,4,2,3,60,0,0
124170,-100,4,2,2,60,0,0
124229,-100,4,2,3,60,0,0
124401,-100,4,2,2,60,0,0
124460,-100,4,2,3,60,0,0
124631,-100,4,2,2,60,0,0
124690,-100,4,2,3,60,0,0
124863,-100,4,2,2,60,0,0
124921,-100,4,2,3,60,0,0
125093,-100,4,2,2,60,0,0
125152,-100,4,2,3,60,0,0
125324,-100,4,2,2,60,0,0
125383,-100,4,2,3,60,0,0
125555,-100,4,2,2,60,0,0
125614,-100,4,2,3,60,0,0
125787,-100,4,2,2,60,0,0
127171,-100,4,2,1,80,0,0
127574,-100,4,2,1,5,0,0
127632,-100,4,2,2,85,0,0
127661,-100,4,2,3,85,0,0
128555,-100,4,2,1,85,0,0
131209,-100,4,2,3,85,0,0
131324,-100,4,2,1,85,0,0
133517,-100,4,2,3,85,0,0
133632,-100,4,2,1,85,0,0
134209,-100,4,2,3,85,0,0
134324,-100,4,2,1,85,0,0
134901,-100,4,2,3,85,0,0
135017,-100,4,2,1,85,0,0
136170,-100,4,2,3,85,0,0
136286,-100,4,2,1,85,0,0
137439,-100,4,2,3,85,0,0
137554,-100,4,2,1,85,0,0
138016,-100,4,2,3,85,0,0
138132,-100,4,2,1,85,0,0
138247,-100,4,2,3,85,0,0
138709,-100,4,2,1,85,0,0
140555,-100,4,2,2,60,0,0
141478,-100,4,2,2,60,0,0
141940,-100,4,2,1,60,0,0
142171,-100,4,2,1,80,0,0
142401,-100,4,2,3,50,0,0
143324,-100,4,2,3,60,0,0
144248,-100,4,2,3,70,0,0
145170,-100,4,2,3,80,0,0
145863,-100,4,2,1,80,0,0
155381,-100,4,2,3,80,0,0
155554,-100,4,2,1,80,0,0
155612,-100,4,2,3,80,0,0
155786,-100,4,2,1,80,0,0
155843,-100,4,2,3,80,0,0
156016,-100,4,2,1,80,0,0
156074,-100,4,2,3,80,0,0
156248,-100,4,2,1,80,0,0
170151,-100,4,2,3,80,0,0
170210,-100,4,2,1,80,0,0
170381,-100,4,2,3,80,0,0
170555,-100,4,2,1,80,0,0
170612,-100,4,2,3,80,0,0
170786,-100,4,2,1,80,0,0
171940,-100,4,2,1,60,0,0

[Colours]
Combo1 : 248,135,152
Combo2 : 233,18,55
Combo3 : 251,203,60

[HitObjects]
464,350,6248,5,2,3:0:0:0:
452,174,6709,6,0,L|468:87,2,79.9999999999999,4|0|0,3:1|3:0|3:0,0:0:0:0:
368,200,7401,1,2,0:0:0:0:
301,142,7632,2,0,B|208:126|243:204|154:187,1,160,0|0,3:0|3:0,0:0:0:0:
79,145,8324,1,0,0:0:0:0:
23,213,8555,2,0,L|32:299,1,79.9999999999999,0|0,3:0|3:0,0:0:0:0:
86,361,9017,2,0,P|114:331|184:341,1,79.9999999999999,0|0,3:0|3:0,0:0:0:0:
230,363,9478,1,0,3:0:0:0:
185,13,10401,6,0,L|92:24,2,79.9999999999999,4|0|0,3:1|3:0|3:0,0:0:0:0:
267,71,11094,1,0,3:0:0:0:
344,29,11324,2,0,B|402:13|402:13|501:62,1,160,0|0,3:0|3:0,0:0:0:0:
494,145,12017,1,0,0:0:0:0:
404,154,12248,6,0,L|426:269,1,79.9999999999999,0|0,3:0|3:0,0:0:0:0:
353,290,12709,2,0,L|343:383,2,79.9999999999999,0|0|0,3:0|3:0|3:0,0:0:0:0:
294,224,13401,1,8,0:0:0:0:
222,274,13632,1,8,0:0:0:0:
71,182,14094,6,0,L|60:87,2,79.9999999999999,4|8|0,3:1|3:2|3:1,0:0:0:0:
0,237,14786,1,2,0:0:0:0:
36,317,15017,2,0,P|85:304|127:309,1,79.9999999999999,0|8,3:1|3:2,0:0:0:0:
185,356,15478,1,2,3:2:0:0:
306,228,15940,6,0,L|315:133,1,79.9999999999999,0|8,3:1|3:2,0:0:0:0:
274,69,16401,2,0,P|318:58|365:73,1,79.9999999999999,0|8,3:1|3:2,0:0:0:0:
406,134,16863,1,0,3:1:0:0:
98,305,17786,6,0,P|66:261|75:213,1,79.9999999999999,4|8,3:1|3:2,0:0:0:0:
40,152,18248,2,0,L|140:164,1,79.9999999999999,0|8,3:1|3:2,0:0:0:0:
187,217,18709,2,0,B|219:195|269:209|269:209|292:248|330:246,1,160,4|0,3:1|3:1,0:0:0:0:
351,160,19401,1,8,3:2:0:0:
428,201,19632,2,0,L|443:284,2,79.9999999999999,4|8|4,3:2|3:2|3:2,0:0:0:0:
476,127,20324,1,8,3:2:0:0:
434,49,20555,5,4,3:1:0:0:
248,348,21478,6,0,L|150:353,1,79.9999999999999,4|10,3:1|3:2,0:0:0:0:
79,354,21940,2,0,P|62:305|95:246,1,120,2|2,3:2|0:0,0:0:0:0:
57,163,22517,1,2,0:0:0:0:
168,92,22863,2,0,L|250:105,1,79.9999999999999,2|10,3:2|3:2,0:0:0:0:
301,174,23324,6,0,L|388:161,1,79.9999999999999,0|8,3:1|3:2,0:0:0:0:
454,210,23786,2,0,L|465:78,1,120,0|2,3:1|0:0,0:0:0:0:
506,13,24363,1,2,0:0:0:0:
374,7,24709,2,0,P|342:32|336:92,1,79.9999999999999,2|10,3:2|3:2,0:0:0:0:
244,81,25171,6,0,L|151:66,1,79.9999999999999,0|8,3:1|3:2,0:0:0:0:
80,43,25632,1,0,3:1:0:0:
21,109,25863,2,0,L|11:205,1,79.9999999999999,8|0,3:2|3:1,0:0:0:0:
27,230,26209,1,2,0:0:0:0:
108,195,26440,2,0,P|162:220|221:203,1,120,2|8,0:0|3:2,0:0:0:0:
306,235,27017,6,0,L|471:227,1,160,0|0,3:1|3:1,0:0:0:0:
511,302,27709,1,8,3:2:0:0:
438,352,27940,2,0,L|339:338,1,79.9999999999999,0|8,3:1|0:0,0:0:0:0:
275,370,28401,1,8,0:0:0:0:
179,221,28863,6,0,L|69:234,1,79.9999999999999,4|8,3:1|3:2,0:0:0:0:
27,179,29324,2,0,P|12:136|35:93,1,79.9999999999999,2|10,3:2|3:2,0:0:0:0:
74,32,29786,1,2,3:2:0:0:
148,79,30018,2,0,L|226:64,1,79.9999999999999,8|0,3:2|3:1,0:0:0:0:
290,179,30594,6,0,L|277:314,1,120,2|10,0:0|3:2,0:0:0:0:
374,307,31171,2,0,P|425:324|464:318,1,79.9999999999999,2|10,3:2|3:2,0:0:0:0:
504,252,31632,2,0,L|484:174,1,79.9999999999999,0|8,3:1|3:2,0:0:0:0:
333,84,32324,1,8,3:2:0:0:
396,16,32555,6,0,P|343:52|247:34,1,160,0|0,3:1|3:1,0:0:0:0:
184,94,33248,1,8,3:2:0:0:
248,152,33478,2,0,L|241:262,1,79.9999999999999,0|8,3:1|3:2,0:0:0:0:
198,308,33940,2,0,P|132:289|93:303,1,79.9999999999999,0|8,3:1|3:2,0:0:0:0:
37,267,34401,6,0,L|24:166,1,79.9999999999999,4|0,3:1|0:0,0:0:0:0:
114,176,34863,2,0,P|139:131|127:75,1,79.9999999999999,4|0,3:1|0:0,0:0:0:0:
96,26,35324,2,0,B|256:-9|197:174|402:125,1,320,4|8,3:1|0:1,0:0:0:0:
501,38,43632,6,0,B|421:36|446:99|356:98,1,160,8|8,0:1|0:1,0:0:0:0:
194,36,44555,2,0,L|207:223,1,160,8|8,0:1|0:1,0:0:0:0:
349,297,45478,6,0,L|436:287,2,79.9999999999999,8|8|8,0:1|0:1|0:1,0:0:0:0:
287,360,46171,1,8,0:1:0:0:
204,330,46401,2,0,P|121:310|49:375,1,160,8|8,0:1|0:1,0:0:0:0:
14,274,47094,1,8,0:1:0:0:
76,212,47324,6,0,L|84:104,1,79.9999999999999,8|8,3:1|3:1,0:0:0:0:
21,67,47786,2,0,P|68:43|121:60,1,79.9999999999999,8|8,3:1|3:1,0:0:0:0:
162,101,48248,2,0,L|251:92,1,79.9999999999999,8|8,3:1|3:1,0:0:0:0:
309,36,48709,2,0,L|411:58,1,79.9999999999999,8|8,3:1|3:1,0:0:0:0:
468,86,49171,5,8,3:1:0:0:
47,349,51017,6,0,B|87:336|110:305|110:305|137:328|212:330,1,160,0|0,3:0|3:0,0:0:0:0:
357,374,51940,2,0,P|385:286|346:238,1,160,0|0,3:0|3:0,0:0:0:0:
365,63,52863,2,0,L|176:97,1,160,0|0,3:0|3:0,0:0:0:0:
41,33,53786,5,0,3:0:0:0:
41,33,54709,6,0,B|79:73|79:73|67:128|67:128|55:138|55:138|41:200|41:200|91:245,1,240,6|0,3:2|0:0,0:0:0:0:
163,207,55632,6,0,P|203:183|244:194,1,79.9999999999999,2|0,3:0|3:0,0:0:0:0:
303,243,56094,2,0,P|343:246|375:224,1,79.9999999999999,2|0,3:0|3:0,0:0:0:0:
416,205,56440,1,0,3:0:0:0:
416,205,56555,2,0,L|466:195,2,40,2|0|0,3:0|3:0|3:0,0:0:0:0:
378,124,57017,2,0,L|388:33,1,79.9999999999999,2|0,3:0|3:0,0:0:0:0:
362,14,57363,1,0,3:0:0:0:
362,14,57478,6,0,P|322:11|290:33,1,79.9999999999999,2|0,3:0|3:0,0:0:0:0:
222,89,57940,2,0,L|121:75,1,79.9999999999999,2|0,3:0|3:0,0:0:0:0:
56,59,58401,5,6,3:1:0:0:
131,218,58863,1,6,3:1:0:0:
39,368,59324,6,0,L|118:359,1,79.9999999999999,2|0,3:3|3:0,0:0:0:0:
204,375,59786,2,0,P|236:352|275:356,1,79.9999999999999,2|0,3:0|3:0,0:0:0:0:
318,381,60132,1,0,3:0:0:0:
318,381,60248,2,0,L|327:302,1,79.9999999999999,2|0,3:0|3:0,0:0:0:0:
401,254,60709,2,0,P|427:283|465:288,1,79.9999999999999,2|0,3:0|3:0,0:0:0:0:
498,258,61055,1,0,3:0:0:0:
498,258,61171,6,0,L|513:169,1,79.9999999999999,2|0,3:0|3:0,0:0:0:0:
449,116,61632,2,0,L|409:109,1,40,2|0,3:0|3:0,0:0:0:0:
371,129,61863,2,0,L|331:135,1,40,0|0,3:0|3:0,0:0:0:0:
300,105,62094,5,4,3:2:0:0:
257,181,62324,1,4,3:2:0:0:
315,248,62555,1,4,3:2:0:0:
264,319,62786,1,4,3:2:0:0:
181,351,63017,6,0,P|149:329|110:333,1,79.9999999999999,2|0,3:0|3:0,0:0:0:0:
67,348,63363,1,0,3:0:0:0:
67,348,63478,2,0,L|53:259,1,79.9999999999999,2|0,3:0|3:0,0:0:0:0:
75,183,63940,2,0,L|75:138,2,40,2|0|0,3:0|3:0|3:0,0:0:0:0:
162,188,64401,2,0,P|192:212|242:213,1,79.9999999999999,2|0,3:0|3:0,0:0:0:0:
307,168,64863,2,0,L|318:88,1,79.9999999999999,2|0,3:0|3:0,0:0:0:0:
364,13,65324,2,0,L|406:24,1,40,2|0,3:0|3:0,0:0:0:0:
433,54,65555,2,0,L|475:43,1,40,0|0,3:0|3:0,0:0:0:0:
503,13,65786,5,6,3:1:0:0:
28,44,69478,6,0,L|126:39,1,79.9999999999999,4|8,3:1|3:2,0:0:0:0:
166,106,69940,2,0,P|183:155|166:192,1,79.9999999999999,0|8,3:1|3:2,0:0:0:0:
114,244,70401,1,0,3:1:0:0:
169,312,70632,2,0,L|263:325,1,79.9999999999999,8|0,3:2|3:1,0:0:0:0:
324,278,71094,1,10,3:2:0:0:
409,296,71324,2,0,L|417:384,2,79.9999999999999,0|8|0,3:1|3:2|3:1,0:0:0:0:
474,236,72017,2,0,L|461:150,1,79.9999999999999,8|2,3:2|3:2,0:0:0:0:
411,84,72478,5,10,3:2:0:0:
332,124,72709,1,2,3:2:0:0:
251,87,72940,1,10,3:2:0:0:
214,167,73171,6,0,L|230:262,1,79.9999999999999,2|10,3:2|3:2,0:0:0:0:
149,287,73632,2,0,L|135:208,1,79.9999999999999,2|10,3:2|3:2,0:0:0:0:
52,179,74094,1,0,3:1:0:0:
68,92,74324,2,0,P|120:102|163:65,1,79.9999999999999,8|0,3:2|3:1,0:0:0:0:
210,34,74786,1,8,3:2:0:0:
289,71,75017,5,2,3:1:0:0:
493,357,75940,6,0,L|387:335,1,79.9999999999999,4|8,3:1|3:2,0:0:0:0:
335,302,76401,1,0,3:1:0:0:
400,242,76632,1,8,3:2:0:0:
328,190,76863,2,0,P|306:141|328:91,1,79.9999999999999,0|8,3:1|3:2,0:0:0:0:
239,63,77324,2,0,L|157:52,1,79.9999999999999,0|8,3:1|3:2,0:0:0:0:
82,95,77786,6,0,L|66:14,2,79.9999999999999,0|10|0,3:1|3:2|3:1,0:0:0:0:
19,156,78478,1,8,3:2:0:0:
86,213,78709,2,0,P|122:190|179:196,1,79.9999999999999,0|8,3:1|3:2,0:0:0:0:
228,242,79171,2,0,L|241:326,1,79.9999999999999,0|8,3:1|3:2,0:0:0:0:
318,361,79632,6,0,L|411:340,1,79.9999999999999,4|8,3:1|3:2,0:0:0:0:
473,300,80094,2,0,L|453:201,1,79.9999999999999,4|8,3:2|3:2,0:0:0:0:
379,179,80555,2,0,P|353:130|366:90,1,79.9999999999999,4|8,3:2|3:2,0:0:0:0:
290,48,81017,1,4,3:2:0:0:
211,88,81248,1,8,3:2:0:0:
138,39,81478,6,0,P|72:30|20:127,1,160,4|2,3:1|0:0,0:0:0:0:
80,159,82171,1,2,0:0:0:0:
21,224,82401,2,0,L|34:308,1,79.9999999999999,8|8,3:2|3:2,0:0:0:0:
88,372,82863,2,0,P|114:337|113:281,1,79.9999999999999,8|8,3:2|3:2,0:0:0:0:
148,218,83324,5,0,3:0:0:0:
478,341,84248,1,0,3:0:0:0:
284,46,85171,1,0,3:0:0:0:
13,330,87017,6,0,L|112:320,1,79.9999999999999,4|0,3:1|3:0,0:0:0:0:
169,365,87478,2,0,P|181:334|163:277,1,79.9999999999999,0|0,3:0|3:0,0:0:0:0:
104,232,87940,2,0,P|94:183|112:147,2,79.9999999999999,0|0|0,3:0|3:0|3:0,0:0:0:0:
183,193,88632,1,0,0:0:0:0:
254,244,88863,6,0,L|350:261,1,79.9999999999999,0|0,3:0|3:0,0:0:0:0:
416,284,89324,2,0,P|428:220|408:190,1,79.9999999999999,0|0,3:0|3:0,0:0:0:0:
487,148,89786,1,0,3:0:0:0:
417,93,90017,2,0,L|251:110,1,160,8|8,0:0|0:0,0:0:0:0:
174,80,90709,6,0,L|174:-18,2,79.9999999999999,4|8|0,3:1|3:2|3:1,0:0:0:0:
106,136,91401,1,2,0:0:0:0:
173,193,91632,2,0,P|220:183|266:193,1,79.9999999999999,0|8,3:1|3:2,0:0:0:0:
463,345,92555,6,0,P|397:361|361:342,1,79.9999999999999,0|8,3:1|3:2,0:0:0:0:
322,298,93017,2,0,L|218:301,1,79.9999999999999,0|8,3:1|3:2,0:0:0:0:
172,354,93478,1,0,3:1:0:0:
36,28,94401,6,0,L|133:42,1,79.9999999999999,4|8,3:1|3:2,0:0:0:0:
194,78,94863,2,0,L|214:8,2,40,0|0|8,3:1|0:0|3:2,0:0:0:0:
118,122,95324,2,0,L|122:231,1,79.9999999999999,4|8,3:1|3:2,0:0:0:0:
198,244,95786,1,0,3:1:0:0:
142,312,96017,1,8,3:2:0:0:
219,354,96248,6,0,P|259:325|308:332,1,79.9999999999999,4|8,3:2|3:2,0:0:0:0:
376,323,96709,2,0,L|388:217,1,79.9999999999999,4|8,3:2|3:2,0:0:0:0:
451,185,97171,1,4,3:1:0:0:
128,43,98094,6,0,L|48:32,2,79.9999999999999,4|8|0,3:1|3:2|3:1,0:0:0:0:
201,91,98786,2,0,P|197:130|120:182,1,120,8|0,3:2|0:0,0:0:0:0:
172,262,99363,2,0,P|213:273|282:237,1,120,0|8,0:0|3:2,0:0:0:0:
348,184,99940,6,0,L|439:195,1,79.9999999999999,0|8,3:1|3:2,0:0:0:0:
491,253,100401,1,0,3:1:0:0:
478,340,100632,2,0,L|342:353,1,120,8|0,3:2|0:0,0:0:0:0:
266,256,101324,2,0,P|211:249|185:278,1,79.9999999999999,0|8,3:1|3:2,0:0:0:0:
194,350,101786,6,0,L|103:360,1,79.9999999999999,0|8,3:1|3:2,0:0:0:0:
26,353,102248,2,0,P|9:308|45:226,1,120,0|0,3:1|0:0,0:0:0:0:
2,154,102824,1,0,0:0:0:0:
123,102,103171,2,0,P|172:121|213:117,1,79.9999999999999,0|8,3:1|3:2,0:0:0:0:
245,195,103632,6,0,P|312:202|352:263,1,120,0|0,3:1|0:0,0:0:0:0:
429,210,104209,2,0,L|441:84,1,120,0|0,0:0|3:1,0:0:0:0:
372,34,104786,2,0,L|276:47,1,79.9999999999999,8|8,0:0|0:0,0:0:0:0:
209,13,105248,1,8,0:0:0:0:
23,200,105940,6,0,L|135:182,1,79.9999999999999,4|8,3:1|3:2,0:0:0:0:
168,244,106401,2,0,L|156:345,2,79.9999999999999,0|8|2,3:1|3:2|3:2,0:0:0:0:
233,184,107094,1,8,3:2:0:0:
310,225,107324,2,0,L|437:215,1,120,0|2,3:1|0:0,0:0:0:0:
482,285,107901,1,2,0:0:0:0:
443,364,108132,2,0,P|388:365|352:300,1,120,2|8,0:0|3:2,0:0:0:0:
274,349,108709,2,0,L|187:359,1,79.9999999999999,2|10,3:2|3:2,0:0:0:0:
110,329,109171,6,0,P|83:282|98:239,1,79.9999999999999,0|8,3:1|3:2,0:0:0:0:
158,207,109632,2,0,L|141:124,1,79.9999999999999,0|8,3:1|3:2,0:0:0:0:
83,62,110094,2,0,L|0:70,2,79.9999999999999,0|8|0,3:1|3:2|3:1,0:0:0:0:
161,22,110786,1,8,3:2:0:0:
229,77,111017,6,0,L|333:88,1,79.9999999999999,4|0,3:2|0:0,0:0:0:0:
376,28,111478,2,0,L|417:104,1,79.9999999999999,4|0,3:2|0:0,0:0:0:0:
494,135,111940,2,0,B|334:100|393:283|188:234,1,320,4|2,3:1|0:0,0:0:0:0:
386,322,120248,6,0,L|206:293,1,160,2|0,0:0|0:0,0:0:0:0:
52,284,121171,2,0,P|46:195|134:200,1,160,0|0,3:0|3:0,0:0:0:0:
270,127,122094,6,0,L|257:22,1,79.9999999999999,0|0,3:0|3:0,0:0:0:0:
341,14,122555,2,0,L|350:93,1,79.9999999999999,0|0,3:0|3:0,0:0:0:0:
421,147,123017,2,0,L|510:160,2,79.9999999999999,0|0|0,3:0|3:0|3:0,0:0:0:0:
359,209,123709,1,0,3:0:0:0:
294,268,123940,6,0,L|185:249,1,79.9999999999999,8|8,3:1|3:1,0:0:0:0:
174,332,124401,2,0,L|283:351,1,79.9999999999999,8|8,3:1|3:1,0:0:0:0:
342,380,124863,2,0,P|381:348|413:349,1,79.9999999999999,8|8,3:1|3:1,0:0:0:0:
501,324,125324,1,8,3:1:0:0:
447,244,125555,1,8,3:1:0:0:
494,160,125786,5,8,3:1:0:0:
205,53,127632,6,0,B|168:12|168:12|106:26|106:26|96:38|96:38|41:50|41:50|28:99,1,240,6|0,3:2|3:0,0:0:0:0:
102,147,128555,6,0,P|126:187|115:228,1,79.9999999999999,2|0,3:0|3:0,0:0:0:0:
106,305,129017,2,0,P|146:308|178:286,1,79.9999999999999,2|0,3:0|3:0,0:0:0:0:
221,309,129363,1,0,3:0:0:0:
221,309,129478,2,0,L|231:359,2,40,2|0|0,3:0|3:0|3:0,0:0:0:0:
263,231,129940,2,0,L|273:140,1,79.9999999999999,2|0,3:0|3:0,0:0:0:0:
305,122,130286,1,0,3:0:0:0:
305,122,130401,6,0,L|310:59,2,40,2|0|0,3:0|3:0|3:0,0:0:0:0:
369,182,130863,2,0,L|456:190,1,79.9999999999999,2|0,3:0|3:0,0:0:0:0:
502,258,131324,5,6,3:1:0:0:
372,377,131786,1,6,3:1:0:0:
227,277,132247,6,0,L|148:268,1,79.9999999999999,2|0,3:0|3:0,0:0:0:0:
75,318,132709,2,0,P|52:286|56:247,1,79.9999999999999,2|0,3:0|3:0,0:0:0:0:
43,210,133055,1,0,3:0:0:0:
43,210,133171,2,0,L|52:131,1,79.9999999999999,2|0,3:0|3:0,0:0:0:0:
89,50,133632,2,0,P|115:79|153:84,1,79.9999999999999,2|0,3:0|3:0,0:0:0:0:
189,57,133978,1,0,3:0:0:0:
193,61,134094,6,0,L|282:76,1,79.9999999999999,2|0,3:0|3:0,0:0:0:0:
351,36,134555,1,2,3:0:0:0:
417,93,134786,2,0,L|423:133,1,40,0|0,3:0|3:0,0:0:0:0:
393,164,135017,5,6,3:2:0:0:
327,222,135247,1,6,3:2:0:0:
247,184,135478,1,6,3:2:0:0:
188,250,135709,1,6,3:2:0:0:
113,203,135940,6,0,P|91:171|95:132,1,79.9999999999999,2|0,3:0|3:0,0:0:0:0:
115,94,136286,1,0,3:0:0:0:
115,94,136401,2,0,L|204:80,1,79.9999999999999,2|0,3:0|3:0,0:0:0:0:
259,21,136863,2,0,P|283:52|286:91,1,79.9999999999999,2|0,3:0|3:0,0:0:0:0:
349,153,137324,2,0,L|389:153,2,40,2|0|0,3:0|3:0|3:0,0:0:0:0:
280,209,137786,2,0,L|291:289,1,79.9999999999999,2|0,3:0|3:0,0:0:0:0:
370,326,138247,2,0,L|412:337,1,40,2|0,3:0|3:0,0:0:0:0:
439,367,138478,2,0,L|481:356,1,40,0|0,3:0|3:0,0:0:0:0:
509,326,138709,5,6,3:1:0:0:
256,192,140555,12,8,141478,0:0:0:0:
475,40,142401,5,4,3:0:0:0:
50,349,144248,6,0,L|42:250,1,79.9999999999999,0|0,3:0|3:0,0:0:0:0:
93,196,144709,1,0,3:0:0:0:
135,272,144940,2,0,L|218:287,1,79.9999999999999,0|2,3:0|3:3,0:0:0:0:
294,251,145401,1,2,3:0:0:0:
355,314,145632,1,2,3:0:0:0:
438,284,145863,1,10,3:2:0:0:
461,199,146094,6,0,L|445:104,1,79.9999999999999,6|10,3:1|3:2,0:0:0:0:
370,78,146555,2,0,L|291:64,1,79.9999999999999,2|10,3:2|3:2,0:0:0:0:
234,132,147017,1,0,3:1:0:0:
150,104,147247,2,0,P|140:156|177:199,1,79.9999999999999,8|0,3:2|3:1,0:0:0:0:
190,257,147709,1,8,3:2:0:0:
141,330,147940,5,2,3:1:0:0:
475,219,148863,6,0,L|369:197,1,79.9999999999999,4|10,3:1|3:2,0:0:0:0:
350,127,149324,1,0,3:1:0:0:
285,186,149555,1,10,3:2:0:0:
219,126,149786,2,0,P|170:104|120:126,1,79.9999999999999,0|8,3:1|3:2,0:0:0:0:
72,157,150247,2,0,L|61:239,1,79.9999999999999,0|8,3:1|3:2,0:0:0:0:
126,296,150709,6,0,L|110:377,2,79.9999999999999,0|8|0,3:1|3:2|3:1,0:0:0:0:
207,262,151401,1,8,3:2:0:0:
271,322,151632,2,0,P|307:299|364:305,1,79.9999999999999,0|8,3:1|3:2,0:0:0:0:
431,299,152094,2,0,L|444:215,1,79.9999999999999,0|10,3:1|3:2,0:0:0:0:
493,147,152555,6,0,L|400:126,1,79.9999999999999,4|8,3:1|3:2,0:0:0:0:
332,160,153017,2,0,L|312:61,1,79.9999999999999,4|8,3:2|3:2,0:0:0:0:
247,25,153478,2,0,P|207:24|175:47,1,79.9999999999999,4|8,3:2|3:2,0:0:0:0:
224,121,153940,1,4,3:2:0:0:
160,191,154171,1,8,3:2:0:0:
230,243,154401,6,0,P|164:234|112:331,1,160,0|2,3:1|0:0,0:0:0:0:
24,326,155094,1,2,0:0:0:0:
10,239,155324,2,0,L|23:155,1,79.9999999999999,8|8,3:2|3:2,0:0:0:0:
44,74,155786,2,0,P|79:100|135:99,1,79.9999999999999,8|8,3:2|3:2,0:0:0:0:
196,73,156247,5,8,3:2:0:0:
367,380,157171,6,0,L|465:375,1,79.9999999999999,6|10,3:1|3:2,0:0:0:0:
485,296,157633,2,0,P|449:279|410:287,1,79.9999999999999,0|8,3:1|3:2,0:0:0:0:
329,253,158094,1,0,3:1:0:0:
272,185,158325,2,0,L|285:91,1,79.9999999999999,8|0,3:2|3:1,0:0:0:0:
231,33,158787,1,10,3:2:0:0:
150,68,159017,2,0,L|62:60,2,79.9999999999999,2|8|0,3:2|3:2|3:1,0:0:0:0:
176,152,159710,2,0,L|163:238,1,79.9999999999999,8|2,3:2|3:2,0:0:0:0:
108,299,160171,5,10,3:2:0:0:
177,353,160402,1,2,3:2:0:0:
258,319,160633,1,10,3:2:0:0:
332,366,160864,6,0,L|352:272,1,79.9999999999999,0|8,3:1|3:2,0:0:0:0:
436,277,161325,2,0,L|422:198,1,79.9999999999999,0|8,3:1|3:2,0:0:0:0:
346,151,161787,1,0,3:1:0:0:
268,191,162017,2,0,P|216:201|173:164,1,79.9999999999999,8|2,3:2|3:2,0:0:0:0:
132,125,162479,1,10,3:2:0:0:
53,165,162710,5,2,3:1:0:0:
368,7,163633,6,0,L|474:29,1,79.9999999999999,4|10,3:1|3:2,0:0:0:0:
493,97,164094,1,2,3:2:0:0:
430,158,164325,1,10,3:2:0:0:
481,229,164556,2,0,P|483:268|463:302,1,79.9999999999999,2|8,3:2|3:2,0:0:0:0:
400,363,165017,2,0,L|318:352,1,79.9999999999999,0|8,3:1|3:2,0:0:0:0:
253,295,165479,6,0,L|237:214,2,79.9999999999999,0|8|0,3:1|3:2|3:1,0:0:0:0:
188,355,166171,1,10,3:2:0:0:
103,330,166402,2,0,P|80:294|86:237,1,79.9999999999999,0|8,3:1|3:2,0:0:0:0:
37,179,166864,2,0,L|121:166,1,79.9999999999999,0|8,3:1|3:2,0:0:0:0:
192,123,167325,6,0,L|171:30,1,79.9999999999999,4|8,3:1|3:2,0:0:0:0:
262,41,167787,2,0,L|361:21,1,79.9999999999999,4|8,3:2|3:2,0:0:0:0:
411,76,168248,2,0,P|411:115|388:147,1,79.9999999999999,4|8,3:2|3:2,0:0:0:0:
426,227,168710,1,4,3:2:0:0:
357,282,168941,1,8,3:2:0:0:
409,351,169171,6,0,P|349:322|269:398,1,160,4|2,3:1|0:0,0:0:0:0:
200,322,169864,1,2,0:0:0:0:
261,258,170094,2,0,L|274:174,1,79.9999999999999,8|8,3:2|3:2,0:0:0:0:
217,110,170556,2,0,P|177:103|140:117,1,79.9999999999999,8|8,3:2|3:2,0:0:0:0:
83,183,171017,5,2,0:0:0:0:
