osu file format v14

[General]
AudioFilename: audio.mp3
AudioLeadIn: 0
PreviewTime: 49027
Countdown: 0
SampleSet: Soft
StackLeniency: 0.7
Mode: 0
LetterboxInBreaks: 0
WidescreenStoryboard: 0

[Editor]
Bookmarks: 5324,5440,5555,5671,5786,5901,6017,6132,6248,6710,21479,36248,43633,54710,69479,83325,98094,112863,127633,142402,157171,171017,171940
DistanceSpacing: 1.7
BeatDivisor: 8
GridSize: 32
TimelineZoom: 8

[Metadata]
Title:Excuse My Rudeness, But Could You Please RIP?<3 (t+pazolite Remix)
TitleUnicode:失礼しますが、RIP♡ (t+pazolite Remix)
Artist:Mori Calliope
ArtistUnicode:Mori Calliope
Creator:Amateurre
Version:Memento Mori
Source:
Tags:vtuber virtual youtuber ホロライブ hololive english holoen en holomyth 森 カリオペ dead beats reaper rap japanese electronic speedcore tpz tpazolite shitsureishimasuga sitsureisimasuga xlolicore- my angel watame kowari pachiru cubby shizuku kazato asa flake toybot vikala
BeatmapID:2628834
BeatmapSetID:1264863

[Difficulty]
HPDrainRate:6
CircleSize:4
OverallDifficulty:9.5
ApproachRate:9.8
SliderMultiplier:1.8
SliderTickRate:1

[Events]
//Background and Video events
0,0,"mori wallpaper.jpg",0,0
//Break Periods
//Storyboard Layer 0 (Background)
//Storyboard Layer 1 (Fail)
//Storyboard Layer 2 (Pass)
//Storyboard Layer 3 (Foreground)
//Storyboard Layer 4 (Overlay)
//Storyboard Sound Samples

[TimingPoints]
248,230.769230769231,4,2,1,40,1,0
3017,-200,4,2,1,40,0,0
6248,-200,4,2,1,65,0,0
6709,-83.3333333333333,4,2,1,65,0,0
7401,-83.3333333333333,4,2,3,55,0,0
7632,-83.3333333333333,4,2,1,65,0,0
9478,-125,4,2,1,65,0,0
10401,-83.3333333333333,4,2,1,65,0,0
13401,-83.3333333333333,4,2,2,65,0,0
13632,-125,4,2,2,65,0,0
14094,-83.3333333333333,4,2,1,65,0,0
14786,-83.3333333333333,4,2,3,55,0,0
15017,-83.3333333333333,4,2,1,65,0,0
16863,-125,4,2,1,65,0,0
17786,-83.3333333333333,4,2,1,65,0,0
19632,-71.4285714285714,4,2,1,65,0,0
21248,-100,4,2,1,65,0,0
21478,-83.3333333333333,4,2,1,75,0,0
21709,-90.9090909090909,4,2,1,75,0,0
24940,-125,4,2,1,75,0,0
25401,-100,4,2,1,75,0,0
27478,-125,4,2,1,75,0,0
28171,-125,4,2,2,75,0,0
28632,-125,4,2,1,75,0,0
28863,-62.5,4,2,1,75,0,0
29036,-90.9090909090909,4,2,1,75,0,0
36248,-90.9090909090909,4,2,2,60,0,0
36478,-166.666666666667,4,2,2,60,0,0
40978,-111.111111111111,4,2,2,60,0,0
41209,-83.3333333333334,4,2,2,60,0,0
41786,-125,4,2,2,60,0,0
47382,-125,4,2,3,60,0,0
47555,-125,4,2,2,60,0,0
47613,-125,4,2,3,60,0,0
47786,-125,4,2,2,60,0,0
47844,-125,4,2,3,60,0,0
48017,-125,4,2,2,60,0,0
48074,-125,4,2,3,60,0,0
48247,-125,4,2,2,60,0,0
48305,-125,4,2,3,60,0,0
48478,-125,4,2,2,60,0,0
48536,-125,4,2,3,60,0,0
48709,-125,4,2,2,60,0,0
48767,-125,4,2,3,60,0,0
48940,-125,4,2,2,60,0,0
48998,-125,4,2,3,60,0,0
49171,-125,4,2,2,60,0,0
50555,-66.6666666666667,4,2,2,80,0,0
51017,-125,4,2,1,70,0,0
51171,-125,4,2,3,70,0,0
51478,-142.857142857143,4,2,1,65,0,0
51632,-142.857142857143,4,2,3,65,0,0
51940,-166.666666666667,4,2,1,60,0,0
52094,-166.666666666667,4,2,3,60,0,0
52401,-200,4,2,1,55,0,0
52555,-200,4,2,3,55,0,0
52863,-250,4,2,1,50,0,0
53017,-250,4,2,3,50,0,0
53324,-333.333333333333,4,2,1,45,0,0
53478,-333.333333333333,4,2,3,45,0,0
53786,-500,4,2,1,40,0,0
53940,-500,4,2,3,40,0,0
54248,-33.3333333333333,4,2,1,60,0,0
54709,-62.5,4,2,2,85,0,1
55632,-76.9230769230769,4,2,1,85,0,0
58286,-76.9230769230769,4,2,3,85,0,0
58401,-62.5,4,2,1,85,0,1
59324,-76.9230769230769,4,2,1,85,0,0
61978,-76.9230769230769,4,2,3,85,0,0
62094,-62.5,4,2,1,85,0,1
62786,-50,4,2,1,85,0,1
63017,-76.9230769230769,4,2,1,85,0,0
64517,-76.9230769230769,4,2,3,85,0,0
64632,-76.9230769230769,4,2,1,85,0,0
65094,-76.9230769230769,4,2,3,85,0,0
65209,-76.9230769230769,4,2,1,85,0,0
65324,-76.9230769230769,4,2,3,85,0,0
65786,-76.9230769230769,4,2,1,85,0,0
67632,-76.9230769230769,4,2,2,60,0,0
69017,-100,4,2,1,80,0,0
69248,-50,4,2,1,80,0,0
69478,-62.5,4,2,1,80,0,1
69709,-76.9230769230769,4,2,1,80,0,1
70055,-100,4,2,1,80,0,1
71094,-66.6666666666667,4,2,1,80,0,1
71324,-83.3333333333333,4,2,1,80,0,1
72478,-76.9230769230769,4,2,1,80,0,1
72709,-100,4,2,1,80,0,1
72940,-71.4285714285714,4,2,1,80,0,1
74555,-83.3333333333333,4,2,1,80,0,1
75017,-100,4,2,1,80,0,1
75709,-66.6666666666667,4,2,2,80,0,1
75940,-62.5,4,2,1,80,0,1
76171,-71.4285714285714,4,2,1,80,0,1
76863,-83.3333333333333,4,2,1,80,0,1
81017,-50,4,2,1,80,0,1
81248,-100,4,2,1,80,0,1
81940,-50,4,2,1,80,0,1
82458,-50,4,2,3,80,0,1
82517,-83.3333333333333,4,2,3,80,0,1
82632,-83.3333333333333,4,2,1,80,0,1
82689,-83.3333333333333,4,2,3,80,0,1
82863,-83.3333333333333,4,2,1,80,0,1
82920,-83.3333333333333,4,2,3,80,0,1
83094,-83.3333333333333,4,2,1,80,0,1
83151,-83.3333333333333,4,2,3,80,0,1
83324,-83.3333333333333,4,2,3,60,0,0
83786,-83.3333333333333,4,2,1,60,0,0
84248,-83.3333333333333,4,2,3,60,0,0
84709,-83.3333333333333,4,2,1,60,0,0
85171,-83.3333333333333,4,2,3,60,0,0
87017,-83.3333333333333,4,2,1,65,0,0
90017,-83.3333333333333,4,2,2,50,0,0
90248,-125,4,2,2,50,0,0
90709,-83.3333333333333,4,2,1,65,0,0
91401,-83.3333333333333,4,2,3,55,0,0
91632,-83.3333333333333,4,2,1,80,0,0
92094,-83.3333333333333,4,2,1,80,0,0
92097,-83.3333333333333,4,2,4,70,0,0
92555,-83.3333333333333,4,2,1,65,0,0
94401,-83.3333333333333,4,2,1,70,0,0
96248,-71.4285714285714,4,2,1,75,0,0
98094,-62.5,4,2,1,75,0,0
98324,-71.4285714285714,4,2,1,75,0,0
98786,-83.3333333333333,4,2,1,75,0,0
104786,-83.3333333333333,4,2,2,75,0,0
105478,-200,4,2,1,75,0,0
105940,-71.4285714285714,4,2,1,75,0,0
108132,-83.3333333333333,4,2,1,75,0,0
111017,-100,4,2,1,75,0,0
112863,-400,4,2,1,60,0,0
116555,-454.545454545455,4,2,1,60,0,0
120248,-250,4,2,1,60,0,0
121171,-250,4,2,3,60,0,0
123940,-250,4,2,2,60,0,0
123998,-250,4,2,3,60,0,0
124171,-166.666666666667,4,2,2,60,0,0
124229,-166.666666666667,4,2,3,60,0,0
124401,-142.857142857143,4,2,2,60,0,0
124460,-142.857142857143,4,2,3,60,0,0
124632,-125,4,2,2,60,0,0
124690,-125,4,2,3,60,0,0
124863,-111.111111111111,4,2,2,60,0,0
124921,-111.111111111111,4,2,3,60,0,0
125094,-100,4,2,2,60,0,0
125152,-100,4,2,3,60,0,0
125324,-83.3333333333333,4,2,2,60,0,0
125383,-83.3333333333333,4,2,3,60,0,0
125555,-71.4285714285714,4,2,2,60,0,0
125614,-71.4285714285714,4,2,3,60,0,0
125787,-71.4285714285714,4,2,2,60,0,0
127171,-1000,4,2,1,80,0,0
127574,-1000,4,2,1,5,0,0
127632,-25,4,2,2,85,0,1
127661,-25,4,2,3,85,0,1
128555,-76.9230769230769,4,2,1,85,0,0
131209,-76.9230769230769,4,2,3,85,0,0
131324,-62.5,4,2,1,85,0,1
132248,-76.9230769230769,4,2,1,85,0,0
133517,-76.9230769230769,4,2,3,85,0,0
133632,-76.9230769230769,4,2,1,85,0,0
134209,-76.9230769230769,4,2,3,85,0,0
134324,-76.9230769230769,4,2,1,85,0,0
134901,-76.9230769230769,4,2,3,85,0,0
135017,-62.5,4,2,1,85,0,1
135248,-50,4,2,1,85,0,1
135940,-76.9230769230769,4,2,1,85,0,0
136171,-76.9230769230769,4,2,3,85,0,0
136286,-76.9230769230769,4,2,1,85,0,0
137440,-76.9230769230769,4,2,3,85,0,0
137555,-76.9230769230769,4,2,1,85,0,0
138017,-76.9230769230769,4,2,3,85,0,0
138132,-76.9230769230769,4,2,1,85,0,0
138248,-76.9230769230769,4,2,3,85,0,0
138709,-76.9230769230769,4,2,1,85,0,0
140555,-76.9230769230769,4,2,2,60,0,0
141940,-76.9230769230769,4,2,1,60,0,0
142171,-58.8235294117647,4,2,1,80,0,0
142401,-1000,4,2,3,50,0,1
142459,-1000,4,2,3,50,0,0
143324,-100,4,2,3,60,0,0
144248,-100,4,2,3,70,0,0
145171,-100,4,2,3,80,0,0
145863,-55.5555555555556,4,2,1,80,0,0
146094,-71.4285714285714,4,2,1,80,0,1
147940,-125,4,2,1,80,0,1
148632,-71.4285714285714,4,2,1,80,0,1
150709,-83.3333333333333,4,2,1,80,0,1
153940,-50,4,2,1,80,0,1
154171,-66.6666666666667,4,2,1,80,0,1
155381,-66.6666666666667,4,2,3,80,0,1
155555,-66.6666666666667,4,2,1,80,0,1
155612,-66.6666666666667,4,2,3,80,0,1
155786,-66.6666666666667,4,2,1,80,0,1
155843,-66.6666666666667,4,2,3,80,0,1
156017,-66.6666666666667,4,2,1,80,0,1
156074,-66.6666666666667,4,2,3,80,0,1
156248,-66.6666666666667,4,2,1,80,0,1
156478,-90.9090909090909,4,2,1,80,0,0
156940,-200,4,2,1,80,0,0
157171,-62.5,4,2,1,80,0,1
157402,-76.9230769230769,4,2,1,80,0,1
157748,-100,4,2,1,80,0,1
158786,-71.4285714285714,4,2,1,80,0,1
159017,-83.3333333333333,4,2,1,80,0,1
160171,-76.9230769230769,4,2,1,80,0,1
160633,-71.4285714285714,4,2,1,80,0,1
162248,-83.3333333333333,4,2,1,80,0,1
162709,-100,4,2,1,80,0,1
163402,-66.6666666666667,4,2,1,80,0,1
163633,-62.5,4,2,1,80,0,1
163864,-71.4285714285714,4,2,1,80,0,1
164556,-83.3333333333333,4,2,1,80,0,1
168709,-66.6666666666667,4,2,1,80,0,1
168941,-100,4,2,1,80,0,1
169633,-50,4,2,1,80,0,1
170151,-50,4,2,3,80,0,1
170210,-83.3333333333333,4,2,1,80,0,1
170381,-83.3333333333333,4,2,3,80,0,1
170555,-83.3333333333333,4,2,1,80,0,1
170612,-83.3333333333333,4,2,3,80,0,1
170786,-83.3333333333333,4,2,1,80,0,1
171017,-83.3333333333333,4,2,1,80,0,0
171478,-125,4,2,1,80,0,0
171940,-33.3333333333333,4,2,1,60,0,0

[Colours]
Combo1 : 248,135,152
Combo2 : 233,18,55
Combo3 : 251,203,60

[HitObjects]
356,133,3017,6,0,B|417:83|512:165|512:165|467:53|374:18|370:44|338:36|310:7|310:7|342:46|356:97|321:182|321:182|311:193|296:201|296:201|296:230|296:230|233:265|213:347|213:347|220:317|207:280,1,900,2|2,0:0|0:0,0:0:0:0:
138,298,5440,6,0,L|141:320,1,22.5,2|0,0:0|0:0,0:0:0:0:
132,304,5555,6,0,L|135:326,1,22.5,2|0,0:0|0:0,0:0:0:0:
126,310,5671,6,0,L|129:332,1,22.5,2|0,0:0|0:0,0:0:0:0:
120,316,5786,6,0,L|123:338,1,22.5,2|0,0:0|0:0,0:0:0:0:
114,322,5901,6,0,L|117:344,1,22.5,2|0,0:0|0:0,0:0:0:0:
108,328,6017,6,0,L|111:350,1,22.5,2|0,0:0|0:0,0:0:0:0:
102,334,6133,6,0,L|105:356,1,22.5,2|0,0:0|0:0,0:0:0:0:
0,165,6248,5,2,3:0:0:0:
12,157,6709,6,0,B|57:168|57:168|69:182|69:182|119:194,1,107.999996704102,4|0,3:1|0:0,0:0:0:0:
313,56,6940,2,0,B|277:58|263:76|263:76|238:61|196:68,1,107.999996704102,0|0,3:0|0:0,0:0:0:0:
206,256,7171,2,0,B|192:180|192:180|226:132,1,107.999996704102,0|0,3:0|0:0,0:0:0:0:
392,57,7401,5,2,0:0:0:0:
391,33,7517,1,0,0:0:0:0:
312,193,7632,5,0,3:0:0:0:
392,146,7748,2,0,B|441:153|441:153|454:162|454:162|504:171,1,107.999996704102,0|0,0:0|3:0,0:0:0:0:
400,303,7978,2,0,B|357:295|357:295|344:286|344:286|295:279,1,107.999996704102,0|0,0:0|3:0,0:0:0:0:
209,154,8209,1,0,0:0:0:0:
211,365,8324,5,0,0:0:0:0:
211,365,8555,5,0,3:0:0:0:
201,288,8671,1,0,0:0:0:0:
104,161,8786,5,0,3:0:0:0:
114,238,8902,1,0,0:0:0:0:
18,360,9017,6,0,B|45:360|70:345|70:345|89:366|118:368,1,107.999996704102,0|0,3:0|0:0,0:0:0:0:
274,242,9248,5,0,3:0:0:0:
348,280,9364,1,0,0:0:0:0:
448,207,9478,6,0,B|471:186|471:186|353:201,1,144,0|0,3:0|0:0,0:0:0:0:
173,311,9824,2,0,B|167:277|167:277|150:248|150:248|158:212|158:212|154:154,1,144
325,53,10171,2,0,B|330:67|330:67|322:127,1,72
323,124,10401,6,0,B|251:104|251:104|220:129,1,107.999996704102,4|0,3:1|0:0,0:0:0:0:
78,95,10632,2,0,P|59:69|82:-9,1,107.999996704102,0|0,3:0|0:0,0:0:0:0:
155,173,10863,5,0,3:0:0:0:
148,258,10979,1,0,0:0:0:0:
24,350,11094,5,0,3:0:0:0:
32,266,11210,1,0,0:0:0:0:
159,373,11324,6,0,B|217:359|217:359|233:373|261:377,1,107.999996704102,0|0,3:0|0:0,0:0:0:0:
356,236,11555,5,0,3:0:0:0:
272,298,11671,2,0,L|260:175,1,107.999996704102,0|0,0:0|3:0,0:0:0:0:
359,62,11901,5,0,0:0:0:0:
483,124,12017,2,0,P|451:128|484:120,1,107.999996704102
466,118,12248,6,0,B|421:129|421:129|409:143|409:143|359:155,1,107.999996704102,0|0,3:0|0:0,0:0:0:0:
171,52,12478,2,0,B|135:78|135:78|167:163,1,107.999996704102,0|0,3:0|0:0,0:0:0:0:
263,104,12709,6,0,L|273:47,2,53.9999983520508,0|0|0,3:0|0:0|0:0,0:0:0:0:
192,208,12940,2,0,B|165:200|148:177|148:177|125:187|95:182,1,107.999996704102,0|0,3:0|0:0,0:0:0:0:
5,353,13171,6,0,P|47:316|124:328,1,107.999996704102,0|0,3:0|0:0,0:0:0:0:
207,356,13401,5,8,0:0:0:0:
219,356,13458,1,8,0:0:0:0:
232,354,13516,1,8,0:0:0:0:
245,352,13574,1,8,0:0:0:0:
258,351,13632,2,0,B|268:317|268:317|253:283,1,72,8|8,0:0|0:0,0:0:0:0:
192,208,13863,1,8,0:0:0:0:
453,290,14094,6,0,B|464:215|464:215|446:188,1,107.999996704102,4|0,3:1|0:0,0:0:0:0:
350,33,14324,2,0,P|402:29|438:67,1,107.999996704102,8|0,3:2|0:0,0:0:0:0:
292,180,14555,2,0,B|243:189|243:189|238:199|238:199|191:207,1,107.999996704102,0|0,3:1|0:0,0:0:0:0:
453,290,14786,5,2,0:0:0:0:
220,375,15017,5,0,3:1:0:0:
300,336,15133,1,0,0:0:0:0:
220,375,15248,6,0,B|144:349|144:349|105:362,1,107.999996704102,8|0,3:2|0:0,0:0:0:0:
55,190,15478,6,0,L|54:159,14,26.9999991760254,2|2|2|2|2|2|2|2|2|2|2|2|2|2|2,3:2|0:2|0:2|0:2|0:2|0:2|0:2|0:2|0:2|0:2|0:2|0:2|0:2|0:2|0:2,0:0:0:0:
0,249,15940,6,0,B|27:249|52:234|52:234|71:255|98:256,1,107.999996704102,0|0,3:1|0:0,0:0:0:0:
220,375,16171,2,0,L|230:236,1,107.999996704102,8|0,3:2|0:0,0:0:0:0:
163,58,16401,5,0,3:1:0:0:
79,69,16517,1,0,0:0:0:0:
193,161,16632,5,8,3:2:0:0:
277,150,16748,1,0,0:0:0:0:
437,211,16863,6,0,B|450:302,2,72,0|0|0,3:1|0:0|0:0,0:0:0:0:
334,75,17209,1,0,0:0:0:0:
478,136,17324,6,0,P|423:125|358:184,1,144
265,319,17671,5,0,0:0:0:0:
355,371,17786,2,0,L|346:243,1,107.999996704102,4|0,3:1|0:0,0:0:0:0:
199,130,18017,5,8,3:2:0:0:
108,171,18132,1,0,0:0:0:0:
20,76,18247,6,0,B|41:78|70:62|70:62|85:84|130:92,1,107.999996704102,0|0,3:1|0:0,0:0:0:0:
275,174,18478,1,8,3:2:0:0:
277,195,18594,1,0,0:0:0:0:
114,311,18709,5,4,3:1:0:0:
224,384,18824,2,0,B|229:313|229:313|209:281,1,107.999996704102,0|8,0:0|3:2,0:0:0:0:
320,103,19055,5,0,0:0:0:0:
386,174,19171,2,0,B|430:167|430:167|442:157|442:157|509:147,1,107.999996704102,0|0,3:1|0:0,0:0:0:0:
307,288,19401,2,0,P|272:241|282:184,1,107.999996704102,8|0,3:2|0:0,0:0:0:0:
106,43,19632,6,0,B|3:31|3:31|28:52,1,125.999996154785,4|0,3:2|0:0,0:0:0:0:
160,131,19863,1,8,3:2:0:0:
4,225,19978,1,0,0:0:0:0:
107,319,20094,6,0,L|94:193,1,125.999996154785,4|0,3:2|0:0,0:0:0:0:
201,51,20324,5,8,3:2:0:0:
205,248,20439,1,0,0:0:0:0:
28,137,20555,1,4,3:1:0:0:
463,347,21248,6,0,B|447:312|447:312|518:272|518:272|513:286,1,135
463,347,21478,6,0,B|418:353|418:353|407:365|407:365|323:378,1,107.999996704102,4|0,3:1|0:0,0:0:0:0:
205,248,21709,2,0,B|189:190|189:190|209:156|209:156|196:108,1,148.50000453186,10|0,3:2|0:0,0:0:0:0:
246,44,21940,5,2,3:2:0:0:
97,184,22055,1,0,0:0:0:0:
58,15,22171,1,8,3:2:0:0:
299,132,22286,6,0,B|372:116|372:116|419:125|414:166,1,148.50000453186,2|0,0:0|0:0,0:0:0:0:
409,177,22517,1,2,0:0:0:0:
294,282,22632,2,0,B|256:271|256:271|247:259|247:259|204:247,1,99.0000030212403,8|0,3:2|0:0,0:0:0:0:
57,14,22863,2,0,P|66:85|8:125,1,148.50000453186,2|0,3:2|0:0,0:0:0:0:
0,116,23094,2,0,L|104:93,1,99.0000030212403,10|0,3:2|0:0,0:0:0:0:
294,282,23324,5,0,3:1:0:0:
145,317,23440,1,2,0:0:0:0:
117,201,23555,1,8,3:2:0:0:
266,166,23671,1,2,0:0:0:0:
204,247,23786,6,0,B|133:231|133:231|110:192|110:192|31:176,1,198.000006042481,0|8,3:1|3:2,0:0:0:0:
258,366,24132,2,0,B|290:327|351:341|351:341|357:365|377:377,1,148.50000453186,2|0,0:0|0:0,0:0:0:0:
372,384,24363,2,0,L|392:287,1,99.0000030212403,2|8,0:0|3:2,0:0:0:0:
253,82,24594,1,0,0:0:0:0:
489,149,24709,6,0,B|396:132|441:188|349:171,1,148.50000453186,2|0,3:2|0:0,0:0:0:0:
341,180,24940,2,0,L|354:109,1,72,10|0,3:2|0:0,0:0:0:0:
162,17,25171,5,0,3:1:0:0:
159,34,25286,1,2,0:0:0:0:
46,110,25401,2,0,P|39:65|32:21,1,90,8|0,3:2|0:0,0:0:0:0:
193,156,25632,6,0,B|106:146|132:224|29:209,1,180,0|8,3:1|3:2,0:0:0:0:
138,383,25978,2,0,L|149:337,1,45,2|0,0:0|0:0,0:0:0:0:
141,327,26094,5,0,3:1:0:0:
247,302,26209,1,2,0:0:0:0:
396,209,26324,5,8,3:2:0:0:
469,247,26440,2,0,P|419:289|353:279,1,135,2|0,0:0|0:0,0:0:0:0:
352,288,26671,2,0,L|363:332,2,45,2|0|8,0:0|0:0|3:2,0:0:0:0:
352,128,26901,5,2,0:0:0:0:
193,156,27017,1,0,3:1:0:0:
352,128,27132,2,0,B|385:104|376:58|376:58|364:0|364:0|328:23,1,180,2|2,0:0|0:0,0:0:0:0:
298,53,27421,1,2,0:0:0:0:
298,53,27478,2,0,B|265:45|265:45|262:39|262:39|231:31,1,72,0|2,3:1|0:0,0:0:0:0:
193,156,27709,2,0,B|160:164|160:164|157:170|157:170|126:177,1,72,8|2,3:2|0:0,0:0:0:0:
0,64,27940,6,0,P|52:62|89:100,1,108,0|0,3:1|0:0,0:0:0:0:
32,192,28171,1,8,0:0:0:0:
35,209,28228,1,8,0:0:0:0:
39,227,28286,1,8,0:0:0:0:
43,244,28344,1,8,0:0:0:0:
47,261,28401,2,0,P|82:266|109:289,1,72,8|8,0:0|0:0,0:0:0:0:
205,367,28632,2,0,P|224:348|198:355,1,72,8|0,0:0|0:0,0:0:0:0:
214,356,28805,5,0,0:0:0:0:
214,356,28863,2,0,B|272:342|272:342|292:320|292:320|345:308,1,144,4|2,3:1|0:0,0:0:0:0:
425,249,29036,1,2,0:0:0:0:
432,259,29094,2,0,B|447:284|447:284|436:318|436:318|450:349,1,99.0000030212403,8|0,3:2|0:0,0:0:0:0:
459,352,29324,6,0,P|472:253|486:155,1,198.000006042481,2|10,3:2|3:2,0:0:0:0:
346,70,29671,6,0,L|395:59,1,49.5000015106202
480,144,29786,2,0,B|458:162|458:162|388:148,1,99.0000030212403,2|0,3:2|0:0,0:0:0:0:
231,0,30017,6,0,P|260:65|223:126,1,148.50000453186,8|0,3:2|0:0,0:0:0:0:
223,126,30248,1,0,3:1:0:0:
104,130,30363,2,0,B|77:123|77:123|39:144|39:144|12:137,1,99.0000030212403,2|8,0:0|3:2,0:0:0:0:
12,137,30536,1,0,0:0:0:0:
12,137,30594,6,0,B|69:116|109:158|109:158|119:206|169:222,1,198.000006042481,2|2,0:0|0:0,0:0:0:0:
240,48,30940,2,0,B|242:30|242:30|215:13|215:13|200:36|200:36|209:55,1,99.0000030212403,10|0,3:2|0:0,0:0:0:0:
416,224,31171,5,2,3:2:0:0:
439,130,31286,1,0,0:0:0:0:
336,32,31401,5,10,3:2:0:0:
313,126,31516,1,0,0:0:0:0:
168,221,31632,6,0,B|148:213|148:213|143:175,1,49.5000015106202,0|0,3:1|0:0,0:0:0:0:
72,112,31748,2,0,B|52:120|52:120|48:147,1,49.5000015106202,2|0,0:0|0:0,0:0:0:0:
60,165,31863,6,0,P|132:148|205:133,1,148.50000453186,8|0,3:2|0:0,0:0:0:0:
224,128,32094,1,0,3:1:0:0:
176,320,32209,2,0,P|152:314|128:309,2,49.5000015106202,2|0|8,0:0|0:0|3:2,0:0:0:0:
352,272,32440,1,2,0:0:0:0:
144,185,32555,6,0,B|134:130|121:62|121:62|162:52|191:45,1,198.000006042481,0|8,3:1|3:2,0:0:0:0:
191,45,32901,1,2,0:0:0:0:
293,198,33017,6,0,B|393:219|430:106|365:86|352:134,1,198.000006042481,0|8,3:1|3:2,0:0:0:0:
357,145,33363,2,0,L|372:192,1,49.5000015106202,2|0,0:0|0:0,0:0:0:0:
480,336,33478,5,0,3:1:0:0:
502,225,33594,1,2,0:0:0:0:
373,193,33709,1,8,3:2:0:0:
351,304,33825,1,2,0:0:0:0:
256,384,33940,6,0,B|205:370|205:370|186:339|186:339|129:321,1,148.50000453186,0|0,3:1|0:0,0:0:0:0:
115,334,34171,6,0,P|104:313|100:288,1,49.5000015106202,8|0,3:2|0:0,0:0:0:0:
192,240,34286,2,0,P|203:218|207:193,1,49.5000015106202
128,144,34401,6,0,L|79:152,7,49.5000015106202,4|0|0|0|0|0|0|0,3:1|0:0|0:0|0:0|0:0|0:0|0:0|0:0,0:0:0:0:
208,80,34863,2,0,L|256:88,7,49.5000015106202,4|0|0|0|0|0|0|0,3:1|0:0|0:0|0:0|0:0|0:0|0:0|0:0,0:0:0:0:
369,161,35324,5,4,3:1:0:0:
371,149,35381,1,0,0:0:0:0:
373,137,35439,1,0,0:0:0:0:
375,125,35497,1,0,0:0:0:0:
377,112,35554,1,0,0:0:0:0:
379,100,35612,1,0,0:0:0:0:
381,88,35670,1,0,0:0:0:0:
383,76,35727,1,0,0:0:0:0:
385,64,35786,2,0,L|389:39,15,24.7500007553101
391,30,36248,5,8,0:1:0:0:
456,173,36478,6,0,L|450:232,1,53.9999983520508
369,161,36709,2,0,L|363:220,1,53.9999983520508,8|0,0:1|0:0,0:0:0:0:
282,149,36940,2,0,L|276:208,1,53.9999983520508
187,294,37171,5,8,0:1:0:0:
187,294,37286,2,0,L|181:235,1,53.9999983520508
98,338,37517,2,0,L|85:215,1,107.999996704102
87,230,37863,1,0,0:0:0:0:
254,366,38094,6,0,P|296:338|363:356,1,107.999996704102,8|0,0:1|0:0,0:0:0:0:
512,282,38440,2,0,P|459:290|415:262,1,107.999996704102
317,189,38786,2,0,L|322:261,1,53.9999983520508
408,154,39017,2,0,L|416:270,1,107.999996704102,8|0,0:1|0:0,0:0:0:0:
415,261,39478,5,8,0:1:0:0:
512,341,39709,5,0,0:0:0:0:
512,341,39824,1,0,0:0:0:0:
421,375,39940,2,0,L|347:364,1,53.9999983520508,8|0,0:1|0:0,0:0:0:0:
301,279,40171,2,0,L|227:268,1,53.9999983520508
177,370,40401,5,8,0:1:0:0:
177,370,40517,1,0,0:0:0:0:
255,324,40632,2,0,L|244:250,1,53.9999983520508
133,210,40863,1,8,0:1:0:0:
132,209,40978,2,0,L|149:289,1,80.9999975280763
53,159,41209,6,0,B|72:125|72:125|158:111|158:111|197:142,1,161.999995056153
186,133,41440,5,0,0:0:0:0:
301,88,41555,1,0,0:0:0:0:
205,11,41671,1,0,0:0:0:0:
319,99,41786,6,0,B|384:93|384:93|405:103|405:103|484:93,1,144,8|0,0:1|0:0,0:0:0:0:
460,96,42132,1,0,0:0:0:0:
399,238,42248,2,0,B|343:244|343:244|322:234|322:234|257:240,1,144,8|0,0:1|0:0,0:0:0:0:
257,240,42594,1,0,0:0:0:0:
405,372,42709,5,8,0:1:0:0:
482,337,42824,2,0,B|493:303|493:303|467:244,1,72
324,346,43055,5,0,0:0:0:0:
324,346,43171,2,0,P|300:329|244:337,1,72,8|0,0:1|0:0,0:0:0:0:
160,367,43401,6,0,P|127:350|162:360,1,108
143,358,43632,6,0,L|156:287,1,72,8|0,0:1|0:0,0:0:0:0:
67,235,43863,2,0,L|53:305,1,72,8|0,0:1|0:0,0:0:0:0:
10,154,44094,6,0,P|69:191|138:177,1,144,8|8,0:1|0:1,0:0:0:0:
138,177,44440,1,0,0:0:0:0:
158,86,44555,2,0,L|87:99,1,72,8|0,0:1|0:0,0:0:0:0:
288,16,44786,2,0,L|217:2,1,72,8|0,0:1|0:0,0:0:0:0:
273,172,45017,6,0,P|315:155|308:199,1,108,8|0,0:1|0:0,0:0:0:0:
300,176,45248,2,0,B|355:166|315:191|369:181,1,72,8|0,0:1|0:0,0:0:0:0:
498,295,45478,6,0,B|518:334|472:366|412:352|412:314,1,144,8|8,0:1|0:1,0:0:0:0:
320,288,45824,2,0,B|284:297|293:311|256:321,1,72,8|8,0:2|0:1,0:0:0:0:
144,384,46055,5,8,0:2:0:0:
112,288,46171,1,8,0:1:0:0:
32,352,46286,1,8,0:2:0:0:
121,275,46401,6,0,B|143:233|143:199|114:155|77:177|90:202,1,144,8|8,0:1|0:1,0:0:0:0:
99,211,46748,2,0,P|122:184|124:149,1,72,8|8,0:2|0:1,0:0:0:0:
80,64,46978,1,8,0:2:0:0:
80,64,47094,2,0,B|52:74|52:74|50:80|50:80|16:92,1,72,8|8,0:1|0:2,0:0:0:0:
208,160,47324,6,0,L|216:124,3,36,8|0|0|0,3:1|3:0|3:0|3:0,0:0:0:0:
176,48,47555,2,0,L|184:12,3,36,8|0|0|0,3:1|3:0|3:0|3:0,0:0:0:0:
89,157,47786,5,8,3:1:0:0:
89,157,47844,1,0,3:0:0:0:
89,157,47902,2,0,L|124:148,1,36,0|0,3:0|3:0,0:0:0:0:
266,257,48017,1,8,3:1:0:0:
266,257,48074,1,0,3:0:0:0:
266,257,48132,2,0,L|231:248,1,36,0|0,3:0|3:0,0:0:0:0:
215,124,48248,5,8,3:1:0:0:
224,119,48305,1,0,3:0:0:0:
245,113,48363,1,0,3:0:0:0:
266,118,48421,1,0,3:0:0:0:
283,132,48478,1,8,3:1:0:0:
290,158,48536,1,0,3:0:0:0:
283,184,48594,1,0,3:0:0:0:
262,204,48651,1,0,3:0:0:0:
255,232,48709,5,8,3:1:0:0:
261,265,48767,1,0,3:0:0:0:
286,287,48824,1,0,3:0:0:0:
325,286,48882,1,0,3:0:0:0:
355,257,48940,1,8,3:1:0:0:
356,217,48997,1,0,3:0:0:0:
380,180,49055,1,0,3:0:0:0:
424,164,49113,1,0,3:0:0:0:
500,192,49171,5,8,3:1:0:0:
220,28,50555,6,0,B|241:57|230:89|230:89|192:26|108:-9|36:10|36:10|69:25|80:63,1,360.000013732911,8|0,0:1|0:0,0:0:0:0:
16,144,51017,6,0,P|44:181|54:228,1,96,0|0,3:0|3:0,0:0:0:0:
50,224,51324,1,0,3:0:0:0:
155,140,51478,6,0,P|159:181|141:218,1,83.9999974365235,0|0,3:0|3:0,0:0:0:0:
141,218,51786,1,0,3:0:0:0:
233,248,51940,6,0,P|255:219|265:185,1,71.9999978027344,0|0,3:0|3:0,0:0:0:0:
266,186,52171,1,0,3:0:0:0:
266,186,52248,1,0,3:0:0:0:
350,275,52401,6,0,P|328:296|301:307,1,60,0|0,3:0|3:0,0:0:0:0:
301,307,52709,1,0,3:0:0:0:
432,320,52863,6,0,P|440:342|441:366,1,48,0|0,3:0|3:0,0:0:0:0:
441,366,53171,1,0,3:0:0:0:
477,248,53324,6,0,P|494:250|511:257,1,35.9999989013672,0|0,3:0|3:0,0:0:0:0:
511,257,53632,1,0,3:0:0:0:
456,168,53786,5,0,3:0:0:0:
347,263,53940,2,0,L|349:274,2,12,0|0|0,3:0|3:0|3:0,0:0:0:0:
277,122,54248,6,0,B|251:95|257:59|257:59|282:85|277:125,1,135.000005149842,0|0,3:0|0:0,0:0:0:0:
277,119,54709,6,0,B|294:90|338:77|338:77|181:122|235:-16|79:21|79:21|69:17|69:17|79:35|79:35|54:147|153:168|153:168|155:182|155:182|208:208|243:284|182:301|220:375|220:375|171:310|107:343|90:268|90:268|111:303|152:290,1,1008,6|0,3:2|0:0,0:0:0:0:
286,329,55632,6,0,P|314:333|340:321,1,58.4999973220826,2|0,3:0|0:0,0:0:0:0:
356,349,55748,2,0,P|374:326|376:297,1,58.4999973220826,0|0,3:0|0:0,0:0:0:0:
459,96,55863,6,0,P|436:114|428:141,1,58.4999973220826,0|0,3:0|0:0,0:0:0:0:
393,133,55978,2,0,P|397:161|417:182,1,58.4999973220826,0|0,3:0|0:0,0:0:0:0:
302,252,56094,6,0,P|284:229|257:221,1,58.4999973220826,2|0,3:0|0:0,0:0:0:0:
265,186,56210,2,0,P|237:190|216:210,1,58.4999973220826,0|0,3:0|0:0,0:0:0:0:
189,185,56325,2,0,P|178:211|185:239,1,58.4999973220826,0|0,3:0|0:0,0:0:0:0:
45,353,56440,5,0,3:0:0:0:
45,353,56498,1,0,3:0:0:0:
45,353,56555,2,0,P|72:346|92:326,1,58.4999973220826,2|0,3:0|0:0,0:0:0:0:
117,346,56671,2,0,P|125:318|117:290,1,58.4999973220826,0|0,3:0|0:0,0:0:0:0:
59,152,56786,6,0,P|38:132|31:104,1,58.4999973220826,0|0,3:0|0:0,0:0:0:0:
0,109,56902,2,0,P|6:80|27:60,1,58.4999973220826,0|0,3:0|0:0,0:0:0:0:
190,0,57017,6,0,P|210:20|218:48,1,58.4999973220826,2|0,3:0|0:0,0:0:0:0:
248,42,57133,2,0,P|242:71|221:91,1,58.4999973220826,0|0,3:0|0:0,0:0:0:0:
137,211,57247,5,0,3:0:0:0:
137,211,57305,1,0,3:0:0:0:
137,211,57363,1,0,3:0:0:0:
137,211,57421,1,0,3:0:0:0:
137,211,57478,2,0,P|164:218|184:238,1,58.4999973220826,2|0,3:0|0:0,0:0:0:0:
209,218,57594,2,0,P|217:246|209:274,1,58.4999973220826,0|0,3:0|0:0,0:0:0:0:
289,368,57709,6,0,P|316:361|336:341,1,58.4999973220826,0|0,3:0|0:0,0:0:0:0:
361,361,57825,2,0,P|369:333|361:305,1,58.4999973220826,0|0,3:0|3:0,0:0:0:0:
464,236,57940,5,2,3:0:0:0:
464,236,57998,1,0,3:0:0:0:
464,236,58055,1,0,3:0:0:0:
464,236,58113,1,0,3:0:0:0:
464,236,58171,2,0,P|443:215|415:208,1,58.4999973220826,0|0,3:0|0:0,0:0:0:0:
238,102,58286,6,0,L|238:78,4,14.6249993305207,0|0|0|0|0,3:0|3:0|3:0|3:0|3:0,0:0:0:0:
305,162,58401,6,0,B|271:145|273:100|273:100|334:99|362:48|362:48|405:107|411:177|376:225|376:225|349:263|361:304|361:304|352:271|302:251,1,504,6|0,3:1|0:0,0:0:0:0:
96,211,58863,6,0,B|72:231|80:286|80:286|132:205|233:163|307:187|307:187|242:204|247:318,1,432,6|0,3:1|0:0,0:0:0:0:
234,384,59324,6,0,P|207:377|187:357,1,58.4999973220826,2|0,3:3|0:0,0:0:0:0:
162,377,59440,2,0,P|154:349|162:321,1,58.4999973220826,0|0,3:0|0:0,0:0:0:0:
5,209,59555,6,0,P|12:182|32:162,1,58.4999973220826,0|0,3:0|0:0,0:0:0:0:
12,137,59671,2,0,P|40:129|68:137,1,58.4999973220826,0|0,3:0|0:0,0:0:0:0:
179,233,59786,6,0,P|208:235|232:220,1,58.4999973220826,2|0,3:0|0:0,0:0:0:0:
252,249,59902,2,0,P|267:225|266:196,1,58.4999973220826,0|0,3:0|0:0,0:0:0:0:
304,193,60017,2,0,P|292:167|266:153,1,58.4999973220826,0|0,3:0|0:0,0:0:0:0:
336,23,60132,5,0,3:0:0:0:
336,23,60190,1,0,3:0:0:0:
336,23,60248,2,0,P|363:30|383:50,1,58.4999973220826,2|0,3:0|0:0,0:0:0:0:
408,30,60364,2,0,P|416:58|408:86,1,58.4999973220826,0|0,3:0|0:0,0:0:0:0:
247,79,60478,6,0,P|220:86|200:106,1,58.4999973220826,0|0,3:0|0:0,0:0:0:0:
175,86,60594,2,0,P|167:114|175:142,1,58.4999973220826,0|0,3:0|0:0,0:0:0:0:
351,276,60709,6,0,P|369:255|396:246,1,58.4999973220826,2|0,3:0|0:0,0:0:0:0:
389,215,60825,2,0,P|417:220|438:240,1,58.4999973220826,0|0,3:0|0:0,0:0:0:0:
302,383,60940,5,0,3:0:0:0:
302,383,60998,1,0,3:0:0:0:
302,383,61056,1,0,3:0:0:0:
302,383,61114,1,0,3:0:0:0:
302,383,61171,2,0,P|275:376|255:356,1,58.4999973220826,2|0,3:0|0:0,0:0:0:0:
230,376,61287,2,0,P|222:348|230:320,1,58.4999973220826,0|0,3:0|0:0,0:0:0:0:
310,181,61401,6,0,P|289:201|261:209,1,58.4999973220826,0|0,3:0|0:0,0:0:0:0:
161,282,61517,5,0,3:0:0:0:
149,280,61574,1,0,3:0:0:0:
138,277,61632,1,2,3:0:0:0:
128,271,61690,1,0,3:0:0:0:
119,263,61747,1,0,3:0:0:0:
113,253,61805,1,0,3:0:0:0:
89,275,61863,2,0,P|81:247|89:219,1,58.4999973220826,0|0,3:0|0:0,0:0:0:0:
78,98,61978,6,0,L|87:74,4,14.6249993305207,0|0|0|0|0,3:0|3:0|3:0|3:0|0:0,0:0:0:0:
1,139,62094,6,0,B|131:118|131:118|151:163|203:182,1,216,4|0,3:2|0:0,0:0:0:0:
330,60,62324,6,0,B|314:4|277:30|248:-3|248:-3|242:44|200:31|218:95,1,216,4|0,3:2|0:0,0:0:0:0:
311,316,62555,6,0,B|356:203|356:203|341:152|284:157,1,216,4|0,3:2|0:0,0:0:0:0:
200,346,62786,6,0,B|175:334|138:353|138:353|181:268|293:280|311:316,1,270,4|0,3:2|0:0,0:0:0:0:
356,384,63017,6,0,P|379:368|390:341,1,58.4999973220826,2|0,3:0|0:0,0:0:0:0:
420,351,63133,2,0,P|417:321|400:298,1,58.4999973220826,0|0,3:0|0:0,0:0:0:0:
189,176,63248,6,0,P|196:203|216:223,1,58.4999973220826,0|0,3:0|0:0,0:0:0:0:
196,248,63364,2,0,P|224:256|252:248,1,58.4999973220826,0|0,3:0|0:0,0:0:0:0:
434,213,63478,5,2,3:0:0:0:
434,213,63536,1,0,3:0:0:0:
434,213,63594,1,0,3:0:0:0:
434,213,63652,1,0,3:0:0:0:
434,213,63709,2,0,P|407:206|387:186,1,58.4999973220826,0|0,3:0|0:0,0:0:0:0:
283,157,63824,5,0,3:0:0:0:
283,157,63882,1,0,3:0:0:0:
283,157,63940,1,2,3:0:0:0:
283,157,63998,1,0,3:0:0:0:
283,157,64055,2,0,P|275:130|282:102,1,58.4999973220826,0|0,3:0|0:0,0:0:0:0:
196,248,64171,6,0,P|180:271|153:282,1,58.4999973220826,0|0,3:0|0:0,0:0:0:0:
163,312,64287,2,0,P|133:309|110:292,1,58.4999973220826,0|0,3:0|0:0,0:0:0:0:
21,342,64401,6,0,P|8:314|11:286,1,58.4999973220826,2|0,3:0|0:0,0:0:0:0:
85,110,64517,6,0,L|91:84,4,14.6249993305207,0|0|0|0|0,3:0|3:0|3:0|3:0|3:0,0:0:0:0:
16,158,64632,6,0,P|34:179|62:187,1,58.4999973220826,0|0,3:0|0:0,0:0:0:0:
55,218,64748,2,0,P|84:211|105:192,1,58.4999973220826,0|0,3:0|3:0,0:0:0:0:
205,73,64863,5,2,3:0:0:0:
205,73,64921,1,0,3:0:0:0:
205,73,64979,1,0,3:0:0:0:
205,73,65037,1,0,0:0:0:0:
205,73,65094,2,0,L|199:32,4,29.2499986610413,0|0|0|0|0,3:0|3:0|3:0|3:0|3:0,0:0:0:0:
288,82,65267,5,0,3:0:0:0:
283,100,65324,2,0,L|276:134,2,29.2499986610413,2|0|0,3:0|3:0|3:0,0:0:0:0:
207,161,65440,6,0,L|218:177,6,14.6249993305207,0|0|0|0|0|0|0,3:0|3:0|3:0|3:0|3:0|3:0|3:0,0:0:0:0:
196,248,65555,6,0,L|215:251,14,14.6249993305207,0|0|0|0|0|0|0|0|0|0|0|0|0|0|0,3:0|3:0|3:0|3:0|3:0|3:0|3:0|3:0|3:0|3:0|3:0|3:0|3:0|3:0|3:0,0:0:0:0:
233,272,65786,5,6,3:1:0:0:
76,295,67632,6,0,P|101:281|130:280,7,58.4999973220826,8|8|8|8|8|8|8|8,0:0|0:0|0:0|0:0|0:0|0:0|0:0|0:0,0:0:0:0:
188,216,68094,2,0,P|216:221|239:239,7,58.4999973220826,8|8|8|8|8|8|8|8,0:0|0:0|0:0|0:0|0:0|0:0|0:0|0:0,0:0:0:0:
348,277,68556,5,8,0:0:0:0:
349,266,68613,1,8,0:0:0:0:
351,255,68671,1,8,0:0:0:0:
353,244,68729,1,8,0:0:0:0:
355,233,68786,1,8,0:0:0:0:
357,222,68844,1,8,0:0:0:0:
359,212,68902,1,8,0:0:0:0:
361,201,68959,1,8,0:0:0:0:
363,190,69017,6,0,B|348:188|348:188|354:158,1,45,2|0,0:0|0:0,0:0:0:0:
291,10,69132,2,0,B|306:12|306:12|299:41,1,45,2|0,0:0|0:0,0:0:0:0:
422,61,69248,6,0,B|388:69|360:55|360:55|331:69|315:95|315:95|310:120|310:120|295:145|268:161|268:161|240:147|210:154,1,270,2|0,0:0|0:0,0:0:0:0:
81,40,69478,6,0,B|143:22|180:77|180:77|130:100|129:156,1,216,4|0,3:1|0:0,0:0:0:0:
48,200,69709,2,0,B|135:183|100:268|206:246,1,175.499991966248,8|0,3:2|0:0,0:0:0:0:
206,246,69940,1,0,3:1:0:0:
116,368,70055,1,2,0:0:0:0:
119,371,70113,1,0,0:0:0:0:
123,375,70171,2,0,P|114:330|105:286,1,90,8|0,3:2|0:0,0:0:0:0:
210,154,70401,5,0,3:1:0:0:
74,33,70517,1,2,0:0:0:0:
77,36,70574,1,0,0:0:0:0:
81,40,70632,1,8,3:2:0:0:
40,216,70748,1,2,0:0:0:0:
192,48,70863,6,0,P|235:58|279:70,1,90,0|0,3:1|0:0,0:0:0:0:
484,96,71094,2,0,B|492:60|492:60|432:40|432:40|388:84|388:84|409:119,1,202.500007724762,10|0,3:2|0:0,0:0:0:0:
448,208,71324,6,0,L|341:188,1,107.999996704102,0|0,3:1|0:0,0:0:0:0:
341,188,71498,1,0,0:0:0:0:
341,188,71555,1,8,3:2:0:0:
200,128,71671,1,2,0:0:0:0:
146,325,71786,2,0,B|180:284|180:284|162:232,1,107.999996704102,0|0,3:1|0:0,0:0:0:0:
162,232,71959,1,0,0:0:0:0:
162,232,72017,1,8,3:2:0:0:
17,178,72132,1,2,0:0:0:0:
120,53,72248,6,0,B|172:60|206:32|206:32|179:61|183:96,1,161.999995056153,2|0,3:2|0:0,0:0:0:0:
200,128,72478,2,0,B|252:117|252:117|256:120|256:120|313:109,1,116.999994644165,10|0,3:2|0:0,0:0:0:0:
376,248,72709,6,0,L|389:159,1,90,2|0,3:2|0:0,0:0:0:0:
510,357,72940,2,0,B|464:342|449:290|449:290|422:335|369:331,1,188.999994232178,10|0,3:2|0:0,0:0:0:0:
305,384,73171,6,0,B|325:342|291:300|291:300|286:300|286:300|252:258|275:212,1,188.999994232178,2|0,3:2|0:0,0:0:0:0:
296,131,73401,2,0,B|299:103|299:103|243:68|243:68|208:123|208:123|222:150,1,188.999994232178,10|0,3:2|0:0,0:0:0:0:
274,212,73632,2,0,B|237:193|237:193|188:206|188:206|162:251|105:244,1,188.999994232178,2|0,3:2|0:0,0:0:0:0:
16,160,73863,2,0,P|59:138|37:181,1,125.999996154785,10|0,3:2|0:0,0:0:0:0:
224,326,74094,5,0,3:1:0:0:
39,369,74209,2,0,B|51:315|51:315|181:280|181:280|223:325,1,251.999992309571,2|2,0:0|0:0,0:0:0:0:
480,256,74555,5,0,3:1:0:0:
304,216,74671,1,0,0:0:0:0:
359,370,74786,1,8,3:2:0:0:
359,370,74901,1,0,0:0:0:0:
455,124,75017,6,0,B|468:75|431:31|379:41|379:41|186:85|186:85|208:52|203:21|203:21|209:51|231:58,1,450,2|0,3:1|0:0,0:0:0:0:
88,109,75709,6,0,B|158:124|158:124|185:173|185:173|257:191,1,202.500007724762,8|0,0:1|0:0,0:0:0:0:
336,216,75940,6,0,B|371:129|371:129|314:93|314:93|327:146,1,216,4|0,3:1|0:0,0:0:0:0:
416,248,76171,2,0,B|340:266|340:266|323:298|323:298|250:317,1,188.999994232178,8|0,3:2|0:0,0:0:0:0:
199,377,76401,1,0,3:1:0:0:
42,236,76517,1,2,0:0:0:0:
45,239,76574,1,0,0:0:0:0:
49,243,76632,1,8,3:2:0:0:
257,191,76748,1,0,0:0:0:0:
168,32,76863,6,0,B|129:43|129:43|114:122|114:122|141:154,1,161.999995056153,0|0,3:1|0:0,0:0:0:0:
140,153,77094,1,8,3:2:0:0:
336,120,77209,2,0,L|355:13,1,107.999996704102,2|0,0:0|3:1,0:0:0:0:
432,144,77440,5,2,0:0:0:0:
257,191,77555,1,8,3:2:0:0:
454,137,77671,1,2,0:0:0:0:
376,304,77786,6,0,B|366:277|330:271|330:271|242:294|242:294|207:290|193:254,1,215.999993408203,0|10,3:1|3:2,0:0:0:0:
257,191,78132,1,0,0:0:0:0:
305,373,78248,2,0,B|278:363|272:327|272:327|295:239|295:239|291:204|255:190,1,215.999993408203,0|8,3:1|3:2,0:0:0:0:
104,232,78594,1,0,0:0:0:0:
144,16,78709,6,0,B|202:32|202:32|173:129,1,161.999995056153,0|0,3:1|0:0,0:0:0:0:
169,143,78940,1,8,3:2:0:0:
336,216,79055,6,0,B|384:237|444:216|448:157|403:146|399:189,1,161.999995056153,2|0,0:0|0:0,0:0:0:0:
416,200,79286,2,0,L|468:187,2,53.9999983520508,2|0|8,0:0|0:0|3:2,0:0:0:0:
464,336,79517,1,0,0:0:0:0:
305,373,79632,6,0,B|272:344|272:344|286:281,1,107.999996704102,4|0,3:1|0:0,0:0:0:0:
286,281,79805,1,2,0:0:0:0:
286,281,79863,2,0,B|244:290|244:290|237:302|237:302|187:313,1,107.999996704102,8|2,3:2|0:0,0:0:0:0:
19,219,80094,6,0,B|4:167|4:167|37:124,1,107.999996704102,4|0,3:2|0:0,0:0:0:0:
120,144,80267,2,0,B|135:196|135:196|101:238,1,107.999996704102,2|0,0:0|0:0,0:0:0:0:
101,238,80440,1,2,0:0:0:0:
286,281,80555,6,0,B|341:268|341:268|345:270|345:270|390:259,1,107.999996704102,4|0,3:2|0:0,0:0:0:0:
442,321,80728,1,2,0:0:0:0:
448,319,80786,2,0,P|472:272|463:219,1,107.999996704102,8|2,3:2|0:0,0:0:0:0:
304,71,81017,6,0,B|292:49|292:49|333:4|333:4|395:31|395:31|386:56,1,180,4|2,3:2|0:0,0:0:0:0:
328,176,81190,1,0,0:0:0:0:
328,176,81248,2,0,P|309:162|288:156,1,45,8|0,3:2|0:0,0:0:0:0:
216,112,81363,2,0,P|195:120|179:136,1,45,2|0,0:0|0:0,0:0:0:0:
115,200,81478,6,0,L|71:190,7,45,4|0|0|0|0|0|0|0,3:1|0:0|0:0|0:0|0:0|0:0|0:0|0:0,0:0:0:0:
16,264,81940,6,0,P|30:293|28:261,1,90,2|0,0:0|0:0,0:0:0:0:
128,208,82055,2,0,P|120:239|139:213,1,90,2|0,0:0|0:0,0:0:0:0:
249,237,82171,2,0,P|222:255|254:248,1,90,2|0,0:0|0:0,0:0:0:0:
323,336,82286,2,0,P|290:333|319:347,1,90,2|0,0:0|0:0,0:0:0:0:
432,368,82401,5,8,3:2:0:0:
432,368,82459,1,0,3:0:0:0:
432,368,82517,2,0,L|444:315,1,53.9999983520508,0|0,3:0|0:0,0:0:0:0:
242,194,82632,5,8,3:2:0:0:
242,194,82690,1,0,3:0:0:0:
242,194,82748,2,0,L|254:246,1,53.9999983520508,0|0,3:0|0:0,0:0:0:0:
472,192,82863,5,8,3:2:0:0:
472,192,82921,1,0,3:0:0:0:
472,192,82979,2,0,L|484:139,1,53.9999983520508,0|0,3:0|0:0,0:0:0:0:
296,40,83094,5,8,3:2:0:0:
296,40,83152,1,0,3:0:0:0:
296,40,83210,2,0,L|308:92,1,53.9999983520508,0|0,3:0|0:0,0:0:0:0:
327,171,83324,5,0,3:0:0:0:
147,307,83786,5,8,0:0:0:0:
305,329,84248,5,0,3:0:0:0:
169,149,84710,5,8,0:0:0:0:
237,239,85171,5,0,3:0:0:0:
256,192,85228,12,0,86440,0:0:0:0:
103,277,86555,6,0,B|107:249|107:249|91:279,6,53.9999983520508
182,283,87017,5,4,3:1:0:0:
26,237,87132,1,0,0:0:0:0:
40,365,87248,6,0,B|70:370|95:355|95:355|109:373|140:376,1,107.999996704102,0|0,3:0|0:0,0:0:0:0:
289,247,87478,2,0,P|337:265|346:316,1,107.999996704102,0|0,3:0|0:0,0:0:0:0:
182,283,87709,2,0,B|188:271|188:271|175:177,1,107.999996704102,0|0,3:0|0:0,0:0:0:0:
228,5,87940,5,0,3:0:0:0:
322,0,88055,1,0,0:0:0:0:
417,93,88171,5,0,3:0:0:0:
323,98,88286,1,0,0:0:0:0:
175,177,88401,6,0,B|182:113|182:113|166:95|161:74,1,107.999996704102,0|0,3:0|0:0,0:0:0:0:
48,254,88632,6,0,B|31:277|1:273|1:273|9:244|53:245,1,107.999996704102
125,246,88863,6,0,B|169:257|169:257|178:273|178:273|238:288,1,107.999996704102,0|0,3:0|0:0,0:0:0:0:
437,371,89094,5,0,3:0:0:0:
451,272,89209,1,0,0:0:0:0:
364,149,89324,5,0,3:0:0:0:
350,248,89439,1,0,0:0:0:0:
252,375,89555,6,0,P|215:330|228:272,1,107.999996704102,0|0,3:0|0:0,0:0:0:0:
109,162,89786,6,0,L|-5:174,1,107.999996704102,0|0,3:0|0:0,0:0:0:0:
124,14,90016,5,8,0:0:0:0:
136,14,90073,1,8,0:0:0:0:
149,16,90131,1,8,0:0:0:0:
162,18,90189,1,8,0:0:0:0:
175,19,90248,2,0,B|185:53|185:53|170:87,1,72,8|8,0:0|0:0,0:0:0:0:
239,169,90478,1,8,0:0:0:0:
512,234,90709,6,0,B|425:210|425:210|482:192,1,107.999996704102,4|0,3:1|0:0,0:0:0:0:
512,20,90940,2,0,B|521:97|521:97|504:122,1,107.999996704102,8|0,3:2|0:0,0:0:0:0:
351,236,91171,2,0,P|342:185|378:147,1,107.999996704102,0|0,3:1|0:0,0:0:0:0:
170,86,91401,5,2,0:0:0:0:
17,247,91632,6,0,B|48:243|66:224|66:224|84:244|119:250,1,107.999996704102,0|0,3:1|0:0,0:0:0:0:
251,371,91863,2,0,P|192:371|159:334,1,107.999996704102,8|0,3:2|0:0,0:0:0:0:
194,173,92094,6,0,P|227:189|233:237,2,71.9999978027344,8|2|8,2:2|2:2|2:2,0:0:0:0:
106,99,92324,2,0,P|136:78|180:97,2,71.9999978027344,8|2|8,2:2|2:2|2:2,0:0:0:0:
17,247,92555,6,0,B|36:168|36:168|19:116,1,107.999996704102,0|0,3:1|0:0,0:0:0:0:
136,5,92786,2,0,B|180:16|180:16|189:32|189:32|249:47,1,107.999996704102,8|0,3:2|0:0,0:0:0:0:
439,119,93017,5,0,3:1:0:0:
453,28,93132,1,0,0:0:0:0:
336,84,93248,5,8,3:2:0:0:
322,175,93363,1,0,0:0:0:0:
231,42,93478,5,0,3:1:0:0:
231,42,94171,6,0,P|195:62|213:138,1,107.999996704102
297,253,94401,6,0,B|320:248|338:224|338:224|362:239|395:238,1,107.999996704102,4|0,3:1|0:0,0:0:0:0:
145,324,94632,2,0,B|122:319|104:295|104:295|80:310|47:309,1,107.999996704102,8|0,3:2|0:0,0:0:0:0:
262,360,94863,5,0,3:1:0:0:
191,218,94978,1,0,0:0:0:0:
391,134,95094,2,0,B|402:150|402:150|391:237,1,107.999996704102,8|0,3:2|0:0,0:0:0:0:
195,123,95324,5,4,3:1:0:0:
201,86,95440,1,0,0:0:0:0:
304,173,95555,1,8,3:2:0:0:
154,294,95671,2,0,P|112:259|108:201,1,107.999996704102,0|0,0:0|3:1,0:0:0:0:
142,22,95901,5,0,0:0:0:0:
11,73,96017,2,0,B|64:81|64:81|72:92|72:92|134:105,1,107.999996704102,8|0,3:2|0:0,0:0:0:0:
384,146,96248,6,0,B|392:51|392:51|361:76,1,125.999996154785,4|0,3:2|0:0,0:0:0:0:
220,205,96479,1,8,3:2:0:0:
358,278,96594,1,0,0:0:0:0:
169,347,96710,6,0,P|213:300|292:312,1,125.999996154785,4|0,3:2|0:0,0:0:0:0:
481,292,96940,5,8,3:2:0:0:
485,95,97055,1,0,0:0:0:0:
308,206,97171,1,4,3:1:0:0:
308,206,98094,6,0,B|278:188|278:188|216:204|216:204|203:224|203:224|139:239|139:239|116:223,1,216,4|0,3:1|0:0,0:0:0:0:
105,208,98324,2,0,B|121:144|121:144|64:125,1,125.999996154785,8|0,3:2|0:0,0:0:0:0:
24,304,98555,5,0,3:1:0:0:
201,258,98671,1,0,0:0:0:0:
24,303,98786,2,0,P|77:300|122:328,1,107.999996704102,8|0,3:2|0:0,0:0:0:0:
334,135,99017,5,0,3:1:0:0:
170,66,99132,1,0,0:0:0:0:
201,258,99248,1,8,3:2:0:0:
275,64,99363,6,0,B|326:40|326:40|376:53,1,107.999996704102,0|0,0:0|3:0,0:0:0:0:
420,173,99594,1,0,0:0:0:0:
351,230,99709,2,0,B|319:189|319:189|335:135,1,107.999996704102,8|0,3:2|0:0,0:0:0:0:
512,160,99940,5,0,3:1:0:0:
480,344,100055,1,0,0:0:0:0:
351,230,100171,2,0,B|391:198|391:198|444:215,1,107.999996704102,8|0,3:2|0:0,0:0:0:0:
276,346,100401,6,0,B|200:330|200:330|186:336|186:336|118:321,1,161.999995056153,0|0,3:1|0:0,0:0:0:0:
60,383,100632,2,0,P|37:334|47:282,1,107.999996704102,8|0,3:2|0:0,0:0:0:0:
192,161,100863,5,0,3:1:0:0:
26,92,100978,1,0,0:0:0:0:
26,92,101036,1,0,0:0:0:0:
26,92,101094,1,8,3:2:0:0:
159,6,101209,1,0,0:0:0:0:
88,176,101324,2,0,B|98:223|98:223|90:238|90:238|97:280,1,107.999996704102,0|0,3:1|0:0,0:0:0:0:
192,368,101555,6,0,P|214:352|240:348,1,53.9999983520508,8|0,3:2|0:0,0:0:0:0:
304,280,101671,2,0,P|330:282|353:296,1,53.9999983520508
448,384,101786,5,0,3:1:0:0:
448,384,101901,1,0,0:0:0:0:
512,198,102017,2,0,L|406:218,1,107.999996704102,8|0,3:2|0:0,0:0:0:0:
276,7,102248,5,0,3:1:0:0:
319,166,102363,1,0,0:0:0:0:
429,51,102478,1,8,3:2:0:0:
314,185,102594,6,0,B|269:146|207:174|207:174|190:230|137:241,1,215.999993408203
32,172,102940,1,8,3:2:0:0:
32,172,103055,1,0,0:0:0:0:
0,330,103171,6,0,B|35:308|35:308|113:325|113:325|132:361,1,161.999995056153,0|0,3:1|0:0,0:0:0:0:
136,379,103401,2,0,L|239:347,1,107.999996704102,8|0,3:2|0:0,0:0:0:0:
384,160,103632,5,0,3:1:0:0:
480,296,103748,1,0,0:0:0:0:
504,184,103863,1,8,3:2:0:0:
360,264,103978,2,0,B|318:253|318:253|312:241|312:241|258:226,1,107.999996704102,0|0,0:0|3:1,0:0:0:0:
96,112,104209,5,0,0:0:0:0:
216,48,104324,1,8,3:2:0:0:
80,200,104440,2,0,B|0:176|0:176|23:45,1,215.999993408203
168,208,104786,5,8,0:0:0:0:
169,221,104843,1,8,0:0:0:0:
166,234,104901,1,8,0:0:0:0:
159,246,104959,1,8,0:0:0:0:
149,255,105016,1,8,0:0:0:0:
96,112,105132,1,0,0:0:0:0:
96,112,105248,2,0,L|202:95,1,107.999996704102,8|0,0:0|0:0,0:0:0:0:
412,228,105478,6,0,P|447:197|405:217,1,135,4|0,3:2|0:0,0:0:0:0:
428,210,105940,6,0,B|388:184|339:204|339:204|328:253|276:270,1,188.999994232178,4|0,3:1|0:0,0:0:0:0:
184,196,106171,2,0,B|168:164|168:164|256:186,1,125.999996154785,8|2,3:2|0:0,0:0:0:0:
48,293,106401,5,0,3:1:0:0:
18,177,106517,1,0,0:0:0:0:
226,70,106632,5,8,3:2:0:0:
256,186,106748,1,0,0:0:0:0:
168,360,106863,6,0,B|162:330|135:316|135:316|265:338,1,188.999994232178,2|0,3:2|0:0,0:0:0:0:
360,376,107094,2,0,B|377:354|377:354|365:288|365:288|346:313,1,125.999996154785,8|0,3:2|0:0,0:0:0:0:
256,186,107324,5,0,3:1:0:0:
344,202,107440,1,2,0:0:0:0:
396,39,107555,5,8,3:2:0:0:
482,62,107671,2,0,B|443:46|403:70|403:70|379:126|317:119,1,188.999994232178,2|0,0:0|0:0,0:0:0:0:
312,112,107901,1,2,0:0:0:0:
170,172,108017,1,8,3:2:0:0:
184,10,108132,6,0,P|222:45|222:98,1,107.999996704102,2|0,0:0|3:1,0:0:0:0:
40,176,108363,1,2,0:0:0:0:
36,156,108478,1,8,3:2:0:0:
216,256,108594,1,2,0:0:0:0:
104,360,108709,6,0,P|74:315|78:262,1,107.999996704102,2|0,3:2|0:0,0:0:0:0:
238,95,108940,2,0,L|215:255,1,161.999995056153,10|0,3:2|0:0,0:0:0:0:
211,286,109171,5,0,3:1:0:0:
351,375,109286,1,0,0:0:0:0:
351,375,109344,1,2,0:0:0:0:
351,375,109401,2,0,B|372:351|372:322|372:322|354:275,1,107.999996704102,8|2,3:2|0:0,0:0:0:0:
378,119,109632,6,0,B|425:67|497:88|497:88|487:117,1,161.999995056153,0|0,3:1|0:0,0:0:0:0:
487,117,109863,1,8,3:2:0:0:
420,239,109978,2,0,L|315:211,1,107.999996704102,2|0,0:0|3:1,0:0:0:0:
101,16,110209,5,0,0:0:0:0:
255,71,110324,1,8,3:2:0:0:
84,9,110440,1,2,0:0:0:0:
136,192,110555,6,0,B|166:147|166:147|150:95,1,107.999996704102,0|0,3:1|0:0,0:0:0:0:
8,176,110786,2,0,L|28:281,1,107.999996704102,8|0,3:2|0:0,0:0:0:0:
112,376,111017,6,0,L|120:331,7,45,4|0|0|0|0|0|0|0,3:2|0:0|0:0|0:0|0:0|0:0|0:0|0:0,0:0:0:0:
224,248,111478,2,0,L|232:292,7,45,4|0|0|0|0|0|0|0,3:2|0:0|0:0|0:0|0:0|0:0|0:0|0:0,0:0:0:0:
312,368,111940,5,4,3:1:0:0:
327,374,111997,1,0,0:0:0:0:
343,377,112055,1,0,0:0:0:0:
360,377,112113,1,0,0:0:0:0:
377,373,112170,1,0,0:0:0:0:
392,365,112228,1,0,0:0:0:0:
404,354,112286,1,0,0:0:0:0:
415,341,112343,1,0,0:0:0:0:
422,325,112401,2,0,L|417:302,15,22.5
349,268,112863,6,0,B|345:280|342:297|342:297|318:235|241:218|241:218|290:168|370:189|370:189|416:118|344:104|446:18|446:18|432:126|501:111|467:195,1,675,2|0,0:0|0:0,0:0:0:0:
279,359,116555,6,0,B|231:313|160:317|160:317|228:319|353:333|300:219|513:270|513:270|457:257|419:305,1,594.000018127442,2|0,0:0|0:0,0:0:0:0:
308,255,120248,6,0,B|265:208|249:133|343:105|379:158|356:188,1,216,2|0,0:0|0:0,0:0:0:0:
206,215,121171,6,0,L|156:209,3,36,0|0|0|0,3:0|3:0|3:0|3:0,0:0:0:0:
308,255,121632,6,0,L|343:259,3,36,0|0|0|0,3:0|3:0|3:0|3:0,0:0:0:0:
212,363,122094,6,0,L|208:314,1,36,0|0,3:0|3:0,0:0:0:0:
218,289,122324,2,0,L|220:324,1,36,0|0,3:0|3:0,0:0:0:0:
123,353,122555,6,0,L|119:304,1,36,0|0,3:0|3:0,0:0:0:0:
129,279,122785,2,0,L|131:314,1,36,0|0,3:0|3:0,0:0:0:0:
31,369,123017,5,0,3:0:0:0:
30,351,123132,1,0,3:0:0:0:
30,333,123248,1,0,3:0:0:0:
29,315,123363,1,0,3:0:0:0:
29,297,123478,1,0,3:0:0:0:
28,279,123594,1,0,3:0:0:0:
28,261,123709,1,0,3:0:0:0:
28,243,123824,1,0,3:0:0:0:
24,163,123940,6,0,L|23:138,3,18,8|0|0|0,3:1|3:0|3:0|3:0,0:0:0:0:
152,212,124171,6,0,L|153:178,3,26.9999991760254,8|0|0|0,3:1|3:0|3:0|3:0,0:0:0:0:
116,41,124401,5,8,3:1:0:0:
116,41,124459,1,0,3:0:0:0:
116,41,124517,2,0,L|117:73,1,31.4999990386963,0|0,3:0|3:0,0:0:0:0:
267,241,124632,5,8,3:1:0:0:
267,241,124690,1,0,3:0:0:0:
267,241,124748,2,0,L|268:187,1,36,0|0,3:0|3:0,0:0:0:0:
24,163,124863,5,8,3:1:0:0:
26,174,124920,1,0,3:0:0:0:
29,188,124978,1,0,3:0:0:0:
31,201,125036,1,0,3:0:0:0:
36,224,125094,1,8,3:1:0:0:
41,249,125151,1,0,3:0:0:0:
47,277,125209,1,0,3:0:0:0:
54,305,125267,1,0,3:0:0:0:
61,334,125324,5,8,3:1:0:0:
94,314,125381,1,0,3:0:0:0:
131,311,125439,1,0,3:0:0:0:
165,331,125497,1,0,3:0:0:0:
192,359,125555,5,8,3:1:0:0:
236,382,125612,1,0,3:0:0:0:
295,384,125670,1,0,3:0:0:0:
339,351,125728,1,0,3:0:0:0:
369,280,125785,5,8,3:1:0:0:
436,359,127171,6,2,L|442:328,1,31.5,2|0,0:1|0:1,0:1:0:0:
432,320,127632,6,0,B|391:328|391:328|399:331|399:331|360:338,31,90,6|0|0|0|0|0|0|0|0|0|0|0|0|0|0|0|0|0|0|0|0|0|0|0|0|0|0|0|0|0|0|0,3:2|3:0|3:0|3:0|3:0|3:0|3:0|3:0|3:0|3:0|3:0|3:0|3:0|3:0|3:0|3:0|3:0|3:0|3:0|3:0|3:0|3:0|3:0|3:0|3:0|3:0|3:0|3:0|3:0|3:0|3:0|3:0,0:0:0:0:
343,352,128555,6,0,P|321:332|310:305,1,58.4999973220826,2|0,3:0|0:0,0:0:0:0:
288,296,128671,2,0,P|284:267|293:239,1,58.4999973220826,0|0,3:0|0:0,0:0:0:0:
336,88,128786,6,0,L|393:75,1,58.4999973220826,0|0,3:0|0:0,0:0:0:0:
408,88,128901,2,0,L|465:75,1,58.4999973220826,0|0,3:0|0:0,0:0:0:0:
496,224,129017,6,0,P|466:225|439:215,1,58.4999973220826,2|0,3:0|0:0,0:0:0:0:
424,225,129132,2,0,P|401:206|387:181,1,58.4999973220826,0|0,3:0|0:0,0:0:0:0:
208,16,129248,6,0,L|196:73,1,58.4999973220826,0|0,3:0|0:0,0:0:0:0:
77,141,129363,1,0,3:0:0:0:
74,155,129420,1,0,3:0:0:0:
71,169,129478,1,2,3:0:0:0:
68,184,129536,1,0,3:0:0:0:
65,197,129594,6,0,P|94:197|121:208,1,58.4999973220826,0|0,3:0|3:0,0:0:0:0:
189,165,129709,2,0,P|206:187|216:215,1,58.4999973220826,0|0,3:0|0:0,0:0:0:0:
293,239,129824,2,0,P|287:267|271:292,1,58.4999973220826,0|0,3:0|0:0,0:0:0:0:
216,376,129940,6,0,L|156:365,1,58.4999973220826,2|0,3:0|0:0,0:0:0:0:
94,365,130055,2,0,L|152:376,1,58.4999973220826,0|0,3:0|0:0,0:0:0:0:
271,292,130171,5,0,3:0:0:0:
293,265,130228,1,0,3:0:0:0:
325,250,130286,1,0,3:0:0:0:
360,249,130344,1,0,3:0:0:0:
392,261,130401,5,2,3:0:0:0:
394,275,130458,1,0,3:0:0:0:
397,289,130516,1,0,3:0:0:0:
399,304,130574,1,0,3:0:0:0:
402,318,130632,2,0,L|459:329,1,58.4999973220826,0|0,3:0|0:0,0:0:0:0:
504,176,130748,5,0,3:0:0:0:
489,173,130805,1,0,3:0:0:0:
475,170,130863,1,2,3:0:0:0:
460,168,130921,1,0,3:0:0:0:
447,166,130979,2,0,L|435:108,1,58.4999973220826,0|0,3:0|3:0,0:0:0:0:
424,104,131094,2,0,L|412:46,1,58.4999973220826,0|0,3:0|0:0,0:0:0:0:
296,32,131209,6,0,L|293:46,4,14.6249993305207,0|0|0|0|0,3:0|3:0|3:0|3:0|3:0,0:0:0:0:
321,166,131324,6,0,B|337:124|295:73|248:80|248:80|185:90|185:90|181:98|181:98|87:114|87:114|45:123|6:74|24:26,1,432,6|0,3:1|0:0,0:0:0:0:
24,26,131786,2,0,B|71:7|120:46|111:89|111:89|95:183|95:183|87:187|87:187|77:250|77:250|70:297|121:339|163:322,1,432,6|0,3:1|0:0,0:0:0:0:
224,264,132248,1,2,3:0:0:0:
221,249,132305,1,0,3:0:0:0:
218,235,132363,1,0,3:0:0:0:
216,220,132421,1,0,3:0:0:0:
213,209,132478,6,0,L|203:151,1,58.4999973220826,0|0,3:0|0:0,0:0:0:0:
192,144,132594,2,0,L|182:86,1,58.4999973220826,0|0,3:0|0:0,0:0:0:0:
295,0,132709,6,0,P|309:25|313:53,1,58.4999973220826,2|0,3:0|0:0,0:0:0:0:
271,109,132824,2,0,P|285:83|308:65,1,58.4999973220826,0|0,3:0|0:0,0:0:0:0:
378,74,132940,2,0,P|348:74|321:63,1,58.4999973220826,0|0,3:0|0:0,0:0:0:0:
104,56,133055,5,0,3:0:0:0:
100,68,133113,1,0,3:0:0:0:
97,79,133171,2,0,L|106:136,1,58.4999973220826,2|0,3:0|0:0,0:0:0:0:
201,231,133286,5,0,3:0:0:0:
197,219,133344,1,0,3:0:0:0:
194,208,133402,2,0,L|203:150,1,58.4999973220826,0|0,3:0|0:0,0:0:0:0:
40,304,133517,6,0,B|30:320|30:320|10:315,2,38.9999982147218,0|0|0,3:0|3:0|3:0,0:0:0:0:
48,296,133632,6,0,L|105:307,1,58.4999973220826,2|0,3:0|0:0,0:0:0:0:
184,328,133748,2,0,L|241:339,1,58.4999973220826,0|0,3:0|0:0,0:0:0:0:
328,384,133863,5,0,3:0:0:0:
342,381,133920,1,0,3:0:0:0:
356,378,133978,1,0,3:0:0:0:
370,375,134036,1,0,3:0:0:0:
385,372,134093,1,2,3:0:0:0:
400,369,134151,1,0,3:0:0:0:
415,366,134209,2,0,L|429:363,6,14.6249993305207,0|0|0|0|0|0|0,3:0|3:0|3:0|3:0|3:0|3:0|3:0,0:0:0:0:
448,376,134324,6,0,L|457:318,1,58.4999973220826,0|0,3:0|0:0,0:0:0:0:
368,272,134440,5,0,3:0:0:0:
343,259,134497,1,0,3:0:0:0:
327,236,134555,1,2,3:0:0:0:
324,209,134613,1,0,3:0:0:0:
333,183,134671,2,0,L|390:173,1,58.4999973220826,0|0,3:0|3:0,0:0:0:0:
400,160,134786,2,0,L|457:150,1,58.4999973220826,0|0,3:0|0:0,0:0:0:0:
432,16,134901,6,0,L|428:1,4,14.6249993305207,0|0|0|0|0,3:0|3:0|3:0|3:0|3:0,0:0:0:0:
488,72,135017,6,0,B|448:24|384:48|384:48|360:96|301:95,1,216,6|0,3:2|0:0,0:0:0:0:
223,191,135248,2,0,B|193:177|166:117|179:68|237:42|237:42|208:80|223:122,1,270,6|0,3:2|0:0,0:0:0:0:
312,278,135478,2,0,B|321:232|284:201|253:206|253:206|190:221|190:221|168:225|142:269|169:301,1,270,6|0,3:2|0:0,0:0:0:0:
232,384,135709,2,0,B|239:347|210:319|173:324|173:324|104:336|104:336|69:341|40:307|52:269,1,270,6|0,3:2|0:0,0:0:0:0:
20,166,135940,5,2,3:0:0:0:
33,183,135997,1,0,3:0:0:0:
53,193,136055,1,0,3:0:0:0:
75,192,136113,1,0,3:0:0:0:
95,182,136171,2,0,L|101:153,6,29.2499986610413,0|0|0|0|0|0|0,3:0|3:0|3:0|3:0|3:0|0:0|0:0,0:0:0:0:
80,48,136401,5,2,3:0:0:0:
108,42,136458,1,0,3:0:0:0:
137,37,136516,1,0,3:0:0:0:
166,32,136574,1,0,3:0:0:0:
195,27,136632,2,0,L|184:84,1,58.4999973220826,0|0,3:0|0:0,0:0:0:0:
223,191,136748,5,0,3:0:0:0:
251,197,136805,1,0,3:0:0:0:
280,202,136863,1,2,3:0:0:0:
309,207,136921,1,0,3:0:0:0:
338,212,136979,2,0,L|327:154,1,58.4999973220826,0|0,3:0|0:0,0:0:0:0:
456,56,137094,5,0,3:0:0:0:
456,56,137151,1,0,3:0:0:0:
456,56,137209,1,0,3:0:0:0:
456,56,137267,1,0,3:0:0:0:
456,56,137324,2,0,L|445:113,1,58.4999973220826,2|0,3:0|0:0,0:0:0:0:
488,240,137440,6,0,L|485:254,2,14.6249993305207,0|0|0,3:0|3:0|3:0,0:0:0:0:
491,224,137498,1,0,3:0:0:0:
494,211,137555,2,0,L|434:226,1,58.4999973220826,0|0,3:0|0:0,0:0:0:0:
361,355,137671,5,0,3:0:0:0:
341,352,137728,1,0,3:0:0:0:
322,349,137786,1,2,3:0:0:0:
303,346,137844,1,0,3:0:0:0:
283,343,137901,1,0,3:0:0:0:
264,340,137959,1,0,3:0:0:0:
245,337,138017,2,0,L|216:332,2,29.2499986610413,0|0|0,3:0|3:0|3:0,0:0:0:0:
126,368,138132,5,0,3:0:0:0:
110,362,138190,1,0,3:0:0:0:
95,345,138248,1,2,3:0:0:0:
94,324,138305,1,0,3:0:0:0:
104,312,138363,2,0,L|118:314,4,14.6249993305207,0|0|0|0|0,3:0|3:0|3:0|3:0|3:0,0:0:0:0:
176,256,138478,2,0,L|173:241,14,14.6249993305207,0|0|0|0|0|0|0|0|0|0|0|0|0|0|0,3:0|3:0|3:0|3:0|3:0|3:0|3:0|3:0|3:0|3:0|3:0|3:0|3:0|3:0|3:0,0:0:0:0:
171,229,138709,5,6,3:1:0:0:
155,164,140555,6,0,B|168:139|168:139|160:109,7,58.4999973220826,8|8|8|8|8|8|8|8,0:0|0:0|0:0|0:0|0:0|0:0|0:0|0:0,0:0:0:0:
70,99,141017,2,0,B|57:124|57:124|64:153,7,58.4999973220826,8|8|8|8|8|8|8|8,0:0|0:0|0:0|0:0|0:0|0:0|0:0|0:0,0:0:0:0:
216,240,141478,5,8,0:0:0:0:
230,237,141535,1,8,0:0:0:0:
244,234,141593,1,8,0:0:0:0:
258,231,141651,1,8,0:0:0:0:
273,228,141708,1,8,0:0:0:0:
287,225,141766,1,8,0:0:0:0:
301,222,141824,1,8,0:0:0:0:
316,219,141881,1,8,0:0:0:0:
330,216,141940,6,0,B|343:199|343:199|335:162,1,58.4999973220826,2|0,0:0|0:0,0:0:0:0:
420,35,142055,2,0,B|407:52|407:52|414:88,1,58.4999973220826,2|0,0:0|0:0,0:0:0:0:
503,145,142171,6,0,B|439:168|400:117|400:117|359:68|297:92,1,229.500004377365,2|0,0:0|0:0,0:0:0:0:
41,237,142401,6,0,L|30:236,7,9,4|0|0|0|0|0|0|0,3:0|3:0|3:0|3:0|3:0|3:0|3:0|3:0,0:0:0:0:
57,226,143324,5,0,3:0:0:0:
83,217,143440,5,0,3:0:0:0:
112,224,143555,5,0,3:0:0:0:
142,254,143671,5,0,3:0:0:0:
177,289,143786,5,0,3:0:0:0:
234,308,143901,5,0,3:0:0:0:
310,285,144017,5,0,3:0:0:0:
371,223,144132,5,0,3:0:0:0:
451,177,144248,6,0,L|459:221,1,45,0|0,3:0|3:0,0:0:0:0:
398,353,144363,2,0,L|386:294,1,45,0|0,3:0|3:0,0:0:0:0:
369,143,144478,6,0,L|377:187,1,45,0|0,3:0|3:0,0:0:0:0:
318,329,144593,2,0,L|306:270,1,45,0|0,3:0|3:0,0:0:0:0:
284,106,144709,6,0,L|292:150,1,45,0|0,3:0|3:0,0:0:0:0:
234,308,144824,2,0,L|222:249,1,45,0|0,3:0|3:0,0:0:0:0:
198,66,144940,6,0,L|206:110,1,45,0|0,3:0|3:0,0:0:0:0:
154,284,145055,2,0,L|142:225,1,45,0|0,3:0|3:0,0:0:0:0:
19,186,145171,5,2,3:3:0:0:
21,165,145229,1,0,3:0:0:0:
24,147,145287,1,0,3:0:0:0:
27,125,145344,1,0,3:0:0:0:
54,109,145401,5,2,3:0:0:0:
87,109,145459,1,0,3:0:0:0:
117,125,145517,1,0,3:0:0:0:
134,152,145575,1,0,3:0:0:0:
152,179,145632,1,2,3:0:0:0:
181,195,145690,1,0,3:0:0:0:
214,194,145748,1,0,3:0:0:0:
244,179,145805,1,0,3:0:0:0:
291,140,145863,6,0,B|271:116|278:71|278:71|238:154|300:230,1,242.999992584229,10|0,3:2|0:0,0:0:0:0:
399,251,146094,6,0,B|353:228|311:262|311:262|311:267|311:267|269:301|227:281,1,188.999994232178,6|0,3:1|0:0,0:0:0:0:
227,281,146324,1,10,3:2:0:0:
369,165,146440,1,0,0:0:0:0:
299,351,146555,2,0,B|315:262|315:262|295:221,1,125.999996154785,2|0,3:2|0:0,0:0:0:0:
160,69,146786,5,10,3:2:0:0:
93,226,146901,1,0,0:0:0:0:
218,160,147017,5,0,3:1:0:0:
51,62,147132,2,0,B|0:50|-6:-3|-6:-3|-63:79|27:175,1,251.999992309571,2|2,0:0|0:0,0:0:0:0:
126,298,147478,2,0,B|151:289|169:256|169:256|195:282|245:282,1,125.999996154785,0|0,3:1|0:0,0:0:0:0:
13,384,147709,2,0,P|-17:349|13:267,1,125.999996154785,8|0,3:2|0:0,0:0:0:0:
218,160,147940,6,0,B|436:109|436:109|488:99|525:143|512:192,1,360,2|0,3:1|0:0,0:0:0:0:
373,303,148632,6,0,B|345:221|345:221|415:203|415:203|395:269,1,188.999994232178,8|0,0:1|0:0,0:0:0:0:
373,303,148863,6,0,B|294:321|294:321|276:354|276:354|208:372,1,188.999994232178,4|0,3:1|0:0,0:0:0:0:
85,318,149094,2,0,B|59:261|59:261|106:198,1,125.999996154785,10|0,3:2|0:0,0:0:0:0:
262,136,149324,5,0,3:1:0:0:
168,282,149440,1,0,0:0:0:0:
168,282,149497,1,0,0:0:0:0:
168,282,149555,1,10,3:2:0:0:
86,76,149671,1,0,0:0:0:0:
256,247,149786,6,0,B|280:279|280:279|386:262|386:262|397:223,1,188.999994232178,0|0,3:1|0:0,0:0:0:0:
397,223,150017,1,8,3:2:0:0:
331,62,150132,6,0,B|301:145|301:145|325:197,1,125.999996154785,2|0,0:0|3:1,0:0:0:0:
171,283,150363,2,0,B|121:276|121:276|105:284|105:284|37:277,1,125.999996154785,2|8,0:0|3:2,0:0:0:0:
143,10,150594,5,2,0:0:0:0:
0,95,150709,2,0,B|64:89|105:126|92:144|141:205|221:167,1,215.999993408203,0|8,3:1|3:2,0:0:0:0:
4,180,151055,5,2,0:0:0:0:
193,94,151171,2,0,B|126:92|85:129|98:147|49:208|-30:170,1,215.999993408203,0|8,3:1|3:2,0:0:0:0:
198,269,151517,1,2,0:0:0:0:
81,335,151632,6,0,B|106:214|106:214|91:165,1,161.999995056153,0|0,3:1|0:0,0:0:0:0:
95,177,151863,1,8,3:2:0:0:
236,365,151978,2,0,P|269:329|348:339,1,107.999996704102,2|0,0:0|3:1,0:0:0:0:
360,349,152151,1,0,0:0:0:0:
360,349,152209,2,0,L|446:340,2,53.9999983520508,2|0|10,0:0|0:0|3:2,0:0:0:0:
323,198,152440,1,0,0:0:0:0:
479,134,152555,6,0,B|512:163|512:163|498:226,1,107.999996704102,4|0,3:1|0:0,0:0:0:0:
498,225,152728,1,2,0:0:0:0:
498,225,152786,2,0,B|448:236|448:236|441:248|441:248|399:257,1,107.999996704102,8|2,3:2|0:0,0:0:0:0:
171,115,153017,6,0,B|156:63|156:63|189:20,1,107.999996704102,4|0,3:2|0:0,0:0:0:0:
253,134,153190,1,2,0:0:0:0:
253,134,153248,2,0,B|287:92|287:92|272:40,1,107.999996704102,8|2,3:2|0:0,0:0:0:0:
399,256,153478,6,0,B|344:243|344:243|340:245|340:245|295:234,1,107.999996704102,4|0,3:2|0:0,0:0:0:0:
267,314,153651,1,2,0:0:0:0:
267,314,153709,2,0,P|220:290|167:299,1,107.999996704102,8|2,3:2|0:0,0:0:0:0:
21,242,153940,6,0,B|6:224|6:224|56:186|56:186|123:205|123:205|106:236,1,180,4|0,3:2|0:0,0:0:0:0:
78,303,154113,1,2,0:0:0:0:
78,303,154171,2,0,L|91:374,1,67.5000025749208,8|0,3:2|0:0,0:0:0:0:
179,365,154286,2,0,L|166:298,1,67.5000025749208,2|0,0:0|0:0,0:0:0:0:
327,197,154401,6,0,L|393:209,7,67.5000025749208,0|0|0|0|0|0|0|0,3:1|0:0|0:0|0:0|0:0|0:0|0:0|0:0,0:0:0:0:
237,226,154863,6,0,P|232:215|249:156,1,67.5000025749208,2|0,0:0|0:0,0:0:0:0:
188,114,154978,2,0,P|195:104|254:89,1,67.5000025749208,2|0,0:0|0:0,0:0:0:0:
413,132,155094,6,0,P|422:124|437:65,1,67.5000025749208,2|0,0:0|0:0,0:0:0:0:
512,59,155209,2,0,P|510:46|466:4,1,67.5000025749208,2|0,0:0|0:0,0:0:0:0:
322,33,155324,5,8,3:2:0:0:
322,33,155382,1,0,3:2:0:0:
322,33,155440,2,0,L|333:123,1,67.5000025749208,0|0,3:2|0:0,0:0:0:0:
228,293,155555,5,8,3:2:0:0:
228,293,155613,1,0,3:2:0:0:
228,293,155671,2,0,L|239:203,1,67.5000025749208,0|0,3:2|0:0,0:0:0:0:
209,1,155786,5,8,3:2:0:0:
209,1,155844,1,0,3:2:0:0:
209,1,155902,2,0,L|220:91,1,67.5000025749208,0|0,3:2|0:0,0:0:0:0:
108,307,156017,5,8,3:2:0:0:
108,307,156075,1,0,3:2:0:0:
108,307,156132,2,0,L|119:217,1,67.5000025749208,0|0,3:2|0:0,0:0:0:0:
51,110,156248,5,8,3:2:0:0:
57,129,156478,6,0,P|67:99|66:123,1,99.0000030212403,2|0,0:0|0:0,0:0:0:0:
137,160,156709,2,0,B|224:158|177:97|285:102,1,148.50000453186,2|0,0:0|0:0,0:0:0:0:
347,56,156940,6,0,L|353:135,1,67.5,2|0,0:0|0:0,0:0:0:0:
399,241,157171,6,0,B|396:188|451:160|451:160|414:105|352:123,1,216,6|0,3:1|0:0,0:0:0:0:
318,243,157402,2,0,B|405:226|370:311|476:289,1,175.499991966248,10|0,3:2|0:0,0:0:0:0:
476,289,157633,1,0,3:1:0:0:
280,384,157748,1,2,0:0:0:0:
280,384,157806,1,0,0:0:0:0:
280,384,157864,2,0,P|251:333|262:295,1,90,8|0,3:2|0:0,0:0:0:0:
96,153,158094,5,0,3:1:0:0:
169,331,158210,1,2,0:0:0:0:
169,331,158267,1,0,0:0:0:0:
169,331,158325,1,8,3:2:0:0:
18,248,158441,1,2,0:0:0:0:
211,46,158556,6,0,B|216:70|216:70|196:133,1,90,0|0,3:1|0:0,0:0:0:0:
18,248,158786,2,0,B|4:221|4:221|39:166|39:166|95:201|95:201|92:229,1,188.999994232178,10|0,3:2|0:0,0:0:0:0:
116,256,159017,6,0,L|223:236,1,107.999996704102,2|0,3:2|0:0,0:0:0:0:
223,236,159191,1,0,0:0:0:0:
223,236,159248,1,8,3:2:0:0:
419,334,159364,1,2,0:0:0:0:
358,161,159479,2,0,B|324:202|324:202|342:254,1,107.999996704102,0|0,3:1|0:0,0:0:0:0:
355,275,159652,1,0,0:0:0:0:
355,275,159710,1,8,3:2:0:0:
492,196,159825,1,2,0:0:0:0:
264,113,159941,6,0,B|212:120|178:92|178:92|205:121|201:156,1,161.999995056153,2|0,3:2|0:0,0:0:0:0:
264,113,160171,2,0,B|275:61|275:61|272:57|272:57|283:0,1,116.999994644165,10|0,3:2|0:0,0:0:0:0:
178,288,160402,6,0,P|107:252|119:212,1,116.999994644165,2|0,3:2|0:0,0:0:0:0:
34,108,160633,2,0,B|87:104|114:149|114:149|129:97|175:82,1,188.999994232178,10|0,3:2|0:0,0:0:0:0:
264,113,160864,6,0,B|310:136|352:102|352:102|352:97|352:97|394:63|436:83,1,188.999994232178,0|0,3:1|0:0,0:0:0:0:
489,187,161094,2,0,B|492:215|492:215|436:250|436:250|401:195|401:195|415:168,1,188.999994232178,8|0,3:2|0:0,0:0:0:0:
264,113,161325,6,0,B|250:144|250:144|263:193|263:193|283:205|283:205|305:252|305:252|293:281,1,188.999994232178,0|0,3:1|0:0,0:0:0:0:
191,355,161556,2,0,P|170:311|213:333,1,125.999996154785,8|2,3:2|0:0,0:0:0:0:
458,352,161787,5,0,3:1:0:0:
414,168,161902,2,0,B|468:180|468:180|503:310|503:310|458:352,1,251.999992309571,2|2,0:0|0:0,0:0:0:0:
249,215,162248,5,2,3:2:0:0:
407,270,162364,1,0,0:0:0:0:
363,89,162479,1,10,3:2:0:0:
363,89,162594,1,0,0:0:0:0:
213,333,162709,6,0,B|164:346|120:309|130:257|130:257|174:64|174:64|141:86|110:81|110:81|140:87|147:109,1,450,2|0,3:1|0:0,0:0:0:0:
215,243,163402,6,0,B|145:228|145:228|118:179|118:179|46:161,1,202.500007724762,8|0,0:1|0:0,0:0:0:0:
0,347,163633,6,0,B|87:312|87:312|123:369|123:369|70:356,1,216,4|0,3:1|0:0,0:0:0:0:
72,358,163864,2,0,B|90:282|90:282|122:265|122:265|141:192,1,188.999994232178,10|0,3:2|0:0,0:0:0:0:
50,44,164094,5,2,3:2:0:0:
228,154,164210,1,0,0:0:0:0:
228,154,164267,1,0,0:0:0:0:
228,154,164325,1,10,3:2:0:0:
30,244,164441,1,0,0:0:0:0:
199,355,164556,6,0,B|215:319|215:319|294:304|294:304|326:331,1,161.999995056153,2|0,3:2|0:0,0:0:0:0:
325,330,164787,1,8,3:2:0:0:
478,212,164902,2,0,L|497:105,1,107.999996704102,2|0,0:0|3:1,0:0:0:0:
334,212,165133,5,2,0:0:0:0:
454,346,165248,1,8,3:2:0:0:
318,193,165364,1,2,0:0:0:0:
199,355,165479,6,0,B|159:365|139:339|139:339|116:251|116:251|122:215|149:205,1,215.999993408203,0|8,3:1|3:2,0:0:0:0:
266,71,165824,1,2,0:0:0:0:
43,186,165941,2,0,B|57:152|92:148|92:148|180:171|180:171|216:165|226:138,1,215.999993408203,0|10,3:1|3:2,0:0:0:0:
150,9,166287,1,0,0:0:0:0:
314,240,166402,6,0,B|372:224|372:224|343:127,1,161.999995056153,0|0,3:1|0:0,0:0:0:0:
339,109,166633,1,8,3:2:0:0:
172,280,166748,6,0,B|124:259|64:280|60:339|105:350|109:307,1,161.999995056153,2|0,0:0|0:0,0:0:0:0:
92,296,166979,2,0,L|40:309,2,53.9999983520508,2|0|8,0:0|0:0|3:2,0:0:0:0:
229,175,167210,1,2,0:0:0:0:
382,384,167325,6,0,B|415:355|415:355|401:292,1,107.999996704102,4|0,3:1|0:0,0:0:0:0:
401,292,167498,1,2,0:0:0:0:
401,292,167556,2,0,B|443:301|443:301|450:313|450:313|500:324,1,107.999996704102,8|2,3:2|0:0,0:0:0:0:
328,179,167787,6,0,B|313:127|313:127|346:84,1,107.999996704102,4|0,3:2|0:0,0:0:0:0:
468,117,167960,2,0,B|483:169|483:169|449:211,1,107.999996704102,2|0,0:0|0:0,0:0:0:0:
397,149,168133,1,2,0:0:0:0:
252,59,168248,6,0,B|197:46|197:46|193:48|193:48|148:37,1,107.999996704102,4|0,3:2|0:0,0:0:0:0:
76,106,168421,1,2,0:0:0:0:
70,104,168479,2,0,P|46:57|55:4,1,107.999996704102,8|2,3:2|0:0,0:0:0:0:
192,154,168709,6,0,B|214:198|214:198|198:283,1,135.000005149842,4|0,3:2|0:0,0:0:0:0:
79,243,168882,1,2,0:0:0:0:
79,243,168941,2,0,P|96:229|118:223,1,45,8|0,3:2|0:0,0:0:0:0:
230,359,169056,2,0,P|251:367|267:383,1,45,2|0,0:0|0:0,0:0:0:0:
297,230,169171,6,0,L|307:186,7,45,4|0|0|0|0|0|0|0,3:1|0:0|0:0|0:0|0:0|0:0|0:0|0:0,0:0:0:0:
329,30,169633,6,0,P|313:58|338:37,1,90,2|0,0:0|0:0,0:0:0:0:
440,87,169748,2,0,P|410:98|442:98,1,90,2|0,0:0|0:0,0:0:0:0:
487,202,169864,2,0,P|456:190|481:212,1,90,2|0,0:0|0:0,0:0:0:0:
451,320,169979,2,0,P|434:291|439:323,1,90,2|0,0:0|0:0,0:0:0:0:
336,342,170094,5,8,3:2:0:0:
336,342,170152,1,0,3:0:0:0:
336,342,170210,2,0,L|348:289,1,53.9999983520508,0|0,3:0|0:0,0:0:0:0:
206,98,170325,5,8,3:2:0:0:
206,98,170383,1,0,3:0:0:0:
206,98,170441,2,0,L|218:150,1,53.9999983520508,0|0,3:0|0:0,0:0:0:0:
176,318,170556,5,8,3:2:0:0:
176,318,170614,1,0,3:0:0:0:
176,318,170672,2,0,L|188:265,1,53.9999983520508,0|0,3:0|0:0,0:0:0:0:
84,167,170785,5,8,3:2:0:0:
84,167,170843,1,0,3:0:0:0:
84,167,170901,2,0,L|96:219,1,53.9999983520508,0|0,3:0|0:0,0:0:0:0:
37,309,171017,5,2,0:0:0:0:
37,309,171478,6,0,B|116:283|166:325|128:351|186:398|266:354,1,252
262,355,171940,6,0,B|288:328|282:292|282:292|257:318|262:358,1,135.000005149842,2|0,0:0|0:0,0:0:0:0:
