osu file format v14

[General]
AudioFilename: audio.mp3
AudioLeadIn: 0
PreviewTime:49027
Countdown: 0
SampleSet: Soft
StackLeniency: 0.7
Mode: 0
LetterboxInBreaks: 0
WidescreenStoryboard: 0

[Editor]
Bookmarks: 5324,5440,5555,5671,5786,5901,6017,6132,6248,6710,21479,36248,43633,54710,69479,83325,98094,112863,120248,127633,142402,157171,171017,171940
DistanceSpacing: 1.4
BeatDivisor: 4
GridSize: 32
TimelineZoom: 1.399999

[Metadata]
Title:Excuse My Rudeness, But Could You Please RIP?<3 (t+pazolite Remix)
TitleUnicode:失礼しますが、RIP♡ (t+pazolite Remix)
Artist:Mori Calliope
ArtistUnicode:Mori Calliope
Creator:Amateurre
Version:Easy
Source:
Tags:vtuber virtual youtuber ホロライブ hololive english holoen en holomyth 森 カリオペ dead beats reaper rap japanese electronic speedcore tpz tpazolite shitsureishimasuga sitsureisimasuga xlolicore- my angel watame kowari pachiru cubby shizuku kazato asa flake toybot vikala
BeatmapID:2631171
BeatmapSetID:1264863

[Difficulty]
HPDrainRate:2
CircleSize:3
OverallDifficulty:2
ApproachRate:4.8
SliderMultiplier:0.599999999999999
SliderTickRate:1

[Events]
//Background and Video events
0,0,"mori wallpaper.jpg",0,0
//Break Periods
2,36448,42409
2,65986,68255
2,113064,119025
2,138909,141178
//Storyboard Layer 0 (Background)
//Storyboard Layer 1 (Fail)
//Storyboard Layer 2 (Pass)
//Storyboard Layer 3 (Foreground)
//Storyboard Layer 4 (Overlay)
//Storyboard Sound Samples

[TimingPoints]
248,230.769230769231,4,2,1,40,1,0
6248,-100,4,2,1,65,0,0
6709,-100,4,2,1,65,0,0
7401,-100,4,2,3,55,0,0
7632,-100,4,2,1,65,0,0
13401,-100,4,2,2,65,0,0
14094,-100,4,2,1,65,0,0
14786,-100,4,2,3,55,0,0
15017,-100,4,2,1,65,0,0
21478,-100,4,2,1,75,0,0
28171,-100,4,2,2,75,0,0
28401,-100,4,2,2,75,0,0
28632,-100,4,2,1,75,0,0
28863,-100,4,2,1,75,0,0
36248,-100,4,2,2,60,0,0
47382,-100,4,2,3,60,0,0
47555,-100,4,2,2,60,0,0
47613,-100,4,2,3,60,0,0
47785,-100,4,2,2,60,0,0
47844,-100,4,2,3,60,0,0
48017,-100,4,2,2,60,0,0
48074,-100,4,2,3,60,0,0
48247,-100,4,2,2,60,0,0
48305,-100,4,2,3,60,0,0
48478,-100,4,2,2,60,0,0
48536,-100,4,2,3,60,0,0
48709,-100,4,2,2,60,0,0
48767,-100,4,2,3,60,0,0
48940,-100,4,2,2,60,0,0
48998,-100,4,2,3,60,0,0
49171,-100,4,2,2,60,0,0
50555,-100,4,2,2,80,0,0
51017,-100,4,2,1,70,0,0
51171,-100,4,2,3,70,0,0
51478,-100,4,2,1,65,0,0
51632,-100,4,2,3,65,0,0
51940,-100,4,2,1,60,0,0
52094,-100,4,2,3,60,0,0
52401,-100,4,2,1,55,0,0
52555,-100,4,2,3,55,0,0
52863,-100,4,2,1,50,0,0
53017,-100,4,2,3,50,0,0
53324,-100,4,2,1,45,0,0
53478,-100,4,2,3,45,0,0
53786,-100,4,2,1,40,0,0
53940,-100,4,2,3,40,0,0
54248,-100,4,2,1,60,0,0
54709,-100,4,2,2,85,0,0
55632,-100,4,2,1,85,0,0
58286,-100,4,2,3,85,0,0
58401,-100,4,2,1,85,0,0
61978,-100,4,2,3,85,0,0
62094,-100,4,2,1,85,0,0
64517,-100,4,2,3,85,0,0
64632,-100,4,2,1,85,0,0
65093,-100,4,2,3,85,0,0
65209,-100,4,2,1,85,0,0
65324,-100,4,2,3,85,0,0
65786,-100,4,2,1,85,0,0
67632,-100,4,2,2,60,0,0
69017,-100,4,2,1,80,0,0
69478,-100,4,2,1,80,0,0
75709,-100,4,2,2,80,0,0
75940,-100,4,2,1,80,0,0
82458,-100,4,2,3,80,0,0
82632,-100,4,2,1,80,0,0
82689,-100,4,2,3,80,0,0
82862,-100,4,2,1,80,0,0
82920,-100,4,2,3,80,0,0
83094,-100,4,2,1,80,0,0
83151,-100,4,2,3,80,0,0
83324,-100,4,2,3,60,0,0
83785,-100,4,2,1,60,0,0
84248,-100,4,2,3,60,0,0
84709,-100,4,2,1,60,0,0
85171,-100,4,2,3,60,0,0
87017,-100,4,2,1,65,0,0
90017,-100,4,2,2,50,0,0
90709,-100,4,2,1,65,0,0
91402,-100,4,2,3,55,0,0
91632,-100,4,2,1,80,0,0
92093,-100,4,2,1,80,0,0
92097,-100,4,2,4,70,0,0
92556,-100,4,2,1,65,0,0
93248,-100,4,2,1,65,0,0
94402,-100,4,2,1,70,0,0
96248,-100,4,2,1,75,0,0
104786,-100,4,2,2,75,0,0
105017,-100,4,2,2,75,0,0
105478,-100,4,2,1,75,0,0
112864,-100,4,2,1,60,0,0
121171,-100,4,2,3,60,0,0
123940,-100,4,2,2,60,0,0
123998,-100,4,2,3,60,0,0
124171,-100,4,2,2,60,0,0
124229,-100,4,2,3,60,0,0
124401,-100,4,2,2,60,0,0
124460,-100,4,2,3,60,0,0
124632,-100,4,2,2,60,0,0
124690,-100,4,2,3,60,0,0
124863,-100,4,2,2,60,0,0
124921,-100,4,2,3,60,0,0
125094,-100,4,2,2,60,0,0
125152,-100,4,2,3,60,0,0
125324,-100,4,2,2,60,0,0
125383,-100,4,2,3,60,0,0
125555,-100,4,2,2,60,0,0
125614,-100,4,2,3,60,0,0
125787,-100,4,2,2,60,0,0
127171,-100,4,2,1,80,0,0
127574,-100,4,2,1,5,0,0
127632,-100,4,2,2,85,0,0
127661,-100,4,2,3,85,0,0
128555,-100,4,2,1,85,0,0
131209,-100,4,2,3,85,0,0
131324,-100,4,2,1,85,0,0
133517,-100,4,2,3,85,0,0
133632,-100,4,2,1,85,0,0
134209,-100,4,2,3,85,0,0
134324,-100,4,2,1,85,0,0
134901,-100,4,2,3,85,0,0
135017,-100,4,2,1,85,0,0
136170,-100,4,2,3,85,0,0
136286,-100,4,2,1,85,0,0
137440,-100,4,2,3,85,0,0
137555,-100,4,2,1,85,0,0
138016,-100,4,2,3,85,0,0
138132,-100,4,2,1,85,0,0
138248,-100,4,2,3,85,0,0
138709,-100,4,2,1,85,0,0
140555,-100,4,2,2,60,0,0
141940,-100,4,2,1,60,0,0
142171,-100,4,2,1,80,0,0
142401,-100,4,2,3,50,0,0
143324,-100,4,2,3,60,0,0
144248,-100,4,2,3,70,0,0
145171,-100,4,2,3,80,0,0
145862,-100,4,2,1,80,0,0
155381,-100,4,2,3,80,0,0
155555,-100,4,2,1,80,0,0
155612,-100,4,2,3,80,0,0
155785,-100,4,2,1,80,0,0
155843,-100,4,2,3,80,0,0
156017,-100,4,2,1,80,0,0
156074,-100,4,2,3,80,0,0
156247,-100,4,2,1,80,0,0
170151,-100,4,2,3,80,0,0
170210,-100,4,2,1,80,0,0
170381,-100,4,2,3,80,0,0
170555,-100,4,2,1,80,0,0
170612,-100,4,2,3,80,0,0
170786,-100,4,2,1,80,0,0
171940,-100,4,2,1,60,0,0

[Colours]
Combo1 : 248,135,152
Combo2 : 233,18,55
Combo3 : 251,203,60

[HitObjects]
4,27,6248,5,2,3:0:0:0:
46,125,6709,6,0,L|168:106,1,120,4|0,3:1|3:0,0:0:0:0:
265,103,7632,2,0,L|256:163,2,59.9999999999999,0|0|0,3:0|3:0|3:0,0:0:0:0:
352,39,8555,2,0,P|403:30|451:142,1,180,0|0,3:0|3:0,0:0:0:0:
431,174,9478,1,0,3:0:0:0:
319,358,10401,6,0,B|244:323|244:323|191:347,1,120,4|0,3:1|3:0,0:0:0:0:
163,362,11094,1,0,3:0:0:0:
163,362,11324,2,0,P|129:358|103:268,1,120,0|0,3:0|3:0,0:0:0:0:
19,209,12248,2,0,B|69:195|69:195|89:201|89:201|151:183,1,120,0|0,3:0|3:0,0:0:0:0:
176,154,12940,1,0,3:0:0:0:
176,154,13171,2,0,P|230:173|246:228,1,120,0|8,3:0|0:0,0:0:0:0:
301,322,14094,6,0,L|423:307,1,120,4|0,3:1|3:1,0:0:0:0:
482,219,15017,2,0,L|490:137,2,59.9999999999999,0|8|2,3:1|3:2|3:2,0:0:0:0:
388,165,15940,2,0,P|341:139|274:175,1,120,0|0,3:1|3:1,0:0:0:0:
247,203,16632,1,8,3:2:0:0:
247,203,16863,2,0,B|195:211|195:211|180:226|180:226|111:236,1,120,0|0,3:1|0:0,0:0:0:0:
59,154,17786,6,0,P|37:67|130:54,1,180,4|8,3:1|3:2,0:0:0:0:
150,74,18709,1,4,3:1:0:0:
248,28,19171,1,0,3:1:0:0:
334,92,19632,2,0,L|406:75,1,59.9999999999999,4|8,3:2|3:2,0:0:0:0:
438,106,20094,2,0,L|421:178,1,59.9999999999999,4|8,3:2|3:2,0:0:0:0:
449,212,20555,5,4,3:1:0:0:
243,278,21478,6,0,L|229:215,2,59.9999999999999,4|10|2,3:1|3:2|3:2,0:0:0:0:
285,320,22171,1,8,3:2:0:0:
285,320,22401,2,0,P|338:288|411:305,1,120,0|2,3:1|3:2,0:0:0:0:
481,232,23324,2,0,P|499:174|451:116,1,120,0|0,3:1|3:1,0:0:0:0:
419,144,24017,1,8,3:2:0:0:
419,144,24248,2,0,P|389:158|338:161,1,59.9999999999999,0|8,3:1|3:2,0:0:0:0:
313,139,24709,1,2,3:2:0:0:
234,64,25171,6,0,L|220:1,2,59.9999999999999,0|8|0,3:1|3:2|3:1,0:0:0:0:
209,114,25864,1,8,3:2:0:0:
209,114,26094,2,0,P|156:82|83:99,1,120,0|0,3:1|3:0,0:0:0:0:
16,156,27017,2,0,L|22:277,2,120,0|0|0,3:1|3:1|3:1,0:0:0:0:
100,88,28401,1,8,0:0:0:0:
166,173,28863,6,0,B|218:178|218:178|235:192|235:192|294:201,1,120,4|2,3:1|3:2,0:0:0:0:
332,184,29555,1,10,3:2:0:0:
332,184,29786,2,0,L|344:112,2,59.9999999999999,2|8|0,3:2|3:2|3:1,0:0:0:0:
428,231,30709,2,0,P|447:288|414:360,1,120,0|2,3:1|3:2,0:0:0:0:
325,371,31632,2,0,P|290:343|196:358,1,120,0|0,3:1|3:1,0:0:0:0:
167,364,32324,1,8,3:2:0:0:
167,364,32555,6,0,L|24:343,1,120,0|0,3:1|3:1,0:0:0:0:
11,244,33478,2,0,L|129:261,1,120,0|0,3:1|3:1,0:0:0:0:
223,206,34401,1,4,3:1:0:0:
316,260,34863,1,4,3:1:0:0:
411,209,35324,2,0,B|428:83|428:83|376:25,1,180,4|0,3:1|0:0,0:0:0:0:
352,7,36248,5,8,0:1:0:0:
131,38,43632,6,0,P|86:35|37:107,1,120,8|8,0:1|0:1,0:0:0:0:
120,156,44555,2,0,L|105:285,1,120,8|8,0:1|0:1,0:0:0:0:
144,313,45248,1,8,0:1:0:0:
144,313,45478,2,0,P|184:282|261:297,1,120,8|8,0:1|0:1,0:0:0:0:
342,344,46401,2,0,B|422:319|422:319|466:336,1,120,8|8,0:1|0:1,0:0:0:0:
482,371,47094,1,8,0:1:0:0:
482,371,47324,6,0,L|479:230,1,120,8|8,3:1|3:1,0:0:0:0:
418,161,48248,1,8,3:1:0:0:
317,201,48709,1,8,3:1:0:0:
259,109,49171,5,8,3:1:0:0:
482,371,51017,6,0,B|449:361|433:339|433:339|414:355|362:357,1,120,0|0,3:0|3:0,0:0:0:0:
297,282,51940,2,0,B|258:280|239:264|239:264|223:286|190:296,1,120,0|0,3:0|3:0,0:0:0:0:
98,352,52863,2,0,P|61:311|74:244,1,120,0|0,3:0|3:0,0:0:0:0:
147,175,53786,1,0,3:0:0:0:
296,54,54709,6,0,B|251:53|251:53|229:43|229:43|196:58|196:58|172:47|172:47|114:45,1,180,6|0,3:2|0:0,0:0:0:0:
77,59,55632,6,0,P|53:93|53:116,1,59.9999999999999,2|0,3:0|3:0,0:0:0:0:
18,145,56094,2,0,P|35:182|55:194,1,59.9999999999999,2|0,3:0|3:0,0:0:0:0:
65,237,56555,1,2,3:0:0:0:
151,195,57017,2,0,P|182:192|224:212,1,59.9999999999999,2|0,3:0|3:0,0:0:0:0:
232,245,57478,2,0,L|355:233,1,120,2|2,3:0|3:0,0:0:0:0:
429,288,58401,5,6,3:1:0:0:
375,367,58863,1,6,3:1:0:0:
279,357,59324,6,0,P|245:333|222:333,1,59.9999999999999,2|0,3:3|3:0,0:0:0:0:
193,298,59786,2,0,P|155:315|143:335,1,59.9999999999999,2|0,3:0|3:0,0:0:0:0:
101,345,60247,1,2,3:0:0:0:
40,270,60709,2,0,P|45:240|64:218,1,59.9999999999999,2|0,3:0|3:0,0:0:0:0:
61,170,61171,2,0,P|98:207|187:193,1,120,2|2,3:0|3:0,0:0:0:0:
235,144,62094,6,0,B|268:138|268:138|311:158,1,59.9999999999999,4|4,3:2|3:2,0:0:0:0:
330,178,62555,2,0,B|362:184|362:184|405:164,1,59.9999999999999,4|4,3:2|3:2,0:0:0:0:
429,129,63017,6,0,L|439:62,1,59.9999999999999,2|0,3:0|3:0,0:0:0:0:
417,26,63478,1,2,3:0:0:0:
330,68,63940,2,0,L|256:56,1,59.9999999999999,2|0,3:0|3:0,0:0:0:0:
233,27,64401,1,2,3:0:0:0:
173,102,64863,2,0,L|113:94,1,59.9999999999999,2|0,3:0|3:0,0:0:0:0:
72,119,65324,2,0,L|79:207,1,59.9999999999999,2|0,3:0|3:0,0:0:0:0:
52,220,65786,5,6,3:1:0:0:
512,317,69478,5,4,3:1:0:0:
421,283,69940,1,0,3:1:0:0:
345,342,70401,2,0,L|198:318,1,120,0|0,3:1|3:1,0:0:0:0:
188,350,71094,1,10,3:2:0:0:
188,350,71324,2,0,P|151:310|167:227,1,120,0|0,3:1|3:1,0:0:0:0:
81,191,72248,1,2,3:2:0:0:
81,191,72478,2,0,L|76:121,2,59.9999999999999,10|2|10,3:2|3:2|3:2,0:0:0:0:
46,225,73171,5,2,3:2:0:0:
72,317,73632,1,2,3:2:0:0:
144,380,74094,2,0,P|182:335|179:277,1,120,0|0,3:1|3:1,0:0:0:0:
219,250,74786,1,8,3:2:0:0:
219,250,75017,2,0,L|337:269,1,120,2|0,3:1|0:0,0:0:0:0:
418,217,75940,6,0,B|444:188|444:188|429:88,2,120,4|0|0,3:1|3:1|3:1,0:0:0:0:
341,159,77324,2,0,L|261:147,1,59.9999999999999,0|8,3:1|3:2,0:0:0:0:
245,173,77786,1,0,3:1:0:0:
153,144,78248,1,0,3:1:0:0:
97,221,78709,2,0,L|81:360,1,120,0|0,3:1|3:1,0:0:0:0:
183,328,79632,6,0,P|218:294|216:261,1,59.9999999999999,4|8,3:1|3:2,0:0:0:0:
269,270,80094,2,0,P|269:221|244:199,1,59.9999999999999,4|8,3:2|3:2,0:0:0:0:
293,175,80555,1,4,3:2:0:0:
224,107,81017,2,0,L|211:35,1,59.9999999999999,4|8,3:2|3:2,0:0:0:0:
245,12,81478,5,4,3:1:0:0:
377,151,82401,6,0,B|410:156|434:139|434:139|449:165|487:175,1,120,8|8,3:2|3:2,0:0:0:0:
502,267,83324,1,0,3:0:0:0:
338,368,84248,1,0,3:0:0:0:
278,185,85171,1,0,3:0:0:0:
27,339,87017,6,0,P|86:310|149:320,1,120,4|0,3:1|3:0,0:0:0:0:
202,243,87940,2,0,L|261:236,2,59.9999999999999,0|0|0,3:0|3:0|3:0,0:0:0:0:
121,190,88863,2,0,P|75:164|108:47,1,180,0|0,3:0|3:0,0:0:0:0:
138,36,89786,1,0,3:0:0:0:
315,108,90709,6,0,B|390:73|390:73|443:97,1,120,4|0,3:1|3:1,0:0:0:0:
465,122,91402,1,2,0:0:0:0:
465,122,91632,2,0,L|444:257,1,120,0|8,3:1|2:2,0:0:0:0:
476,331,92556,2,0,B|424:335|424:335|407:348|407:348|343:354,1,120,0|0,3:1|3:1,0:0:0:0:
322,379,93248,1,8,3:2:0:0:
322,379,93479,2,0,P|268:360|252:305,1,120,0|0,3:1|0:0,0:0:0:0:
184,235,94402,6,0,L|62:220,1,120,4|0,3:1|3:1,0:0:0:0:
17,136,95325,2,0,L|4:57,2,59.9999999999999,4|8|0,3:1|3:2|3:1,0:0:0:0:
101,90,96248,2,0,P|148:64|215:100,2,120,4|4|4,3:2|3:2|3:1,0:0:0:0:
161,272,98094,6,0,P|210:240|269:246,1,120,4|0,3:1|3:1,0:0:0:0:
311,271,98787,1,8,3:2:0:0:
311,271,99017,2,0,L|302:341,2,59.9999999999999,0|8|0,3:1|3:2|3:1,0:0:0:0:
390,217,99940,2,0,L|403:90,1,120,0|0,3:1|3:1,0:0:0:0:
375,64,100633,1,8,3:2:0:0:
375,64,100864,2,0,P|345:78|294:81,1,59.9999999999999,0|8,3:1|3:2,0:0:0:0:
282,51,101325,1,0,3:1:0:0:
219,124,101786,6,0,B|248:163|248:163|243:250,1,120,0|0,3:1|3:1,0:0:0:0:
260,279,102478,1,8,3:2:0:0:
260,279,102710,2,0,L|318:292,2,59.9999999999999,0|8|0,3:1|3:2|3:1,0:0:0:0:
175,325,103633,2,0,L|30:343,2,120,0|0|0,3:1|3:1|3:1,0:0:0:0:
211,236,105017,1,8,0:0:0:0:
135,176,105478,1,4,3:2:0:0:
208,114,105940,6,0,P|244:113|269:95,1,59.9999999999999,4|8,3:1|3:2,0:0:0:0:
304,125,106402,2,0,L|317:260,1,120,0|2,3:1|3:2,0:0:0:0:
262,324,107324,2,0,P|317:343|373:322,1,120,0|0,3:1|3:1,0:0:0:0:
450,265,108248,2,0,P|478:230|463:136,1,120,0|2,3:1|3:2,0:0:0:0:
449,125,108940,1,10,3:2:0:0:
449,125,109171,6,0,L|306:104,1,120,0|0,3:1|3:1,0:0:0:0:
275,186,110094,2,0,L|157:203,1,120,0|0,3:1|3:1,0:0:0:0:
63,178,111017,1,4,3:2:0:0:
29,267,111479,1,4,3:2:0:0:
94,336,111940,2,0,B|220:319|220:319|278:371,1,180,4|0,3:1|0:0,0:0:0:0:
301,331,112864,5,2,0:0:0:0:
344,345,120248,5,2,0:0:0:0:
184,237,121171,1,0,3:0:0:0:
333,116,122094,2,0,P|402:90|446:183,1,180,0|0,3:0|3:0,0:0:0:0:
426,208,123017,1,0,3:0:0:0:
316,365,123940,2,0,L|185:344,1,120,8|8,3:1|3:1,0:0:0:0:
106,377,124863,2,0,L|87:258,1,120,8|8,3:1|3:1,0:0:0:0:
31,179,125786,5,8,3:1:0:0:
373,352,127632,6,0,B|405:345|405:345|433:293|433:293|424:236|424:236|397:212,1,180,6|0,3:2|3:0,0:0:0:0:
351,222,128555,6,0,P|318:239|280:232,1,59.9999999999999,2|0,3:0|3:0,0:0:0:0:
256,265,129017,2,0,P|224:244|211:208,1,59.9999999999999,2|0,3:0|3:0,0:0:0:0:
168,211,129478,1,2,3:0:0:0:
74,234,129940,2,0,P|65:205|68:175,1,59.9999999999999,2|0,3:0|3:0,0:0:0:0:
40,136,130401,2,0,L|158:120,1,120,2|2,3:0|3:0,0:0:0:0:
223,49,131324,5,6,3:1:0:0:
304,99,131786,1,6,3:1:0:0:
382,43,132247,6,0,P|406:77|406:100,1,59.9999999999999,2|0,3:0|3:0,0:0:0:0:
441,129,132709,2,0,P|424:167|404:179,1,59.9999999999999,2|0,3:0|3:0,0:0:0:0:
394,221,133170,1,2,3:0:0:0:
303,188,133632,2,0,P|273:193|251:212,1,59.9999999999999,2|0,3:0|3:0,0:0:0:0:
203,209,134094,2,0,P|240:246|226:335,1,120,2|2,3:0|3:0,0:0:0:0:
328,351,135017,6,0,B|361:345|361:345|404:365,1,59.9999999999999,6|6,3:2|3:2,0:0:0:0:
421,325,135478,2,0,B|453:331|453:331|496:311,1,59.9999999999999,6|6,3:2|3:2,0:0:0:0:
499,276,135940,6,0,L|508:196,2,59.9999999999999,2|0|2,3:0|3:0|3:0,0:0:0:0:
416,225,136863,2,0,L|356:215,1,59.9999999999999,2|0,3:0|3:0,0:0:0:0:
314,238,137324,1,2,3:0:0:0:
223,205,137786,2,0,L|230:117,1,59.9999999999999,2|0,3:0|3:0,0:0:0:0:
189,116,138247,2,0,L|182:28,1,59.9999999999999,2|0,3:0|3:0,0:0:0:0:
213,18,138709,5,6,3:1:0:0:
465,338,142401,5,4,3:0:0:0:
86,273,144248,6,0,P|123:173|148:165,1,120,0|0,3:0|3:0,0:0:0:0:
190,101,145171,1,2,3:3:0:0:
190,101,145401,2,0,L|177:40,2,59.9999999999999,2|2|10,3:0|3:0|3:2,0:0:0:0:
234,118,146094,5,6,3:1:0:0:
329,113,146555,1,2,3:2:0:0:
411,54,147017,2,0,P|366:16|308:19,1,120,0|0,3:1|3:1,0:0:0:0:
275,38,147709,1,8,3:2:0:0:
275,38,147940,2,0,L|157:19,1,120,2|0,3:1|0:0,0:0:0:0:
83,81,148863,6,0,B|57:110|57:110|72:210,2,120,4|0|0,3:1|3:1|3:1,0:0:0:0:
153,146,150247,2,0,P|182:165|219:165,1,59.9999999999999,0|8,3:1|3:2,0:0:0:0:
254,163,150709,1,0,3:1:0:0:
240,258,151171,1,0,3:1:0:0:
322,328,151632,2,0,L|337:209,1,120,0|0,3:1|3:1,0:0:0:0:
427,176,152555,6,0,P|405:132|373:123,1,59.9999999999999,4|8,3:1|3:2,0:0:0:0:
400,80,153017,2,0,P|353:64|324:81,1,59.9999999999999,4|8,3:2|3:2,0:0:0:0:
317,29,153478,1,4,3:2:0:0:
226,60,153940,2,0,L|213:132,1,59.9999999999999,4|8,3:2|3:2,0:0:0:0:
179,151,154401,5,0,3:1:0:0:
79,314,155324,6,0,B|117:314|138:299|138:299|154:328|206:348,2,120,8|8|8,3:2|3:2|3:2,0:0:0:0:
250,228,157171,5,6,3:1:0:0:
332,178,157632,1,0,3:1:0:0:
428,173,158094,2,0,L|421:321,1,120,0|0,3:1|3:1,0:0:0:0:
413,343,158787,1,10,3:2:0:0:
413,343,159017,2,0,P|373:306|290:322,1,120,2|0,3:2|3:1,0:0:0:0:
223,279,159941,1,2,3:2:0:0:
223,279,160171,2,0,L|154:269,2,59.9999999999999,10|2|10,3:2|3:2|3:2,0:0:0:0:
253,241,160863,5,0,3:1:0:0:
250,145,161324,1,0,3:1:0:0:
181,77,161787,2,0,P|136:115|78:112,1,120,0|2,3:1|3:2,0:0:0:0:
45,122,162479,1,10,3:2:0:0:
45,122,162710,2,0,L|26:240,1,120,2|0,3:1|0:0,0:0:0:0:
99,302,163633,6,0,B|128:328|128:328|228:313,2,120,4|2|2,3:1|3:2|3:2,0:0:0:0:
158,227,165017,2,0,P|177:198|177:161,1,59.9999999999999,0|8,3:1|3:2,0:0:0:0:
202,131,165478,1,0,3:1:0:0:
295,109,165940,1,0,3:1:0:0:
389,91,166402,2,0,L|374:210,1,120,0|0,3:1|3:1,0:0:0:0:
404,301,167325,6,0,P|355:300|333:325,1,59.9999999999999,4|8,3:1|3:2,0:0:0:0:
307,278,167787,2,0,P|272:312|274:345,1,59.9999999999999,4|8,3:2|3:2,0:0:0:0:
229,345,168248,1,4,3:2:0:0:
154,284,168710,2,0,L|141:212,1,59.9999999999999,4|8,3:2|3:2,0:0:0:0:
168,183,169171,5,4,3:1:0:0:
33,46,170094,6,0,B|66:51|90:34|90:34|105:60|143:70,1,120,8|8,3:2|3:2,0:0:0:0:
227,35,171017,1,2,0:0:0:0:
