osu file format v14

[General]
AudioFilename: audio.mp3
AudioLeadIn: 0
PreviewTime: 49027
Countdown: 0
SampleSet: Soft
StackLeniency: 0.4
Mode: 0
LetterboxInBreaks: 0
WidescreenStoryboard: 1

[Editor]
Bookmarks: 5324,5440,5555,5671,5786,5901,6017,6132,6248,6710,21479,36248,43633,54710,69479,83325,96478,98094,112863,127633,142402,157171,171017,171190,171940
DistanceSpacing: 1.4
BeatDivisor: 4
GridSize: 16
TimelineZoom: 2.2

[Metadata]
Title:Excuse My Rudeness, But Could You Please RIP?<3 (t+pazolite Remix)
TitleUnicode:失礼しますが、RIP♡ (t+pazolite Remix)
Artist:Mori Calliope
ArtistUnicode:Mori Calliope
Creator:Amateurre
Version:Cubby's Expert
Source:
Tags:vtuber virtual youtuber ホロライブ hololive english holoen en holomyth 森 カリオペ dead beats reaper rap japanese electronic speedcore tpz tpazolite shitsureishimasuga sitsureisimasuga xlolicore- my angel watame kowari pachiru cubby shizuku kazato asa flake toybot vikala
BeatmapID:2710278
BeatmapSetID:1264863

[Difficulty]
HPDrainRate:4
CircleSize:4.2
OverallDifficulty:9
ApproachRate:9.6
SliderMultiplier:1.9
SliderTickRate:1

[Events]
//Background and Video events
0,0,"mori wallpaper.jpg",0,0
//Break Periods
2,113062,120662
2,125986,126662
//Storyboard Layer 0 (Background)
//Storyboard Layer 1 (Fail)
//Storyboard Layer 2 (Pass)
//Storyboard Layer 3 (Foreground)
//Storyboard Layer 4 (Overlay)
//Storyboard Sound Samples

[TimingPoints]
248,230.769230769231,4,2,1,40,1,0
5440,-83.3333333333333,4,2,1,40,0,0
5555,-90.9090909090909,4,2,1,40,0,0
5671,-100,4,2,1,40,0,0
5786,-111.111111111111,4,2,1,40,0,0
5901,-125,4,2,1,40,0,0
6017,-142.857142857143,4,2,1,40,0,0
6132,-166.666666666667,4,2,1,40,0,0
6248,-66.6666666666667,4,2,1,65,0,0
6709,-100,4,2,1,65,0,0
7401,-66.6666666666667,4,2,3,55,0,0
7632,-100,4,2,1,65,0,0
8324,-200,4,2,1,65,0,0
8555,-100,4,2,1,65,0,0
9478,-133.333333333333,4,2,1,65,0,0
10401,-100,4,2,1,65,0,0
12017,-76.9230769230769,4,2,1,65,0,0
12248,-100,4,2,1,65,0,0
13401,-100,4,2,2,65,0,0
13863,-66.6666666666667,4,2,2,65,0,0
14094,-100,4,2,1,65,0,0
14786,-66.6666666666667,4,2,3,55,0,0
15017,-100,4,2,1,65,0,0
20094,-83.3333333333333,4,2,1,65,0,0
20324,-71.4285714285714,4,2,1,65,0,0
20901,-133.333333333333,4,2,1,65,0,0
21478,-83.3333333333333,4,2,1,75,0,0
28171,-83.3333333333333,4,2,2,75,0,0
28401,-133.333333333333,4,2,2,75,0,0
28632,-66.6666666666667,4,2,1,75,0,0
28863,-83.3333333333333,4,2,1,75,0,0
34863,-71.4285714285714,4,2,1,75,0,0
35324,-62.5,4,2,1,75,0,0
36248,-62.5,4,2,2,60,0,0
39940,-133.333333333333,4,2,2,60,0,0
47324,-100,4,2,2,60,0,0
47382,-100,4,2,3,60,0,0
47555,-100,4,2,2,60,0,0
47613,-100,4,2,3,60,0,0
47786,-83.3333333333333,4,2,2,60,0,0
47844,-83.3333333333333,4,2,3,60,0,0
48017,-83.3333333333333,4,2,2,60,0,0
48074,-83.3333333333333,4,2,3,60,0,0
48247,-83.3333333333333,4,2,2,60,0,0
48305,-83.3333333333333,4,2,3,60,0,0
48478,-83.3333333333333,4,2,2,60,0,0
48536,-83.3333333333333,4,2,3,60,0,0
48709,-83.3333333333333,4,2,2,60,0,0
48767,-83.3333333333333,4,2,3,60,0,0
48940,-83.3333333333333,4,2,2,60,0,0
48998,-83.3333333333333,4,2,3,60,0,0
49171,-83.3333333333333,4,2,2,60,0,0
50555,-100,4,2,2,80,0,0
51017,-100,4,2,1,70,0,0
51171,-100,4,2,3,70,0,0
51478,-111.111111111111,4,2,1,65,0,0
51632,-111.111111111111,4,2,3,65,0,0
51940,-125,4,2,1,60,0,0
52094,-125,4,2,3,60,0,0
52401,-142.857142857143,4,2,1,55,0,0
52555,-142.857142857143,4,2,3,55,0,0
52863,-166.666666666667,4,2,1,50,0,0
53017,-166.666666666667,4,2,3,50,0,0
53324,-200,4,2,1,45,0,0
53478,-200,4,2,3,45,0,0
53786,-200,4,2,1,40,0,0
53940,-200,4,2,3,40,0,0
54248,-66.6666666666667,4,2,1,60,0,0
54709,-83.3333333333333,4,2,2,85,0,0
55632,-66.6666666666667,4,2,1,85,0,0
58286,-66.6666666666667,4,2,3,85,0,0
58401,-66.6666666666667,4,2,1,85,0,0
61978,-66.6666666666667,4,2,3,85,0,0
62094,-66.6666666666667,4,2,1,85,0,0
64517,-66.6666666666667,4,2,3,85,0,0
64632,-66.6666666666667,4,2,1,85,0,0
65094,-66.6666666666667,4,2,3,85,0,0
65209,-66.6666666666667,4,2,1,85,0,0
65324,-66.6666666666667,4,2,3,85,0,0
65786,-66.6666666666667,4,2,1,85,0,0
67632,-133.333333333333,4,2,2,60,0,0
69017,-133.333333333333,4,2,1,80,0,0
69478,-83.3333333333333,4,2,1,80,0,0
72478,-71.4285714285714,4,2,1,80,0,0
73171,-83.3333333333333,4,2,1,80,0,0
75017,-200,4,2,1,80,0,0
75709,-133.333333333333,4,2,2,80,0,0
75940,-83.3333333333333,4,2,1,80,0,0
78709,-200,4,2,1,80,0,0
78940,-83.3333333333333,4,2,1,80,0,0
79171,-200,4,2,1,80,0,0
79401,-83.3333333333333,4,2,1,80,0,0
81478,-100,4,2,1,80,0,0
82401,-71.4285714285714,4,2,1,80,0,0
82458,-71.4285714285714,4,2,3,80,0,0
82632,-71.4285714285714,4,2,1,80,0,0
82689,-71.4285714285714,4,2,3,80,0,0
82863,-71.4285714285714,4,2,1,80,0,0
82920,-71.4285714285714,4,2,3,80,0,0
83094,-71.4285714285714,4,2,1,80,0,0
83151,-71.4285714285714,4,2,3,80,0,0
83324,-133.333333333333,4,2,3,60,0,0
83786,-133.333333333333,4,2,1,60,0,0
84248,-133.333333333333,4,2,3,60,0,0
84709,-133.333333333333,4,2,1,60,0,0
85171,-133.333333333333,4,2,3,60,0,0
87017,-100,4,2,1,65,0,0
88632,-71.4285714285714,4,2,1,65,0,0
88863,-100,4,2,1,65,0,0
90017,-100,4,2,2,50,0,0
90709,-100,4,2,1,65,0,0
91401,-66.6666666666667,4,2,3,55,0,0
91632,-100,4,2,1,80,0,0
92094,-100,4,2,1,70,0,0
92097,-100,4,2,4,70,0,0
92555,-100,4,2,1,65,0,0
94401,-83.3333333333333,4,2,1,70,0,0
95094,-133.333333333333,4,2,1,70,0,0
95324,-83.3333333333333,4,2,1,70,0,0
96017,-133.333333333333,4,2,1,70,0,0
96248,-83.3333333333333,4,2,1,75,0,0
96940,-71.4285714285714,4,2,1,75,0,0
97748,-133.333333333333,4,2,1,75,0,0
98094,-83.3333333333333,4,2,1,75,0,0
104786,-83.3333333333333,4,2,2,75,0,0
105248,-66.6666666666667,4,2,2,75,0,0
105478,-66.6666666666667,4,2,1,75,0,0
105940,-83.3333333333333,4,2,1,75,0,0
111478,-71.4285714285714,4,2,1,75,0,0
111940,-62.5,4,2,1,75,0,0
112863,-62.5,4,2,1,60,0,0
121171,-250,4,2,3,60,0,0
122094,-166.666666666667,4,2,3,60,0,0
123940,-133.333333333333,4,2,2,60,0,0
123998,-133.333333333333,4,2,3,60,0,0
124171,-133.333333333333,4,2,2,60,0,0
124229,-133.333333333333,4,2,3,60,0,0
124401,-100,4,2,2,60,0,0
124460,-100,4,2,3,60,0,0
124632,-100,4,2,2,60,0,0
124690,-100,4,2,3,60,0,0
124863,-83.3333333333333,4,2,2,60,0,0
124921,-83.3333333333333,4,2,3,60,0,0
125094,-83.3333333333333,4,2,2,60,0,0
125152,-83.3333333333333,4,2,3,60,0,0
125324,-83.3333333333333,4,2,2,60,0,0
125383,-83.3333333333333,4,2,3,60,0,0
125555,-83.3333333333333,4,2,2,60,0,0
125614,-83.3333333333333,4,2,3,60,0,0
125787,-83.3333333333333,4,2,2,60,0,0
127171,-333.333333333333,4,2,1,80,0,0
127574,-83.3333333333333,4,2,1,5,0,0
127632,-62.5,4,2,2,85,0,0
127661,-62.5,4,2,3,85,0,0
128555,-66.6666666666667,4,2,1,85,0,0
131209,-66.6666666666667,4,2,3,85,0,0
131324,-66.6666666666667,4,2,1,85,0,0
133517,-66.6666666666667,4,2,3,85,0,0
133632,-66.6666666666667,4,2,1,85,0,0
134209,-66.6666666666667,4,2,3,85,0,0
134324,-66.6666666666667,4,2,1,85,0,0
134901,-66.6666666666667,4,2,3,85,0,0
135017,-66.6666666666667,4,2,1,85,0,0
136171,-66.6666666666667,4,2,3,85,0,0
136286,-66.6666666666667,4,2,1,85,0,0
137440,-66.6666666666667,4,2,3,85,0,0
137555,-66.6666666666667,4,2,1,85,0,0
138017,-66.6666666666667,4,2,3,85,0,0
138132,-66.6666666666667,4,2,1,85,0,0
138248,-66.6666666666667,4,2,3,85,0,0
138709,-66.6666666666667,4,2,1,85,0,0
140555,-133.333333333333,4,2,2,60,0,0
141017,-100,4,2,2,60,0,0
141940,-100,4,2,1,60,0,0
142171,-100,4,2,1,80,0,0
142401,-100,4,2,3,50,0,0
143324,-100,4,2,3,60,0,0
144248,-100,4,2,3,70,0,0
145171,-100,4,2,3,80,0,0
145401,-71.4285714285714,4,2,3,80,0,0
145632,-83.3333333333333,4,2,3,80,0,0
145863,-166.666666666667,4,2,1,80,0,0
146094,-71.4285714285714,4,2,1,80,0,0
147940,-133.333333333333,4,2,1,80,0,0
148632,-250,4,2,1,80,0,0
148863,-71.4285714285714,4,2,1,80,0,0
151632,-200,4,2,1,80,0,0
151863,-71.4285714285714,4,2,1,80,0,0
152094,-200,4,2,1,80,0,0
152324,-71.4285714285714,4,2,1,80,0,0
154401,-133.333333333333,4,2,1,80,0,0
155324,-71.4285714285714,4,2,1,80,0,0
155381,-71.4285714285714,4,2,3,80,0,0
155555,-71.4285714285714,4,2,1,80,0,0
155612,-71.4285714285714,4,2,3,80,0,0
155786,-71.4285714285714,4,2,1,80,0,0
155843,-71.4285714285714,4,2,3,80,0,0
156017,-71.4285714285714,4,2,1,80,0,0
156074,-71.4285714285714,4,2,3,80,0,0
156248,-71.4285714285714,4,2,1,80,0,0
160171,-62.5,4,2,1,80,0,0
160863,-71.4285714285714,4,2,1,80,0,0
162709,-133.333333333333,4,2,1,80,0,0
163632,-71.4285714285714,4,2,1,80,0,0
163863,-100,4,2,1,80,0,0
164094,-71.4285714285714,4,2,1,80,0,0
164324,-100,4,2,1,80,0,0
164555,-71.4285714285714,4,2,1,80,0,0
166401,-200,4,2,1,80,0,0
166632,-71.4285714285714,4,2,1,80,0,0
166863,-200,4,2,1,80,0,0
167094,-71.4285714285714,4,2,1,80,0,0
169171,-133.333333333333,4,2,1,80,0,0
170094,-71.4285714285714,4,2,1,80,0,0
170151,-71.4285714285714,4,2,3,80,0,0
170210,-71.4285714285714,4,2,1,80,0,0
170381,-71.4285714285714,4,2,3,80,0,0
170555,-71.4285714285714,4,2,1,80,0,0
170612,-71.4285714285714,4,2,3,80,0,0
170786,-71.4285714285714,4,2,1,80,0,0
171017,-100,4,2,1,80,0,0
171478,-133.333333333333,4,2,1,80,0,0
171940,-133.333333333333,4,2,1,60,0,0

[Colours]
Combo1 : 248,135,152
Combo2 : 233,18,55
Combo3 : 251,203,60

[HitObjects]
6,83,5324,5,2,0:0:0:0:
6,83,5382,1,0,0:0:0:0:
83,59,5440,6,0,L|73:115,1,56.9999982604981,2|0,0:0|0:0,0:0:0:0:
93,60,5555,6,0,L|83:116,1,52.2500015945435,2|0,0:0|0:0,0:0:0:0:
103,61,5671,6,0,L|93:117,1,47.5,2|0,0:0|0:0,0:0:0:0:
113,62,5786,6,0,L|103:118,1,42.7499986953736,2|0,0:0|0:0,0:0:0:0:
123,62,5901,6,0,L|113:119,1,38,2|0,0:0|0:0,0:0:0:0:
133,63,6017,6,0,L|123:119,1,33.2499989852906,2|0,0:0|0:0,0:0:0:0:
143,64,6132,6,0,L|135:112,1,28.4999991302491,2|0,0:0|0:0,0:0:0:0:
110,187,6248,6,0,B|139:249|139:249|54:364|54:364|13:226|13:226|68:171,1,427.500016307831,2|0,3:0|0:0,0:0:0:0:
213,57,6709,6,0,P|287:102|274:164,1,142.5,4|0,3:1|0:0,0:0:0:0:
273,187,6940,2,0,P|318:194|273:181,1,142.5,0|0,3:0|0:0,0:0:0:0:
243,303,7171,2,0,L|402:289,1,142.5,0|0,3:0|0:0,0:0:0:0:
474,362,7401,6,0,P|480:291|498:222,1,142.500005435944,2|0,0:0|0:0,0:0:0:0:
427,34,7632,6,0,B|364:39|364:39|365:43|365:43|289:50,1,142.5,0|0,3:0|0:0,0:0:0:0:
213,57,7863,2,0,P|168:64|213:51,1,142.5,0|0,3:0|0:0,0:0:0:0:
255,161,8094,2,0,L|241:320,1,142.5,0|0,3:0|0:0,0:0:0:0:
168,345,8324,6,0,P|134:342|122:310,1,71.25
16,255,8555,6,0,P|80:232|90:165,1,142.5,0|0,3:0|0:0,0:0:0:0:
65,87,8786,1,0,3:0:0:0:
65,87,8901,1,0,0:0:0:0:
254,161,9017,6,0,P|317:184|327:251,1,142.5,0|0,3:0|0:0,0:0:0:0:
302,329,9248,1,0,3:0:0:0:
302,329,9363,1,0,0:0:0:0:
341,189,9478,6,0,L|500:175,2,142.500005435944,0|0|0,3:0|0:0|0:0,0:0:0:0:
402,107,10055,1,0,0:0:0:0:
407,35,10171,2,0,L|401:106,1,71.2500027179719
226,138,10401,6,0,P|160:154|121:100,1,142.5,4|0,3:1|0:0,0:0:0:0:
115,17,10632,2,0,P|49:0|10:54,1,142.5,0|0,3:0|0:0,0:0:0:0:
7,140,10863,1,0,3:0:0:0:
7,140,10978,1,0,0:0:0:0:
169,239,11094,6,0,B|164:302|164:302|160:301|160:301|153:377,1,142.5,0|0,3:0|0:0,0:0:0:0:
90,228,11324,2,0,P|123:168|191:162,1,142.5,0|0,3:0|0:0,0:0:0:0:
201,165,11555,5,0,3:0:0:0:
199,41,11671,2,0,P|267:40|306:96,1,142.5
309,105,11902,5,0,0:0:0:0:
310,269,12017,2,0,B|296:298|296:298|315:328|315:328|328:295|328:295|310:265,1,123.499994346619
310,269,12248,6,0,B|402:259|365:305|466:286,1,142.5,0|0,3:0|0:0,0:0:0:0:
429,216,12478,2,0,L|415:56,1,142.5,0|0,3:0|0:0,0:0:0:0:
412,36,12709,1,0,3:0:0:0:
327,66,12824,1,0,0:0:0:0:
512,122,12940,2,0,L|499:263,1,142.5,0|0,3:0|0:0,0:0:0:0:
353,330,13171,6,0,P|286:341|238:287,1,142.5,0|0,3:0|0:0,0:0:0:0:
187,233,13401,1,8,0:0:0:0:
188,221,13458,1,8,0:0:0:0:
189,209,13516,1,8,0:0:0:0:
190,197,13574,1,8,0:0:0:0:
191,185,13632,2,0,L|199:90,1,95,8|8,0:0|0:0,0:0:0:0:
0,275,13863,6,0,L|5:336,1,35.625001358986,8|0,0:0|0:0,0:0:0:0:
170,95,14094,5,4,3:1:0:0:
326,66,14209,1,0,0:0:0:0:
482,38,14324,2,0,L|471:190,1,142.5,8|0,3:2|0:0,0:0:0:0:
430,253,14555,5,0,3:1:0:0:
326,77,14671,1,0,0:0:0:0:
354,176,14786,6,0,P|336:245|332:316,1,142.500005435944,2|0,0:0|0:0,0:0:0:0:
338,326,15017,6,0,P|276:355|217:320,1,142.5,0|0,3:1|0:0,0:0:0:0:
145,224,15248,2,0,L|134:376,1,142.5,8|0,3:2|0:0,0:0:0:0:
48,314,15478,6,0,L|16:316,14,23.75,2|2|2|2|2|2|2|2|2|2|2|2|2|2|2,3:2|0:2|0:2|0:2|0:2|0:2|0:2|0:2|0:2|0:2|0:2|0:2|0:2|0:2|0:2,0:0:0:0:
73,227,15940,6,0,P|103:165|171:156,1,142.5,0|0,3:1|0:0,0:0:0:0:
244,217,16171,2,0,B|237:291|237:291|233:290|233:290|228:353,1,142.5,8|0,3:2|0:0,0:0:0:0:
149,341,16401,1,0,3:1:0:0:
320,260,16517,1,0,0:0:0:0:
319,172,16632,2,0,L|327:77,1,95,8|0,3:2|0:0,0:0:0:0:
433,8,16863,5,0,3:1:0:0:
456,122,16978,1,0,0:0:0:0:
458,35,17094,5,0,0:0:0:0:
469,92,17209,1,0,0:0:0:0:
326,77,17324,6,0,B|207:85|258:36|141:45,1,190
0,160,17786,6,0,P|84:158|111:211,1,142.5,4|0,3:1|0:0,0:0:0:0:
227,291,18017,2,0,P|143:289|116:342,1,142.5,8|0,3:2|0:0,0:0:0:0:
110,201,18248,2,0,L|122:59,1,142.5,0|0,3:1|0:0,0:0:0:0:
235,28,18478,5,8,3:2:0:0:
234,48,18594,1,0,0:0:0:0:
217,150,18709,6,0,P|285:131|336:184,1,142.5,4|0,3:1|0:0,0:0:0:0:
363,279,18940,2,0,P|428:302|484:262,1,142.5,8|0,3:2|0:0,0:0:0:0:
431,85,19171,6,0,P|423:159|417:244,1,142.5,0|0,3:1|0:0,0:0:0:0:
333,175,19401,2,0,P|338:103|345:33,1,142.5,8|0,3:2|0:0,0:0:0:0:
271,339,19632,6,0,B|208:333|208:333|208:337|208:337|132:330,1,142.5,4|0,3:2|0:0,0:0:0:0:
55,331,19863,1,8,3:2:0:0:
57,351,19978,1,0,0:0:0:0:
278,244,20094,6,0,B|203:237|203:237|202:242|202:242|112:234,1,170.999994781494,4|0,3:2|0:0,0:0:0:0:
151,140,20324,2,0,P|135:69|244:44,1,199.499993911743,8|0,3:2|0:0,0:0:0:0:
237,120,20555,5,4,3:1:0:0:
237,120,20901,2,0,L|272:116,2,35.625001358986
237,120,21248,2,0,L|228:215,1,71.2500027179719
8,200,21478,6,0,B|49:189|61:137|61:137|57:190|94:211,1,170.999994781494,4|0,3:1|0:0,0:0:0:0:
130,345,21709,2,0,P|65:364|50:274,1,170.999994781494,10|0,3:2|0:0,0:0:0:0:
163,270,21940,6,0,B|238:263|238:263|239:268|239:268|329:260,1,170.999994781494,2|0,3:2|0:0,0:0:0:0:
408,255,22171,2,0,P|436:301|406:346,1,113.999996520996,8|2,3:2|0:0,0:0:0:0:
292,174,22401,6,0,L|306:3,1,170.999994781494,0|0,3:1|0:0,0:0:0:0:
426,24,22632,2,0,P|454:80|352:98,1,170.999994781494,8|0,3:2|0:0,0:0:0:0:
299,88,22863,6,0,B|209:96|209:96|208:91|208:91|133:98,1,170.999994781494,2|0,3:2|0:0,0:0:0:0:
44,28,23094,2,0,L|34:141,1,113.999996520996,10|0,3:2|0:0,0:0:0:0:
19,231,23324,5,0,3:1:0:0:
170,218,23440,1,2,0:0:0:0:
68,303,23555,5,8,3:2:0:0:
143,296,23671,1,2,0:0:0:0:
111,361,23786,2,0,L|95:169,1,170.999994781494,0|0,3:1|0:0,0:0:0:0:
138,105,24017,6,0,L|24:117,1,113.999996520996,8|2,3:2|0:0,0:0:0:0:
72,29,24248,1,0,3:1:0:0:
71,15,24363,1,2,0:0:0:0:
271,84,24478,5,8,3:2:0:0:
211,36,24593,1,0,0:0:0:0:
281,8,24709,2,0,P|276:92|264:199,1,170.999994781494,2|0,3:2|0:0,0:0:0:0:
334,248,24940,6,0,B|309:269|309:269|469:254,1,170.999994781494,10|0,3:2|0:0,0:0:0:0:
469,186,25171,1,0,3:1:0:0:
432,341,25286,1,2,0:0:0:0:
469,175,25401,6,0,P|438:103|362:124,1,170.999994781494,8|0,3:2|0:0,0:0:0:0:
266,178,25632,2,0,P|275:92|280:7,1,170.999994781494,0|0,3:1|0:0,0:0:0:0:
208,45,25863,1,8,3:2:0:0:
275,93,25978,1,2,0:0:0:0:
399,14,26094,6,0,L|455:9,2,56.9999982604981,0|0|2,3:1|0:0|0:0,0:0:0:0:
266,178,26324,1,8,3:2:0:0:
190,168,26440,2,0,L|19:153,1,170.999994781494,2|0,0:0|0:0,0:0:0:0:
32,234,26671,5,2,0:0:0:0:
113,75,26786,2,0,L|108:18,2,56.9999982604981,8|0|2,3:2|0:0|0:0,0:0:0:0:
145,310,27017,1,0,3:1:0:0:
222,302,27133,2,0,L|392:287,1,170.999994781494,2|0,0:0|0:0,0:0:0:0:
413,285,27363,5,2,0:0:0:0:
428,283,27420,1,2,0:0:0:0:
442,282,27478,1,0,3:1:0:0:
432,105,27594,1,2,0:0:0:0:
464,190,27709,6,0,B|353:197|401:152|292:160,1,170.999994781494,8|0,3:2|0:0,0:0:0:0:
177,222,27940,6,0,P|174:136|166:51,1,170.999994781494,0|0,3:1|0:0,0:0:0:0:
106,4,28171,1,8,0:0:0:0:
78,2,28228,1,8,0:0:0:0:
54,17,28286,1,8,0:0:0:0:
43,43,28344,1,8,0:0:0:0:
53,70,28401,2,0,P|58:123|61:176,1,106.875004076958,8|0,0:0|0:0,0:0:0:0:
28,344,28632,6,0,L|91:338,1,35.625001358986,8|0,0:0|0:0,0:0:0:0:
262,179,28863,5,4,3:1:0:0:
359,165,28978,1,2,0:0:0:0:
320,252,29094,2,0,P|256:199|176:221,1,170.999994781494,8|0,3:2|0:0,0:0:0:0:
210,368,29324,6,0,L|401:351,1,170.999994781494,2|0,3:2|0:0,0:0:0:0:
238,285,29555,1,10,3:2:0:0:
240,272,29671,1,0,0:0:0:0:
262,179,29786,6,0,L|71:196,1,170.999994781494,2|0,3:2|0:0,0:0:0:0:
35,121,30017,2,0,P|18:69|54:28,1,113.999996520996,8|0,3:2|0:0,0:0:0:0:
139,18,30248,1,0,3:1:0:0:
137,31,30364,1,2,0:0:0:0:
91,194,30478,6,0,L|102:327,1,113.999996520996,8|2,3:2|0:0,0:0:0:0:
100,331,30651,2,0,L|163:336,1,56.9999982604981,0|0,0:0|3:1,0:0:0:0:
10,268,30824,1,2,0:0:0:0:
262,179,30940,6,0,P|339:154|396:212,1,170.999994781494,10|0,3:2|0:0,0:0:0:0:
451,276,31171,5,2,3:2:0:0:
449,298,31286,1,0,0:0:0:0:
316,251,31401,5,10,3:2:0:0:
318,229,31516,1,0,0:0:0:0:
401,89,31632,5,0,3:1:0:0:
434,18,31747,1,2,0:0:0:0:
483,77,31863,2,0,L|468:197,1,113.999996520996,8|0,3:2|0:0,0:0:0:0:
173,284,32094,5,0,3:1:0:0:
113,332,32209,1,2,0:0:0:0:
183,360,32325,2,0,P|178:276|166:169,1,170.999994781494,8|0,3:2|0:0,0:0:0:0:
9,95,32555,6,0,P|87:127|143:61,1,170.999994781494,0|0,3:1|0:0,0:0:0:0:
144,47,32786,1,8,3:2:0:0:
83,205,32901,1,2,0:0:0:0:
243,68,33017,6,0,L|72:53,1,170.999994781494,0|0,3:1|0:0,0:0:0:0:
9,95,33248,1,8,3:2:0:0:
144,47,33363,1,2,0:0:0:0:
83,205,33478,6,0,L|71:332,1,113.999996520996,0|2,3:1|0:0,0:0:0:0:
0,267,33709,1,8,3:2:0:0:
185,241,33824,1,2,0:0:0:0:
370,215,33940,6,0,P|335:143|394:88,1,170.999994781494,0|0,3:1|0:0,0:0:0:0:
469,10,34171,2,0,L|485:201,1,170.999994781494,8|0,3:2|0:0,0:0:0:0:
286,350,34401,6,0,L|222:357,7,56.9999982604981,4|0|0|0|0|0|0|0,3:1|0:0|0:0|0:0|0:0|0:0|0:0|0:0,0:0:0:0:
221,248,34863,6,0,L|294:256,7,66.4999979705811,4|0|0|0|0|0|0|0,3:1|0:0|0:0|0:0|0:0|0:0|0:0|0:0,0:0:0:0:
289,136,35324,6,0,L|208:144,7,76,4|0|0|0|0|0|0|0,3:1|0:0|0:0|0:0|0:0|0:0|0:0|0:0,0:0:0:0:
116,174,35786,5,0,0:0:0:0:
114,187,35844,1,0,0:0:0:0:
113,201,35901,1,0,0:0:0:0:
112,215,35959,1,0,0:0:0:0:
111,230,36017,1,0,0:0:0:0:
109,244,36074,1,0,0:0:0:0:
108,258,36132,1,0,0:0:0:0:
107,272,36190,1,0,0:0:0:0:
106,287,36247,1,8,0:1:0:0:
106,287,36709,5,8,0:1:0:0:
106,287,37171,1,8,0:1:0:0:
106,287,37632,1,8,0:1:0:0:
106,287,38094,1,8,0:1:0:0:
106,287,38555,1,8,0:1:0:0:
106,287,39017,1,8,0:1:0:0:
106,287,39478,1,8,0:1:0:0:
406,287,39940,5,8,0:1:0:0:
406,287,40401,1,8,0:1:0:0:
406,287,40863,1,8,0:1:0:0:
406,287,41324,1,8,0:1:0:0:
406,287,41786,1,8,0:1:0:0:
406,287,42248,1,8,0:1:0:0:
406,287,42709,1,8,0:1:0:0:
406,287,43171,1,8,0:1:0:0:
140,147,43632,5,8,0:1:0:0:
65,122,43863,1,8,0:1:0:0:
65,44,44094,1,8,0:1:0:0:
140,20,44324,1,8,0:1:0:0:
140,299,44555,5,8,0:1:0:0:
230,270,44785,1,8,0:1:0:0:
230,176,45016,1,8,0:1:0:0:
140,147,45247,1,8,0:1:0:0:
140,20,45363,5,0,0:0:0:0:
140,20,45478,2,0,L|210:26,1,71.2500027179719,8|8,0:1|0:2,0:0:0:0:
288,36,45709,1,8,0:1:0:0:
440,50,45824,2,0,L|369:43,1,71.2500027179719,8|8,0:2|0:1,0:0:0:0:
288,36,46055,5,8,0:2:0:0:
290,64,46171,2,0,L|296:134,1,71.2500027179719,8|8,0:1|0:2,0:0:0:0:
407,239,46401,6,0,P|357:227|314:255,1,106.875004076958,8|0,0:1|0:0,0:0:0:0:
308,274,46632,1,8,0:1:0:0:
220,204,46748,6,0,P|183:241|187:292,1,106.875004076958,8|0,0:2|0:0,0:0:0:0:
199,307,46979,1,8,0:2:0:0:
94,237,47094,6,0,L|23:230,1,71.2500027179719,8|8,0:1|0:2,0:0:0:0:
60,84,47324,6,0,L|64:131,7,47.5,8|0|0|0|8|0|0|0,3:1|3:0|3:0|3:0|3:1|3:0|3:0|3:0,0:0:0:0:
168,67,47786,6,0,L|172:123,7,56.9999982604981,8|0|0|0|8|0|0|0,3:1|3:0|3:0|3:0|3:1|3:0|3:0|3:0,0:0:0:0:
220,204,48248,5,8,3:1:0:0:
257,222,48305,5,0,3:0:0:0:
299,215,48363,5,0,3:0:0:0:
328,185,48421,5,0,3:0:0:0:
335,144,48478,5,8,3:1:0:0:
342,103,48536,5,0,3:0:0:0:
371,73,48594,5,0,3:0:0:0:
413,66,48652,5,0,3:0:0:0:
450,84,48709,6,0,L|443:149,7,56.9999982604981,8|0|0|0|8|0|0|0,3:1|3:0|3:0|3:0|3:1|3:0|3:0|3:0,0:0:0:0:
433,216,49171,5,8,3:1:0:0:
77,37,50094,6,0,B|30:56|30:56|88:6|170:49|165:109,1,227.999993041992
32,215,50555,6,0,L|315:184,1,285,8|0,0:1|0:0,0:0:0:0:
274,90,51017,6,0,P|287:30|344:9,2,126.666666666667,0|0|0,3:0|3:0|3:0,0:0:0:0:
363,117,51478,6,0,P|414:98|462:126,2,113.999996520996,0|0|0,3:0|3:0|3:0,0:0:0:0:
410,209,51940,6,0,P|447:240|455:289,1,101.333333333333,0|0,3:0|3:0,0:0:0:0:
455,312,52171,1,0,3:0:0:0:
455,312,52248,1,0,3:0:0:0:
373,368,52401,6,0,L|380:279,2,88.6666639607748,0|0|0,3:0|3:0|3:0,0:0:0:0:
257,353,52863,6,0,L|264:264,2,75.9999976806641,0|0|0,3:0|3:0|3:0,0:0:0:0:
141,338,53324,6,0,L|148:249,2,63.3333333333333,0|0|0,3:0|3:0|3:0,0:0:0:0:
15,171,53786,6,0,L|80:165,1,63.3333333333333,0|0,3:0|3:0,0:0:0:0:
158,156,54017,1,0,3:0:0:0:
158,156,54094,1,0,3:0:0:0:
34,303,54248,6,0,P|24:328|14:361,1,35.625001358986,0|0,3:0|0:0,0:0:0:0:
243,148,54709,6,0,B|298:183|354:135|354:135|400:81|488:94|488:94|233:50|233:50|223:53|223:53|7:15|7:15|38:112,1,854.999973907471,6|0,3:2|0:0,0:0:0:0:
118,136,55632,5,2,3:0:0:0:
119,118,55747,1,0,3:0:0:0:
140,332,55862,5,0,3:0:0:0:
138,349,55978,1,0,3:0:0:0:
54,234,56094,6,0,L|196:227,1,142.500005435944,2|0,3:0|3:0,0:0:0:0:
272,225,56324,1,0,3:0:0:0:
119,118,56440,1,0,3:0:0:0:
120,103,56498,1,0,3:0:0:0:
121,85,56555,2,0,P|65:32|18:79,1,142.500005435944,2|0,3:0|3:0,0:0:0:0:
54,234,56786,5,0,3:0:0:0:
49,309,56902,1,0,3:0:0:0:
231,139,57017,6,0,P|167:163|118:117,1,142.500005435944,2|0,3:0|3:0,0:0:0:0:
192,55,57248,1,0,3:0:0:0:
209,53,57305,1,0,3:0:0:0:
227,51,57363,1,0,3:0:0:0:
245,50,57421,1,0,3:0:0:0:
262,48,57478,6,0,L|403:35,1,142.500005435944,2|0,3:0|3:0,0:0:0:0:
483,30,57709,1,0,3:0:0:0:
390,148,57824,1,0,3:0:0:0:
391,162,57881,1,0,3:0:0:0:
392,177,57940,2,0,L|399:267,5,71.2500027179719,2|0|0|0|0|0,3:0|3:0|3:0|3:0|3:0|0:0,0:0:0:0:
229,35,58286,6,0,L|226:-1,3,35.625001358986,0|0|0|0,3:0|3:0|3:0|3:0,0:0:0:0:
230,46,58401,2,0,B|173:84|106:38|106:38|20:6|-8:103|-8:103|54:84|110:145|110:145|88:111|97:66,1,498.750019025803,6|0,3:1|0:0,0:0:0:0:
28,186,58863,6,0,B|-16:267|27:352|113:373|113:373|107:278|201:237,1,391.875014948845,6|0,3:1|0:0,0:0:0:0:
228,345,59324,5,2,3:3:0:0:
213,346,59439,1,0,3:0:0:0:
28,186,59555,5,0,3:0:0:0:
43,185,59670,1,0,3:0:0:0:
125,229,59786,6,0,L|111:388,1,142.500005435944,2|0,3:0|3:0,0:0:0:0:
18,305,60017,1,0,3:0:0:0:
270,273,60132,1,0,3:0:0:0:
285,272,60190,1,0,3:0:0:0:
300,271,60248,2,0,L|441:258,1,142.500005435944,2|0,3:0|3:0,0:0:0:0:
265,117,60478,5,0,3:0:0:0:
190,125,60594,1,0,3:0:0:0:
125,229,60709,2,0,L|112:370,1,142.500005435944,2|0,3:0|3:0,0:0:0:0:
379,350,60940,5,0,3:0:0:0:
400,365,60997,1,0,3:0:0:0:
426,369,61055,1,0,3:0:0:0:
450,359,61113,1,0,3:0:0:0:
466,338,61171,2,0,L|324:350,1,142.500005435944,2|0,3:0|3:0,0:0:0:0:
245,357,61401,1,0,3:0:0:0:
363,244,61517,5,0,3:0:0:0:
362,230,61574,1,0,3:0:0:0:
361,215,61633,2,0,L|354:125,5,71.2500027179719,2|0|0|0|0|0,3:0|3:0|3:0|3:0|3:0|0:0,0:0:0:0:
208,88,61978,6,0,L|205:52,3,35.625001358986,0|0|0|0,3:0|3:0|3:0|3:0,0:0:0:0:
210,98,62094,6,0,B|165:123|118:72|118:72|66:23|18:59,1,213.750008153916,4|0,3:2|0:0,0:0:0:0:
35,127,62324,2,0,B|85:135|112:71|112:71|144:7|202:25,1,213.750008153916,4|0,3:2|0:0,0:0:0:0:
293,287,62555,6,0,B|337:312|384:261|384:261|436:212|484:248,1,213.750008153916,4|0,3:2|0:0,0:0:0:0:
468,316,62785,2,0,B|417:324|390:260|390:260|358:196|300:214,1,213.750008153916,4|0,3:2|0:0,0:0:0:0:
174,341,63017,5,2,3:0:0:0:
177,376,63132,1,0,3:0:0:0:
207,185,63248,5,0,3:0:0:0:
204,150,63363,1,0,3:0:0:0:
53,233,63478,5,2,3:0:0:0:
70,234,63535,1,0,3:0:0:0:
88,236,63593,1,0,3:0:0:0:
106,237,63651,1,0,3:0:0:0:
123,239,63708,1,0,3:0:0:0:
251,342,63824,5,0,3:0:0:0:
265,341,63881,1,0,3:0:0:0:
280,340,63940,2,0,L|370:333,2,71.2500027179719,2|0|0,3:0|3:0|3:0,0:0:0:0:
362,248,64171,6,0,L|374:106,1,142.500005435944,0|0,3:0|3:0,0:0:0:0:
380,30,64401,1,2,3:0:0:0:
455,163,64517,2,0,L|452:199,4,35.625001358986,0|0|0|0|0,3:0|3:0|3:0|3:0|3:0,0:0:0:0:
362,248,64748,5,0,3:0:0:0:
361,262,64805,1,0,3:0:0:0:
360,277,64864,2,0,L|353:367,3,71.2500027179719,2|0|0|0,3:0|3:0|3:0|0:0,0:0:0:0:
275,357,65094,2,0,L|239:360,6,35.625001358986,0|0|0|0|0|0|0,3:0|3:0|3:0|3:0|3:0|3:0|3:0,0:0:0:0:
165,364,65324,1,2,3:0:0:0:
94,77,65440,6,0,L|97:41,2,35.625001358986,0|0|0,3:0|3:0|3:0,0:0:0:0:
86,153,65555,2,0,L|83:189,9,23.7500009059906,0|0|0|0|0|0|0|0|0|0,3:0|3:0|3:0|3:0|3:0|3:0|3:0|3:0|3:0|3:0,0:0:0:0:
75,254,65786,1,6,3:1:0:0:
404,68,67632,6,0,L|407:32,7,35.625001358986,8|8|8|8|8|8|8|8,0:0|0:0|0:0|0:0|0:0|0:0|0:0|0:0,0:0:0:0:
313,71,68094,2,0,L|316:35,7,35.625001358986,8|8|8|8|8|8|8|8,0:0|0:0|0:0|0:0|0:0|0:0|0:0|0:0,0:0:0:0:
211,39,68555,5,8,0:0:0:0:
199,32,68612,1,8,0:0:0:0:
186,28,68670,1,8,0:0:0:0:
173,26,68728,1,8,0:0:0:0:
160,28,68785,1,8,0:0:0:0:
147,32,68843,1,8,0:0:0:0:
135,38,68901,1,8,0:0:0:0:
125,47,68958,1,8,0:0:0:0:
117,58,69017,6,0,L|123:137,2,71.2500027179719,2|2|2,0:0|0:0|0:0,0:0:0:0:
2,206,69478,6,0,P|82:197|119:269,1,170.999994781494,4|0,3:1|0:0,0:0:0:0:
192,316,69709,2,0,P|191:368|200:313,1,170.999994781494,8|0,3:2|0:0,0:0:0:0:
42,268,69940,5,0,3:1:0:0:
27,269,70055,1,2,0:0:0:0:
116,188,70171,2,0,L|286:173,1,170.999994781494,8|0,3:2|0:0,0:0:0:0:
363,165,70401,5,0,3:1:0:0:
403,72,70517,2,0,P|387:156|380:241,1,170.999994781494,2|0,0:0|0:0,0:0:0:0:
461,187,70748,5,2,0:0:0:0:
501,94,70864,2,0,P|485:178|478:263,1,170.999994781494,0|0,3:1|0:0,0:0:0:0:
501,339,71094,6,0,L|330:353,1,170.999994781494,10|0,3:2|0:0,0:0:0:0:
258,309,71324,1,0,3:1:0:0:
266,203,71439,1,0,0:0:0:0:
258,309,71555,1,8,3:2:0:0:
266,203,71670,1,2,0:0:0:0:
324,280,71786,6,0,P|244:236|186:296,1,170.999994781494,0|0,3:1|0:0,0:0:0:0:
97,279,72017,2,0,P|92:211|151:182,1,113.999996520996,8|0,3:2|0:0,0:0:0:0:
244,83,72248,2,0,L|130:73,1,113.999996520996,2|0,3:2|0:0,0:0:0:0:
301,132,72478,6,0,B|323:103|318:73|318:73|401:124|356:190,1,199.499993911743,10|0,3:2|0:0,0:0:0:0:
399,255,72709,2,0,B|413:288|441:299|441:299|355:345|320:273,1,199.499993911743,2|0,3:2|0:0,0:0:0:0:
243,278,72940,2,0,B|206:273|183:292|183:292|186:195|265:200,1,199.499993911743,10|0,3:2|0:0,0:0:0:0:
417,88,73171,6,0,B|408:183|408:183|404:183|404:183|398:254,1,170.999994781494,2|0,3:2|0:0,0:0:0:0:
452,308,73401,1,10,3:2:0:0:
466,306,73517,1,0,0:0:0:0:
301,132,73632,2,0,P|220:119|213:218,1,170.999994781494,2|0,3:2|0:0,0:0:0:0:
147,256,73863,5,10,3:2:0:0:
149,270,73979,1,0,0:0:0:0:
37,198,74094,1,0,3:1:0:0:
69,349,74209,6,0,B|159:355|159:355|159:359|159:359|239:365,1,170.999994781494,2|0,0:0|0:0,0:0:0:0:
312,374,74440,1,2,0:0:0:0:
167,142,74555,2,0,P|114:187|167:276,1,170.999994781494,0|0,3:1|0:0,0:0:0:0:
274,215,74786,6,0,L|259:44,1,170.999994781494,8|0,3:2|0:0,0:0:0:0:
256,30,75017,6,0,B|391:35|306:73|439:70,1,190,2|0,3:1|0:0,0:0:0:0:
437,70,75594,1,0,0:0:0:0:
432,179,75709,2,0,L|422:285,1,106.875004076958,8|0,0:1|0:0,0:0:0:0:
333,366,75940,6,0,P|324:284|247:267,1,170.999994781494,4|0,3:1|0:0,0:0:0:0:
174,292,76171,1,8,3:2:0:0:
176,306,76287,1,0,0:0:0:0:
145,182,76401,2,0,L|111:-7,1,170.999994781494,0|0,3:1|0:0,0:0:0:0:
33,47,76632,2,0,P|55:120|129:97,1,170.999994781494,8|0,3:2|0:0,0:0:0:0:
215,43,76863,6,0,L|406:59,1,170.999994781494,0|0,3:1|0:0,0:0:0:0:
465,68,77094,1,8,3:2:0:0:
292,220,77209,5,2,0:0:0:0:
241,133,77324,2,0,L|355:143,1,113.999996520996,0|2,3:1|0:0,0:0:0:0:
502,240,77555,2,0,P|441:281|465:373,1,170.999994781494,8|0,3:2|0:0,0:0:0:0:
421,321,77786,6,0,B|341:327|341:327|341:331|341:331|253:339,1,170.999994781494,0|0,3:1|0:0,0:0:0:0:
181,346,78017,1,10,3:2:0:0:
179,360,78133,1,0,0:0:0:0:
39,369,78248,2,0,P|19:290|83:241,1,170.999994781494,0|0,3:1|0:0,0:0:0:0:
137,186,78478,5,8,3:2:0:0:
90,317,78594,1,0,0:0:0:0:
22,93,78709,6,0,P|7:111|24:94,1,71.25,0|0,3:1|0:0,0:0:0:0:
66,20,78940,2,0,P|32:69|25:197,1,170.999994781494,8|0,3:2|0:0,0:0:0:0:
246,119,79171,6,0,P|231:101|248:118,1,71.25,0|0,3:1|0:0,0:0:0:0:
290,192,79402,2,0,P|256:143|249:15,1,170.999994781494,8|0,3:2|0:0,0:0:0:0:
425,114,79632,5,4,3:1:0:0:
506,153,79805,1,0,0:0:0:0:
431,203,79978,1,0,0:0:0:0:
376,79,80094,5,4,3:2:0:0:
500,90,80267,1,0,0:0:0:0:
426,192,80440,1,0,0:0:0:0:
317,80,80555,5,4,3:2:0:0:
457,42,80728,1,0,0:0:0:0:
417,183,80901,1,0,0:0:0:0:
256,106,81016,5,4,3:2:0:0:
392,10,81190,1,0,0:0:0:0:
405,177,81363,1,0,0:0:0:0:
317,80,81478,6,0,L|348:363,1,285,4|0,3:1|0:0,0:0:0:0:
255,314,81940,2,0,L|159:305,1,95,2|2,0:0|0:0,0:0:0:0:
405,177,82171,2,0,L|500:168,1,95,2|2,0:0|0:0,0:0:0:0:
220,116,82401,6,0,B|262:56|179:5|179:5|184:35|162:64,1,199.499993911743,8|0,3:2|0:0,0:0:0:0:
183,210,82632,2,0,B|216:277|302:231|302:231|274:220|260:187,1,199.499993911743,8|0,3:2|0:0,0:0:0:0:
119,131,82863,2,0,B|47:127|44:224|44:224|67:205|104:210,1,199.499993911743,8|0,3:2|0:0,0:0:0:0:
183,210,83094,6,0,B|192:106|192:106|197:106|197:106|205:16,1,199.499993911743,8|0,3:2|0:0,0:0:0:0:
204,16,83324,2,0,L|274:9,2,71.2500027179719,0|0|0,3:0|0:0|0:0,0:0:0:0:
459,106,83671,5,0,0:0:0:0:
380,86,83786,2,0,P|451:139|447:199,1,142.500005435944,8|0,0:0|0:0,0:0:0:0:
385,278,84248,5,0,3:0:0:0:
483,274,84363,1,0,0:0:0:0:
399,302,84478,5,0,0:0:0:0:
469,298,84593,1,0,0:0:0:0:
442,367,84709,6,0,L|428:207,1,142.500005435944,8|0,0:0|0:0,0:0:0:0:
422,151,85171,1,0,3:0:0:0:
104,82,86555,6,0,L|106:64,14,17.812500679493
28,134,87017,6,0,P|92:109|120:173,1,142.5,4|0,3:1|0:0,0:0:0:0:
183,215,87248,2,0,P|165:284|162:355,1,142.5,0|0,3:0|0:0,0:0:0:0:
251,351,87478,2,0,P|311:376|345:320,1,142.5,0|0,3:0|0:0,0:0:0:0:
358,227,87709,6,0,L|517:240,1,142.5,0|0,3:0|0:0,0:0:0:0:
465,157,87940,1,0,3:0:0:0:
500,327,88055,1,0,0:0:0:0:
463,142,88171,2,0,L|449:-17,1,142.5,0|0,3:0|0:0,0:0:0:0:
347,21,88401,2,0,P|291:57|342:114,1,142.5,0|0,3:0|0:0,0:0:0:0:
461,236,88632,6,0,B|401:224|390:172|390:172|399:222|351:257,1,199.499993911743
251,351,88863,6,0,P|269:284|225:231,1,142.5,0|0,3:0|0:0,0:0:0:0:
128,174,89094,2,0,L|139:334,1,142.5,0|0,3:0|0:0,0:0:0:0:
225,231,89324,1,0,3:0:0:0:
253,228,89439,1,0,0:0:0:0:
139,94,89555,6,0,P|69:117|57:191,1,142.5,0|0,3:0|0:0,0:0:0:0:
208,146,89786,2,0,B|282:139|282:139|282:135|282:135|352:130,1,142.5,0|0,3:0|0:0,0:0:0:0:
421,101,90017,1,8,0:0:0:0:
423,77,90074,1,8,0:0:0:0:
426,53,90132,1,8,0:0:0:0:
428,30,90190,1,8,0:0:0:0:
431,6,90247,1,8,0:0:0:0:
512,257,90478,6,0,L|464:261,1,47.5,8|0,0:0|0:0,0:0:0:0:
339,344,90709,6,0,P|272:333|254:268,1,142.5,4|0,3:1|0:0,0:0:0:0:
164,217,90940,2,0,P|173:287|174:358,1,142.5,8|0,3:2|0:0,0:0:0:0:
7,350,91171,2,0,P|73:339|91:274,1,142.5,0|0,3:1|0:0,0:0:0:0:
51,164,91401,6,0,B|143:174|106:128|207:147,1,142.5,2|0,0:0|0:0,0:0:0:0:
357,182,91632,6,0,P|330:121|394:77,1,142.5,0|0,3:1|0:0,0:0:0:0:
451,0,91863,2,0,L|464:159,1,142.5,8|0,3:2|0:0,0:0:0:0:
437,250,92094,5,8,2:2:0:0:
421,252,92170,1,2,2:2:0:0:
405,253,92247,1,8,2:2:0:0:
369,291,92324,5,8,2:2:0:0:
353,289,92400,1,2,2:2:0:0:
337,288,92477,1,8,2:2:0:0:
369,291,92555,6,0,L|529:277,1,142.5,0|0,3:1|0:0,0:0:0:0:
441,198,92786,2,0,P|396:148|335:175,1,142.5,8|0,3:2|0:0,0:0:0:0:
163,141,93017,5,0,3:1:0:0:
139,139,93132,1,0,0:0:0:0:
310,62,93248,5,8,3:2:0:0:
334,60,93363,1,0,0:0:0:0:
245,192,93478,6,0,L|229:3,1,190,0|0,3:1|0:0,0:0:0:0:
126,359,94171,6,0,P|102:318|118:265,1,95
170,187,94401,6,0,B|80:193|80:193|80:198|80:198|5:206,1,170.999994781494,4|0,3:1|0:0,0:0:0:0:
176,308,94632,2,0,B|265:301|265:301|265:296|265:296|340:288,1,170.999994781494,8|0,3:2|0:0,0:0:0:0:
413,257,94863,1,0,3:1:0:0:
415,233,94978,1,0,0:0:0:0:
420,154,95094,6,0,L|429:42,1,106.875004076958,8|0,3:2|0:0,0:0:0:0:
332,84,95324,6,0,P|227:107|213:39,1,170.999994781494,4|0,3:1|0:0,0:0:0:0:
110,7,95555,2,0,P|117:104|116:204,1,170.999994781494,8|0,3:2|0:0,0:0:0:0:
26,271,95786,2,0,P|94:313|150:256,1,170.999994781494,0|0,3:1|0:0,0:0:0:0:
257,246,96017,6,0,L|247:352,1,106.875004076958,8|0,3:2|0:0,0:0:0:0:
362,287,96248,6,0,B|411:362|411:362|486:308,1,170.999994781494,4|0,3:2|0:0,0:0:0:0:
476,124,96478,2,0,B|426:48|426:48|351:102,1,170.999994781494,8|0,3:2|0:0,0:0:0:0:
346,202,96709,6,0,B|441:210|441:210|441:206|441:206|521:213,1,170.999994781494,4|0,3:2|0:0,0:0:0:0:
190,96,96940,6,0,B|130:84|119:32|119:32|128:82|80:117,1,199.499993911743,8|0,3:2|0:0,0:0:0:0:
144,163,97171,1,4,3:1:0:0:
144,163,97632,5,0,0:0:0:0:
148,241,97748,2,0,P|142:323|149:399,1,142.500005435944
306,357,98094,6,0,P|243:301|318:264,1,170.999994781494,4|0,3:1|0:0,0:0:0:0:
391,224,98324,6,0,B|439:149|439:149|471:245,1,170.999994781494,8|0,3:2|0:0,0:0:0:0:
425,292,98555,1,0,3:1:0:0:
424,308,98671,1,0,0:0:0:0:
340,143,98786,6,0,B|276:131|276:131|299:5,1,170.999994781494,8|0,3:2|0:0,0:0:0:0:
494,14,99017,5,0,3:1:0:0:
486,90,99132,2,0,P|432:128|453:49,1,170.999994781494
425,53,99363,5,0,0:0:0:0:
512,213,99478,2,0,L|495:404,1,170.999994781494,0|0,3:1|0:0,0:0:0:0:
424,308,99709,6,0,B|324:288|368:343|258:331,1,170.999994781494,8|0,3:2|0:0,0:0:0:0:
286,259,99940,5,0,3:1:0:0:
340,143,100055,1,0,0:0:0:0:
286,259,100171,1,8,3:2:0:0:
340,143,100286,1,0,0:0:0:0:
389,220,100401,6,0,L|218:205,1,170.999994781494,0|0,3:1|0:0,0:0:0:0:
111,152,100632,6,0,P|129:235|127:320,1,170.999994781494,8|0,3:2|0:0,0:0:0:0:
122,338,100863,1,0,3:1:0:0:
21,251,100978,6,0,P|23:165|4:82,1,170.999994781494
0,67,101209,1,0,0:0:0:0:
117,236,101324,6,0,P|200:265|209:188,1,170.999994781494,0|0,3:1|0:0,0:0:0:0:
205,136,101555,1,8,3:2:0:0:
259,345,101671,1,0,0:0:0:0:
316,296,101786,2,0,L|507:279,1,170.999994781494,0|0,3:1|0:0,0:0:0:0:
498,205,102017,5,8,3:2:0:0:
499,182,102132,1,0,0:0:0:0:
415,34,102248,2,0,L|398:225,1,170.999994781494,0|0,3:1|0:0,0:0:0:0:
398,219,102478,5,8,3:2:0:0:
319,125,102594,2,0,L|205:136,2,113.999996520996,0|0|0,0:0|3:1|0:0,0:0:0:0:
98,220,102940,5,8,3:2:0:0:
85,114,103055,1,0,0:0:0:0:
0,293,103171,6,0,P|65:245|136:285,1,170.999994781494,0|0,3:1|0:0,0:0:0:0:
224,379,103401,2,0,L|239:208,1,170.999994781494,8|0,3:2|0:0,0:0:0:0:
246,134,103632,1,0,3:1:0:0:
248,111,103748,1,0,0:0:0:0:
325,247,103863,2,0,P|390:295|461:255,1,170.999994781494,8|0,3:2|0:0,0:0:0:0:
500,176,104094,6,0,L|504:119,1,56.9999982604981,0|0,3:1|0:0,0:0:0:0:
419,88,104209,2,0,L|415:145,1,56.9999982604981
470,2,104324,6,0,L|299:16,1,170.999994781494,8|0,3:2|0:0,0:0:0:0:
223,25,104555,2,0,P|175:90|215:161,1,170.999994781494,0|0,3:1|0:0,0:0:0:0:
294,250,104786,5,8,0:0:0:0:
309,248,104843,1,8,0:0:0:0:
325,247,104901,1,8,0:0:0:0:
341,245,104959,1,8,0:0:0:0:
357,244,105016,1,8,0:0:0:0:
187,358,105248,6,0,L|191:323,1,35.625001358986,8|0,0:0|0:0,0:0:0:0:
90,133,105478,6,0,B|83:80|24:57|24:57|99:7|218:20|275:101|275:101|204:92|164:163,1,498.750019025803,4|0,3:2|0:0,0:0:0:0:
253,183,105940,6,0,L|423:168,1,170.999994781494,4|0,3:1|0:0,0:0:0:0:
497,283,106171,2,0,L|326:297,1,170.999994781494,8|0,3:2|0:0,0:0:0:0:
326,296,106401,5,0,3:1:0:0:
423,79,106517,1,0,0:0:0:0:
423,167,106632,5,8,3:2:0:0:
422,190,106748,1,0,0:0:0:0:
352,120,106863,6,0,P|356:29|437:1,1,170.999994781494,2|0,3:2|0:0,0:0:0:0:
423,79,107094,2,0,B|340:71|340:71|339:75|339:75|256:68,1,170.999994781494,8|0,3:2|0:0,0:0:0:0:
179,60,107324,6,0,P|143:107|170:168,1,113.999996520996,0|2,3:1|0:0,0:0:0:0:
248,335,107555,5,8,3:2:0:0:
135,322,107670,1,2,0:0:0:0:
22,309,107786,2,0,L|2:120,1,170.999994781494,0|0,3:1|0:0,0:0:0:0:
43,68,108017,2,0,P|108:20|179:60,1,170.999994781494,8|0,3:2|0:0,0:0:0:0:
262,132,108248,6,0,L|271:18,1,113.999996520996,0|2,3:1|0:0,0:0:0:0:
420,247,108479,5,8,3:2:0:0:
466,312,108594,1,2,0:0:0:0:
499,239,108709,2,0,L|329:254,1,170.999994781494,2|0,3:2|0:0,0:0:0:0:
240,359,108940,6,0,P|239:285|168:305,1,170.999994781494,10|0,3:2|0:0,0:0:0:0:
95,354,109171,2,0,L|79:178,1,170.999994781494,0|0,3:1|0:0,0:0:0:0:
76,149,109401,1,10,3:2:0:0:
8,274,109517,1,2,0:0:0:0:
255,223,109632,6,0,B|355:203|311:258|421:246,1,170.999994781494,0|0,3:1|0:0,0:0:0:0:
391,170,109863,2,0,L|405:0,1,170.999994781494,8|0,3:2|0:0,0:0:0:0:
269,12,110094,6,0,P|242:61|336:99,1,170.999994781494,0|0,3:1|0:0,0:0:0:0:
477,70,110324,1,8,3:2:0:0:
478,47,110440,1,2,0:0:0:0:
476,206,110555,6,0,P|393:200|337:261,1,170.999994781494,0|0,3:1|0:0,0:0:0:0:
279,333,110786,2,0,P|196:338|140:277,1,170.999994781494,8|0,3:2|0:0,0:0:0:0:
47,202,111017,6,0,L|103:197,7,56.9999982604981,4|0|0|0|0|0|0|0,3:2|0:0|0:0|0:0|0:0|0:0|0:0|0:0,0:0:0:0:
175,130,111478,6,0,L|254:136,7,66.4999979705811,4|0|0|0|0|0|0|0,3:2|0:0|0:0|0:0|0:0|0:0|0:0|0:0,0:0:0:0:
318,74,111940,6,0,L|397:67,7,76,4|0|0|0|0|0|0|0,3:1|0:0|0:0|0:0|0:0|0:0|0:0|0:0,0:0:0:0:
415,149,112401,5,0,0:0:0:0:
433,152,112458,1,0,0:0:0:0:
451,159,112516,1,0,0:0:0:0:
466,170,112574,1,0,0:0:0:0:
478,184,112631,1,0,0:0:0:0:
486,202,112689,1,0,0:0:0:0:
489,220,112747,1,0,0:0:0:0:
488,239,112804,1,0,0:0:0:0:
481,257,112862,5,2,0:0:0:0:
66,80,121171,6,0,L|61:127,3,38,0|0|0|0,3:0|3:0|3:0|3:0,0:0:0:0:
149,79,121632,2,0,L|144:126,3,38,0|0|0|0,3:0|3:0|3:0|3:0,0:0:0:0:
308,101,122094,6,0,L|302:43,3,56.9999982604981,0|0|0|0,3:0|3:0|3:0|3:0,0:0:0:0:
407,102,122555,2,0,L|401:44,3,56.9999982604981,0|0|0|0,3:0|3:0|3:0|3:0,0:0:0:0:
496,242,123017,5,0,3:0:0:0:
439,241,123132,1,0,3:0:0:0:
388,266,123247,1,0,3:0:0:0:
353,310,123363,1,0,3:0:0:0:
340,365,123478,5,0,3:0:0:0:
356,310,123594,1,0,3:0:0:0:
347,255,123710,1,0,3:0:0:0:
316,208,123825,1,0,3:0:0:0:
267,180,123940,6,0,L|272:245,7,35.625001358986,8|0|0|0|8|0|0|0,3:1|3:0|3:0|3:0|3:1|3:0|3:0|3:0,0:0:0:0:
178,185,124401,6,0,L|183:250,7,47.5,8|0|0|0|8|0|0|0,3:1|3:0|3:0|3:0|3:1|3:0|3:0|3:0,0:0:0:0:
104,97,124863,6,0,L|109:32,7,56.9999982604981,8|0|0|0|8|0|0|0,3:1|3:0|3:0|3:0|3:1|3:0|3:0|3:0,0:0:0:0:
15,125,125325,5,8,3:1:0:0:
52,143,125382,5,0,3:0:0:0:
73,180,125440,5,0,3:0:0:0:
68,222,125498,5,0,3:0:0:0:
40,253,125555,5,8,3:1:0:0:
12,284,125613,5,0,3:0:0:0:
7,326,125671,5,0,3:0:0:0:
28,363,125729,5,0,3:0:0:0:
65,381,125786,5,8,3:1:0:0:
346,368,127171,6,2,L|336:268,1,99.7499969558717,2|0,0:1|0:1,0:1:0:0:
429,314,127632,2,0,L|468:311,30,38,6|0|0|0|0|0|0|0|0|0|0|0|0|0|0|0|0|0|0|0|0|0|0|0|0|0|0|0|0|0|0,3:2|3:0|3:0|3:0|3:0|3:0|3:0|3:0|3:0|3:0|3:0|3:0|3:0|3:0|3:0|3:0|3:0|3:0|3:0|3:0|3:0|3:0|3:0|3:0|3:0|3:0|3:0|3:0|3:0|3:0|3:0,0:0:0:0:
493,220,128555,5,2,3:0:0:0:
507,221,128670,1,0,3:0:0:0:
309,140,128786,5,0,3:0:0:0:
295,139,128901,1,0,3:0:0:0:
414,75,129017,5,2,3:0:0:0:
413,89,129132,2,0,L|399:248,1,142.500005435944,0|0,3:0|3:0,0:0:0:0:
265,305,129363,5,0,3:0:0:0:
250,306,129420,1,0,3:0:0:0:
236,307,129478,2,0,L|229:377,3,71.2500027179719,2|0|0|0,3:0|3:0|3:0|3:0,0:0:0:0:
152,365,129709,5,0,3:0:0:0:
138,366,129824,1,0,3:0:0:0:
21,215,129940,5,2,3:0:0:0:
35,216,130055,1,0,3:0:0:0:
111,198,130171,5,0,3:0:0:0:
116,224,130228,1,0,3:0:0:0:
111,250,130286,1,0,3:0:0:0:
95,272,130344,1,0,3:0:0:0:
72,284,130401,2,0,L|65:354,3,71.2500027179719,2|0|0|0,3:0|3:0|3:0|3:0,0:0:0:0:
138,366,130632,5,0,3:0:0:0:
313,357,130748,1,0,3:0:0:0:
328,356,130805,1,0,3:0:0:0:
342,355,130863,2,0,L|348:284,3,71.2500027179719,2|0|0|0,3:0|3:0|3:0|3:0,0:0:0:0:
358,197,131094,5,0,3:0:0:0:
358,197,131209,2,0,L|361:161,4,23.7500009059906,0|0|0|0|0,3:0|3:0|3:0|3:0|0:0,0:0:0:0:
104,205,131324,6,0,B|57:84|176:26|176:26|164:82|195:127|195:127|117:113|117:113|116:109|116:109|22:93,1,498.750019025803,6|0,3:1|0:0,0:0:0:0:
326,50,131786,6,0,B|247:67|247:67|404:24|433:149|416:234|357:268|357:268|378:229|357:196,1,498.750019025803,6|0,3:1|0:0,0:0:0:0:
292,230,132248,1,2,3:0:0:0:
277,231,132305,1,0,3:0:0:0:
263,232,132363,2,0,L|257:303,4,47.5000018119813,0|0|0|0|0,3:0|3:0|3:0|3:0|3:0,0:0:0:0:
192,343,132594,5,0,3:0:0:0:
178,342,132709,1,2,3:0:0:0:
104,205,132824,5,0,3:0:0:0:
118,204,132939,1,0,3:0:0:0:
198,103,133055,6,0,L|204:32,2,71.2500027179719,0|0|2,3:0|3:0|3:0,0:0:0:0:
22,238,133286,2,0,L|28:308,2,71.2500027179719,0|0|0,3:0|3:0|3:0,0:0:0:0:
248,216,133517,6,0,L|283:219,4,35.625001358986,0|0|0|0|2,3:0|3:0|3:0|3:0|3:0,0:0:0:0:
118,204,133748,1,0,3:0:0:0:
303,99,133863,5,0,3:0:0:0:
304,81,133920,1,0,3:0:0:0:
306,63,133978,1,0,3:0:0:0:
307,45,134036,1,0,3:0:0:0:
309,28,134093,1,2,3:0:0:0:
412,71,134209,6,0,L|475:65,4,35.625001358986,0|0|0|0|0,3:0|3:0|3:0|3:0|3:0,0:0:0:0:
403,200,134440,5,0,3:0:0:0:
405,217,134497,1,0,3:0:0:0:
406,235,134555,2,0,L|414:330,3,71.2500027179719,2|0|0|0,3:0|3:0|3:0|3:0,0:0:0:0:
315,316,134786,5,0,3:0:0:0:
315,316,134901,2,0,L|317:347,3,23.7500009059906,0|0|0|0,3:0|3:0|3:0|3:0,0:0:0:0:
231,195,135017,6,0,B|167:206|167:206|93:154|93:154|30:165,1,213.750008153916,6|0,3:2|0:0,0:0:0:0:
26,216,135248,2,0,L|278:171,1,213.750008153916,6|0,3:2|0:0,0:0:0:0:
305,77,135478,6,0,B|368:88|368:88|442:36|442:36|505:47,1,213.750008153916,6|0,3:2|0:0,0:0:0:0:
510,98,135709,2,0,L|257:53,1,213.750008153916,6|0,3:2|0:0,0:0:0:0:
121,18,135940,5,2,3:0:0:0:
118,35,135997,1,0,3:0:0:0:
116,53,136055,1,0,3:0:0:0:
114,71,136113,1,0,3:0:0:0:
112,88,136171,2,0,L|108:123,6,35.625001358986,0|0|0|0|0|0|0,3:0|3:0|3:0|3:0|3:0|3:0|3:0,0:0:0:0:
26,216,136401,5,2,3:0:0:0:
28,233,136458,1,0,3:0:0:0:
29,251,136516,2,0,L|37:346,2,71.2500027179719,0|0|0,3:0|3:0|3:0,0:0:0:0:
117,342,136749,5,0,3:0:0:0:
145,362,136806,1,0,3:0:0:0:
180,362,136864,1,2,3:0:0:0:
208,342,136922,1,0,3:0:0:0:
219,309,136979,1,0,3:0:0:0:
286,227,137094,5,0,3:0:0:0:
284,204,137151,1,0,3:0:0:0:
283,181,137209,2,0,L|274:85,3,71.2500027179719,0|0|2|0,3:0|3:0|3:0|0:0,0:0:0:0:
265,38,137440,2,0,L|260:-10,2,35.625001358986,0|0|0,3:2|3:0|3:0,0:0:0:0:
265,38,137555,1,0,3:0:0:0:
441,192,137671,5,0,3:0:0:0:
443,215,137728,1,0,3:0:0:0:
444,238,137786,2,0,L|452:333,3,71.2500027179719,2|0|0|0,3:0|3:0|3:0|3:0,0:0:0:0:
358,297,138017,6,0,L|363:363,6,35.625001358986,0|0|0|0|0|0|0,3:0|3:0|3:0|3:0|3:0|0:0|3:0,0:0:0:0:
357,277,138248,1,2,3:0:0:0:
36,258,138363,6,0,L|4:260,3,23.7500009059906,0|0|0|0,3:0|3:0|3:0|3:0,0:0:0:0:
111,251,138478,6,0,L|128:249,12,17.812500679493,0|0|0|0|0|0|0|0|0|0|0|0|0,3:0|3:0|3:0|3:0|3:0|3:0|3:0|3:0|3:0|3:0|3:0|3:0|3:0,0:0:0:0:
205,242,138709,5,6,3:1:0:0:
320,72,140555,6,0,L|323:36,7,35.625001358986,8|8|8|8|8|8|8|8,0:0|0:0|0:0|0:0|0:0|0:0|0:0|0:0,0:0:0:0:
408,79,141017,2,0,L|412:29,7,47.5,8|8|8|8|8|8|8|8,0:0|0:0|0:0|0:0|0:0|0:0|0:0|0:0,0:0:0:0:
366,185,141478,5,8,0:0:0:0:
381,175,141535,1,8,0:0:0:0:
398,171,141593,1,8,0:0:0:0:
416,171,141651,1,8,0:0:0:0:
433,175,141708,1,8,0:0:0:0:
448,184,141766,1,8,0:0:0:0:
461,197,141824,1,8,0:0:0:0:
469,212,141881,1,8,0:0:0:0:
474,229,141940,2,0,L|483:336,2,95,2|2|2,0:0|0:0|0:0,0:0:0:0:
254,165,142401,6,0,B|106:145|60:256|60:256|190:176|93:33|93:33|57:103|-4:161|-4:161|127:39|378:93,1,1045,4|0,3:0|3:0,0:0:0:0:
436,105,143786,5,0,3:0:0:0:
439,133,143901,1,0,3:0:0:0:
443,161,144016,1,0,3:0:0:0:
446,189,144132,1,0,3:0:0:0:
416,297,144248,6,0,L|368:292,7,47.5,0|0|0|0|0|0|0|0,3:0|3:0|3:0|3:0|3:0|3:0|3:0|3:0,0:0:0:0:
399,375,144709,2,0,L|351:370,7,47.5,0|0|0|0|0|0|0|0,3:0|3:0|3:0|3:0|3:0|3:0|3:0|3:0,0:0:0:0:
245,344,145171,5,2,3:3:0:0:
243,320,145228,1,0,3:0:0:0:
242,296,145286,1,0,3:0:0:0:
240,272,145344,1,0,3:0:0:0:
240,249,145401,6,0,P|140:243|31:258,1,199.499993911743,2|0,3:0|3:0,0:0:0:0:
45,171,145632,6,0,P|129:159|215:161,1,170.999994781494,2|0,3:0|3:0,0:0:0:0:
168,80,145863,6,0,P|116:79|65:85,1,85.4999973907472,10|0,3:2|0:0,0:0:0:0:
366,271,146094,6,0,L|383:72,1,199.499993911743,6|0,3:1|0:0,0:0:0:0:
382,60,146324,1,10,3:2:0:0:
483,197,146440,1,0,0:0:0:0:
240,249,146555,6,0,B|121:245|171:286|40:276,1,199.499993911743,2|0,3:2|0:0,0:0:0:0:
78,203,146786,2,0,P|65:126|129:105,1,132.999995941162,10|0,3:2|0:0,0:0:0:0:
268,23,147017,5,0,3:1:0:0:
253,143,147132,2,0,B|243:250|243:250|239:250|239:250|231:337,1,199.499993911743,2|0,0:0|0:0,0:0:0:0:
160,309,147363,1,2,0:0:0:0:
332,206,147478,2,0,P|420:226|387:326,1,199.499993911743,0|0,3:1|0:0,0:0:0:0:
377,365,147709,2,0,L|396:141,1,199.499993911743,8|0,3:2|0:0,0:0:0:0:
103,168,147940,6,0,B|168:121|158:45|158:45|173:121|251:143,1,285.000010871888,2|0,3:1|0:0,0:0:0:0:
251,143,148517,1,0,0:0:0:0:
266,222,148632,2,0,L|271:285,1,57,8|0,0:1|0:0,0:0:0:0:
37,319,148863,6,0,P|117:274|163:354,1,199.499993911743,4|0,3:1|0:0,0:0:0:0:
92,374,149094,1,10,3:2:0:0:
132,193,149209,1,0,0:0:0:0:
160,285,149324,2,0,L|177:86,1,199.499993911743,0|0,3:1|0:0,0:0:0:0:
174,8,149555,2,0,P|115:-14|70:29,1,132.999995941162,10|0,3:2|0:0,0:0:0:0:
32,203,149786,6,0,B|139:193|139:193|139:189|139:189|226:181,1,199.499993911743,0|0,3:1|0:0,0:0:0:0:
323,196,150017,1,8,3:2:0:0:
264,252,150132,2,0,L|252:384,1,132.999995941162,2|0,0:0|3:1,0:0:0:0:
131,194,150363,5,2,0:0:0:0:
72,138,150478,2,0,L|60:5,1,132.999995941162,8|2,3:2|0:0,0:0:0:0:
301,57,150709,6,0,P|380:12|428:88,1,199.499993911743,0|0,3:1|0:0,0:0:0:0:
469,149,150940,1,8,3:2:0:0:
467,171,151055,1,2,0:0:0:0:
448,296,151171,6,0,L|224:315,1,199.499993911743,0|0,3:1|0:0,0:0:0:0:
249,313,151401,1,8,3:2:0:0:
344,224,151517,5,2,0:0:0:0:
344,224,151632,2,0,L|350:144,1,71.25,0|0,3:1|0:0,0:0:0:0:
360,77,151863,2,0,P|285:22|248:125,1,199.499993911743,8|0,3:2|0:0,0:0:0:0:
186,202,152094,6,0,L|106:208,1,71.25,0|0,3:1|0:0,0:0:0:0:
133,305,152324,2,0,B|137:186|96:236|106:105,1,199.499993911743,10|0,3:2|0:0,0:0:0:0:
343,89,152555,5,4,3:1:0:0:
382,8,152728,1,0,0:0:0:0:
432,83,152901,1,0,0:0:0:0:
308,138,153017,5,4,3:2:0:0:
319,14,153190,1,0,0:0:0:0:
421,88,153363,1,0,0:0:0:0:
309,197,153478,5,4,3:2:0:0:
271,57,153651,1,0,0:0:0:0:
412,97,153824,1,0,0:0:0:0:
335,257,153939,5,4,3:2:0:0:
239,122,154113,1,0,0:0:0:0:
406,109,154286,1,0,0:0:0:0:
308,138,154401,6,0,L|281:374,1,213.750008153916,0|0,3:1|0:0,0:0:0:0:
205,302,154863,2,0,L|117:314,1,71.2500027179719,2|2,0:0|0:0,0:0:0:0:
388,225,155094,2,0,L|458:214,1,71.2500027179719,2|2,0:0|0:0,0:0:0:0:
303,204,155324,6,0,L|308:137,3,66.4999979705811,8|0|0|0,3:2|3:2|3:2|0:0,0:0:0:0:
216,33,155555,2,0,L|270:71,3,66.4999979705811,8|0|0|0,3:2|3:2|3:2|0:0,0:0:0:0:
411,43,155786,2,0,L|350:71,3,66.4999979705811,8|0|0|0,3:2|3:2|3:2|0:0,0:0:0:0:
458,213,156017,6,0,P|375:254|396:344,1,199.499993911743,8|0,3:2|0:0,0:0:0:0:
396,345,156248,1,8,3:2:0:0:
396,345,156478,2,0,L|197:362,1,199.499993911743,2|0,0:0|0:0,0:0:0:0:
65,263,156709,6,0,B|114:253|134:196|134:196|135:254|183:282,1,199.499993911743,2|0,0:0|0:0,0:0:0:0:
178,279,156940,1,2,0:0:0:0:
304,83,157171,6,0,P|359:15|414:83,1,199.499993911743,6|0,3:1|0:0,0:0:0:0:
373,169,157401,2,0,L|174:151,1,199.499993911743,10|0,3:2|0:0,0:0:0:0:
99,143,157632,1,0,3:1:0:0:
304,83,157748,1,2,0:0:0:0:
238,156,157863,2,0,L|257:379,1,199.499993911743,8|0,3:2|0:0,0:0:0:0:
172,341,158094,5,0,3:1:0:0:
351,256,158209,2,0,P|442:241|476:326,1,199.499993911743,2|0,0:0|0:0,0:0:0:0:
422,379,158440,1,2,0:0:0:0:
444,240,158555,2,0,B|452:153|452:153|456:153|456:153|466:46,1,199.499993911743,0|0,3:1|0:0,0:0:0:0:
379,101,158786,6,0,P|340:17|240:41,1,199.499993911743,10|0,3:2|0:0,0:0:0:0:
155,97,159017,5,2,3:2:0:0:
166,222,159132,1,0,0:0:0:0:
155,97,159248,1,8,3:2:0:0:
166,222,159363,1,2,0:0:0:0:
88,188,159478,6,0,P|170:140|253:212,1,199.499993911743,0|0,3:1|0:0,0:0:0:0:
271,264,159709,1,8,3:2:0:0:
341,173,159824,2,0,P|301:264|294:363,1,199.499993911743,2|0,0:0|0:0,0:0:0:0:
370,384,160055,1,0,0:0:0:0:
400,123,160171,6,0,B|389:87|439:88|450:25|450:25|439:88|489:101|460:143,1,228,10|0,3:2|0:0,0:0:0:0:
479,211,160401,2,0,B|514:219|489:262|538:303|538:303|489:262|453:299|430:252,1,228,2|0,3:2|0:0,0:0:0:0:
363,235,160632,2,0,B|337:261|313:218|253:239|253:239|313:218|299:168|350:172,1,228,10|0,3:2|0:0,0:0:0:0:
400,123,160863,6,0,L|418:330,1,199.499993911743,0|0,3:1|0:0,0:0:0:0:
370,384,161094,1,8,3:2:0:0:
479,211,161209,1,2,0:0:0:0:
280,267,161324,6,0,B|161:271|211:230|80:240,1,199.499993911743,0|0,3:1|0:0,0:0:0:0:
15,281,161555,2,0,P|8:216|50:166,1,132.999995941162,8|2,3:2|0:0,0:0:0:0:
164,150,161786,5,0,3:1:0:0:
219,57,161901,2,0,P|182:149|171:248,1,199.499993911743,2|0,0:0|0:0,0:0:0:0:
272,168,162132,5,2,0:0:0:0:
327,75,162247,2,0,P|290:167|279:266,1,199.499993911743,2|0,3:2|0:0,0:0:0:0:
400,326,162478,6,0,P|483:350|482:264,1,199.499993911743,10|0,3:2|0:0,0:0:0:0:
244,257,162709,6,0,B|179:210|189:134|189:134|174:210|96:232,1,285.000010871888,2|0,3:1|0:0,0:0:0:0:
160,295,163286,1,0,0:0:0:0:
160,295,163401,2,0,L|153:374,1,71.2500027179719,8|0,0:1|0:0,0:0:0:0:
28,107,163632,6,0,B|70:130|115:82|115:82|165:35|213:69,1,199.499993911743,4|0,3:1|0:0,0:0:0:0:
206,64,163863,2,0,P|234:115|166:142,1,142.5,8|0,3:2|0:2,0:2:0:0:
247,259,164094,6,0,B|289:236|334:284|334:284|384:331|432:297,1,199.499993911743,0|0,3:1|0:0,0:0:0:0:
425,301,164325,2,0,P|452:250|384:223,1,142.5,8|0,3:2|0:2,0:2:0:0:
194,134,164555,6,0,P|218:230|216:329,1,199.499993911743,2|0,3:2|0:0,0:0:0:0:
94,377,164786,5,8,3:2:0:0:
122,299,164901,2,0,P|123:227|105:158,1,132.999995941162,2|0,0:0|3:1,0:0:0:0:
305,8,165132,5,2,0:0:0:0:
333,86,165247,2,0,P|334:157|316:226,1,132.999995941162,8|2,3:2|0:0,0:0:0:0:
94,377,165478,6,0,L|292:359,1,199.499993911743,0|0,3:1|0:0,0:0:0:0:
302,288,165709,1,8,3:2:0:0:
300,266,165824,1,2,0:0:0:0:
229,228,165940,6,0,L|30:245,1,199.499993911743,0|0,3:1|0:0,0:0:0:0:
30,245,166171,1,10,3:2:0:0:
318,182,166286,5,0,0:0:0:0:
318,182,166401,2,0,L|324:111,1,71.25,0|0,3:1|0:0,0:0:0:0:
373,19,166632,2,0,B|286:27|286:27|286:31|286:31|179:41,1,199.499993911743,8|0,3:2|0:0,0:0:0:0:
102,0,166863,6,0,B|85:15|85:15|89:63,1,71.25,0|0,3:1|0:0,0:0:0:0:
142,210,167094,2,0,P|61:166|34:253,1,199.499993911743,8|0,3:2|0:0,0:0:0:0:
298,258,167324,5,4,3:1:0:0:
337,339,167498,1,0,0:0:0:0:
387,264,167671,1,0,0:0:0:0:
263,209,167786,5,4,3:2:0:0:
274,333,167959,1,0,0:0:0:0:
376,259,168132,1,0,0:0:0:0:
264,150,168247,5,4,3:2:0:0:
226,290,168421,1,0,0:0:0:0:
367,250,168594,1,0,0:0:0:0:
290,90,168708,5,4,3:2:0:0:
194,225,168882,1,0,0:0:0:0:
361,238,169055,1,0,0:0:0:0:
264,150,169171,6,0,L|51:130,1,213.750008153916,4|0,3:1|0:0,0:0:0:0:
35,105,169632,2,0,L|28:25,1,71.2500027179719,2|2,0:0|0:0,0:0:0:0:
50,266,169863,2,0,L|57:336,1,71.2500027179719,2|2,0:0|0:0,0:0:0:0:
267,348,170094,6,0,P|251:320|257:288,3,66.4999979705811,8|0|0|0,3:2|3:0|3:0|3:0,0:0:0:0:
174,192,170324,2,0,P|206:193|230:215,3,66.4999979705811,8|0|0|0,3:2|3:0|3:0|3:0,0:0:0:0:
355,191,170555,2,0,P|338:219|307:230,3,66.4999979705811,8|0|0|0,3:2|3:0|3:0|3:0,0:0:0:0:
267,348,170786,6,0,L|249:150,1,199.499993911743,8|0,3:2|0:0,0:0:0:0:
311,75,171017,6,0,P|442:72|462:201,1,285,2|0,0:0|0:0,0:0:0:0:
407,286,171478,6,0,B|168:265|168:265|146:282|127:280,1,285.000010871888,0|2,0:0|0:0,0:0:0:0:
