osu file format v14

[General]
AudioFilename: audio.ogg
AudioLeadIn: 0
PreviewTime: 68725
Countdown: 0
SampleSet: Normal
StackLeniency: 0.7
Mode: 1
LetterboxInBreaks: 0
WidescreenStoryboard: 0

[Editor]
DistanceSpacing: 0.9
BeatDivisor: 4
GridSize: 32
TimelineZoom: 1.4

[Metadata]
Title:Dawn Blue
TitleUnicode:Dawn Blue
Artist:Mori Calliope
ArtistUnicode:Mori Calliope
Creator:Jerry
Version:Kantan
Source:ホロライブ・オルタナティブ
Tags:cover corporation hololive production alternative holoalt ホロライブプロダクション japanese pop jpop j-pop vtuber virtual youtuber バーチャル ユーチューバー holoen english holomyth dead beats デッドビーツ 森 カリオペ 森美声 もりかりおぺ ボンジュール鈴木 Bonjour Suzuki 高橋 浩一郎 Kouichiro Takahashi 鈴木Daichi秀行 Hideyuki Daichi Suzuki teaser pv promotional video
BeatmapID:3015750
BeatmapSetID:1468771

[Difficulty]
HPDrainRate:8
CircleSize:5
OverallDifficulty:3
ApproachRate:5
SliderMultiplier:1.4
SliderTickRate:1

[Events]
//Background and Video events
0,0,"morimama.jpg",0,50
Video,0,"mmmmmm.mp4"
//Break Periods
//Storyboard Layer 0 (Background)
//Storyboard Layer 1 (Fail)
//Storyboard Layer 2 (Pass)
//Storyboard Layer 3 (Foreground)
//Storyboard Layer 4 (Overlay)
//Storyboard Sound Samples

[TimingPoints]
3598,306.122448979592,4,1,0,70,1,0
25485,-100,4,1,0,40,0,0
27628,-100,4,1,0,70,0,0
47526,-100,4,1,0,40,0,0
49057,-100,4,1,0,55,0,0
57399,-100,4,1,0,70,0,0
67118,-100,4,1,0,40,0,0
69414,-100,4,1,0,70,0,0
69567,-100,4,1,0,70,0,1
79363,-100,4,1,0,70,0,0
84261,-100,4,1,0,70,0,1
87934,-100,4,1,0,70,0,0
99031,-100,4,1,0,20,0,0

[HitObjects]
256,192,3598,5,0,0:0:0:0:
256,192,4516,1,8,0:0:0:0:
256,192,4822,1,8,0:0:0:0:
256,192,6046,1,0,0:0:0:0:
256,192,6965,1,8,0:0:0:0:
256,192,7271,1,0,0:0:0:0:
256,192,8495,1,0,0:0:0:0:
256,192,9414,1,0,0:0:0:0:
256,192,9720,1,8,0:0:0:0:
256,192,10638,1,8,0:0:0:0:
256,192,10944,1,0,0:0:0:0:
256,192,12169,1,8,0:0:0:0:
256,192,12781,1,8,0:0:0:0:
256,192,13393,1,0,0:0:0:0:
256,192,14006,1,8,0:0:0:0:
256,192,14465,1,0,0:0:0:0:
256,192,15842,1,4,0:0:0:0:
256,192,17067,1,0,0:0:0:0:
256,192,17373,1,8,0:0:0:0:
256,192,17679,1,8,0:0:0:0:
256,192,18291,1,0,0:0:0:0:
256,192,19210,1,12,0:0:0:0:
256,192,19822,1,8,0:0:0:0:
256,192,20128,1,0,0:0:0:0:
256,192,20740,1,4,0:0:0:0:
256,192,21353,1,8,0:0:0:0:
256,192,21965,1,8,0:0:0:0:
256,192,22271,1,8,0:0:0:0:
256,192,22577,1,8,0:0:0:0:
256,192,23189,1,4,0:0:0:0:
256,192,23802,1,8,0:0:0:0:
256,192,24414,1,8,0:0:0:0:
256,192,24720,1,0,0:0:0:0:
256,192,25026,1,8,0:0:0:0:
256,192,25638,12,0,27475,0:0:0:0:
256,192,28087,5,0,0:0:0:0:
256,192,29006,1,0,0:0:0:0:
256,192,29312,1,8,0:0:0:0:
256,192,29771,1,8,0:0:0:0:
256,192,30077,1,8,0:0:0:0:
256,192,30536,1,0,0:0:0:0:
256,192,30995,1,8,0:0:0:0:
256,192,31608,1,8,0:0:0:0:
256,192,32526,1,8,0:0:0:0:
256,192,32832,1,0,0:0:0:0:
256,192,33598,1,0,0:0:0:0:
256,192,34057,1,8,0:0:0:0:
256,192,34669,1,0,0:0:0:0:
256,192,34975,1,0,0:0:0:0:
256,192,35434,1,0,0:0:0:0:
256,192,35893,1,8,0:0:0:0:
256,192,36506,1,0,0:0:0:0:
256,192,37883,1,4,0:0:0:0:
256,192,38802,1,8,0:0:0:0:
256,192,39108,1,8,0:0:0:0:
256,192,39567,1,0,0:0:0:0:
256,192,39873,1,0,0:0:0:0:
256,192,40332,1,8,0:0:0:0:
256,192,40791,1,8,0:0:0:0:
256,192,41404,1,8,0:0:0:0:
256,192,42016,1,0,0:0:0:0:
256,192,42628,1,8,0:0:0:0:
256,192,43393,1,0,0:0:0:0:
256,192,43853,1,8,0:0:0:0:
256,192,44465,1,0,0:0:0:0:
256,192,45077,1,8,0:0:0:0:
256,192,45842,1,0,0:0:0:0:
256,192,46302,1,8,0:0:0:0:
256,192,46914,1,8,0:0:0:0:
256,192,47679,12,0,48904,0:0:0:0:
256,192,49210,5,0,0:0:0:0:
256,192,49516,1,8,0:0:0:0:
256,192,50128,1,8,0:0:0:0:
256,192,50740,1,0,0:0:0:0:
256,192,51353,1,0,0:0:0:0:
256,192,52271,1,0,0:0:0:0:
256,192,52577,1,8,0:0:0:0:
256,192,53189,1,8,0:0:0:0:
256,192,53802,1,8,0:0:0:0:
256,192,54414,1,0,0:0:0:0:
256,192,54720,1,0,0:0:0:0:
256,192,55026,1,8,0:0:0:0:
256,192,55638,1,8,0:0:0:0:
256,192,56251,1,0,0:0:0:0:
256,192,57475,1,12,0:0:0:0:
256,192,58087,1,8,0:0:0:0:
256,192,59006,1,0,0:0:0:0:
256,192,59312,1,8,0:0:0:0:
256,192,59924,1,0,0:0:0:0:
256,192,60536,1,8,0:0:0:0:
256,192,61455,1,8,0:0:0:0:
256,192,61761,1,0,0:0:0:0:
256,192,62373,1,12,0:0:0:0:
256,192,63444,1,4,0:0:0:0:
256,192,64669,1,12,0:0:0:0:
256,192,65434,1,0,0:0:0:0:
256,192,65893,1,8,0:0:0:0:
256,192,66506,1,8,0:0:0:0:
256,192,66812,1,8,0:0:0:0:
256,192,67271,12,0,68495,0:0:0:0:
256,192,69567,5,4,0:0:0:0:
256,192,70026,1,8,0:0:0:0:
256,192,70638,1,0,0:0:0:0:
256,192,70791,1,0,0:0:0:0:
256,192,71557,1,8,0:0:0:0:
256,192,72016,1,4,0:0:0:0:
256,192,72475,1,8,0:0:0:0:
256,192,73087,1,0,0:0:0:0:
256,192,73240,1,0,0:0:0:0:
256,192,74006,1,8,0:0:0:0:
256,192,74465,1,4,0:0:0:0:
256,192,74924,1,8,0:0:0:0:
256,192,75230,1,8,0:0:0:0:
256,192,75689,1,0,0:0:0:0:
256,192,76302,1,8,0:0:0:0:
256,192,76914,1,4,0:0:0:0:
256,192,77679,1,0,0:0:0:0:
256,192,78138,1,12,0:0:0:0:
256,192,78751,1,8,0:0:0:0:
256,192,79363,1,4,0:0:0:0:
256,192,80128,1,8,0:0:0:0:
256,192,81046,1,0,0:0:0:0:
256,192,81353,1,8,0:0:0:0:
256,192,81965,1,0,0:0:0:0:
256,192,82577,1,8,0:0:0:0:
256,192,83495,1,0,0:0:0:0:
256,192,83802,1,8,0:0:0:0:
256,192,84261,1,4,0:0:0:0:
256,192,85332,1,8,0:0:0:0:
256,192,85638,1,8,0:0:0:0:
256,192,86098,1,8,0:0:0:0:
256,192,86404,1,8,0:0:0:0:
256,192,86710,1,4,0:0:0:0:
256,192,87934,1,0,0:0:0:0:
256,192,88240,1,0,0:0:0:0:
256,192,88546,1,0,0:0:0:0:
256,192,88853,1,8,0:0:0:0:
256,192,89312,1,4,0:0:0:0:
256,192,90536,1,0,0:0:0:0:
256,192,90842,1,0,0:0:0:0:
256,192,91149,1,8,0:0:0:0:
256,192,91455,1,8,0:0:0:0:
256,192,91761,1,4,0:0:0:0:
256,192,92679,1,8,0:0:0:0:
256,192,93291,1,0,0:0:0:0:
245,188,93598,1,8,0:0:0:0:
256,192,94210,1,4,0:0:0:0:
256,192,94822,1,8,0:0:0:0:
256,192,95434,1,0,0:0:0:0:
256,192,96046,1,8,0:0:0:0:
256,192,96353,1,8,0:0:0:0:
256,192,96659,1,0,0:0:0:0:
256,192,97271,1,8,0:0:0:0:
256,192,97577,1,4,0:0:0:0:
256,192,98189,1,0,0:0:0:0:
256,192,98495,1,8,0:0:0:0:
256,192,98802,1,8,0:0:0:0:
256,192,99108,12,0,102169,0:0:0:0:
