osu file format v14

[General]
AudioFilename: audio.ogg
AudioLeadIn: 0
PreviewTime: 68725
Countdown: 0
SampleSet: Normal
StackLeniency: 0.7
Mode: 1
LetterboxInBreaks: 0
WidescreenStoryboard: 0

[Editor]
DistanceSpacing: 0.8
BeatDivisor: 4
GridSize: 32
TimelineZoom: 1.8

[Metadata]
Title:Dawn Blue
TitleUnicode:Dawn Blue
Artist:Mori Calliope
ArtistUnicode:Mori Calliope
Creator:Jerry
Version:Intertwined Fate
Source:ホロライブ・オルタナティブ
Tags:cover corporation hololive production alternative holoalt ホロライブプロダクション japanese pop jpop j-pop vtuber virtual youtuber バーチャル ユーチューバー holoen english holomyth dead beats デッドビーツ 森 カリオペ 森美声 もりかりおぺ ボンジュール鈴木 Bonjour Suzuki 高橋 浩一郎 Kouichiro Takahashi 鈴木Daichi秀行 Hideyuki Daichi Suzuki teaser pv promotional video
BeatmapID:3015749
BeatmapSetID:1468771

[Difficulty]
HPDrainRate:5.5
CircleSize:5
OverallDifficulty:6
ApproachRate:5
SliderMultiplier:1.4
SliderTickRate:1

[Events]
//Background and Video events
0,0,"morimama.jpg",0,50
Video,0,"mmmmmm.mp4"
//Break Periods
//Storyboard Layer 0 (Background)
//Storyboard Layer 1 (Fail)
//Storyboard Layer 2 (Pass)
//Storyboard Layer 3 (Foreground)
//Storyboard Layer 4 (Overlay)
//Storyboard Sound Samples

[TimingPoints]
3598,306.122448979592,4,1,0,70,1,0
25485,-111.111111111111,4,1,0,70,0,0
27399,-83.3333333333333,4,1,0,70,0,0
27781,-100,4,1,0,70,0,0
47603,-90.9090909090909,4,1,0,40,0,0
49057,-117.647058823529,4,1,0,55,0,0
57399,-111.111111111111,4,1,0,70,0,0
62296,-90.9090909090909,4,1,0,70,0,0
62450,-95.2380952380952,4,1,0,70,0,0
63368,-86.9565217391304,4,1,0,70,0,0
63521,-90.9090909090909,4,1,0,70,0,0
64592,-83.3333333333333,4,1,0,70,0,0
64745,-86.9565217391304,4,1,0,70,0,0
65817,-80,4,1,0,70,0,0
65970,-83.3333333333333,4,1,0,70,0,0
66123,-86.9565217391304,4,1,0,70,0,0
66429,-95.2380952380952,4,1,0,70,0,0
66735,-105.263157894737,4,1,0,70,0,0
66965,-117.647058823529,4,1,0,45,0,0
68342,-111.111111111111,4,1,0,55,0,0
68572,-111.111111111111,4,1,0,60,0,0
69031,-111.111111111111,4,1,0,65,0,0
69490,-90.9090909090909,4,1,0,70,0,0
69567,-90.9090909090909,4,1,0,70,0,1
79363,-90.9090909090909,4,1,0,70,0,0
79439,-100,4,1,0,70,0,0
84184,-90.9090909090909,4,1,0,70,0,0
84261,-90.9090909090909,4,1,0,70,0,1
87934,-90.9090909090909,4,1,0,70,0,0
88011,-95.2380952380952,4,1,0,70,0,0
88164,-100,4,1,0,70,0,0
88470,-111.111111111111,4,1,0,70,0,0
88776,-125,4,1,0,70,0,0
89235,-100,4,1,0,70,0,0
99031,-100,4,1,0,20,0,0

[HitObjects]
256,192,3598,5,0,0:0:0:0:
256,192,3904,1,8,0:0:0:0:
256,192,4057,1,0,0:0:0:0:
256,192,4516,1,8,0:0:0:0:
256,192,4822,1,0,0:0:0:0:
256,192,4975,1,8,0:0:0:0:
256,192,5434,1,8,0:0:0:0:
256,192,5587,1,0,0:0:0:0:
256,192,5893,1,8,0:0:0:0:
256,192,6046,1,8,0:0:0:0:
256,192,6506,1,8,0:0:0:0:
256,192,6965,1,8,0:0:0:0:
256,192,7271,1,0,0:0:0:0:
256,192,7424,1,8,0:0:0:0:
256,192,7730,1,8,0:0:0:0:
256,192,7883,1,0,0:0:0:0:
256,192,8189,1,8,0:0:0:0:
256,192,8495,1,0,0:0:0:0:
256,192,8955,1,8,0:0:0:0:
256,192,9414,1,8,0:0:0:0:
256,192,9720,1,0,0:0:0:0:
256,192,10179,1,8,0:0:0:0:
256,192,10638,1,8,0:0:0:0:
256,192,10791,1,8,0:0:0:0:
256,192,10944,1,0,0:0:0:0:
256,192,11098,1,8,0:0:0:0:
256,192,11404,1,8,0:0:0:0:
256,192,11557,1,0,0:0:0:0:
256,192,11863,1,8,0:0:0:0:
256,192,12322,1,8,0:0:0:0:
256,192,12475,1,0,0:0:0:0:
256,192,12781,1,8,0:0:0:0:
256,192,12934,1,0,0:0:0:0:
256,192,13087,1,8,0:0:0:0:
256,192,13240,1,8,0:0:0:0:
256,192,13393,1,0,0:0:0:0:
256,192,13546,1,8,0:0:0:0:
256,192,13853,1,0,0:0:0:0:
256,192,13929,1,0,0:0:0:0:
256,192,14006,1,8,0:0:0:0:
256,192,14312,1,8,0:0:0:0:
256,192,14465,1,0,0:0:0:0:
256,192,14771,1,8,0:0:0:0:
256,192,14924,1,0,0:0:0:0:
256,192,15077,1,0,0:0:0:0:
256,192,15230,1,8,0:0:0:0:
256,192,15383,1,0,0:0:0:0:
256,192,15842,1,4,0:0:0:0:
256,192,16149,1,0,0:0:0:0:
256,192,16302,1,8,0:0:0:0:
256,192,16608,1,8,0:0:0:0:
256,192,16761,1,0,0:0:0:0:
256,192,17067,1,8,0:0:0:0:
256,192,17220,1,12,0:0:0:0:
256,192,17526,1,8,0:0:0:0:
256,192,17679,1,0,0:0:0:0:
256,192,17985,1,0,0:0:0:0:
256,192,18291,1,0,0:0:0:0:
256,192,18444,1,8,0:0:0:0:
256,192,18598,1,8,0:0:0:0:
256,192,18751,1,0,0:0:0:0:
256,192,19057,1,0,0:0:0:0:
256,192,19210,1,12,0:0:0:0:
256,192,19516,1,8,0:0:0:0:
256,192,19669,1,0,0:0:0:0:
256,192,19822,1,8,0:0:0:0:
256,192,20128,1,8,0:0:0:0:
256,192,20281,1,0,0:0:0:0:
256,192,20358,1,0,0:0:0:0:
256,192,20434,1,8,0:0:0:0:
256,192,20587,1,8,0:0:0:0:
256,192,20740,1,4,0:0:0:0:
256,192,20893,1,0,0:0:0:0:
256,192,21046,1,8,0:0:0:0:
256,192,21353,1,8,0:0:0:0:
256,192,21506,1,0,0:0:0:0:
256,192,21812,1,8,0:0:0:0:
256,192,21965,1,0,0:0:0:0:
256,192,22118,1,8,0:0:0:0:
256,192,22194,1,8,0:0:0:0:
256,192,22271,1,8,0:0:0:0:
256,192,22424,1,0,0:0:0:0:
256,192,22577,1,8,0:0:0:0:
256,192,22730,1,0,0:0:0:0:
256,192,22883,1,8,0:0:0:0:
256,192,23036,1,8,0:0:0:0:
256,192,23189,1,4,0:0:0:0:
256,192,23342,1,0,0:0:0:0:
256,192,23495,1,8,0:0:0:0:
256,192,23802,1,8,0:0:0:0:
256,192,23955,1,8,0:0:0:0:
256,192,24261,1,8,0:0:0:0:
256,192,24414,1,0,0:0:0:0:
256,192,24567,1,8,0:0:0:0:
256,192,24720,1,8,0:0:0:0:
256,192,24873,1,0,0:0:0:0:
256,192,24950,1,0,0:0:0:0:
256,192,25026,1,8,0:0:0:0:
256,192,25179,1,0,0:0:0:0:
256,192,25332,1,8,0:0:0:0:
256,192,25638,1,0,0:0:0:0:
256,192,26098,1,8,0:0:0:0:
256,192,26557,1,8,0:0:0:0:
256,192,27016,1,0,0:0:0:0:
256,192,27092,1,0,0:0:0:0:
256,192,27169,1,0,0:0:0:0:
256,192,27322,1,0,0:0:0:0:
256,192,27475,1,12,0:0:0:0:
256,192,28087,1,0,0:0:0:0:
256,192,28393,1,8,0:0:0:0:
256,192,28700,1,0,0:0:0:0:
256,192,29006,1,8,0:0:0:0:
256,192,29159,1,0,0:0:0:0:
256,192,29312,1,8,0:0:0:0:
256,192,29465,1,8,0:0:0:0:
256,192,29771,1,8,0:0:0:0:
256,192,30077,1,0,0:0:0:0:
256,192,30383,1,0,0:0:0:0:
256,192,30536,1,8,0:0:0:0:
256,192,30842,1,8,0:0:0:0:
256,192,30995,1,0,0:0:0:0:
256,192,31302,1,8,0:0:0:0:
256,192,31608,1,0,0:0:0:0:
256,192,32067,1,8,0:0:0:0:
256,192,32220,1,8,0:0:0:0:
256,192,32526,1,0,0:0:0:0:
256,192,32832,1,8,0:0:0:0:
256,192,33138,1,0,0:0:0:0:
256,192,33291,1,8,0:0:0:0:
256,192,33598,1,0,0:0:0:0:
256,192,33751,1,0,0:0:0:0:
256,192,33904,1,8,0:0:0:0:
256,192,34057,1,0,0:0:0:0:
256,192,34363,1,8,0:0:0:0:
256,192,34669,1,0,0:0:0:0:
256,192,34975,1,8,0:0:0:0:
256,192,35128,1,8,0:0:0:0:
256,192,35281,1,0,0:0:0:0:
256,192,35434,1,8,0:0:0:0:
256,192,35740,1,8,0:0:0:0:
256,192,35893,1,0,0:0:0:0:
256,192,36200,1,0,0:0:0:0:
256,192,36506,1,8,0:0:0:0:
256,192,36812,1,0,0:0:0:0:
256,192,36965,1,8,0:0:0:0:
256,192,37271,1,8,0:0:0:0:
256,192,37424,1,0,0:0:0:0:
256,192,37501,1,0,0:0:0:0:
256,192,37577,1,8,0:0:0:0:
256,192,37730,1,8,0:0:0:0:
256,192,37883,1,4,0:0:0:0:
256,192,38189,1,8,0:0:0:0:
256,192,38419,1,0,0:0:0:0:
256,192,38495,1,0,0:0:0:0:
256,192,38649,1,0,0:0:0:0:
256,192,38802,1,8,0:0:0:0:
256,192,38955,1,0,0:0:0:0:
256,192,39261,1,0,0:0:0:0:
256,192,39414,1,8,0:0:0:0:
256,192,39643,1,8,0:0:0:0:
256,192,39720,1,0,0:0:0:0:
256,192,39873,1,0,0:0:0:0:
256,192,40026,1,8,0:0:0:0:
256,192,40179,1,8,0:0:0:0:
256,192,40332,1,0,0:0:0:0:
256,192,40638,1,8,0:0:0:0:
256,192,40791,1,0,0:0:0:0:
256,192,40944,1,0,0:0:0:0:
256,192,41098,1,8,0:0:0:0:
256,192,41404,1,0,0:0:0:0:
256,192,41480,1,0,0:0:0:0:
256,192,41557,1,0,0:0:0:0:
256,192,41710,1,0,0:0:0:0:
256,192,41863,1,8,0:0:0:0:
256,192,42016,1,0,0:0:0:0:
256,192,42245,1,8,0:0:0:0:
256,192,42322,1,0,0:0:0:0:
256,192,42475,1,8,0:0:0:0:
256,192,42628,1,8,0:0:0:0:
256,192,42781,1,0,0:0:0:0:
256,192,43087,1,8,0:0:0:0:
256,192,43393,1,0,0:0:0:0:
256,192,43546,1,8,0:0:0:0:
256,192,43700,1,8,0:0:0:0:
256,192,43853,1,0,0:0:0:0:
256,192,44159,1,8,0:0:0:0:
256,192,44235,1,0,0:0:0:0:
256,192,44312,1,8,0:0:0:0:
256,192,44465,1,0,0:0:0:0:
256,192,44618,1,8,0:0:0:0:
256,192,44771,1,0,0:0:0:0:
256,192,44924,1,8,0:0:0:0:
256,192,45077,1,8,0:0:0:0:
256,192,45230,1,4,0:0:0:0:
256,192,45536,1,8,0:0:0:0:
256,192,45842,1,0,0:0:0:0:
256,192,45919,1,0,0:0:0:0:
256,192,45995,1,0,0:0:0:0:
256,192,46149,1,8,0:0:0:0:
256,192,46302,1,4,0:0:0:0:
256,192,46608,1,0,0:0:0:0:
256,192,46761,1,8,0:0:0:0:
256,192,46914,1,0,0:0:0:0:
256,192,46990,1,0,0:0:0:0:
256,192,47067,1,8,0:0:0:0:
256,192,47220,1,0,0:0:0:0:
256,192,47373,1,8,0:0:0:0:
256,192,47679,12,0,48904,0:0:0:0:
256,192,49210,5,0,0:0:0:0:
256,192,49516,1,8,0:0:0:0:
256,192,50128,1,8,0:0:0:0:
256,192,50434,1,0,0:0:0:0:
256,192,50587,1,8,0:0:0:0:
256,192,50893,1,8,0:0:0:0:
248,192,51353,1,8,0:0:0:0:
256,192,51506,1,0,0:0:0:0:
256,192,51659,1,8,0:0:0:0:
256,192,51812,1,0,0:0:0:0:
256,192,51965,1,8,0:0:0:0:
256,192,52118,1,8,0:0:0:0:
256,192,52271,1,0,0:0:0:0:
256,192,52577,1,0,0:0:0:0:
256,192,53189,1,0,0:0:0:0:
256,192,53495,1,8,0:0:0:0:
256,192,53802,1,0,0:0:0:0:
256,192,54414,1,0,0:0:0:0:
256,192,54720,1,8,0:0:0:0:
256,192,55026,1,0,0:0:0:0:
256,192,55179,1,0,0:0:0:0:
256,192,55332,1,8,0:0:0:0:
256,192,55485,1,0,0:0:0:0:
256,192,55944,1,8,0:0:0:0:
256,192,56251,1,0,0:0:0:0:
256,192,56557,1,0,0:0:0:0:
256,192,56863,1,8,0:0:0:0:
256,192,57016,1,0,0:0:0:0:
256,192,57092,1,0,0:0:0:0:
256,192,57169,1,8,0:0:0:0:
256,192,57322,1,8,0:0:0:0:
256,192,57475,5,4,0:0:0:0:
256,192,57628,1,0,0:0:0:0:
256,192,57934,1,0,0:0:0:0:
256,192,58087,1,8,0:0:0:0:
256,192,58393,1,8,0:0:0:0:
256,192,58546,1,0,0:0:0:0:
256,192,58853,1,8,0:0:0:0:
256,192,59006,1,0,0:0:0:0:
256,192,59159,1,0,0:0:0:0:
256,192,59312,1,8,0:0:0:0:
256,192,59618,1,8,0:0:0:0:
256,192,59924,1,0,0:0:0:0:
256,192,60077,1,0,0:0:0:0:
256,192,60383,1,0,0:0:0:0:
256,192,60536,1,8,0:0:0:0:
256,192,60842,1,8,0:0:0:0:
256,192,60995,1,0,0:0:0:0:
256,192,61302,1,8,0:0:0:0:
256,192,61455,1,0,0:0:0:0:
256,192,61608,1,0,0:0:0:0:
256,192,61761,1,8,0:0:0:0:
256,192,61914,1,0,0:0:0:0:
256,192,61990,1,0,0:0:0:0:
256,192,62067,1,8,0:0:0:0:
256,192,62373,1,4,0:0:0:0:
256,192,62603,1,0,0:0:0:0:
256,192,62679,1,8,0:0:0:0:
256,192,62832,1,8,0:0:0:0:
256,192,62985,1,0,0:0:0:0:
256,192,63062,1,8,0:0:0:0:
256,192,63138,1,0,0:0:0:0:
256,192,63291,1,8,0:0:0:0:
256,192,63444,1,4,0:0:0:0:
256,192,63751,1,8,0:0:0:0:
256,192,63827,1,0,0:0:0:0:
256,192,63904,1,8,0:0:0:0:
256,192,64057,1,8,0:0:0:0:
256,192,64210,1,0,0:0:0:0:
256,192,64286,1,8,0:0:0:0:
256,192,64363,1,0,0:0:0:0:
256,192,64516,1,8,0:0:0:0:
256,192,64669,1,4,0:0:0:0:
256,192,64975,1,8,0:0:0:0:
256,192,65052,1,8,0:0:0:0:
256,192,65128,1,8,0:0:0:0:
256,192,65281,1,0,0:0:0:0:
256,192,65434,1,8,0:0:0:0:
256,192,65587,1,0,0:0:0:0:
256,192,65664,1,0,0:0:0:0:
256,192,65740,1,8,0:0:0:0:
256,192,65893,1,4,0:0:0:0:
256,192,66200,1,4,0:0:0:0:
256,192,66506,1,12,0:0:0:0:
256,192,66812,1,12,0:0:0:0:
256,192,67271,1,0,0:0:0:0:
256,192,67424,1,0,0:0:0:0:
256,192,67577,1,8,0:0:0:0:
256,192,67730,1,0,0:0:0:0:
256,192,67883,1,8,0:0:0:0:
256,192,68036,1,8,0:0:0:0:
256,192,68189,1,0,0:0:0:0:
256,192,68495,1,8,0:0:0:0:
256,192,68649,1,0,0:0:0:0:
256,192,68725,1,0,0:0:0:0:
256,192,68802,1,8,0:0:0:0:
256,192,68955,1,0,0:0:0:0:
256,192,69108,1,8,0:0:0:0:
256,192,69184,1,8,0:0:0:0:
256,192,69261,1,0,0:0:0:0:
256,192,69414,1,8,0:0:0:0:
256,192,69567,1,4,0:0:0:0:
256,192,69873,1,8,0:0:0:0:
256,192,70026,1,0,0:0:0:0:
256,192,70179,1,0,0:0:0:0:
256,192,70332,1,8,0:0:0:0:
256,192,70485,1,0,0:0:0:0:
256,192,70562,1,0,0:0:0:0:
256,192,70638,1,8,0:0:0:0:
256,192,70791,1,0,0:0:0:0:
256,192,71098,1,8,0:0:0:0:
256,192,71174,1,0,0:0:0:0:
256,192,71251,1,8,0:0:0:0:
256,192,71404,1,0,0:0:0:0:
256,192,71557,1,8,0:0:0:0:
256,192,71710,1,8,0:0:0:0:
256,192,71863,1,8,0:0:0:0:
256,192,72016,1,4,0:0:0:0:
256,192,72322,1,8,0:0:0:0:
256,192,72399,1,8,0:0:0:0:
256,192,72475,1,8,0:0:0:0:
256,192,72628,1,0,0:0:0:0:
256,192,72781,1,8,0:0:0:0:
256,192,72934,1,8,0:0:0:0:
256,192,73087,1,0,0:0:0:0:
256,192,73240,1,0,0:0:0:0:
256,192,73546,1,0,0:0:0:0:
256,192,73623,1,0,0:0:0:0:
256,192,73700,1,8,0:0:0:0:
256,192,73853,1,0,0:0:0:0:
256,192,74006,1,8,0:0:0:0:
256,192,74082,1,0,0:0:0:0:
256,192,74159,1,8,0:0:0:0:
256,192,74235,1,8,0:0:0:0:
256,192,74312,1,0,0:0:0:0:
256,192,74465,1,12,0:0:0:0:
256,192,74771,1,0,0:0:0:0:
256,192,74848,1,0,0:0:0:0:
256,192,74924,1,8,0:0:0:0:
256,192,75077,1,0,0:0:0:0:
256,192,75230,1,8,0:0:0:0:
256,192,75307,1,8,0:0:0:0:
256,192,75383,1,0,0:0:0:0:
256,192,75536,1,0,0:0:0:0:
256,192,75689,1,8,0:0:0:0:
256,192,75995,1,8,0:0:0:0:
256,192,76072,1,0,0:0:0:0:
256,192,76149,1,8,0:0:0:0:
256,192,76302,1,0,0:0:0:0:
256,192,76455,1,8,0:0:0:0:
256,192,76531,1,0,0:0:0:0:
256,192,76608,1,8,0:0:0:0:
256,192,76684,1,8,0:0:0:0:
256,192,76761,1,0,0:0:0:0:
256,192,76914,1,12,0:0:0:0:
256,192,77220,1,8,0:0:0:0:
256,192,77296,1,0,0:0:0:0:
256,192,77373,1,8,0:0:0:0:
256,192,77526,1,0,0:0:0:0:
256,192,77679,1,8,0:0:0:0:
256,192,77756,1,8,0:0:0:0:
256,192,77832,1,8,0:0:0:0:
256,192,77985,1,0,0:0:0:0:
256,192,78138,1,12,0:0:0:0:
256,192,78444,1,0,0:0:0:0:
256,192,78598,1,8,0:0:0:0:
256,192,78751,1,0,0:0:0:0:
256,192,78904,1,8,0:0:0:0:
256,192,78980,1,8,0:0:0:0:
256,192,79057,1,0,0:0:0:0:
256,192,79210,1,8,0:0:0:0:
256,192,79363,1,4,0:0:0:0:
256,192,79669,1,0,0:0:0:0:
256,192,79745,1,0,0:0:0:0:
256,192,79822,1,0,0:0:0:0:
256,192,79975,1,0,0:0:0:0:
256,192,80128,1,8,0:0:0:0:
256,192,80281,1,8,0:0:0:0:
256,192,80587,1,8,0:0:0:0:
256,192,80893,1,0,0:0:0:0:
256,192,81046,1,8,0:0:0:0:
256,192,81200,1,0,0:0:0:0:
256,192,81353,1,8,0:0:0:0:
256,192,81429,1,8,0:0:0:0:
256,192,81506,1,8,0:0:0:0:
256,192,81659,1,8,0:0:0:0:
256,192,81812,1,0,0:0:0:0:
256,192,82118,1,8,0:0:0:0:
256,192,82424,1,0,0:0:0:0:
256,192,82730,1,8,0:0:0:0:
256,192,82883,1,0,0:0:0:0:
256,192,83036,1,8,0:0:0:0:
256,192,83342,1,0,0:0:0:0:
256,192,83495,1,8,0:0:0:0:
256,192,83649,1,0,0:0:0:0:
256,192,83725,1,0,0:0:0:0:
256,192,83802,1,8,0:0:0:0:
256,192,83955,1,8,0:0:0:0:
256,192,84108,1,8,0:0:0:0:
256,192,84261,1,4,0:0:0:0:
256,192,84567,1,0,0:0:0:0:
256,192,84720,1,8,0:0:0:0:
256,192,84873,1,0,0:0:0:0:
256,192,85026,1,0,0:0:0:0:
256,192,85179,1,8,0:0:0:0:
256,192,85256,1,8,0:0:0:0:
256,192,85332,1,8,0:0:0:0:
256,192,85485,1,0,0:0:0:0:
256,192,85638,1,8,0:0:0:0:
256,192,85944,1,8,0:0:0:0:
256,192,86098,1,8,0:0:0:0:
256,192,86251,1,0,0:0:0:0:
256,192,86404,1,0,0:0:0:0:
256,192,86480,1,0,0:0:0:0:
256,192,86557,1,8,0:0:0:0:
256,192,86710,1,4,0:0:0:0:
256,192,87016,1,8,0:0:0:0:
256,192,87169,1,8,0:0:0:0:
256,192,87322,1,0,0:0:0:0:
256,192,87399,1,0,0:0:0:0:
256,192,87475,1,8,0:0:0:0:
256,192,87628,1,8,0:0:0:0:
256,192,87781,1,0,0:0:0:0:
256,192,87934,1,12,0:0:0:0:
256,192,88240,1,12,0:0:0:0:
256,192,88546,1,12,0:0:0:0:
256,192,88853,1,12,0:0:0:0:
256,192,89312,1,4,0:0:0:0:
256,192,89465,1,0,0:0:0:0:
256,192,89618,1,0,0:0:0:0:
256,192,89771,1,8,0:0:0:0:
256,192,90077,1,0,0:0:0:0:
256,192,90230,1,8,0:0:0:0:
256,192,90536,1,0,0:0:0:0:
256,192,90689,1,8,0:0:0:0:
256,192,90995,1,8,0:0:0:0:
256,192,91149,1,0,0:0:0:0:
256,192,91302,1,0,0:0:0:0:
256,192,91455,1,8,0:0:0:0:
256,192,91608,1,8,0:0:0:0:
256,192,91761,1,4,0:0:0:0:
256,192,91914,1,0,0:0:0:0:
256,192,92067,1,0,0:0:0:0:
256,192,92220,1,8,0:0:0:0:
256,192,92526,1,0,0:0:0:0:
256,192,92679,1,0,0:0:0:0:
256,192,92832,1,8,0:0:0:0:
256,192,93138,1,0,0:0:0:0:
256,192,93291,1,8,0:0:0:0:
256,192,93444,1,0,0:0:0:0:
256,192,93521,1,0,0:0:0:0:
256,192,93598,1,8,0:0:0:0:
256,192,93751,1,8,0:0:0:0:
256,192,93904,1,0,0:0:0:0:
256,192,94210,1,4,0:0:0:0:
256,192,94363,1,0,0:0:0:0:
256,192,94516,1,8,0:0:0:0:
256,192,94822,1,0,0:0:0:0:
256,192,94975,1,8,0:0:0:0:
256,192,95281,1,8,0:0:0:0:
256,192,95434,1,0,0:0:0:0:
256,192,95587,1,8,0:0:0:0:
256,192,95664,1,8,0:0:0:0:
256,192,95740,1,8,0:0:0:0:
256,192,95893,1,0,0:0:0:0:
256,192,96046,1,8,0:0:0:0:
256,192,96200,1,0,0:0:0:0:
256,192,96353,1,8,0:0:0:0:
256,192,96506,1,8,0:0:0:0:
256,192,96812,1,0,0:0:0:0:
256,192,96965,1,8,0:0:0:0:
256,192,97118,1,0,0:0:0:0:
256,192,97271,1,8,0:0:0:0:
256,192,97424,1,8,0:0:0:0:
256,192,97577,1,4,0:0:0:0:
256,192,97730,1,8,0:0:0:0:
256,192,98036,1,8,0:0:0:0:
256,192,98113,1,8,0:0:0:0:
256,192,98189,1,8,0:0:0:0:
256,192,98342,1,8,0:0:0:0:
256,192,98495,1,0,0:0:0:0:
256,192,98649,1,8,0:0:0:0:
256,192,98802,1,8,0:0:0:0:
256,192,98955,1,8,0:0:0:0:
256,192,99108,12,0,102169,0:0:0:0:
