osu file format v14

[General]
AudioFilename: audio.mp3
AudioLeadIn: 0
PreviewTime: 68498
Countdown: 0
SampleSet: Soft
StackLeniency: 0.7
Mode: 0
LetterboxInBreaks: 0
WidescreenStoryboard: 1

[Editor]
Bookmarks: 47681,57477,99110,102171
DistanceSpacing: 1.2
BeatDivisor: 8
GridSize: 32
TimelineZoom: 2.5

[Metadata]
Title:Dawn Blue
TitleUnicode:Dawn Blue
Artist:Mori Calliope
ArtistUnicode:Mori Calliope
Creator:Cynplytholowazy
Version:Wanpachi's Normal
Source:ホロライブ・オルタナティブ
Tags:cover corporation hololive production alternative holoalt ホロライブプロダクション ホロライブ オルタナティブ japanese pop jpop j-pop vtuber virtual youtuber バーチャル ユーチューバー holoen english holomyth dead beats デッドビーツ 森 カリオペ 森美声 もりかりおぺ ボンジュール鈴木 Bonjour Suzuki 高橋 浩一郎 Kouichiro Takahashi 鈴木Daichi秀行 Hideyuki Daichi teaser pv promotional video -Atri- Firis Mistlud Firis_Mistlud KuranteMelodii krt Mir frozz Wanpachi fedora fedora- Yuuki_Noa Yuuki Noa
BeatmapID:3020928
BeatmapSetID:1469465

[Difficulty]
HPDrainRate:4
CircleSize:3.2
OverallDifficulty:4.1
ApproachRate:5
SliderMultiplier:0.9
SliderTickRate:1

[Events]
//Background and Video events
0,0,"wanpach.jpg",0,0
Video,0,"pv.mp4"
//Break Periods
//Storyboard Layer 0 (Background)
//Storyboard Layer 1 (Fail)
//Storyboard Layer 2 (Pass)
//Storyboard Layer 3 (Foreground)
//Storyboard Layer 4 (Overlay)
//Storyboard Sound Samples

[TimingPoints]
-1297,306.122448979592,4,2,1,60,1,0
2835,-100,4,2,1,40,0,0
3600,-105.263157894737,4,2,2,55,0,0
3677,-105.263157894737,4,2,2,50,0,0
4672,-105.263157894737,4,2,1,50,0,0
5437,-105.263157894737,4,2,2,38,0,0
5590,-105.263157894737,4,2,2,40,0,0
5743,-105.263157894737,4,2,2,42,0,0
5896,-105.263157894737,4,2,2,44,0,0
6049,-105.263157894737,4,2,2,50,0,0
7121,-105.263157894737,4,2,1,50,0,0
7886,-105.263157894737,4,2,2,38,0,0
8039,-105.263157894737,4,2,2,40,0,0
8192,-105.263157894737,4,2,2,42,0,0
8345,-105.263157894737,4,2,2,44,0,0
8498,-105.263157894737,4,2,2,55,0,0
8575,-105.263157894737,4,2,2,50,0,0
9723,-105.263157894737,4,2,1,50,0,0
10335,-105.263157894737,4,2,2,38,0,0
10488,-105.263157894737,4,2,2,40,0,0
10641,-105.263157894737,4,2,2,42,0,0
10794,-105.263157894737,4,2,2,44,0,0
10947,-105.263157894737,4,2,2,50,0,0
11942,-105.263157894737,4,2,1,50,0,0
12784,-105.263157894737,4,2,2,38,0,0
12937,-105.263157894737,4,2,2,40,0,0
13090,-105.263157894737,4,2,2,42,0,0
13243,-105.263157894737,4,2,2,44,0,0
13396,-105.263157894737,4,2,2,50,0,0
13473,-105.263157894737,4,2,1,50,0,0
14009,-105.263157894737,4,2,1,54,0,0
14468,-105.263157894737,4,2,2,54,0,0
14544,-105.263157894737,4,2,1,54,0,0
15845,306.122448979592,4,2,1,58,1,0
15845,-100,4,2,1,58,0,0
15921,-100,4,2,1,54,0,0
17222,-100,4,2,1,58,0,0
17375,-100,4,2,1,54,0,0
18293,-100,4,2,1,58,0,0
18447,-100,4,2,1,54,0,0
19212,-100,4,2,1,58,0,0
19288,-100,4,2,1,54,0,0
20742,-100,4,2,1,58,0,0
20819,-100,4,2,1,54,0,0
25640,-100,4,2,2,54,0,0
26865,-100,4,2,2,48,0,0
27477,-100,4,2,2,70,0,0
28090,306.122448979592,4,2,1,65,1,0
28090,-105.263157894737,4,2,1,65,0,0
28166,-105.263157894737,4,2,1,60,0,0
37885,-100,4,2,1,68,0,0
37962,-100,4,2,1,64,0,0
47681,-100,4,2,1,60,0,0
47758,-100,4,2,1,54,0,0
56559,-100,4,2,2,65,0,0
56635,-100,4,2,1,60,0,0
57477,-105.263157894737,4,2,1,65,0,0
57554,-105.263157894737,4,2,1,60,0,0
62375,-100,4,2,1,68,0,0
62452,-100,4,2,1,65,0,0
65896,-100,4,2,1,70,0,0
67273,-100,4,2,2,42,0,0
68574,-100,4,2,2,46,0,0
68651,-100,4,2,2,50,0,0
68727,-100,4,2,2,54,0,0
68804,-100,4,2,2,60,0,0
69110,-100,4,2,2,70,0,0
69263,-100,4,2,1,70,0,0
69569,-95.2380952380952,4,2,1,90,0,1
69646,-95.2380952380952,4,2,1,85,0,1
69723,306.122448979592,4,2,1,85,1,1
69723,-95.2380952380952,4,2,1,85,0,1
79365,-100,4,2,1,82,0,0
79442,-100,4,2,1,70,0,0
84263,-95.2380952380952,4,2,1,82,0,1
84340,-95.2380952380952,4,2,1,78,0,1
89314,-100,4,2,1,60,0,0
89391,-100,4,2,1,66,0,0
90692,-100,4,2,1,72,0,0
90845,-100,4,2,1,66,0,0
91763,-100,4,2,1,72,0,0
91917,-100,4,2,1,66,0,0
92222,-100,4,2,1,72,0,0
92375,-100,4,2,1,66,0,0
92682,-100,4,2,1,72,0,0
92758,-100,4,2,1,66,0,0
94212,-100,4,2,1,72,0,0
94289,-100,4,2,1,66,0,0
97885,-100,4,2,1,40,0,0
98038,-100,4,2,1,48,0,0
98192,-100,4,2,1,56,0,0
98345,-100,4,2,1,64,0,0
98498,-100,4,2,1,68,0,0
98804,-100,4,2,1,72,0,0
99110,-100.467488312792,4,2,1,50,0,0
100029,319.148936170213,4,2,1,50,1,0
100507,322.58064516129,4,2,1,40,1,0
101474,338.983050847458,4,2,1,30,1,0
102151,306.122448979592,4,2,1,20,1,0
102223,-100,4,2,1,20,0,0

[Colours]
Combo1 : 145,145,255
Combo2 : 121,255,121
Combo3 : 255,128,255
Combo4 : 255,157,111

[HitObjects]
256,192,1151,12,2,2988,0:0:0:0:
450,31,3600,6,0,P|438:121|429:227,1,170.999995433807,4|0,3:1|0:0,0:0:0:0:
461,280,4519,2,0,P|434:289|406:306,1,42.7499988584519,2|2,3:2|0:0,0:0:0:0:
397,329,4825,2,0,P|358:322|293:316,1,85.4999977169037
239,272,5437,1,0,3:0:0:0:
239,272,5590,2,0,B|198:263|198:263|161:289,1,85.4999977169037,0|0,3:0|3:0,0:0:0:0:
131,317,6049,6,0,P|117:218|99:120,1,170.999995433807,0|0,3:2|0:0,0:0:0:0:
136,68,6968,2,0,P|158:58|182:40,1,42.7499988584519,2|2,3:2|0:0,0:0:0:0:
205,19,7274,2,0,P|289:40|391:61,1,170.999995433807,0|0,0:0|3:2,0:0:0:0:
423,125,8192,1,0,3:2:0:0:
351,172,8498,6,0,P|327:255|376:282,2,128.249996575356,4|2|2,3:2|3:2|3:2,0:0:0:0:
360,86,9723,2,0,P|487:60|523:49,2,128.249996575356,2|2|0,0:0|0:0|3:2,0:0:0:0:
286,42,10947,6,0,B|155:40|180:91|35:90,2,256.499993150711,2|0|0,3:2|3:2|3:2,0:0:0:0:
443,108,13396,5,0,3:2:0:0:
443,108,13549,2,0,P|436:133|422:205,1,85.4999977169037,0|0,0:0|1:2,0:0:0:0:
388,214,14009,2,0,P|422:257|417:294,1,85.4999977169037,8|8,0:0|0:0,0:0:0:0:
385,309,14468,2,0,P|347:304|289:299,1,85.4999977169037,2|8,1:3|0:3,0:0:0:0:
258,288,14927,1,4,0:3:0:0:
186,334,15233,2,0,P|167:340|140:352,2,42.7499988584519,8|0|2,0:0|1:3|0:0,0:0:0:0:
258,288,15845,6,0,B|292:313|292:313|357:296,1,90,6|0,1:2|0:0,0:0:0:0:
381,310,16304,2,0,P|394:244|407:206,1,90,10|4,0:2|0:3,0:0:0:0:
423,183,16763,1,0,1:2:0:0:
389,99,17069,2,0,P|355:92|336:79,1,45,2|12,1:2|0:0,0:0:0:0:
309,62,17375,2,0,P|263:67|200:71,1,90,2|8,1:2|0:3,0:0:0:0:
132,44,17987,1,0,1:2:0:0:
68,107,18293,6,0,B|55:147|55:147|77:200,1,90,8|4,0:0|0:3,0:0:0:0:
113,213,18753,2,0,P|99:281|91:316,1,90,8|4,0:3|0:3,0:0:0:0:
123,334,19212,1,4,1:2:0:0:
205,297,19518,1,0,1:2:0:0:
205,297,19671,2,0,P|259:302|281:342,1,90,8|0,0:0|1:2,0:0:0:0:
317,351,20130,2,0,P|353:344|378:346,1,45,8|8,0:0|0:3,0:0:0:0:
404,354,20436,1,4,0:3:0:0:
458,282,20742,6,0,B|424:254|424:254|374:271,1,90,4|2,1:2|0:0,0:0:0:0:
297,234,21355,2,0,B|249:218|203:206,1,90,10|0,0:2|1:2,0:0:0:0:
174,234,21814,1,2,1:2:0:0:
101,180,22120,2,0,P|113:129|91:93,1,90,10|2,0:2|1:2,0:0:0:0:
56,76,22579,1,10,0:2:0:0:
134,31,22885,1,2,0:2:0:0:
206,85,23191,6,0,P|264:69|314:58,1,90,4|2,1:2|1:2,0:0:0:0:
329,36,23651,2,0,P|353:85|398:85,1,90,8|2,0:0|1:2,0:0:0:0:
429,75,24110,1,12,0:0:0:0:
429,75,24263,1,2,0:2:0:0:
464,156,24569,2,0,B|450:200|450:200|476:255,1,90,8|0,0:3|1:2,0:0:0:0:
452,282,25028,2,0,P|421:289|398:297,1,45,8|8,0:0|0:3,0:0:0:0:
373,321,25334,1,4,0:3:0:0:
256,192,25640,12,8,27477,0:1:0:0:
448,320,28089,6,0,P|461:197|482:110,1,180,4|0,1:1|1:2,0:0:0:0:
418,75,29008,2,0,P|397:83|368:95,1,42.7499988584519,2|2,1:2|0:2,0:0:0:0:
344,116,29314,2,0,L|243:96,1,85.4999977169037,2|0,1:2|1:2,0:0:0:0:
217,103,29773,1,2,0:2:0:0:
145,56,30079,2,0,B|107:38|107:38|67:57,1,85.4999977169037,2|2,0:2|0:2,0:0:0:0:
46,96,30538,6,0,P|57:141|61:190,1,85.4999977169037,2|2,1:2|1:2,0:0:0:0:
91,209,30998,2,0,P|68:254|75:300,1,85.4999977169037,2|2,0:2|0:2,0:0:0:0:
140,337,31610,2,0,P|213:328|284:325,1,128.249996575356,2|2,0:2|1:2,0:0:0:0:
304,347,32222,1,2,0:2:0:0:
358,281,32528,2,0,B|374:244|374:244|357:202,1,85.4999977169037,2|8,0:2|0:0,0:0:0:0:
316,189,32987,6,0,P|314:146|310:103,1,85.4999977169037,2|0,1:3|1:2,0:0:0:0:
297,19,33600,2,0,P|275:18|254:16,2,42.7499988584519,2|2|2,1:2|0:2|1:2,0:0:0:0:
338,9,34059,2,0,P|382:38|439:28,1,85.4999977169037,2|2,0:2|0:2,0:0:0:0:
479,91,34671,1,2,0:2:0:0:
428,159,34977,2,0,B|420:199|420:199|438:262,1,85.4999977169037,2|2,0:2|0:2,0:0:0:0:
453,279,35436,6,0,P|409:286|362:298,1,85.4999977169037,2|2,1:2|1:2,0:0:0:0:
333,320,35896,1,2,0:2:0:0:
258,278,36202,1,2,0:2:0:0:
187,326,36508,2,0,P|119:330|91:296,1,85.4999977169037,10|0,0:2|1:2,0:0:0:0:
80,289,36967,1,8,0:0:0:0:
63,205,37273,2,0,P|37:202|13:200,2,42.7499988584519,0|0|10,1:2|3:0|0:2,0:0:0:0:
135,151,37885,6,0,B|123:109|123:109|149:43,2,90,4|8|0,1:1|0:0|1:2,0:0:0:0:
99,233,38804,1,2,0:2:0:0:
163,296,39110,2,0,P|214:283|268:278,1,90,2|8,0:2|0:0,0:0:0:0:
288,254,39569,1,2,0:2:0:0:
356,312,39875,2,0,P|394:290|408:248,1,90,2|2,1:2|0:2,0:0:0:0:
447,226,40334,6,0,P|444:175|454:107,1,90,2|10,1:2|0:2,0:0:0:0:
432,93,40794,1,2,0:2:0:0:
343,106,41100,1,2,1:2:0:0:
270,53,41406,2,0,B|226:38|226:38|171:65,1,90,8|2,0:2|1:2,0:0:0:0:
102,26,42018,1,2,0:2:0:0:
33,84,42324,2,0,P|45:140|46:202,1,90,2|2,1:2|0:2,0:0:0:0:
74,208,42783,6,0,P|119:218|161:185,1,90,0|8,1:2|0:0,0:0:0:0:
219,133,43396,2,0,P|214:102|200:77,2,45,2|2|2,1:2|1:2|0:2,0:0:0:0:
252,162,43855,2,0,P|253:208|260:267,1,90,10|2,0:2|1:2,0:0:0:0:
322,315,44467,1,2,0:2:0:0:
384,250,44773,2,0,B|429:234|429:234|469:247,1,90,2|2,1:2|0:2,0:0:0:0:
505,220,45232,6,0,P|492:154|488:102,1,90,4|8,1:2|0:0,0:0:0:0:
418,75,45845,2,0,P|426:44|432:28,2,45,2|2|8,1:2|1:2|0:0,0:0:0:0:
394,113,46304,2,0,P|341:97|290:106,1,90,6|2,1:2|1:2,0:0:0:0:
239,160,46916,1,2,0:2:0:0:
283,238,47222,2,0,P|292:287|262:328,1,90,10|0,0:2|0:0,0:0:0:0:
230,336,47681,5,4,1:2:0:0:
61,84,49212,5,2,0:2:0:0:
130,27,49518,2,0,B|224:29|207:80|318:83,1,180,2|2,0:2|0:2,0:0:0:0:
383,52,50436,6,0,P|391:33|400:5,1,45,2|2,0:2|0:2,0:0:0:0:
479,50,50896,2,0,P|474:110|498:157,1,90,2|0,0:2|0:0,0:0:0:0:
502,178,51355,2,0,P|469:302|451:364,1,180,2|2,0:2|0:2,0:0:0:0:
365,365,52273,1,2,0:2:0:0:
285,323,52579,6,0,P|279:246|311:171,1,135,2|0,0:2|0:0,0:0:0:0:
335,167,53192,2,0,P|317:109|295:47,1,90,2|2,0:2|0:2,0:0:0:0:
241,20,53804,2,0,P|168:68|156:155,1,180,2|2,0:2|0:2,0:0:0:0:
198,234,54722,1,2,0:2:0:0:
112,260,55028,6,0,P|120:325|121:370,1,90,2|2,0:2|0:2,0:0:0:0:
160,370,55487,2,0,P|206:354|305:371,1,135,2|2,0:2|0:2,0:0:0:0:
339,288,56253,2,0,P|404:268|427:219,1,90,2|2,0:2|0:3,0:0:0:0:
470,181,56865,2,0,P|463:155|459:130,1,45,8|8,0:0|0:3,0:0:0:0:
429,104,57171,2,0,P|433:81|439:60,1,45,4|4,0:3|0:3,0:0:0:0:
405,34,57477,6,0,B|362:45|362:45|316:16,1,85.4999977169037,4|2,1:1|0:2,0:0:0:0:
252,65,58090,2,0,P|263:126|268:170,1,85.4999977169037,10|0,0:2|1:2,0:0:0:0:
299,175,58549,2,0,P|279:228|293:274,1,85.4999977169037,2|2,1:2|1:2,0:0:0:0:
312,286,59008,1,2,1:2:0:0:
241,334,59314,2,0,P|187:327|146:325,1,85.4999977169037,10|2,0:2|0:2,0:0:0:0:
77,291,59926,6,0,B|56:254|56:254|69:206,1,85.4999977169037,2|2,1:2|0:2,0:0:0:0:
98,183,60385,2,0,P|81:131|62:78,1,85.4999977169037,2|2,1:2|0:2,0:0:0:0:
115,29,60998,2,0,P|172:18|203:61,1,85.4999977169037,2|0,1:2|1:2,0:0:0:0:
221,61,61457,1,2,1:2:0:0:
302,34,61763,2,0,P|368:29|417:19,1,85.4999977169037,10|10,0:2|0:2,0:0:0:0:
461,75,62375,6,0,P|434:117|434:169,1,90,4|10,1:1|0:2,0:0:0:0:
393,179,62834,2,0,P|389:226|377:282,1,90,2|2,0:2|1:2,0:0:0:0:
298,305,63447,1,6,1:2:0:0:
224,252,63753,1,2,1:2:0:0:
149,302,64059,2,0,B|105:313|105:313|66:288,1,90,2|2,0:2|1:2,0:0:0:0:
28,207,64671,6,0,P|35:142|29:88,1,90,6|0,1:2|1:2,0:0:0:0:
61,82,65130,1,8,0:0:0:0:
142,44,65436,2,0,P|143:23|149:-9,2,45,2|2|10,1:2|1:2|0:2,0:0:0:0:
167,81,65896,1,2,1:3:0:0:
235,139,66202,1,2,1:3:0:0:
324,136,66508,1,2,1:3:0:0:
389,74,66814,2,0,P|385:30|347:9,1,90,2|0,1:3|0:0,0:0:0:0:
256,192,67273,12,2,68804,1:2:0:0:
201,190,69569,6,0,P|212:240|219:307,1,94.499997116089,6|0,1:1|1:2,0:0:0:0:
224,329,70029,2,0,B|273:317|273:317|321:341,1,94.499997116089,8|0,0:2|1:2,0:0:0:0:
401,348,70641,1,10,0:2:0:0:
405,352,70794,2,0,P|438:313|437:260,1,94.499997116089,2|0,1:2|1:2,0:0:0:0:
414,231,71253,1,8,0:2:0:0:
464,151,71559,1,2,1:2:0:0:
464,151,71712,2,0,P|468:120|484:79,1,47.2499985580445,2|8,1:2|0:2,0:0:0:0:
464,58,72018,6,0,P|418:22|376:41,1,94.499997116089,6|0,1:2|1:2,0:0:0:0:
352,62,72478,2,0,P|306:49|244:39,1,94.499997116089,8|0,0:2|1:2,0:0:0:0:
170,77,73090,1,10,0:2:0:0:
174,81,73243,2,0,P|139:123|91:135,1,94.499997116089,2|0,1:2|1:2,0:0:0:0:
55,136,73702,1,8,0:2:0:0:
87,224,74008,2,0,P|109:229|132:236,2,47.2499985580445,0|0|10,1:2|1:2|0:2,0:0:0:0:
43,241,74467,6,0,B|28:285|28:285|50:339,1,94.499997116089,6|2,1:1|1:2,0:0:0:0:
86,354,74927,2,0,P|130:347|162:343,1,47.2499985580445,10|2,0:2|0:0,0:0:0:0:
179,342,75233,2,0,P|209:294|198:249,1,94.499997116089,2|8,1:2|0:2,0:0:0:0:
170,225,75692,1,2,1:2:0:0:
228,151,75998,1,2,1:2:0:0:
188,64,76304,1,2,0:0:0:0:
268,14,76610,1,2,1:2:0:0:
349,60,76916,6,0,P|399:52|457:47,1,94.499997116089,6|0,1:2|1:2,0:0:0:0:
488,60,77376,1,8,0:2:0:0:
501,148,77682,1,2,1:2:0:0:
505,152,77835,2,0,P|495:172|488:208,1,47.2499985580445,2|10,1:2|0:2,0:0:0:0:
454,228,78141,1,6,1:1:0:0:
464,321,78447,1,2,1:2:0:0:
378,360,78753,1,0,1:2:0:0:
315,291,79059,1,8,0:3:0:0:
230,322,79365,6,0,P|180:313|78:299,1,135,6|0,1:2|1:2,0:0:0:0:
39,224,80131,1,8,0:2:0:0:
43,228,80284,2,0,P|91:215|147:206,1,90,0|0,0:0|1:2,0:0:0:0:
177,131,80896,1,8,0:2:0:0:
177,131,81049,1,2,0:2:0:0:
258,169,81355,2,0,P|276:224|262:273,1,90,10|0,0:2|0:0,0:0:0:0:
249,294,81814,6,0,P|303:309|351:331,1,90,2|2,0:0|1:2,0:0:0:0:
393,254,82427,1,2,1:2:0:0:
472,295,82733,1,2,0:0:0:0:
504,211,83039,2,0,B|491:169|491:169|511:101,1,90,10|8,0:2|0:2,0:0:0:0:
487,82,83498,1,8,0:3:0:0:
411,44,83804,1,8,0:2:0:0:
411,44,83957,2,0,P|380:57|358:70,1,45,12|12,0:3|0:3,0:0:0:0:
323,55,84263,6,0,P|301:98|318:155,1,94.499997116089,4|0,1:1|1:2,0:0:0:0:
351,163,84723,2,0,P|338:222|329:276,1,94.499997116089,8|0,0:2|1:2,0:0:0:0:
308,296,85182,1,2,1:2:0:0:
308,296,85335,1,10,0:2:0:0:
224,251,85641,2,0,B|178:238|178:238|140:277,1,94.499997116089,2|8,1:2|0:2,0:0:0:0:
104,294,86100,1,2,0:2:0:0:
41,223,86406,1,2,1:2:0:0:
104,152,86712,6,0,P|95:100|82:45,1,94.499997116089,6|0,1:2|1:2,0:0:0:0:
121,28,87171,2,0,P|168:56|219:32,1,94.499997116089,8|0,0:2|1:2,0:0:0:0:
235,10,87631,1,2,1:2:0:0:
235,10,87784,1,10,0:2:0:0:
300,78,88090,2,0,P|355:89|405:103,1,94.499997116089,2|2,0:2|0:0,0:0:0:0:
435,118,88549,1,2,1:3:0:0:
396,204,88855,2,0,B|407:251|407:251|368:284,1,94.499997116089,2|0,1:3|1:2,0:0:0:0:
330,299,89314,6,0,P|290:281|234:271,1,90,6|8,1:1|0:3,0:0:0:0:
211,240,89774,2,0,P|192:192|222:155,1,90,8|4,0:3|0:3,0:0:0:0:
253,148,90233,1,2,1:2:0:0:
230,60,90539,2,0,P|208:50|175:42,1,45,2|12,1:2|0:0,0:0:0:0:
151,18,90845,2,0,P|106:34|53:43,1,90,2|8,1:2|0:3,0:0:0:0:
32,126,91457,1,2,1:2:0:0:
108,173,91763,6,0,P|137:167|174:162,2,45,14|2|10,0:1|0:0|0:2,0:0:0:0:
72,201,92223,2,0,B|91:243|91:243|69:295,1,90,6|0,1:2|1:2,0:0:0:0:
48,320,92682,1,14,0:1:0:0:
48,320,92835,2,0,P|112:325|154:345,1,90,2|10,0:0|0:0,0:0:0:0:
176,315,93294,1,2,1:2:0:0:
262,340,93600,2,0,P|267:361|274:383,2,45,8|8|4,0:0|0:3|0:3,0:0:0:0:
323,274,94212,6,0,B|362:304|362:304|415:278,1,90,4|2,1:2|0:0,0:0:0:0:
470,230,94825,2,0,P|455:166|450:114,1,90,10|0,0:2|1:2,0:0:0:0:
417,113,95284,1,2,1:2:0:0:
460,34,95590,2,0,P|409:11|371:34,1,90,10|2,0:2|1:2,0:0:0:0:
347,54,96049,2,0,P|289:45|241:41,1,90,10|2,0:2|1:2,0:0:0:0:
170,22,96661,6,0,P|136:53|80:37,1,90,4|2,1:2|1:2,0:0:0:0:
34,115,97274,2,0,P|51:170|62:223,1,90,2|12,0:2|0:0,0:0:0:0:
90,240,97733,1,2,0:0:0:0:
90,240,97886,2,0,B|73:284|73:284|100:334,1,90,4|4,0:3|0:3,0:0:0:0:
171,366,98498,2,0,P|203:358|237:357,1,45,0|0,3:0|3:0,0:0:0:0:
254,334,98804,2,0,P|276:337|297:343,1,45,8|8,0:2|0:2,0:0:0:0:
339,360,99110,6,0,B|352:222|399:91|399:91|272:148|135:172|135:172|188:217|248:254,1,691.875,2|2,0:0|0:0,0:0:0:0:
