osu file format v14

[General]
AudioFilename: audio.mp3
AudioLeadIn: 0
PreviewTime: 68498
Countdown: 0
SampleSet: Soft
StackLeniency: 0.7
Mode: 0
LetterboxInBreaks: 0
WidescreenStoryboard: 1

[Editor]
Bookmarks: 98957
DistanceSpacing: 1.2
BeatDivisor: 8
GridSize: 32
TimelineZoom: 2.3

[Metadata]
Title:Dawn Blue
TitleUnicode:Dawn Blue
Artist:Mori Calliope
ArtistUnicode:Mori Calliope
Creator:Cynplytholowazy
Version:Mir's Extra
Source:ホロライブ・オルタナティブ
Tags:cover corporation hololive production alternative holoalt ホロライブプロダクション ホロライブ オルタナティブ japanese pop jpop j-pop vtuber virtual youtuber バーチャル ユーチューバー holoen english holomyth dead beats デッドビーツ 森 カリオペ 森美声 もりかりおぺ ボンジュール鈴木 Bonjour Suzuki 高橋 浩一郎 Kouichiro Takahashi 鈴木Daichi秀行 Hideyuki Daichi teaser pv promotional video -Atri- Firis Mistlud Firis_Mistlud KuranteMelodii krt Mir frozz Wanpachi fedora fedora- Yuuki_Noa Yuuki Noa
BeatmapID:3018867
BeatmapSetID:1469465

[Difficulty]
HPDrainRate:5
CircleSize:4
OverallDifficulty:8
ApproachRate:9
SliderMultiplier:2
SliderTickRate:1

[Events]
//Background and Video events
Video,0,"pv.mp4"
0,0,"msedge_0xs61nMDl9.jpg",0,0
//Break Periods
2,47881,55959
//Storyboard Layer 0 (Background)
//Storyboard Layer 1 (Fail)
//Storyboard Layer 2 (Pass)
//Storyboard Layer 3 (Foreground)
//Storyboard Layer 4 (Overlay)
//Storyboard Sound Samples

[TimingPoints]
-1297,306.122448979592,4,2,1,60,1,0
2835,-100,4,2,1,40,0,0
3600,-200,4,2,2,55,0,0
3677,-200,4,2,2,50,0,0
4672,-200,4,2,1,50,0,0
5437,-200,4,2,2,38,0,0
5590,-200,4,2,2,40,0,0
5743,-200,4,2,2,42,0,0
5896,-200,4,2,2,44,0,0
6049,-200,4,2,2,50,0,0
7121,-200,4,2,1,50,0,0
7886,-200,4,2,2,38,0,0
8039,-200,4,2,2,40,0,0
8192,-200,4,2,2,42,0,0
8345,-200,4,2,2,44,0,0
8498,-200,4,2,2,55,0,0
8575,-200,4,2,2,50,0,0
9723,-200,4,2,1,50,0,0
10335,-200,4,2,2,38,0,0
10488,-200,4,2,2,40,0,0
10641,-200,4,2,2,42,0,0
10794,-200,4,2,2,44,0,0
10947,-200,4,2,2,50,0,0
11942,-200,4,2,1,50,0,0
12784,-200,4,2,2,38,0,0
12937,-200,4,2,2,40,0,0
13090,-200,4,2,2,42,0,0
13243,-200,4,2,2,44,0,0
13396,-200,4,2,2,50,0,0
13473,-200,4,2,1,50,0,0
14009,-200,4,2,1,54,0,0
14468,-100,4,2,2,54,0,0
14544,-100,4,2,1,54,0,0
15845,306.122448979592,4,2,1,58,1,0
15921,-100,4,2,1,54,0,0
16304,-125,4,2,1,54,0,0
17222,-125,4,2,1,58,0,0
17375,-125,4,2,1,54,0,0
18293,-125,4,2,1,58,0,0
18447,-125,4,2,1,54,0,0
19212,-125,4,2,1,58,0,0
19288,-125,4,2,1,54,0,0
20742,-125,4,2,1,58,0,0
20819,-125,4,2,1,54,0,0
25640,-200,4,2,2,54,0,0
26865,-200,4,2,2,48,0,0
27477,-100,4,2,2,70,0,0
28090,306.122448979592,4,2,1,65,1,0
28090,-200,4,2,1,65,0,0
28166,-200,4,2,1,60,0,0
36967,-100,4,2,1,60,0,0
37885,-100,4,2,1,68,0,0
37962,-100,4,2,1,64,0,0
47681,-100,4,2,1,60,0,0
47758,-100,4,2,1,54,0,0
56559,-200,4,2,2,65,0,0
56635,-200,4,2,1,60,0,0
57477,-200,4,2,1,65,0,0
57554,-200,4,2,1,60,0,0
62375,-100,4,2,1,68,0,0
62452,-100,4,2,1,65,0,0
64059,-80,4,2,1,65,0,0
64671,-66.6666666666667,4,2,1,65,0,0
65130,-100,4,2,1,65,0,0
65896,-100,4,2,1,70,0,0
67273,-100,4,2,2,42,0,0
68574,-100,4,2,2,46,0,0
68651,-100,4,2,2,50,0,0
68727,-100,4,2,2,54,0,0
68804,-100,4,2,2,60,0,0
69110,-100,4,2,2,70,0,0
69263,-100,4,2,1,70,0,0
69569,-76.9230769230769,4,2,1,90,0,1
69646,-76.9230769230769,4,2,1,85,0,1
69723,306.122448979592,4,2,1,85,1,1
69723,-76.9230769230769,4,2,1,85,0,1
79365,-125,4,2,1,82,0,0
79442,-125,4,2,1,70,0,0
84263,-76.9230769230769,4,2,1,82,0,1
84340,-76.9230769230769,4,2,1,78,0,1
88855,-200,4,2,1,78,0,0
89314,-100,4,2,1,60,0,0
89391,-100,4,2,1,66,0,0
90692,-100,4,2,1,72,0,0
90845,-100,4,2,1,66,0,0
91763,-100,4,2,1,72,0,0
91917,-100,4,2,1,66,0,0
92222,-100,4,2,1,72,0,0
92375,-100,4,2,1,66,0,0
92682,-100,4,2,1,72,0,0
92758,-100,4,2,1,66,0,0
94212,-100,4,2,1,72,0,0
94289,-100,4,2,1,66,0,0
97885,-100,4,2,1,40,0,0
98038,-100,4,2,1,48,0,0
98192,-100,4,2,1,56,0,0
98345,-100,4,2,1,64,0,0
98498,-100,4,2,1,68,0,0
98804,-100,4,2,1,72,0,0
99110,-100,4,2,1,50,0,0
100029,319.148936170213,4,2,1,50,1,0
100507,322.58064516129,4,2,1,40,1,0
101474,338.983050847458,4,2,1,30,1,0
102151,306.122448979592,4,2,1,20,1,0
102223,-100,4,2,1,20,0,0

[Colours]
Combo1 : 145,145,255
Combo2 : 121,255,121
Combo3 : 255,128,255
Combo4 : 255,157,111

[HitObjects]
99,372,3600,6,0,L|86:238,1,100,4|0,3:1|0:0,0:0:0:0:
86,193,4060,2,0,P|54:181|22:170,1,50,0|0,3:2|0:0,0:0:0:0:
346,285,4519,2,0,P|322:293|299:302,1,50,2|2,3:2|0:0,0:0:0:0:
415,379,4825,6,0,L|426:327,3,50
489,275,5437,1,0,3:0:0:0:
489,275,5590,2,0,L|478:226,1,50,0|0,3:0|3:0,0:0:0:0:
387,18,5896,5,0,3:0:0:0:
496,136,6049,1,0,3:2:0:0:
496,136,6203,2,0,P|471:127|434:121,1,50
362,107,6509,2,0,P|337:112|314:120,2,50,0|0|0,3:2|0:0|0:0,0:0:0:0:
382,31,6968,5,2,3:2:0:0:
257,66,7121,2,0,P|222:60|187:57,1,50,2|0,0:0|0:0,0:0:0:0:
96,41,7427,5,2,0:0:0:0:
101,75,7580,1,2,0:0:0:0:
107,109,7733,1,2,0:0:0:0:
195,139,7886,5,0,3:2:0:0:
192,160,8039,1,0,3:2:0:0:
189,180,8192,1,0,3:2:0:0:
185,201,8345,1,0,3:2:0:0:
116,267,8498,6,0,L|55:286,2,50,4|0|0,3:2|0:0|0:0,0:0:0:0:
197,384,8958,2,0,L|212:271,1,100,2|0,3:2|0:0,0:0:0:0:
210,284,9417,1,2,3:2:0:0:
210,284,9570,1,0,0:0:0:0:
306,176,9723,5,2,0:0:0:0:
306,176,9876,2,0,L|356:165,1,50
512,243,10182,2,0,P|472:236|395:225,1,100,2|0,0:0|3:2,0:0:0:0:
512,159,10641,5,0,3:2:0:0:
332,252,10794,1,0,3:2:0:0:
512,340,10947,1,2,3:2:0:0:
512,340,11100,1,0,0:0:0:0:
316,164,11407,6,0,P|266:174|199:191,1,100,0|0,3:2|0:0,0:0:0:0:
24,30,11866,2,0,P|74:40|141:57,1,100,0|0,3:2|0:0,0:0:0:0:
195,3,12325,2,0,P|200:30|212:62,2,50
283,39,12784,5,0,3:2:0:0:
167,118,12937,1,0,3:2:0:0:
302,131,13090,1,0,3:2:0:0:
302,131,13243,1,0,3:2:0:0:
77,213,13396,6,0,L|86:148,1,50,0|0,3:2|0:0,0:0:0:0:
492,247,13856,5,0,1:2:0:0:
492,247,13932,1,0,1:2:0:0:
492,247,14009,2,0,L|434:239,1,50,8|0,0:0|0:0,0:0:0:0:
361,223,14315,1,8,0:0:0:0:
199,375,14468,6,0,L|231:190,1,150,2|0,1:3|0:0,0:0:0:0:
231,208,14774,5,8,0:3:0:0:
139,266,14927,1,4,0:3:0:0:
285,321,15080,1,0,1:3:0:0:
209,51,15233,5,8,0:0:0:0:
209,51,15386,1,0,1:3:0:0:
150,97,15539,6,0,B|53:80|53:80|128:87,1,150,2|0,0:0|0:0,0:0:0:0:
136,109,15845,6,0,L|323:81,1,150,6|0,1:2|0:0,0:0:0:0:
294,92,16151,1,0,0:0:0:0:
457,9,16304,2,0,P|441:67|420:182,1,160,10|4,0:2|0:3,0:0:0:0:
322,167,16763,2,0,P|341:222|350:251,1,80,0|0,1:2|1:2,0:0:0:0:
351,251,17069,5,2,1:2:0:0:
136,380,17222,2,0,L|166:223,1,160,12|0,0:0|0:0,0:0:0:0:
185,217,17605,1,4,0:3:0:0:
204,211,17681,5,8,0:3:0:0:
233,303,17834,1,4,0:3:0:0:
56,309,17987,1,0,1:2:0:0:
85,217,18140,1,0,1:2:0:0:
258,145,18293,5,8,0:0:0:0:
344,185,18447,1,8,0:0:0:0:
512,34,18600,5,4,0:3:0:0:
426,74,18754,1,8,0:3:0:0:
325,18,18906,5,4,0:3:0:0:
325,18,19059,1,4,0:3:0:0:
496,157,19212,6,0,P|477:224|453:333,1,160,4|0,1:2|1:2,0:0:0:0:
260,219,19671,6,0,P|309:206|339:197,1,80,8|0,0:0|0:0,0:0:0:0:
348,188,19977,1,0,1:2:0:0:
210,305,20130,5,8,0:0:0:0:
119,216,20283,1,8,0:3:0:0:
43,248,20436,1,4,0:3:0:0:
128,202,20589,1,0,1:2:0:0:
123,300,20742,5,4,1:2:0:0:
123,300,20896,1,0,1:0:0:0:
212,281,21049,2,0,P|223:234|237:181,1,80,2|0,0:0|1:2,0:0:0:0:
41,96,21355,1,10,0:2:0:0:
41,96,21508,2,0,P|30:49|16:-4,1,80,2|0,0:0|1:2,0:0:0:0:
290,85,21814,6,0,P|222:107|135:138,1,160,2|10,1:2|0:2,0:0:0:0:
301,72,22273,5,2,0:2:0:0:
386,90,22426,1,2,1:2:0:0:
471,108,22579,1,10,0:2:0:0:
483,122,22732,5,2,0:2:0:0:
398,140,22885,1,2,0:2:0:0:
313,158,23038,1,2,0:2:0:0:
268,229,23191,5,4,1:2:0:0:
268,229,23345,1,0,0:0:0:0:
453,368,23498,6,0,L|469:290,1,80,2|8,1:2|0:0,0:0:0:0:
268,229,23804,5,2,0:2:0:0:
268,229,23957,1,2,1:2:0:0:
72,298,24110,5,12,0:0:0:0:
365,374,24263,2,0,L|392:241,1,120,2|0,0:2|0:0,0:0:0:0:
394,237,24569,5,8,0:3:0:0:
175,195,24722,1,4,0:3:0:0:
398,109,24875,1,0,1:2:0:0:
398,109,24952,1,0,3:0:0:0:
398,109,25028,1,8,0:0:0:0:
264,41,25181,5,8,0:3:0:0:
281,124,25334,2,0,L|296:206,1,80,4|0,0:3|0:0,0:0:0:0:
79,245,25640,6,0,L|24:226,2,50,8|0|0,0:2|1:2|1:2,0:0:0:0:
152,314,26100,2,0,L|97:333,2,50,0|8|0,1:2|0:0|0:0,0:0:0:0:
231,265,26559,5,0,1:2:0:0:
231,265,26712,1,0,1:2:0:0:
231,265,26865,1,0,0:0:0:0:
356,359,27018,5,8,0:0:0:0:
344,362,27095,1,8,0:0:0:0:
332,366,27171,1,8,0:0:0:0:
430,324,27324,6,0,L|453:334,2,16.6666666666667,0|0|0,1:2|0:0|0:0,0:0:0:0:
324,371,27477,2,0,P|335:297|383:13,1,350,8|0,0:1|0:0,0:0:0:0:
287,68,28090,6,0,L|234:57,1,50,4|0,1:1|0:0,0:0:0:0:
179,10,28396,2,0,L|130:20,1,50,0|0,1:2|0:0,0:0:0:0:
60,68,28702,2,0,L|7:57,1,50,0|0,1:2|0:0,0:0:0:0:
151,101,29008,5,2,1:2:0:0:
151,101,29161,1,2,0:2:0:0:
75,154,29314,1,2,1:2:0:0:
75,154,29467,2,0,L|64:215,1,50,2|0,0:2|1:2,0:0:0:0:
240,190,29773,2,0,L|232:141,1,50,2|0,0:2|1:2,0:0:0:0:
154,220,30079,2,0,L|143:281,1,50,2|0,0:2|1:2,0:0:0:0:
145,269,30385,1,2,0:2:0:0:
94,345,30538,6,0,L|42:359,1,50,2|0,1:2|0:0,0:0:0:0:
237,275,30845,1,2,1:2:0:0:
237,275,30998,2,0,L|286:288,1,50,2|0,0:2|1:2,0:0:0:0:
342,357,31304,2,0,L|293:369,1,50,2|0,0:2|1:2,0:0:0:0:
494,216,31610,6,0,L|511:277,1,50,2|0,0:2|1:2,0:0:0:0:
507,264,31916,1,0,0:0:0:0:
512,132,32069,5,2,1:2:0:0:
434,157,32222,2,0,L|377:148,1,50,2|0,0:2|1:2,0:0:0:0:
463,62,32528,2,0,L|520:53,1,50,2|0,0:2|1:2,0:0:0:0:
161,170,32834,5,8,0:0:0:0:
161,170,32987,2,0,L|151:108,1,50,2|0,1:3|0:0,0:0:0:0:
242,98,33294,2,0,L|252:36,1,50,0|0,1:2|0:0,0:0:0:0:
384,149,33600,5,2,1:2:0:0:
384,149,33753,1,2,0:2:0:0:
249,183,33906,1,2,1:2:0:0:
400,231,34059,6,0,L|413:297,1,50,2|0,0:2|1:2,0:0:0:0:
479,347,34365,2,0,L|492:281,1,50,2|0,0:2|1:2,0:0:0:0:
308,257,34671,2,0,L|321:323,1,50,2|0,0:2|1:2,0:0:0:0:
387,373,34977,2,0,L|400:307,1,50,2|0,0:2|1:2,0:0:0:0:
308,257,35283,5,2,0:2:0:0:
233,300,35436,2,0,P|191:295|163:291,1,50,2|0,1:2|0:0,0:0:0:0:
300,250,35743,1,2,1:2:0:0:
120,354,35896,5,2,0:2:0:0:
120,354,36049,1,0,1:2:0:0:
47,299,36202,5,2,0:2:0:0:
47,299,36355,1,0,1:2:0:0:
387,322,36508,5,10,0:2:0:0:
387,322,36814,1,0,1:2:0:0:
43,136,36967,6,0,P|39:159|144:185,1,150,8|0,0:0|0:0,0:0:0:0:
139,187,37273,6,0,L|154:60,1,100,0|0,1:2|3:0,0:0:0:0:
163,80,37503,1,0,3:0:0:0:
175,72,37579,1,10,0:2:0:0:
505,117,37732,5,0,3:0:0:0:
505,117,37809,1,0,3:0:0:0:
505,117,37885,2,0,P|397:137|299:157,1,200,4|8,1:1|0:0,0:0:0:0:
162,346,38498,5,0,1:2:0:0:
253,373,38651,2,0,L|235:275,1,100,0|2,1:2|0:2,0:0:0:0:
512,272,38957,2,0,P|413:252|315:234,1,200,8|2,0:0|1:2,0:0:0:0:
31,124,39416,2,0,P|23:198|120:205,1,150,8|0,0:0|0:0,0:0:0:0:
92,237,39722,2,0,P|149:216|168:164,1,100,0|2,1:2|1:2,0:0:0:0:
286,6,40028,2,0,P|277:68|272:127,1,100,8|2,0:0|0:2,0:0:0:0:
221,276,40334,6,0,L|352:248,1,100,2|0,1:2|0:0,0:0:0:0:
157,53,40641,2,0,L|26:25,1,100,10|2,0:2|0:2,0:0:0:0:
59,32,40947,1,0,1:2:0:0:
59,32,41100,1,2,1:2:0:0:
496,32,41406,6,0,B|370:42|465:125|331:131,1,200,8|2,0:2|1:2,0:0:0:0:
100,301,41865,2,0,P|92:232|74:178,1,100,8|2,0:0|0:2,0:0:0:0:
42,130,42171,1,0,1:2:0:0:
42,130,42324,1,2,1:2:0:0:
300,214,42477,2,0,P|363:230|455:277,1,150,8|0,0:0|0:0,0:0:0:0:
446,280,42783,6,0,P|393:341|308:343,1,150,0|0,1:2|0:0,0:0:0:0:
316,372,43090,2,0,P|263:327|219:305,1,100,8|0,0:0|0:0,0:0:0:0:
79,200,43396,5,2,1:2:0:0:
31,259,43549,2,0,P|41:307|51:372,1,100,2|2,1:2|0:2,0:0:0:0:
330,236,43855,6,0,P|340:166|372:15,1,200,10|2,0:2|1:2,0:0:0:0:
33,53,44314,2,0,P|113:78|163:90,1,100,8|2,0:0|0:2,0:0:0:0:
202,31,44620,1,0,1:2:0:0:
202,31,44697,1,0,1:2:0:0:
202,31,44773,1,2,1:2:0:0:
300,135,44926,2,0,P|236:141|163:224,1,150,8|0,0:0|0:0,0:0:0:0:
176,223,45232,6,0,P|184:272|192:330,1,100,4|0,1:2|0:0,0:0:0:0:
480,171,45538,2,0,P|486:121|494:72,1,100,8|0,0:0|0:0,0:0:0:0:
439,14,45845,1,2,1:2:0:0:
439,14,45998,1,2,1:2:0:0:
293,126,46151,1,8,0:0:0:0:
495,192,46304,6,0,P|450:201|390:219,1,100,6|0,1:2|0:0,0:0:0:0:
280,115,46610,1,2,1:2:0:0:
200,335,46763,2,0,P|248:345|296:359,1,100,8|2,0:0|0:2,0:0:0:0:
310,366,46993,1,0,3:0:0:0:
320,376,47069,5,8,0:0:0:0:
348,287,47222,1,10,0:2:0:0:
296,213,47375,1,4,0:3:0:0:
241,200,47528,1,4,0:3:0:0:
210,213,47681,5,4,1:2:0:0:
46,371,56559,6,0,L|36:285,1,75,2|0,0:3|0:0,0:0:0:0:
37,279,56865,5,8,0:0:0:0:
201,338,57018,1,8,0:3:0:0:
318,204,57171,5,4,0:3:0:0:
236,233,57324,1,4,0:3:0:0:
422,346,57477,5,4,1:1:0:0:
422,346,57630,2,0,L|441:230,1,100,0|0,1:2|1:2,0:0:0:0:
512,158,58090,6,0,L|442:170,1,50,10|2,0:2|0:2,0:0:0:0:
336,42,58396,5,0,1:2:0:0:
336,42,58549,2,0,L|406:54,1,50,2|0,1:2|0:0,0:0:0:0:
485,29,58855,2,0,L|469:85,1,50,2|2,1:2|1:2,0:0:0:0:
471,77,59161,1,0,0:0:0:0:
366,141,59314,6,0,L|276:158,1,75,10|0,0:2|0:0,0:0:0:0:
283,147,59620,2,0,L|273:201,1,50,2|0,0:2|0:0,0:0:0:0:
245,354,59926,5,2,1:2:0:0:
245,354,60079,1,0,1:2:0:0:
163,340,60232,1,2,0:2:0:0:
163,340,60385,1,2,1:2:0:0:
319,273,60538,6,0,L|336:343,1,50,8|2,0:0|0:2,0:0:0:0:
330,321,60845,1,0,1:2:0:0:
330,321,60998,1,2,1:2:0:0:
416,276,61151,5,0,0:0:0:0:
495,314,61304,1,0,1:2:0:0:
502,230,61457,1,2,1:2:0:0:
423,268,61610,1,0,0:0:0:0:
500,323,61763,5,10,0:2:0:0:
430,182,61916,1,0,1:2:0:0:
430,182,61993,1,0,1:2:0:0:
430,182,62069,1,10,0:2:0:0:
340,309,62222,1,0,0:0:0:0:
504,104,62375,6,0,P|423:158|290:165,1,200,4|10,1:1|0:2,0:0:0:0:
166,128,62834,2,0,P|158:64|141:4,1,100,2|0,0:2|1:2,0:0:0:0:
67,15,63141,5,2,1:2:0:0:
252,72,63294,1,8,0:0:0:0:
81,174,63447,2,0,P|142:223|180:216,1,100,6|0,1:2|0:0,0:0:0:0:
315,180,63753,2,0,L|334:71,1,100,2|8,1:2|0:0,0:0:0:0:
503,324,64059,2,0,P|437:376|396:369,1,125,2|0,0:2|1:2,0:0:0:0:
270,370,64365,2,0,L|247:238,1,125,2|8,1:2|0:0,0:0:0:0:
436,0,64671,6,0,B|386:-7|229:30|375:75|293:152|139:121,1,300.000011444092,6|0,1:2|1:2,0:0:0:0:
37,27,65130,2,0,P|27:102|14:139,1,100,8|0,0:0|0:0,0:0:0:0:
164,227,65436,5,2,1:2:0:0:
218,44,65590,1,2,1:2:0:0:
25,216,65743,1,10,0:2:0:0:
425,160,65896,5,2,1:3:0:0:
62,305,66202,5,2,1:3:0:0:
501,215,66508,5,2,1:3:0:0:
37,27,66814,5,2,1:3:0:0:
256,192,66967,12,0,68957,0:0:0:0:
300,119,69110,5,8,0:1:0:0:
242,292,69263,1,2,1:2:0:0:
299,96,69416,1,8,0:2:0:0:
5,139,69569,6,0,P|107:162|287:204,1,259.999988098145,6|0,1:1|1:2,0:0:0:0:
477,178,70029,2,0,P|490:87|498:35,1,129.999994049073,8|0,0:2|0:0,0:0:0:0:
240,29,70335,5,0,1:2:0:0:
240,29,70488,1,0,1:2:0:0:
476,187,70641,1,10,0:2:0:0:
296,376,70794,2,0,P|282:306|237:109,1,259.999988098145,2|0,1:2|1:2,0:0:0:0:
382,251,71253,6,0,P|482:277|517:287,1,129.999994049073,8|0,0:2|0:0,0:0:0:0:
238,246,71559,1,2,1:2:0:0:
203,321,71712,2,0,P|103:347|68:357,1,129.999994049073,2|8,1:2|0:2,0:0:0:0:
379,37,72018,6,0,P|231:66|109:93,1,259.999988098145,6|0,1:2|1:2,0:0:0:0:
42,91,72478,1,8,0:2:0:0:
13,17,72631,1,0,0:0:0:0:
260,13,72784,5,0,1:2:0:0:
236,89,72937,1,0,1:2:0:0:
260,165,73090,1,10,0:2:0:0:
503,161,73243,6,0,P|536:103|400:103,1,259.999988098145,2|0,1:2|1:2,0:0:0:0:
406,172,73702,2,0,P|392:243|372:332,1,129.999994049073,8|0,0:2|0:0,0:0:0:0:
462,365,74008,5,0,1:2:0:0:
462,365,74161,1,0,1:2:0:0:
493,244,74314,1,10,0:2:0:0:
300,384,74467,6,0,P|273:310|110:241,1,259.999988098145,6|2,1:1|1:2,0:0:0:0:
50,288,74927,1,10,0:2:0:0:
245,180,75080,1,2,0:0:0:0:
79,18,75233,2,0,P|58:112|50:163,1,129.999994049073,2|0,1:2|1:2,0:0:0:0:
258,181,75539,1,8,0:2:0:0:
181,349,75692,6,0,L|56:384,1,129.999994049073,2|0,1:2|0:0,0:0:0:0:
271,183,75998,2,0,L|145:148,1,129.999994049073,2|8,1:2|0:2,0:0:0:0:
394,265,76304,2,0,P|424:337|445:387,1,129.999994049073,2|0,0:0|1:2,0:0:0:0:
437,119,76610,2,0,P|467:47|488:-3,1,129.999994049073,2|8,1:2|0:2,0:0:0:0:
313,48,76916,5,6,1:2:0:0:
313,48,77223,1,0,1:2:0:0:
512,155,77376,2,0,P|422:172|354:191,1,129.999994049073,8|0,0:2|0:0,0:0:0:0:
196,102,77682,5,2,1:2:0:0:
316,250,77835,1,2,1:2:0:0:
316,250,77988,1,10,0:2:0:0:
63,150,78141,6,0,P|81:60|94:3,1,129.999994049073,6|0,1:1|0:0,0:0:0:0:
411,308,78447,2,0,P|398:244|384:180,1,129.999994049073,2|8,1:2|0:2,0:0:0:0:
100,246,78753,5,0,1:2:0:0:
100,246,78830,1,0,1:2:0:0:
100,246,78906,1,8,0:2:0:0:
299,169,79059,5,8,0:3:0:0:
323,93,79212,1,4,0:3:0:0:
211,223,79365,6,0,P|235:305|253:387,1,160,6|0,1:2|1:2,0:0:0:0:
336,331,79825,2,0,P|378:340|428:354,1,80,0|0,1:2|0:0,0:0:0:0:
512,243,80131,1,8,0:2:0:0:
512,243,80284,2,0,P|470:252|420:266,1,80,0|0,0:0|1:2,0:0:0:0:
352,202,80590,6,0,P|357:164|363:123,1,80,0|0,1:2|0:0,0:0:0:0:
169,100,80896,2,0,P|164:62|158:21,1,80,8|2,0:2|0:2,0:0:0:0:
157,20,81202,1,2,1:2:0:0:
418,61,81355,5,10,0:2:0:0:
337,40,81508,2,0,P|293:47|250:58,1,80,2|0,0:2|0:0,0:0:0:0:
82,130,81814,2,0,P|38:122|-5:112,1,80,2|0,0:0|1:2,0:0:0:0:
252,144,82120,6,0,P|267:209|273:238,1,80,2|0,1:2|0:0,0:0:0:0:
37,286,82427,2,0,P|52:221|58:192,1,80,2|8,1:2|0:2,0:0:0:0:
310,292,82733,2,0,P|325:357|331:386,1,80,2|0,0:0|1:2,0:0:0:0:
62,384,83039,2,0,P|149:347|229:333,2,160,10|8|4,0:2|0:2|0:3,0:0:0:0:
134,262,83804,5,8,0:2:0:0:
228,338,83957,1,12,0:3:0:0:
295,289,84110,1,12,0:3:0:0:
418,374,84263,6,0,P|475:317|463:113,1,259.999988098145,4|0,1:1|1:2,0:0:0:0:
400,31,84723,2,0,P|310:48|247:59,1,129.999994049073,8|0,0:2|0:0,0:0:0:0:
170,25,85029,1,0,1:2:0:0:
348,124,85182,1,2,1:2:0:0:
135,203,85335,2,0,P|71:191|7:179,1,129.999994049073,10|2,0:2|0:2,0:0:0:0:
182,8,85641,6,0,P|193:77|201:148,1,129.999994049073,2|0,1:2|1:2,0:0:0:0:
409,43,85947,1,8,0:2:0:0:
463,104,86100,2,0,P|452:173|444:244,1,129.999994049073,2|0,0:2|1:2,0:0:0:0:
135,203,86406,5,2,1:2:0:0:
365,272,86559,1,8,0:2:0:0:
48,229,86712,2,0,P|33:294|190:342,1,259.999988098145,6|0,1:2|1:2,0:0:0:0:
246,282,87171,6,0,P|260:212|282:125,1,129.999994049073,8|0,0:2|0:0,0:0:0:0:
273,155,87478,1,0,1:2:0:0:
470,93,87631,5,2,1:2:0:0:
249,38,87784,1,10,0:2:0:0:
420,183,87937,5,2,1:2:0:0:
131,24,88243,5,2,1:3:0:0:
265,343,88549,5,2,1:3:0:0:
358,15,88855,5,2,1:3:0:0:
358,15,89008,2,0,B|382:20|382:20|338:25,1,50,0|0,0:0|1:2,0:0:0:0:
277,37,89314,6,0,P|187:23|58:9,1,200,6|8,1:1|0:3,0:0:0:0:
57,326,89774,6,0,P|95:266|135:120,1,200,8|4,0:3|0:3,0:0:0:0:
13,74,90233,2,0,P|8:127|77:153,1,100,2|0,1:2|1:2,0:0:0:0:
185,288,90539,5,2,1:2:0:0:
361,160,90692,1,12,0:0:0:0:
444,198,90845,2,0,P|458:258|470:322,1,100,2|0,1:2|0:0,0:0:0:0:
461,310,91075,1,4,0:3:0:0:
456,324,91151,5,8,0:3:0:0:
377,287,91304,1,4,0:3:0:0:
317,379,91457,5,2,1:2:0:0:
231,364,91610,1,0,1:2:0:0:
156,196,91763,5,14,0:1:0:0:
121,270,91916,1,2,0:0:0:0:
153,186,92069,1,10,0:2:0:0:
290,301,92223,6,0,L|273:172,1,100,6|0,1:2|0:0,0:0:0:0:
276,201,92529,1,0,1:2:0:0:
55,86,92682,6,0,P|131:72|244:53,1,150,14|0,0:1|0:0,0:0:0:0:
207,45,92988,6,0,P|268:55|285:92,1,100,0|10,1:2|0:0,0:0:0:0:
358,8,93294,2,0,P|394:58|379:96,1,100,2|0,1:2|3:0,0:0:0:0:
374,102,93524,1,0,3:0:0:0:
361,110,93600,5,8,0:0:0:0:
473,54,93753,1,8,0:3:0:0:
341,197,93906,5,4,0:3:0:0:
420,230,94059,1,0,1:2:0:0:
489,152,94212,5,4,1:2:0:0:
489,152,94365,1,0,1:2:0:0:
416,244,94518,6,0,L|444:350,1,100,2|0,0:0|1:2,0:0:0:0:
507,274,94825,1,10,0:2:0:0:
338,287,94978,6,0,L|366:393,1,100,2|0,0:2|1:2,0:0:0:0:
416,244,95284,1,2,1:2:0:0:
257,287,95437,1,2,0:2:0:0:
173,154,95590,1,10,0:2:0:0:
173,154,95743,1,2,0:2:0:0:
173,154,95896,1,2,1:2:0:0:
260,174,96049,5,10,0:2:0:0:
86,131,96202,1,2,0:2:0:0:
107,215,96355,5,2,1:2:0:0:
241,97,96508,1,2,0:2:0:0:
173,154,96661,5,4,1:2:0:0:
173,154,96814,1,0,0:0:0:0:
340,108,96967,6,0,L|359:0,1,100,2|8,1:2|0:0,0:0:0:0:
431,79,97274,1,2,0:2:0:0:
197,238,97427,6,0,L|215:337,1,100,2|12,1:2|0:0,0:0:0:0:
500,243,97733,2,0,P|411:229|273:205,1,200,2|4,0:0|0:3,0:0:0:0:
461,154,98192,5,4,0:3:0:0:
296,295,98345,1,4,0:3:0:0:
198,124,98498,5,0,3:0:0:0:
122,154,98651,1,0,3:0:0:0:
79,11,98804,5,8,0:2:0:0:
50,84,98957,1,8,0:2:0:0:
254,193,102151,5,2,0:0:0:0:
