osu file format v14

[General]
AudioFilename: audio.mp3
AudioLeadIn: 0
PreviewTime: 68498
Countdown: 0
SampleSet: Soft
StackLeniency: 0.7
Mode: 0
LetterboxInBreaks: 0
WidescreenStoryboard: 0

[Editor]
DistanceSpacing: 1.2
BeatDivisor: 8
GridSize: 32
TimelineZoom: 2.3

[Metadata]
Title:Dawn Blue
TitleUnicode:Dawn Blue
Artist:Mori Calliope
ArtistUnicode:Mori Calliope
Creator:Cynplytholowazy
Version:Imagination
Source:ホロライブ・オルタナティブ
Tags:cover corporation hololive production alternative holoalt ホロライブプロダクション ホロライブ オルタナティブ japanese pop jpop j-pop vtuber virtual youtuber バーチャル ユーチューバー holoen english holomyth dead beats デッドビーツ 森 カリオペ 森美声 もりかりおぺ ボンジュール鈴木 Bonjour Suzuki 高橋 浩一郎 Kouichiro Takahashi 鈴木Daichi秀行 Hideyuki Daichi teaser pv promotional video -Atri- Firis Mistlud Firis_Mistlud KuranteMelodii krt Mir frozz Wanpachi fedora fedora- Yuuki_Noa Yuuki Noa
BeatmapID:3016938
BeatmapSetID:1469465

[Difficulty]
HPDrainRate:6.7
CircleSize:4.3
OverallDifficulty:8.6
ApproachRate:9.1
SliderMultiplier:1.4
SliderTickRate:1

[Events]
//Background and Video events
Video,0,"pv.mp4"
0,0,"msedge_JxNUOehb0R.jpg",0,0
//Break Periods
//Storyboard Layer 0 (Background)
//Storyboard Layer 1 (Fail)
//Storyboard Layer 2 (Pass)
//Storyboard Layer 3 (Foreground)
//Storyboard Layer 4 (Overlay)
//Storyboard Sound Samples

[TimingPoints]
-1297,306.122448979592,4,2,1,60,1,0
2835,-100,4,2,1,40,0,0
3600,-133.333333333333,4,2,2,55,0,0
3677,-133.333333333333,4,2,2,50,0,0
4672,-133.333333333333,4,2,1,50,0,0
5437,-133.333333333333,4,2,2,38,0,0
5590,-133.333333333333,4,2,2,40,0,0
5743,-133.333333333333,4,2,2,42,0,0
5896,-133.333333333333,4,2,2,44,0,0
6049,-133.333333333333,4,2,2,50,0,0
7121,-133.333333333333,4,2,1,50,0,0
7886,-133.333333333333,4,2,2,38,0,0
8039,-133.333333333333,4,2,2,40,0,0
8192,-133.333333333333,4,2,2,42,0,0
8345,-133.333333333333,4,2,2,44,0,0
8498,-133.333333333333,4,2,2,55,0,0
8575,-133.333333333333,4,2,2,50,0,0
9723,-133.333333333333,4,2,1,50,0,0
10182,-100,4,2,1,50,0,0
10335,-133.333333333333,4,2,2,38,0,0
10488,-133.333333333333,4,2,2,40,0,0
10641,-133.333333333333,4,2,2,42,0,0
10794,-133.333333333333,4,2,2,44,0,0
10947,-133.333333333333,4,2,2,50,0,0
11942,-133.333333333333,4,2,1,50,0,0
12784,-133.333333333333,4,2,2,38,0,0
12937,-133.333333333333,4,2,2,40,0,0
13090,-133.333333333333,4,2,2,42,0,0
13243,-133.333333333333,4,2,2,44,0,0
13396,-133.333333333333,4,2,2,50,0,0
13473,-133.333333333333,4,2,1,50,0,0
14009,-133.333333333333,4,2,1,54,0,0
14468,-100,4,2,2,54,0,0
14544,-100,4,2,1,54,0,0
14927,-133.333333333333,4,2,1,54,0,0
15233,-100,4,2,1,54,0,0
15845,306.122448979592,4,2,1,58,1,0
15845,-80,4,2,1,58,0,0
15921,-80,4,2,1,54,0,0
16303,-100,4,2,1,54,0,0
17221,-66.6666666666667,4,2,1,58,0,0
17375,-66.6666666666667,4,2,1,54,0,0
17604,-80,4,2,1,54,0,0
18293,-80,4,2,1,58,0,0
18447,-80,4,2,1,54,0,0
18752,-66.6666666666667,4,2,1,54,0,0
19211,-66.6666666666667,4,2,1,58,0,0
19288,-66.6666666666667,4,2,1,54,0,0
19670,-80,4,2,1,54,0,0
20741,-80,4,2,1,58,0,0
20819,-80,4,2,1,54,0,0
21354,-100,4,2,1,54,0,0
24109,-66.6666666666667,4,2,1,54,0,0
24721,-66.6666666666667,4,2,1,54,0,0
25640,-66.6666666666667,4,2,2,54,0,0
26865,-66.6666666666667,4,2,2,48,0,0
27477,-66.6666666666667,4,2,2,70,0,0
28089,-133.333333333333,4,2,1,65,0,0
28090,306.122448979592,4,2,1,65,1,0
28166,-100,4,2,1,60,0,0
36508,-66.6666666666667,4,2,1,60,0,0
36967,-80,4,2,1,60,0,0
37885,-80,4,2,1,68,0,0
37962,-80,4,2,1,64,0,0
44926,-80,4,2,1,64,0,0
45538,-80,4,2,1,64,0,0
46304,-66.6666666666667,4,2,1,64,0,0
47681,-100,4,2,1,60,0,0
47758,-100,4,2,1,54,0,0
52579,-80,4,2,1,54,0,0
53192,-100,4,2,1,54,0,0
56559,-66.6666666666667,4,2,2,65,0,0
56635,-66.6666666666667,4,2,1,60,0,0
57477,-80,4,2,1,65,0,0
57554,-80,4,2,1,60,0,0
61304,-86.9565217391304,4,2,1,60,0,0
61457,-80,4,2,1,60,0,0
62069,-66.6666666666667,4,2,1,60,0,0
62375,-80,4,2,1,68,0,0
62452,-80,4,2,1,65,0,0
65896,-80,4,2,1,70,0,0
67273,-80,4,2,2,42,0,0
68574,-80,4,2,2,46,0,0
68651,-80,4,2,2,50,0,0
68727,-80,4,2,2,54,0,0
68804,-80,4,2,2,60,0,0
69110,-80,4,2,2,70,0,0
69263,-100,4,2,1,70,0,0
69569,-80,4,2,1,90,0,1
69646,-80,4,2,1,85,0,1
69723,306.122448979592,4,2,1,85,1,1
69723,-80,4,2,1,85,0,1
79365,-66.6666666666667,4,2,1,82,0,0
79442,-66.6666666666667,4,2,1,70,0,0
79825,-100,4,2,1,70,0,0
84263,-80,4,2,1,82,0,1
84340,-80,4,2,1,78,0,1
88855,-100,4,2,1,78,0,0
89314,-80,4,2,1,60,0,0
89391,-80,4,2,1,66,0,0
89774,-100,4,2,1,66,0,0
90692,-66.6666666666667,4,2,1,72,0,0
90845,-66.6666666666667,4,2,1,66,0,0
91075,-80,4,2,1,66,0,0
91763,-80,4,2,1,72,0,0
91917,-80,4,2,1,66,0,0
92223,-66.6666666666667,4,2,1,72,0,0
92375,-66.6666666666667,4,2,1,66,0,0
92682,-66.6666666666667,4,2,1,72,0,0
92758,-66.6666666666667,4,2,1,66,0,0
93141,-80,4,2,1,66,0,0
94212,-80,4,2,1,72,0,0
94289,-80,4,2,1,66,0,0
94825,-100,4,2,1,66,0,0
97580,-66.6666666666667,4,2,1,66,0,0
97885,-66.6666666666667,4,2,1,40,0,0
98038,-66.6666666666667,4,2,1,48,0,0
98192,-66.6666666666667,4,2,1,56,0,0
98345,-66.6666666666667,4,2,1,64,0,0
98498,-66.6666666666667,4,2,1,68,0,0
98804,-66.6666666666667,4,2,1,72,0,0
99110,-125,4,2,1,50,0,0
100029,319.148936170213,4,2,1,50,1,0
100029,-125,4,2,1,50,0,0
100507,322.58064516129,4,2,1,40,1,0
100507,-125,4,2,1,40,0,0
101474,338.983050847458,4,2,1,30,1,0
102151,306.122448979592,4,2,1,20,1,0
102223,-125,4,2,1,20,0,0
106457,-125,4,2,1,20,0,0

[Colours]
Combo1 : 145,145,255
Combo2 : 121,255,121
Combo3 : 255,128,255
Combo4 : 255,157,111

[HitObjects]
89,72,3600,6,0,L|78:190,1,105.000004005432,4|0,3:1|0:0,0:0:0:0:
192,221,4060,2,0,L|181:103,1,105.000004005432,0|0,3:2|0:0,0:0:0:0:
175,32,4519,1,2,3:2:0:0:
167,309,4825,6,0,P|94:292|27:351,2,157.500006008148,0|0|0,0:0|0:0|3:0,0:0:0:0:
299,330,5896,1,0,3:0:0:0:
308,319,6049,6,0,L|302:260,1,52.5000020027161,0|0,3:2|0:0,0:0:0:0:
407,164,6356,1,0,0:0:0:0:
415,176,6509,2,0,L|404:294,1,105.000004005432,0|0,3:2|0:0,0:0:0:0:
398,365,6968,1,2,3:2:0:0:
398,365,7121,1,2,0:0:0:0:
266,277,7274,6,0,P|240:260|203:259,1,52.5000020027161,0|2,0:0|0:0,0:0:0:0:
321,160,7580,2,0,P|282:184|268:199,1,52.5000020027161,2|2,0:0|0:0,0:0:0:0:
182,126,7886,2,0,P|193:165|193:186,2,52.5000020027161,0|0|0,3:2|3:2|3:2,0:0:0:0:
111,50,8345,1,0,3:2:0:0:
111,50,8498,6,0,P|156:20|216:30,1,105.000004005432,4|0,3:2|0:0,0:0:0:0:
269,87,8958,2,0,P|314:117|374:107,1,105.000004005432,2|0,3:2|0:0,0:0:0:0:
443,60,9417,1,2,3:2:0:0:
322,218,9723,5,2,0:0:0:0:
332,231,10182,2,0,L|338:270,1,35,2|0,0:0|0:0,0:0:0:0:
408,337,10335,1,0,3:2:0:0:
321,379,10488,1,0,3:2:0:0:
254,305,10641,2,0,P|216:292|184:300,1,52.5000020027161,0|0,3:2|3:2,0:0:0:0:
64,361,10947,6,0,P|76:305|1:247,2,157.500006008148,2|0|0,3:2|3:2|3:2,0:0:0:0:
71,83,12784,1,0,3:2:0:0:
152,127,12937,1,0,3:2:0:0:
220,54,13090,1,0,3:2:0:0:
301,98,13243,1,0,3:2:0:0:
399,25,13396,6,0,B|399:23|443:55|443:55|418:178,1,157.500006008148,0|0,3:2|1:2,0:0:0:0:
481,229,14009,1,8,0:0:0:0:
490,239,14315,1,8,0:0:0:0:
342,337,14468,6,0,B|272:301|281:372|204:336,1,140,2|8,1:3|0:3,0:0:0:0:
117,308,14927,2,0,L|126:378,1,52.5000020027161,4|0,0:3|1:3,0:0:0:0:
186,131,15233,1,8,0:0:0:0:
122,216,15386,1,0,1:3:0:0:
122,216,15539,2,0,P|176:208|226:255,1,105,2|0,0:0|0:0,0:0:0:0:
239,265,15845,6,0,B|286:215|290:136|290:136|300:169|322:184,1,175,6|0,1:2|0:0,0:0:0:0:
473,75,16304,2,0,B|441:65|415:33|415:33|404:83|375:111,1,140,10|4,0:2|0:3,0:0:0:0:
223,29,16764,2,0,P|267:26|301:41,1,70,0|0,1:2|1:2,0:0:0:0:
38,197,17070,5,2,1:2:0:0:
112,114,17223,2,0,L|104:-1,1,105.000004005432,12|2,0:0|1:2,0:0:0:0:
87,315,17606,1,4,0:3:0:0:
87,315,17682,2,0,P|140:295|170:297,1,87.5,8|4,0:3|0:3,0:0:0:0:
263,365,17988,2,0,P|316:385|351:380,1,87.5,0|0,1:2|1:2,0:0:0:0:
468,179,18294,5,8,0:0:0:0:
322,297,18447,1,8,0:0:0:0:
476,368,18600,1,4,0:3:0:0:
341,101,18754,2,0,P|304:71|250:71,1,105,8|4,0:3|0:3,0:0:0:0:
160,144,19060,1,4,0:3:0:0:
214,361,19213,5,4,1:2:0:0:
269,180,19366,2,0,L|281:293,1,105.000004005432,0|0,0:0|1:2,0:0:0:0:
341,101,19671,1,8,0:0:0:0:
102,213,19825,1,0,0:0:0:0:
380,196,20131,5,8,0:0:0:0:
337,354,20284,1,8,0:3:0:0:
336,354,20436,2,0,L|327:248,1,87.5,4|0,0:3|1:2,0:0:0:0:
450,40,20743,6,0,L|443:142,1,87.5,4|0,1:2|1:0,0:0:0:0:
360,203,21049,1,2,0:0:0:0:
158,35,21202,1,0,1:2:0:0:
158,35,21356,2,0,P|225:23|303:73,1,140,10|0,0:2|1:2,0:0:0:0:
39,136,21815,6,0,L|32:48,1,70,2|2,1:2|0:0,0:0:0:0:
152,184,22121,1,10,0:2:0:0:
152,184,22274,2,0,L|145:272,1,70,2|2,0:2|1:2,0:0:0:0:
68,346,22580,1,10,0:2:0:0:
233,316,22733,2,0,P|268:306|329:312,2,70,2|2|2,0:2|0:2|0:2,0:0:0:0:
23,150,23192,6,0,L|30:238,1,70,4|0,1:2|0:0,0:0:0:0:
166,76,23498,1,2,1:2:0:0:
166,76,23651,2,0,P|209:57|250:55,1,70,8|2,0:0|0:2,0:0:0:0:
68,10,23958,1,2,1:2:0:0:
221,226,24111,6,0,B|321:282|313:146|438:223,1,210.000008010865,12|2,0:0|1:2,0:0:0:0:
512,298,24570,1,8,0:3:0:0:
467,35,24722,2,0,L|480:139,1,105.000004005432,4|0,0:3|1:2,0:0:0:0:
480,139,24952,1,0,3:0:0:0:
480,139,25028,5,8,0:0:0:0:
348,74,25181,1,8,0:3:0:0:
253,200,25334,2,0,L|270:359,1,157.500006008148,4|0,0:3|0:0,0:0:0:0:
276,380,25640,5,8,0:2:0:0:
389,262,25793,1,0,1:2:0:0:
233,219,25947,1,0,1:2:0:0:
391,378,26100,5,0,1:2:0:0:
439,180,26253,1,8,0:0:0:0:
244,231,26406,1,0,0:0:0:0:
506,314,26559,5,0,1:2:0:0:
434,67,26712,1,0,1:2:0:0:
254,246,26865,1,0,0:0:0:0:
499,139,27018,6,0,L|514:80,2,52.5000020027161,8|8|8,0:0|0:0|0:0,0:0:0:0:
227,18,27324,1,0,1:2:0:0:
227,18,27401,1,0,1:2:0:0:
227,18,27477,2,0,L|245:228,1,210.000008010865,8|0,0:1|0:0,0:0:0:0:
65,328,28090,6,0,L|57:247,1,70,4|0,1:1|0:0,0:0:0:0:
165,195,28396,2,0,L|157:276,1,70,0|0,1:2|0:0,0:0:0:0:
56,340,28702,6,0,L|48:259,1,70,0|0,1:2|0:0,0:0:0:0:
156,207,29008,2,0,L|148:288,1,70,2|2,1:2|0:2,0:0:0:0:
27,110,29314,6,0,P|69:109|101:132,1,70,2|2,1:2|0:2,0:0:0:0:
165,195,29620,1,0,1:2:0:0:
237,52,29773,2,0,L|230:121,1,70,2|0,0:2|1:2,0:0:0:0:
165,195,30079,1,2,0:2:0:0:
237,332,30232,2,0,L|230:263,1,70,0|2,1:2|0:2,0:0:0:0:
313,159,30538,6,0,P|343:129|444:139,1,140,2|2,1:2|1:2,0:0:0:0:
394,273,30998,2,0,L|386:192,1,70,2|0,0:2|1:2,0:0:0:0:
496,260,31304,2,0,L|489:329,1,70,2|0,0:2|1:2,0:0:0:0:
401,192,31610,1,2,0:2:0:0:
401,192,31763,6,0,B|326:156|339:230|267:197,1,140,0|2,1:2|1:2,0:0:0:0:
194,62,32222,2,0,L|202:143,1,70,2|0,0:2|1:2,0:0:0:0:
96,219,32528,2,0,L|104:138,1,70,2|0,0:2|1:2,0:0:0:0:
288,5,32834,1,8,0:0:0:0:
392,77,32987,6,0,L|400:158,1,70,2|0,1:3|0:0,0:0:0:0:
292,210,33294,2,0,L|300:129,1,70,0|0,1:2|0:0,0:0:0:0:
401,65,33600,6,0,L|409:146,1,70,2|2,1:2|0:2,0:0:0:0:
304,225,33906,1,2,1:2:0:0:
304,225,34059,2,0,B|336:206|375:208|404:226|404:226|394:237|380:241|367:239,1,140,2|2,0:2|0:2,0:0:0:0:
271,153,34518,1,0,1:2:0:0:
271,153,34671,6,0,L|279:72,1,70,2|0,0:2|1:2,0:0:0:0:
169,136,34977,2,0,L|177:217,1,70,2|0,0:2|1:2,0:0:0:0:
193,39,35283,1,2,0:2:0:0:
102,76,35436,6,0,B|70:95|31:93|2:75|2:75|12:64|26:60|39:62,1,140,2|2,1:2|1:2,0:0:0:0:
88,165,35896,2,0,L|96:246,1,70,2|0,0:2|1:2,0:0:0:0:
0,326,36202,2,0,L|8:245,1,70,2|0,0:2|1:2,0:0:0:0:
178,90,36508,6,0,B|270:39|263:164|378:93,1,210.000008010865,10|0,0:2|1:2,0:0:0:0:
440,309,36967,2,0,B|413:271|414:222|439:186|439:186|448:206|444:228|431:244,1,175,8|0,0:0|1:2,0:0:0:0:
342,353,37426,1,0,3:0:0:0:
342,353,37503,1,0,3:0:0:0:
342,353,37579,1,10,0:2:0:0:
254,276,37732,2,0,P|231:273|201:282,1,43.75,0|0,3:0|3:0,0:0:0:0:
25,380,37885,6,0,P|81:320|57:227,1,175,4|8,1:1|0:0,0:0:0:0:
9,148,38345,1,0,0:0:0:0:
103,0,38498,2,0,L|92:91,1,87.5,0|0,1:2|1:2,0:0:0:0:
142,169,38804,1,2,0:2:0:0:
400,58,38957,6,0,P|329:40|250:102,1,175,8|2,0:0|1:2,0:0:0:0:
167,269,39416,2,0,L|157:176,1,87.5,8|2,0:0|0:2,0:0:0:0:
260,317,39722,2,0,P|317:348|398:336,1,131.25,0|0,1:2|0:0,0:0:0:0:
409,325,40028,2,0,L|423:233,1,87.5,8|2,0:0|0:2,0:0:0:0:
324,46,40334,6,0,L|338:138,1,87.5,2|0,1:2|0:0,0:0:0:0:
260,241,40641,1,10,0:2:0:0:
260,241,40794,2,0,P|316:219|355:221,1,87.5,2|0,0:2|1:2,0:0:0:0:
432,250,41100,1,2,1:2:0:0:
128,347,41406,6,0,B|95:383|95:383|119:239,1,175,8|2,0:2|1:2,0:0:0:0:
125,174,41865,1,8,0:0:0:0:
8,89,42018,2,0,P|56:83|98:110,1,87.5,2|0,0:2|1:2,0:0:0:0:
225,202,42324,2,0,P|177:208|135:181,1,87.5,2|8,1:2|0:0,0:0:0:0:
299,126,42630,1,2,0:2:0:0:
274,365,42783,6,0,P|341:299|430:336,1,175,0|8,1:2|0:0,0:0:0:0:
194,124,43396,2,0,L|207:239,1,87.5,2|2,1:2|1:2,0:0:0:0:
101,57,43702,1,2,0:2:0:0:
101,57,43855,6,0,B|134:22|134:22|290:39,1,175,10|2,0:2|1:2,0:0:0:0:
323,227,44314,2,0,P|311:174|322:135,1,87.5,8|2,0:0|0:2,0:0:0:0:
471,41,44620,2,0,P|431:77|391:87,1,87.5,0|2,1:2|1:2,0:0:0:0:
274,50,44926,1,8,0:0:0:0:
327,276,45232,6,0,P|314:331|338:377,1,87.5,4|0,1:2|0:0,0:0:0:0:
229,233,45538,2,0,P|242:178|218:132,1,87.5,8|0,0:0|0:0,0:0:0:0:
104,33,45845,1,2,1:2:0:0:
104,33,45998,2,0,P|145:72|197:74,1,87.5,2|8,1:2|0:0,0:0:0:0:
457,43,46304,6,0,B|504:15|504:15|353:48,1,210.000008010865,6|2,1:2|1:2,0:0:0:0:
283,126,46763,1,8,0:0:0:0:
198,1,46916,2,0,L|207:56,1,52.5000020027161,2|0,0:2|3:0,0:0:0:0:
239,322,47069,5,8,0:0:0:0:
364,50,47222,1,10,0:2:0:0:
102,195,47375,1,4,0:3:0:0:
399,231,47528,1,4,0:3:0:0:
180,27,47681,6,0,P|118:14|23:53,1,140,4|0,1:2|0:0,0:0:0:0:
9,200,48141,2,0,L|2:125,1,70
100,168,48447,1,0,0:0:0:0:
100,168,48600,2,0,L|93:243,1,70
23,320,48906,6,0,P|71:278|153:302,1,140,0|2,0:0|0:2,0:0:0:0:
248,356,49518,2,0,P|230:238|310:164,1,210,2|0,0:2|0:0,0:0:0:0:
409,241,50130,6,0,P|358:248|331:240,1,70,2|0,0:2|0:0,0:0:0:0:
481,190,50436,1,2,0:2:0:0:
481,190,50590,2,0,P|497:247|490:278,1,70,2|0,0:2|0:0,0:0:0:0:
401,163,50896,2,0,B|408:131|443:109|443:109|404:104|390:68,1,140,2|0,0:2|0:0,0:0:0:0:
321,18,51355,6,0,P|303:61|311:96,1,70,2|2,0:2|0:2,0:0:0:0:
226,81,51661,2,0,P|232:127|256:154,1,70,2|2,0:2|0:2,0:0:0:0:
176,184,51967,2,0,P|204:221|239:232,1,70,2|2,0:2|0:2,0:0:0:0:
181,297,52273,2,0,P|224:315|259:307,1,70,2|0,0:2|0:0,0:0:0:0:
431,232,52579,6,0,B|440:233|458:228|471:214|471:214|433:191|382:188|341:213,1,175,2|0,0:2|0:0,0:0:0:0:
285,159,53038,1,0,0:0:0:0:
285,159,53192,2,0,P|264:204|268:237,1,70,2|0,0:2|0:0,0:0:0:0:
281,304,53498,2,0,P|297:350|324:371,1,70,2|0,0:2|0:0,0:0:0:0:
197,277,53804,6,0,P|126:267|80:310,1,140,2|0,0:2|0:0,0:0:0:0:
14,171,54263,1,0,0:0:0:0:
14,171,54416,2,0,L|22:247,1,70,2|0,0:2|0:0,0:0:0:0:
112,114,54722,2,0,L|104:190,1,70,2|0,0:2|0:0,0:0:0:0:
14,0,55028,6,0,P|63:37|138:28,1,140,2|2,0:2|0:2,0:0:0:0:
194,99,55487,1,2,0:2:0:0:
194,99,55641,2,0,P|242:73|264:73,1,70
300,0,55947,2,0,P|346:28|357:47,1,70,2|0,0:2|0:0,0:0:0:0:
327,178,56253,6,0,P|321:140|328:105,1,70,2|0,0:2|0:0,0:0:0:0:
467,337,56559,2,0,B|391:373|406:291|317:334,1,157.500006008148,2|0,0:3|0:0,0:0:0:0:
298,359,56865,5,8,0:0:0:0:
344,90,57018,1,8,0:3:0:0:
148,280,57171,1,4,0:3:0:0:
417,242,57324,1,4,0:3:0:0:
177,113,57477,5,4,1:1:0:0:
177,113,57630,2,0,L|82:97,1,87.5,0|2,1:2|0:2,0:0:0:0:
314,271,57936,1,0,1:2:0:0:
314,271,58090,2,0,L|409:255,1,87.5,10|2,0:2|0:2,0:0:0:0:
210,211,58396,1,0,1:2:0:0:
189,365,58549,6,0,P|232:303|193:195,1,175,2|2,1:2|1:2,0:0:0:0:
81,97,59008,2,0,P|123:148|164:158,1,87.5,2|0,1:2|0:0,0:0:0:0:
281,54,59314,2,0,P|230:96|220:137,1,87.5,10|0,0:2|0:0,0:0:0:0:
152,4,59620,1,2,0:2:0:0:
391,241,59926,6,0,P|440:273|486:279,1,87.5,2|0,1:2|1:2,0:0:0:0:
312,165,60232,1,2,0:2:0:0:
312,165,60385,2,0,P|229:152|136:218,1,175,2|2,1:2|0:2,0:0:0:0:
86,283,60845,1,0,1:2:0:0:
86,283,60998,1,2,1:2:0:0:
40,101,61151,6,0,L|47:163,1,43.75
57,115,61304,2,0,L|51:165,1,40.2500007677078,0|0,1:2|0:0,0:0:0:0:
67,91,61457,2,0,L|77:200,1,87.5,2|0,1:2|0:0,0:0:0:0:
169,21,61763,6,0,P|211:-2|261:14,1,87.5,10|0,0:2|0:0,0:0:0:0:
294,119,61993,1,0,1:2:0:0:
294,119,62069,2,0,B|259:115|229:80|229:80|228:123|200:160,1,157.500006008148,10|0,0:2|0:0,0:0:0:0:
153,240,62375,6,0,P|193:195|300:206,1,175,4|10,1:1|0:2,0:0:0:0:
360,285,62834,1,2,0:2:0:0:
432,121,62987,2,0,L|420:213,1,87.5,0|2,1:2|1:2,0:0:0:0:
360,285,63294,1,8,0:0:0:0:
268,56,63447,6,0,P|308:118|268:222,1,175,6|2,1:2|1:2,0:0:0:0:
212,275,63906,1,8,0:0:0:0:
112,145,64059,1,2,0:2:0:0:
112,145,64212,2,0,P|152:116|201:125,1,87.5,0|2,1:2|1:2,0:0:0:0:
262,184,64518,1,8,0:0:0:0:
386,0,64671,6,0,B|407:39|407:39|357:177,1,175,6|0,1:2|1:2,0:0:0:0:
413,245,65130,1,8,0:0:0:0:
216,146,65283,1,0,0:0:0:0:
216,146,65436,2,0,P|174:123|128:139,1,87.5,2|2,1:2|1:2,0:0:0:0:
66,193,65743,1,10,0:2:0:0:
239,39,65896,5,2,1:3:0:0:
161,383,66202,5,2,1:3:0:0:
66,67,66508,5,2,1:3:0:0:
339,329,66814,5,2,1:3:0:0:
256,192,67273,12,8,68498,0:2:0:0:
202,223,68651,6,0,L|193:176,2,43.75,8|8|2,0:2|0:2|1:2,0:0:0:0:
292,19,69110,5,8,0:1:0:0:
258,335,69263,1,2,1:2:0:0:
382,213,69416,1,8,0:2:0:0:
155,77,69569,6,0,P|69:76|9:145,1,175,6|0,1:1|1:2,0:0:0:0:
284,140,70029,2,0,L|294:53,1,87.5,8|0,0:2|0:0,0:0:0:0:
186,245,70335,2,0,L|196:332,1,87.5,0|0,1:2|1:2,0:0:0:0:
171,98,70641,1,10,0:2:0:0:
353,265,70794,6,0,P|420:282|493:202,1,175,2|0,1:2|1:2,0:0:0:0:
285,85,71253,2,0,L|297:191,1,87.5,8|0,0:2|0:0,0:0:0:0:
196,341,71559,1,2,1:2:0:0:
195,340,71712,2,0,L|207:254,1,87.5,2|8,1:2|0:2,0:0:0:0:
36,89,72018,6,0,P|83:159|166:159,1,175,6|0,1:2|1:2,0:0:0:0:
333,0,72478,2,0,L|323:99,1,87.5,8|0,0:2|0:0,0:0:0:0:
464,258,72784,2,0,L|454:159,1,87.5,0|0,1:2|1:2,0:0:0:0:
445,58,73090,1,10,0:2:0:0:
258,288,73243,6,0,B|223:314|223:314|87:294,1,175,2|0,1:2|1:2,0:0:0:0:
28,112,73702,2,0,L|36:203,1,87.5,8|0,0:2|0:0,0:0:0:0:
158,47,74008,2,0,L|150:138,1,87.5,0|0,1:2|1:2,0:0:0:0:
103,283,74314,1,10,0:2:0:0:
325,210,74467,6,0,B|363:187|410:189|445:211|445:211|433:224|416:229|400:226,1,175,6|2,1:1|1:2,0:0:0:0:
238,133,74927,2,0,P|224:88|229:46,1,87.5,10|2,0:2|0:0,0:0:0:0:
182,230,75233,2,0,P|150:264|111:281,1,87.5,2|0,1:2|1:2,0:0:0:0:
295,219,75539,1,8,0:2:0:0:
72,30,75692,6,0,B|109:52|109:52|90:184,1,175,2|2,1:2|1:2,0:0:0:0:
32,270,76151,1,8,0:2:0:0:
191,367,76304,2,0,P|143:370|102:339,1,87.5,2|0,0:0|1:2,0:0:0:0:
32,270,76610,1,2,1:2:0:0:
32,270,76763,1,8,0:2:0:0:
259,69,76916,6,0,B|301:40|301:40|436:74,1,175,6|0,1:2|1:2,0:0:0:0:
185,140,77376,2,0,P|157:96|159:51,1,87.5,8|0,0:2|0:0,0:0:0:0:
281,201,77682,1,2,1:2:0:0:
281,201,77835,2,0,P|271:247|234:288,1,87.5,2|10,1:2|0:2,0:0:0:0:
79,43,78141,6,0,L|95:138,1,87.5,6|0,1:1|0:0,0:0:0:0:
123,323,78447,1,2,1:2:0:0:
244,84,78600,5,8,0:2:0:0:
197,309,78753,1,0,1:2:0:0:
342,53,78906,1,8,0:2:0:0:
369,316,79059,1,8,0:3:0:0:
238,70,79212,1,4,0:3:0:0:
495,308,79365,6,0,B|396:355|405:239|282:298,1,210.000008010865,6|0,1:2|1:2,0:0:0:0:
226,356,79825,1,0,1:2:0:0:
100,156,80131,2,0,L|105:242,1,70,8|0,0:2|0:0,0:0:0:0:
97,70,80437,1,0,1:2:0:0:
175,124,80590,6,0,P|203:148|249:150,1,70,0|0,1:2|0:0,0:0:0:0:
97,70,80896,2,0,P|69:46|23:44,1,70,8|2,0:2|0:2,0:0:0:0:
175,124,81202,1,2,1:2:0:0:
254,4,81355,2,0,L|243:82,1,70,10|2,0:2|0:2,0:0:0:0:
108,282,81814,1,2,0:0:0:0:
40,323,81967,6,0,P|79:295|116:291,1,70,0|2,1:2|1:2,0:0:0:0:
309,384,82427,1,2,1:2:0:0:
309,384,82580,2,0,P|282:361|249:351,1,70,8|2,0:2|0:0,0:0:0:0:
375,248,82886,1,0,1:2:0:0:
375,248,83039,6,0,L|368:331,1,70,10|0,0:2|0:0,0:0:0:0:
458,192,83345,2,0,L|451:109,1,70,8|8,0:2|0:3,0:0:0:0:
328,29,83651,1,4,0:3:0:0:
328,29,83804,6,0,P|377:58|407:54,1,70,8|12,0:2|0:3,0:0:0:0:
477,0,84110,1,12,0:3:0:0:
293,255,84263,6,0,B|265:287|265:287|128:273,1,175,4|0,1:1|1:2,0:0:0:0:
47,104,84723,2,0,P|69:164|57:196,1,87.5,8|0,0:2|0:0,0:0:0:0:
110,29,85029,1,0,1:2:0:0:
240,171,85182,1,2,1:2:0:0:
240,171,85335,2,0,L|339:164,1,87.5,10|2,0:2|0:2,0:0:0:0:
469,21,85641,6,0,P|413:75|434:163,1,175,2|8,1:2|0:2,0:0:0:0:
493,238,86100,1,2,0:2:0:0:
399,384,86253,2,0,L|413:286,1,87.5,0|2,1:2|1:2,0:0:0:0:
493,238,86559,1,8,0:2:0:0:
309,82,86712,6,0,B|281:50|281:50|144:64,1,175,6|0,1:2|1:2,0:0:0:0:
63,233,87171,2,0,P|85:173|73:141,1,87.5,8|0,0:2|0:0,0:0:0:0:
42,53,87478,1,0,1:2:0:0:
180,154,87631,1,2,1:2:0:0:
307,28,87784,1,10,0:2:0:0:
225,338,87937,5,2,1:2:0:0:
126,0,88243,5,2,1:3:0:0:
409,227,88549,5,2,1:3:0:0:
44,255,88855,5,2,1:3:0:0:
44,255,88932,1,0,0:0:0:0:
44,255,89008,1,0,0:0:0:0:
282,79,89314,6,0,B|235:129|231:208|231:208|221:175|199:160,1,175,6|8,1:1|0:3,0:0:0:0:
43,288,89774,2,0,B|75:298|101:330|101:330|112:280|141:252,1,140,8|4,0:3|0:3,0:0:0:0:
289,355,90233,2,0,P|245:358|211:343,1,70,2|0,1:2|1:2,0:0:0:0:
474,187,90539,5,2,1:2:0:0:
400,270,90692,2,0,L|408:385,1,105.000004005432,12|2,0:0|1:2,0:0:0:0:
425,69,91075,1,4,0:3:0:0:
425,69,91151,2,0,P|372:89|342:87,1,87.5,8|4,0:3|0:3,0:0:0:0:
249,19,91457,2,0,P|196:-1|161:4,1,87.5,2|0,1:2|1:2,0:0:0:0:
44,205,91763,5,14,0:1:0:0:
190,87,91916,1,2,0:0:0:0:
36,16,92069,1,10,0:2:0:0:
171,283,92223,2,0,P|208:313|262:313,1,105,6|0,1:2|0:0,0:0:0:0:
352,240,92529,1,0,1:2:0:0:
298,23,92682,5,14,0:1:0:0:
243,208,92835,2,0,L|231:95,1,105.000004005432,2|0,0:0|1:2,0:0:0:0:
174,291,93141,1,10,0:0:0:0:
408,180,93294,1,2,1:2:0:0:
132,188,93600,5,8,0:0:0:0:
200,26,93753,1,8,0:3:0:0:
200,26,93906,2,0,L|193:128,1,87.5,4|0,0:3|1:2,0:0:0:0:
62,344,94212,6,0,L|69:242,1,87.5,4|0,1:2|1:2,0:0:0:0:
153,177,94518,1,2,0:0:0:0:
354,349,94671,1,0,1:2:0:0:
354,349,94825,2,0,P|287:361|209:311,1,140,10|0,0:2|1:2,0:0:0:0:
473,248,95284,6,0,L|480:336,1,70,2|2,1:2|0:2,0:0:0:0:
360,200,95590,1,10,0:2:0:0:
360,200,95743,2,0,L|367:112,1,70,2|2,0:2|1:2,0:0:0:0:
444,38,96049,1,10,0:2:0:0:
279,68,96202,2,0,P|244:78|183:72,2,70,2|2|2,0:2|1:2|0:2,0:0:0:0:
489,234,96661,6,0,L|482:146,1,70,4|0,1:2|0:0,0:0:0:0:
346,308,96967,1,2,1:2:0:0:
346,308,97120,2,0,P|303:327|262:329,1,70,8|2,0:0|0:2,0:0:0:0:
444,374,97427,1,2,1:2:0:0:
291,158,97580,6,0,B|191:102|199:238|74:161,1,210.000008010865,12|4,0:0|0:3,0:0:0:0:
0,86,98039,1,4,0:3:0:0:
45,349,98192,2,0,L|31:243,1,105.000004005432,4|4,0:3|0:3,0:0:0:0:
188,42,98498,5,0,3:0:0:0:
169,336,98651,1,0,3:0:0:0:
307,42,98804,1,8,0:2:0:0:
325,336,98957,1,8,0:2:0:0:
73,80,99110,6,0,B|101:103|101:103|79:236,1,168,2|2,0:0|0:0,0:0:0:0:
196,373,100029,2,0,P|137:377|154:296,1,168,2|2,0:0|0:0,0:0:0:0:
255,179,100990,2,0,B|277:217|275:264|253:299|253:299|240:287|235:270|238:254,1,168,2|2,0:0|0:0,0:0:0:0:
356,327,102152,5,2,0:0:0:0:
256,192,102189,12,0,106436,0:0:0:0:
