osu file format v14

[General]
AudioFilename: audio.mp3
AudioLeadIn: 0
PreviewTime: 68498
Countdown: 0
SampleSet: Soft
StackLeniency: 0.7
Mode: 0
LetterboxInBreaks: 0
WidescreenStoryboard: 1

[Editor]
DistanceSpacing: 1.2
BeatDivisor: 8
GridSize: 32
TimelineZoom: 1.1

[Metadata]
Title:Dawn Blue
TitleUnicode:Dawn Blue
Artist:Mori Calliope
ArtistUnicode:Mori Calliope
Creator:Cynplytholowazy
Version:Hard
Source:ホロライブ・オルタナティブ
Tags:cover corporation hololive production alternative holoalt ホロライブプロダクション ホロライブ オルタナティブ japanese pop jpop j-pop vtuber virtual youtuber バーチャル ユーチューバー holoen english holomyth dead beats デッドビーツ 森 カリオペ 森美声 もりかりおぺ ボンジュール鈴木 Bonjour Suzuki 高橋 浩一郎 Kouichiro Takahashi 鈴木Daichi秀行 Hideyuki Daichi teaser pv promotional video -Atri- Firis Mistlud Firis_Mistlud KuranteMelodii krt Mir frozz Wanpachi fedora fedora- Yuuki_Noa Yuuki Noa
BeatmapID:3021761
BeatmapSetID:1469465

[Difficulty]
HPDrainRate:5
CircleSize:4
OverallDifficulty:5.5
ApproachRate:6.5
SliderMultiplier:0.799999999999999
SliderTickRate:1

[Events]
//Background and Video events
Video,0,"pv.mp4"
0,0,"msedge_nI4C5K9uWT.jpg",0,0
//Break Periods
2,47881,55584
//Storyboard Layer 0 (Background)
//Storyboard Layer 1 (Fail)
//Storyboard Layer 2 (Pass)
//Storyboard Layer 3 (Foreground)
//Storyboard Layer 4 (Overlay)
//Storyboard Sound Samples

[TimingPoints]
-1297,306.122448979592,4,2,1,60,1,0
2835,-100,4,2,1,40,0,0
3600,-100,4,2,2,55,0,0
3677,-100,4,2,2,50,0,0
4672,-100,4,2,1,50,0,0
5437,-100,4,2,2,38,0,0
5590,-100,4,2,2,40,0,0
5743,-100,4,2,2,42,0,0
5896,-100,4,2,2,44,0,0
6049,-100,4,2,2,50,0,0
7121,-100,4,2,1,50,0,0
7886,-100,4,2,2,38,0,0
8039,-100,4,2,2,40,0,0
8192,-100,4,2,2,42,0,0
8345,-100,4,2,2,44,0,0
8498,-100,4,2,2,55,0,0
8575,-100,4,2,2,50,0,0
9723,-100,4,2,1,50,0,0
10335,-100,4,2,2,38,0,0
10488,-100,4,2,2,40,0,0
10641,-100,4,2,2,42,0,0
10794,-100,4,2,2,44,0,0
10947,-100,4,2,2,50,0,0
11942,-100,4,2,1,50,0,0
12784,-100,4,2,2,38,0,0
12937,-100,4,2,2,40,0,0
13090,-100,4,2,2,42,0,0
13243,-100,4,2,2,44,0,0
13396,-100,4,2,2,50,0,0
13473,-100,4,2,1,50,0,0
14009,-100,4,2,1,54,0,0
14468,-100,4,2,2,54,0,0
14544,-100,4,2,1,54,0,0
15845,306.122448979592,4,2,1,58,1,0
15845,-86.9565217391304,4,2,1,58,0,0
15921,-86.9565217391304,4,2,1,54,0,0
17222,-86.9565217391304,4,2,1,58,0,0
17375,-86.9565217391304,4,2,1,54,0,0
18293,-86.9565217391304,4,2,1,58,0,0
18447,-86.9565217391304,4,2,1,54,0,0
19212,-86.9565217391304,4,2,1,58,0,0
19288,-86.9565217391304,4,2,1,54,0,0
20742,-86.9565217391304,4,2,1,58,0,0
20819,-86.9565217391304,4,2,1,54,0,0
25640,-100,4,2,2,54,0,0
26865,-100,4,2,2,48,0,0
27477,-74.0740740740741,4,2,2,70,0,0
28090,306.122448979592,4,2,1,65,1,0
28090,-100,4,2,1,65,0,0
28166,-100,4,2,1,60,0,0
37885,-86.9565217391304,4,2,1,68,0,0
37962,-86.9565217391304,4,2,1,64,0,0
47681,-86.9565217391304,4,2,1,60,0,0
47758,-86.9565217391304,4,2,1,54,0,0
56559,-86.9565217391304,4,2,2,65,0,0
56635,-86.9565217391304,4,2,1,60,0,0
57477,-86.9565217391304,4,2,1,65,0,0
57554,-86.9565217391304,4,2,1,60,0,0
62375,-86.9565217391304,4,2,1,68,0,0
62452,-86.9565217391304,4,2,1,65,0,0
65896,-86.9565217391304,4,2,1,70,0,0
67273,-86.9565217391304,4,2,2,42,0,0
68574,-86.9565217391304,4,2,2,46,0,0
68651,-86.9565217391304,4,2,2,50,0,0
68727,-86.9565217391304,4,2,2,54,0,0
68804,-86.9565217391304,4,2,2,60,0,0
69110,-86.9565217391304,4,2,2,70,0,0
69263,-86.9565217391304,4,2,1,70,0,0
69569,-71.4285714285714,4,2,1,90,0,1
69646,-71.4285714285714,4,2,1,85,0,1
69723,306.122448979592,4,2,1,85,1,1
69723,-71.4285714285714,4,2,1,85,0,1
79365,-86.9565217391304,4,2,1,82,0,0
79442,-86.9565217391304,4,2,1,70,0,0
84263,-71.4285714285714,4,2,1,82,0,1
84340,-71.4285714285714,4,2,1,78,0,1
88855,-71.4285714285714,4,2,1,78,0,0
89314,-86.9565217391304,4,2,1,60,0,0
89391,-86.9565217391304,4,2,1,66,0,0
90692,-86.9565217391304,4,2,1,72,0,0
90845,-86.9565217391304,4,2,1,66,0,0
91763,-86.9565217391304,4,2,1,72,0,0
91917,-86.9565217391304,4,2,1,66,0,0
92222,-86.9565217391304,4,2,1,72,0,0
92375,-86.9565217391304,4,2,1,66,0,0
92682,-86.9565217391304,4,2,1,72,0,0
92758,-86.9565217391304,4,2,1,66,0,0
94212,-86.9565217391304,4,2,1,72,0,0
94289,-86.9565217391304,4,2,1,66,0,0
97885,-86.9565217391304,4,2,1,40,0,0
98038,-86.9565217391304,4,2,1,48,0,0
98192,-86.9565217391304,4,2,1,56,0,0
98345,-86.9565217391304,4,2,1,64,0,0
98498,-86.9565217391304,4,2,1,68,0,0
98804,-86.9565217391304,4,2,1,72,0,0
99110,-86.9565217391304,4,2,1,50,0,0
100029,319.148936170213,4,2,1,50,1,0
100507,322.58064516129,4,2,1,40,1,0
101474,338.983050847458,4,2,1,30,1,0
102151,306.122448979592,4,2,1,20,1,0
102223,-100,4,2,1,20,0,0
106457,-100,4,2,1,20,0,0

[Colours]
Combo1 : 145,145,255
Combo2 : 121,255,121
Combo3 : 255,128,255
Combo4 : 255,157,111

[HitObjects]
111,166,3600,6,0,L|124:294,2,120,4|0|2,3:1|3:2|3:2,0:0:0:0:
32,74,4825,2,0,P|91:28|169:61,1,160,0|0,0:0|3:0,0:0:0:0:
258,137,5743,1,0,3:0:0:0:
258,137,5896,1,0,3:0:0:0:
305,72,6049,6,0,L|291:197,2,120,0|0|2,3:2|3:2|3:2,0:0:0:0:
414,122,7274,6,0,L|420:173,1,40,0|2,0:0|0:0,0:0:0:0:
363,219,7580,2,0,L|357:270,1,40,2|2,0:0|0:0,0:0:0:0:
411,318,7886,2,0,P|446:335|463:338,2,40,0|0|0,3:2|3:2|3:2,0:0:0:0:
332,334,8345,1,0,3:2:0:0:
332,334,8498,6,0,P|265:302|220:305,2,120,4|2|2,3:2|3:2|3:2,0:0:0:0:
424,256,9723,2,0,P|440:218|411:143,1,120,2|2,0:0|0:0,0:0:0:0:
357,91,10335,1,0,3:2:0:0:
357,91,10488,1,0,3:2:0:0:
295,142,10641,2,0,L|304:207,1,40,0|0,3:2|3:2,0:0:0:0:
229,91,10947,6,0,P|185:51|111:57,2,120,2|0|0,3:2|3:2|3:2,0:0:0:0:
130,327,12784,2,0,P|85:336|77:342,1,40,0|0,3:2|3:2,0:0:0:0:
126,247,13090,2,0,P|171:256|179:262,1,40,0|0,3:2|3:2,0:0:0:0:
222,318,13396,6,0,P|213:255|256:205,1,120,0|0,3:2|1:2,0:0:0:0:
307,161,14009,1,8,0:0:0:0:
230,20,14315,1,8,0:0:0:0:
234,24,14468,6,0,L|243:119,1,79.9999999999999,2|8,1:3|0:3,0:0:0:0:
176,151,14927,1,4,0:3:0:0:
180,155,15080,1,0,1:3:0:0:
118,104,15233,2,0,P|90:90|73:89,1,40,8|0,0:0|1:3,0:0:0:0:
16,134,15539,1,2,0:0:0:0:
54,266,15845,6,0,P|110:272|135:306,1,92.0000017547607,6|0,1:2|0:0,0:0:0:0:
179,229,16304,2,0,P|222:193|264:200,1,92.0000017547607,10|4,0:2|0:3,0:0:0:0:
309,259,16763,1,0,1:2:0:0:
465,160,17069,5,2,1:2:0:0:
465,160,17222,2,0,L|451:251,1,92.0000017547607,12|0,0:0|0:0,0:0:0:0:
475,284,17605,1,4,0:3:0:0:
475,284,17681,2,0,P|436:271|415:270,1,46.0000008773803,8|4,0:3|0:3,0:0:0:0:
370,326,17987,2,0,P|331:339|310:340,1,46.0000008773803,0|0,1:2|1:2,0:0:0:0:
263,272,18293,5,8,0:0:0:0:
229,195,18447,1,8,0:0:0:0:
283,132,18600,1,4,0:3:0:0:
242,59,18753,2,0,P|214:41|187:42,1,46.0000008773803,8|4,0:3|0:3,0:0:0:0:
136,89,19059,1,4,0:3:0:0:
53,16,19212,6,0,L|56:120,1,92.0000017547607,4|0,1:2|1:2,0:0:0:0:
30,196,19671,1,8,0:0:0:0:
34,200,19824,2,0,P|73:183|86:184,1,46.0000008773803,0|0,0:0|1:2,0:0:0:0:
136,238,20130,1,8,0:0:0:0:
136,238,20283,1,8,0:3:0:0:
189,301,20436,2,0,L|180:355,1,46.0000008773803,4|0,0:3|1:2,0:0:0:0:
275,265,20742,6,0,L|320:256,1,46.0000008773803,4|0,1:2|1:0,0:0:0:0:
191,167,21202,1,0,1:2:0:0:
191,167,21355,2,0,L|138:157,1,46.0000008773803,10|2,0:2|0:0,0:0:0:0:
248,105,21661,1,0,1:2:0:0:
248,105,21814,6,0,P|281:79|332:73,2,92.0000017547607,2|10|2,1:2|0:2|1:2,0:0:0:0:
190,51,22579,2,0,L|194:0,1,46.0000008773803,10|2,0:2|0:2,0:0:0:0:
115,69,22885,2,0,L|111:18,1,46.0000008773803,2|2,0:2|0:2,0:0:0:0:
51,150,23191,6,0,P|97:118|132:128,1,92.0000017547607,4|2,1:2|1:2,0:0:0:0:
186,179,23651,1,8,0:0:0:0:
186,179,23804,2,0,L|244:171,1,46.0000008773803,2|2,0:2|1:2,0:0:0:0:
323,106,24110,6,0,L|316:199,1,92.0000017547607,12|2,0:0|1:2,0:0:0:0:
267,258,24569,1,8,0:3:0:0:
267,258,24722,1,4,0:3:0:0:
309,323,24875,2,0,L|313:350,2,23.0000004386902,0|0|8,1:2|3:0|0:0,0:0:0:0:
247,274,25181,1,8,0:3:0:0:
247,274,25334,2,0,P|196:259|185:260,1,46.0000008773803,4|0,0:3|0:0,0:0:0:0:
128,285,25640,6,0,L|70:291,2,40,8|0|0,0:2|1:2|1:2,0:0:0:0:
106,207,26100,2,0,L|48:213,2,40,0|8|0,1:2|0:0|0:0,0:0:0:0:
85,129,26559,2,0,L|27:135,2,40,0|0|0,1:2|1:2|0:0,0:0:0:0:
139,70,27018,1,8,0:0:0:0:
139,70,27095,1,8,0:0:0:0:
139,70,27171,1,8,0:0:0:0:
201,20,27324,1,0,1:2:0:0:
201,20,27477,6,0,L|189:151,1,108.000000411987,8|0,0:1|0:0,0:0:0:0:
267,268,28090,6,0,P|305:249|348:252,1,79.9999999999999,4|0,1:1|1:2,0:0:0:0:
368,367,28702,2,0,P|332:385|293:384,1,79.9999999999999,0|2,1:2|1:2,0:0:0:0:
195,315,29314,2,0,L|186:219,2,79.9999999999999,2|0|0,1:2|1:2|1:2,0:0:0:0:
95,381,30232,1,0,1:2:0:0:
37,275,30538,6,0,P|79:245|121:247,1,79.9999999999999,2|2,1:2|1:2,0:0:0:0:
190,158,31151,2,0,P|229:163|259:189,1,79.9999999999999,0|0,1:2|1:2,0:0:0:0:
322,291,31763,2,0,L|313:387,2,79.9999999999999,0|2|0,1:2|1:2|1:2,0:0:0:0:
396,196,32681,1,0,1:2:0:0:
435,131,32834,5,8,0:0:0:0:
389,70,32987,6,0,P|352:50|302:59,1,79.9999999999999,2|0,1:3|1:2,0:0:0:0:
237,144,33600,2,0,P|200:164|150:155,1,79.9999999999999,2|2,1:2|1:2,0:0:0:0:
69,85,34212,2,0,L|58:2,2,79.9999999999999,0|0|0,1:2|1:2|1:2,0:0:0:0:
10,189,35130,1,0,1:2:0:0:
122,148,35436,6,0,P|164:128|200:136,1,79.9999999999999,2|2,1:2|1:2,0:0:0:0:
269,228,36049,2,0,P|311:248|347:240,1,79.9999999999999,0|0,1:2|1:2,0:0:0:0:
401,193,36508,5,10,0:2:0:0:
338,54,36814,1,0,1:2:0:0:
338,54,36967,6,0,P|282:80|254:76,1,79.9999999999999,8|0,0:0|1:2,0:0:0:0:
206,30,37426,1,0,3:0:0:0:
206,30,37503,1,0,3:0:0:0:
206,30,37579,1,10,0:2:0:0:
146,77,37732,1,0,3:0:0:0:
59,15,37885,6,0,L|67:123,1,92.0000017547607,4|8,1:1|0:0,0:0:0:0:
9,234,38498,1,0,1:2:0:0:
9,234,38651,2,0,P|43:216|62:216,1,46.0000008773803,0|2,1:2|0:2,0:0:0:0:
122,245,38957,6,0,L|108:347,1,92.0000017547607,8|2,0:0|1:2,0:0:0:0:
172,382,39416,1,8,0:0:0:0:
279,295,39722,5,0,1:2:0:0:
279,295,39875,1,2,1:2:0:0:
279,295,40028,2,0,P|302:282|322:282,1,46.0000008773803,8|2,0:0|0:2,0:0:0:0:
402,340,40334,6,0,L|392:237,1,92.0000017547607,2|10,1:2|0:2,0:0:0:0:
489,189,40794,2,0,L|479:292,1,92.0000017547607,2|2,0:2|1:2,0:0:0:0:
349,176,41406,2,0,P|313:149|259:154,1,92.0000017547607,8|2,0:2|1:2,0:0:0:0:
205,197,41865,1,8,0:0:0:0:
108,73,42171,5,0,1:2:0:0:
108,73,42324,1,2,1:2:0:0:
108,73,42477,2,0,P|114:112|111:129,1,46.0000008773803,8|2,0:0|0:2,0:0:0:0:
51,229,42783,6,0,P|91:202|134:205,1,92.0000017547607,0|8,1:2|0:0,0:0:0:0:
227,306,43396,1,2,1:2:0:0:
227,306,43549,1,2,1:2:0:0:
295,259,43702,1,2,0:2:0:0:
295,259,43855,6,0,P|340:232|376:241,2,92.0000017547607,10|2|2,0:2|1:2|0:2,0:0:0:0:
240,202,44620,2,0,L|236:146,1,46.0000008773803,0|2,1:2|1:2,0:0:0:0:
235,77,44926,1,8,0:0:0:0:
105,164,45232,6,0,B|125:180|125:180|114:254,1,92.0000017547607,4|8,1:2|0:0,0:0:0:0:
37,364,45845,1,2,1:2:0:0:
37,364,45998,1,2,1:2:0:0:
108,322,46151,1,8,0:0:0:0:
190,361,46304,6,0,P|229:341|282:341,1,92.0000017547607,6|2,1:2|1:2,0:0:0:0:
352,372,46763,1,8,0:0:0:0:
406,309,46916,1,2,0:2:0:0:
406,309,46993,1,0,3:0:0:0:
406,309,47069,5,8,0:0:0:0:
368,224,47222,1,10,0:2:0:0:
417,151,47375,2,0,L|426:96,1,46.0000008773803,4|0,0:3|0:0,0:0:0:0:
483,41,47681,5,4,1:2:0:0:
55,334,56559,5,2,0:3:0:0:
146,232,56865,6,0,L|139:169,1,46.0000008773803,8|8,0:0|0:3,0:0:0:0:
80,137,57171,2,0,L|87:74,1,46.0000008773803,4|4,0:3|0:3,0:0:0:0:
39,8,57477,5,4,1:1:0:0:
39,8,57630,2,0,P|72:44|122:37,1,92.0000017547607,0|0,1:2|1:2,0:0:0:0:
173,99,58090,2,0,P|206:63|256:70,1,92.0000017547607,10|0,0:2|1:2,0:0:0:0:
309,117,58549,1,2,1:2:0:0:
457,61,58855,1,2,1:2:0:0:
457,61,59008,2,0,L|444:158,2,92.0000017547607,2|10|2,1:2|0:2|0:2,0:0:0:0:
465,271,59926,5,2,1:2:0:0:
465,271,60079,2,0,P|432:235|382:242,1,92.0000017547607,0|2,1:2|1:2,0:0:0:0:
331,180,60539,2,0,P|298:216|248:209,1,92.0000017547607,8|0,0:0|1:2,0:0:0:0:
195,162,60998,1,2,1:2:0:0:
138,216,61151,5,0,0:0:0:0:
138,216,61304,1,0,1:2:0:0:
172,285,61457,2,0,L|177:335,1,46.0000008773803,2|0,1:2|0:0,0:0:0:0:
97,306,61763,6,0,P|74:291|13:296,1,92.0000017547607,10|10,0:2|0:2,0:0:0:0:
19,129,62375,6,0,B|38:149|38:149|116:135,1,92.0000017547607,4|10,1:1|0:2,0:0:0:0:
152,78,62834,2,0,P|191:73|232:110,1,92.0000017547607,2|2,0:2|1:2,0:0:0:0:
284,161,63294,1,8,0:0:0:0:
396,105,63447,6,0,L|382:206,1,92.0000017547607,6|2,1:2|1:2,0:0:0:0:
325,248,63906,1,8,0:0:0:0:
431,362,64212,2,0,P|396:338|374:338,1,46.0000008773803,0|2,1:2|1:2,0:0:0:0:
322,370,64518,1,8,0:0:0:0:
227,289,64671,6,0,L|221:176,1,92.0000017547607,6|0,1:2|1:2,0:0:0:0:
171,137,65130,1,8,0:0:0:0:
293,53,65436,5,2,1:2:0:0:
293,53,65590,2,0,P|336:59|351:67,1,46.0000008773803,2|10,1:2|0:2,0:0:0:0:
429,33,65896,5,2,1:3:0:0:
361,184,66202,5,2,1:3:0:0:
427,335,66508,5,2,1:3:0:0:
262,315,66814,5,2,1:3:0:0:
256,192,67273,12,8,68497,0:2:0:0:
140,120,69110,6,0,P|112:133|79:137,2,46.0000008773803,8|2|8,0:1|1:2|0:2,0:0:0:0:
203,57,69569,6,0,P|195:137|227:158,1,111.999996582031,6|0,1:1|1:2,0:0:0:0:
282,201,70029,1,8,0:2:0:0:
386,69,70335,2,0,P|428:55|447:62,1,55.9999982910156,0|0,1:2|1:2,0:0:0:0:
502,111,70641,1,10,0:2:0:0:
430,214,70794,6,0,B|405:229|405:229|430:134,1,111.999996582031,2|0,1:2|1:2,0:0:0:0:
368,87,71253,1,8,0:2:0:0:
250,207,71559,1,2,1:2:0:0:
250,207,71712,2,0,L|256:275,1,55.9999982910156,2|8,1:2|0:2,0:0:0:0:
158,335,72018,6,0,P|125:288|142:232,1,111.999996582031,6|0,1:2|1:2,0:0:0:0:
177,163,72478,1,8,0:2:0:0:
76,28,72784,1,0,1:2:0:0:
76,28,72937,2,0,P|120:42|138:41,1,55.9999982910156,0|10,1:2|0:2,0:0:0:0:
213,82,73243,6,0,P|249:53|317:58,1,111.999996582031,2|0,1:2|1:2,0:0:0:0:
377,108,73702,1,8,0:2:0:0:
443,262,74008,6,0,L|438:323,1,55.9999982910156,0|0,1:2|1:2,0:0:0:0:
371,368,74314,1,10,0:2:0:0:
292,285,74467,6,0,P|285:240|322:181,1,111.999996582031,6|2,1:1|1:2,0:0:0:0:
385,135,74927,1,10,0:2:0:0:
385,135,75080,1,2,0:0:0:0:
457,93,75233,2,0,P|489:105|510:122,1,55.9999982910156,2|0,1:2|1:2,0:0:0:0:
386,38,75539,1,8,0:2:0:0:
386,38,75692,6,0,P|320:27|278:62,1,111.999996582031,2|2,1:2|1:2,0:0:0:0:
213,93,76151,1,8,0:2:0:0:
213,93,76304,2,0,P|169:142|178:204,1,111.999996582031,2|2,0:0|1:2,0:0:0:0:
225,247,76763,1,8,0:2:0:0:
331,204,76916,6,0,L|316:322,1,111.999996582031,6|0,1:2|1:2,0:0:0:0:
379,371,77376,1,8,0:2:0:0:
220,314,77682,1,2,1:2:0:0:
220,314,77835,2,0,P|175:303|151:304,1,55.9999982910156,2|10,1:2|0:2,0:0:0:0:
78,358,78141,6,0,L|92:235,1,111.999996582031,6|2,1:1|1:2,0:0:0:0:
137,176,78600,1,8,0:2:0:0:
137,176,78753,1,0,1:2:0:0:
93,104,78906,1,8,0:2:0:0:
93,104,79059,1,8,0:3:0:0:
150,43,79212,1,4,0:3:0:0:
220,81,79365,6,0,P|271:103|346:62,1,138.000002632141,6|0,1:2|1:2,0:0:0:0:
431,174,80131,2,0,L|415:321,2,138.000002632141,8|0|2,0:2|1:2|0:2,0:0:0:0:
325,84,81355,1,10,0:2:0:0:
79,209,81967,6,0,P|92:139|155:144,1,138.000002632141,0|2,1:2|1:2,0:0:0:0:
209,187,82580,1,8,0:2:0:0:
361,152,82886,1,0,1:2:0:0:
361,152,83039,2,0,L|342:263,2,92.0000017547607,10|8|4,0:2|0:2|0:3,0:0:0:0:
324,82,83804,2,0,P|352:71|375:72,2,46.0000008773803,8|12|12,0:2|0:3|0:3,0:0:0:0:
238,123,84263,6,0,P|204:92|140:95,1,111.999996582031,4|0,1:1|1:2,0:0:0:0:
79,152,84723,1,8,0:2:0:0:
140,308,85029,2,0,P|176:323|203:320,1,55.9999982910156,0|2,1:2|1:2,0:0:0:0:
255,267,85335,2,0,P|291:252|318:255,1,55.9999982910156,10|2,0:2|0:2,0:0:0:0:
373,320,85641,6,0,P|361:259|386:214,1,111.999996582031,2|8,1:2|0:2,0:0:0:0:
440,155,86100,1,2,0:2:0:0:
440,155,86253,2,0,L|446:79,1,55.9999982910156,0|2,1:2|1:2,0:0:0:0:
391,33,86559,1,8,0:2:0:0:
321,104,86712,6,0,P|287:135|223:132,1,111.999996582031,6|0,1:2|1:2,0:0:0:0:
162,75,87172,1,8,0:2:0:0:
158,242,87478,2,0,P|194:227|221:230,1,55.9999982910156,0|2,1:2|1:2,0:0:0:0:
273,283,87784,1,10,0:2:0:0:
352,231,87937,5,2,1:2:0:0:
174,161,88243,5,2,1:3:0:0:
237,340,88549,5,2,1:3:0:0:
422,381,88855,5,2,1:3:0:0:
458,118,89314,6,0,P|402:112|377:78,1,92.0000017547607,6|8,1:1|0:3,0:0:0:0:
333,155,89773,2,0,P|290:191|248:184,1,92.0000017547607,8|4,0:3|0:3,0:0:0:0:
203,125,90232,1,2,1:2:0:0:
47,224,90538,5,2,1:2:0:0:
47,224,90691,2,0,L|61:133,1,92.0000017547607,12|0,0:0|0:0,0:0:0:0:
37,100,91074,1,4,0:3:0:0:
37,100,91150,2,0,P|76:113|97:114,1,46.0000008773803,8|4,0:3|0:3,0:0:0:0:
142,58,91456,2,0,P|181:45|202:44,1,46.0000008773803,2|0,1:2|1:2,0:0:0:0:
249,112,91762,5,14,0:1:0:0:
283,189,91916,1,2,0:0:0:0:
229,252,92069,1,10,0:2:0:0:
270,325,92222,2,0,P|298:343|325:342,1,46.0000008773803,6|0,1:2|0:0,0:0:0:0:
376,295,92528,1,0,1:2:0:0:
459,368,92681,6,0,L|456:264,1,92.0000017547607,14|0,0:1|1:2,0:0:0:0:
478,184,93140,1,10,0:0:0:0:
478,184,93293,2,0,P|439:201|426:200,1,46.0000008773803,2|0,1:2|3:0,0:0:0:0:
376,146,93599,1,8,0:0:0:0:
376,146,93752,1,8,0:3:0:0:
323,83,93905,2,0,L|332:29,1,46.0000008773803,4|0,0:3|1:2,0:0:0:0:
237,119,94211,6,0,L|192:128,1,46.0000008773803,4|0,1:2|1:2,0:0:0:0:
321,217,94671,1,0,1:2:0:0:
321,217,94824,2,0,L|374:227,1,46.0000008773803,10|2,0:2|0:2,0:0:0:0:
264,279,95130,1,0,1:2:0:0:
264,279,95283,6,0,P|231:305|180:311,2,92.0000017547607,2|10|2,1:2|0:2|1:2,0:0:0:0:
322,333,96048,2,0,L|318:384,1,46.0000008773803,10|2,0:2|0:2,0:0:0:0:
397,315,96354,2,0,L|401:366,1,46.0000008773803,2|2,1:2|0:2,0:0:0:0:
461,234,96660,6,0,P|415:266|380:256,1,92.0000017547607,4|2,1:2|1:2,0:0:0:0:
326,205,97120,1,8,0:0:0:0:
326,205,97273,2,0,L|268:213,1,46.0000008773803,2|2,0:2|1:2,0:0:0:0:
189,278,97579,6,0,L|196:185,1,92.0000017547607,12|4,0:0|0:3,0:0:0:0:
245,126,98038,1,4,0:3:0:0:
195,58,98192,5,4,0:3:0:0:
195,58,98345,1,4,0:3:0:0:
264,12,98498,5,0,3:0:0:0:
326,66,98651,1,0,3:0:0:0:
398,25,98804,2,0,P|436:24|453:32,1,46.0000008773803,8|8,0:2|0:2,0:0:0:0:
495,102,99110,5,2,0:0:0:0:
256,192,102152,12,0,106436,0:0:0:0:
