osu file format v14

[General]
AudioFilename: audio.mp3
AudioLeadIn: 0
PreviewTime: 68498
Countdown: 0
SampleSet: Soft
StackLeniency: 0.7
Mode: 0
LetterboxInBreaks: 0
WidescreenStoryboard: 1

[Editor]
DistanceSpacing: 1.2
BeatDivisor: 4
GridSize: 32
TimelineZoom: 1.1

[Metadata]
Title:Dawn Blue
TitleUnicode:Dawn Blue
Artist:Mori Calliope
ArtistUnicode:Mori Calliope
Creator:Cynplytholowazy
Version:Easy
Source:ホロライブ・オルタナティブ
Tags:cover corporation hololive production alternative holoalt ホロライブプロダクション ホロライブ オルタナティブ japanese pop jpop j-pop vtuber virtual youtuber バーチャル ユーチューバー holoen english holomyth dead beats デッドビーツ 森 カリオペ 森美声 もりかりおぺ ボンジュール鈴木 Bonjour Suzuki 高橋 浩一郎 Kouichiro Takahashi 鈴木Daichi秀行 Hideyuki Daichi teaser pv promotional video -Atri- Firis Mistlud Firis_Mistlud KuranteMelodii krt Mir frozz Wanpachi fedora fedora- Yuuki_Noa Yuuki Noa
BeatmapID:3018925
BeatmapSetID:1469465

[Difficulty]
HPDrainRate:3
CircleSize:3
OverallDifficulty:3
ApproachRate:3
SliderMultiplier:0.899999999999999
SliderTickRate:1

[Events]
//Background and Video events
Video,0,"pv.mp4"
0,0,"msedge_GTbBVgwiTk.jpg",0,0
//Break Periods
2,47881,55028
//Storyboard Layer 0 (Background)
//Storyboard Layer 1 (Fail)
//Storyboard Layer 2 (Pass)
//Storyboard Layer 3 (Foreground)
//Storyboard Layer 4 (Overlay)
//Storyboard Sound Samples

[TimingPoints]
-1297,306.122448979592,4,2,1,60,1,0
2835,-100,4,2,1,40,0,0
3600,-100,4,2,2,55,0,0
3677,-100,4,2,2,50,0,0
4672,-100,4,2,1,50,0,0
5437,-100,4,2,2,38,0,0
5590,-100,4,2,2,40,0,0
5743,-100,4,2,2,42,0,0
5896,-100,4,2,2,44,0,0
6049,-100,4,2,2,50,0,0
7121,-100,4,2,1,50,0,0
7886,-100,4,2,2,38,0,0
8039,-100,4,2,2,40,0,0
8192,-100,4,2,2,42,0,0
8345,-100,4,2,2,44,0,0
8498,-100,4,2,2,55,0,0
8575,-100,4,2,2,50,0,0
9723,-100,4,2,1,50,0,0
10335,-100,4,2,2,38,0,0
10488,-100,4,2,2,40,0,0
10641,-100,4,2,2,42,0,0
10794,-100,4,2,2,44,0,0
10947,-100,4,2,2,50,0,0
11942,-100,4,2,1,50,0,0
12784,-100,4,2,2,38,0,0
12937,-100,4,2,2,40,0,0
13090,-100,4,2,2,42,0,0
13243,-100,4,2,2,44,0,0
13396,-100,4,2,2,50,0,0
13473,-100,4,2,1,50,0,0
14009,-100,4,2,1,54,0,0
14468,-100,4,2,2,54,0,0
14544,-100,4,2,1,54,0,0
15845,306.122448979592,4,2,1,58,1,0
15921,-100,4,2,1,54,0,0
17222,-100,4,2,1,58,0,0
17375,-100,4,2,1,54,0,0
18293,-100,4,2,1,58,0,0
18447,-100,4,2,1,54,0,0
19212,-100,4,2,1,58,0,0
19288,-100,4,2,1,54,0,0
20742,-100,4,2,1,58,0,0
20819,-100,4,2,1,54,0,0
25640,-100,4,2,2,54,0,0
26865,-100,4,2,2,48,0,0
27477,-100,4,2,2,70,0,0
28090,306.122448979592,4,2,1,65,1,0
28166,-100,4,2,1,60,0,0
37885,-100,4,2,1,68,0,0
37962,-100,4,2,1,64,0,0
47681,-100,4,2,1,60,0,0
47758,-100,4,2,1,54,0,0
56559,-100,4,2,2,65,0,0
56635,-100,4,2,1,60,0,0
57477,-100,4,2,1,65,0,0
57554,-100,4,2,1,60,0,0
62375,-100,4,2,1,68,0,0
62452,-100,4,2,1,65,0,0
65896,-100,4,2,1,70,0,0
67273,-100,4,2,2,42,0,0
68574,-100,4,2,2,46,0,0
68651,-100,4,2,2,50,0,0
68727,-100,4,2,2,54,0,0
68804,-100,4,2,2,60,0,0
69110,-100,4,2,2,70,0,0
69263,-100,4,2,1,70,0,0
69569,-100,4,2,1,90,0,1
69646,-100,4,2,1,85,0,1
69723,306.122448979592,4,2,1,85,1,1
79365,-100,4,2,1,82,0,0
79442,-100,4,2,1,70,0,0
84263,-100,4,2,1,82,0,1
84340,-100,4,2,1,78,0,1
88855,-100,4,2,1,78,0,0
89314,-100,4,2,1,60,0,0
89391,-100,4,2,1,66,0,0
90692,-100,4,2,1,72,0,0
90845,-100,4,2,1,66,0,0
91763,-100,4,2,1,72,0,0
91917,-100,4,2,1,66,0,0
92222,-100,4,2,1,72,0,0
92375,-100,4,2,1,66,0,0
92682,-100,4,2,1,72,0,0
92758,-100,4,2,1,66,0,0
94212,-100,4,2,1,72,0,0
94289,-100,4,2,1,66,0,0
97885,-100,4,2,1,40,0,0
98038,-100,4,2,1,48,0,0
98192,-100,4,2,1,56,0,0
98345,-100,4,2,1,64,0,0
98498,-100,4,2,1,68,0,0
98804,-100,4,2,1,72,0,0
99110,-100,4,2,1,50,0,0
100029,319.148936170213,4,2,1,50,1,0
100507,322.58064516129,4,2,1,40,1,0
101474,338.983050847458,4,2,1,30,1,0
102151,306.122448979592,4,2,1,20,1,0
102223,-100,4,2,1,20,0,0
106457,-100,4,2,1,20,0,0

[Colours]
Combo1 : 145,145,255
Combo2 : 121,255,121
Combo3 : 255,128,255
Combo4 : 255,157,111

[HitObjects]
302,83,3600,6,0,L|435:59,2,135,4|0|2,3:1|3:2|3:2,0:0:0:0:
222,41,4825,1,0,0:0:0:0:
209,300,6049,6,0,L|76:324,2,135,0|0|2,3:2|3:2|3:2,0:0:0:0:
289,342,7274,1,0,0:0:0:0:
395,196,7886,1,0,3:2:0:0:
286,52,8498,6,0,P|220:44|158:70,2,135,4|2|2,3:2|3:2|3:2,0:0:0:0:
390,301,10335,2,0,L|301:315,1,89.9999999999999,0|0,3:2|3:2,0:0:0:0:
218,351,10947,6,0,P|151:358|90:333,2,135,2|0|0,3:2|3:2|3:2,0:0:0:0:
417,168,12784,2,0,L|405:79,1,89.9999999999999,0|0,3:2|3:2,0:0:0:0:
323,40,13396,6,0,B|264:37|264:37|218:74|218:74|157:70,1,180,0|8,3:2|0:0,0:0:0:0:
76,179,14468,2,0,P|122:225|110:289,1,135,2|4,1:3|0:3,0:0:0:0:
182,343,15233,1,8,0:0:0:0:
354,291,15845,6,0,B|329:253|329:253|348:165,1,135,6|10,1:2|0:2,0:0:0:0:
261,61,16763,1,0,1:2:0:0:
182,103,17069,2,0,L|92:96,2,89.9999999999999,2|2|8,1:2|1:2|0:3,0:0:0:0:
253,157,17987,1,0,1:2:0:0:
339,133,18293,6,0,B|373:166|373:166|355:252,1,135,8|8,0:0|0:3,0:0:0:0:
252,345,19212,2,0,B|180:374|196:291|130:324,1,135,4|8,1:2|0:0,0:0:0:0:
50,215,20130,1,8,0:0:0:0:
25,129,20436,1,4,0:3:0:0:
84,60,20742,6,0,L|172:77,1,89.9999999999999,4|2,1:2|0:0,0:0:0:0:
256,43,21355,2,0,B|319:63|319:63|379:30,1,135,10|2,0:2|1:2,0:0:0:0:
449,145,22273,1,2,0:2:0:0:
486,227,22579,2,0,L|478:317,1,89.9999999999999,10|2,0:2|0:2,0:0:0:0:
398,357,23191,5,4,1:2:0:0:
334,293,23498,2,0,L|245:306,1,89.9999999999999,2|2,1:2|0:2,0:0:0:0:
162,342,24110,2,0,B|130:308|130:308|154:177,1,180,12|4,0:0|0:3,0:0:0:0:
147,87,25028,2,0,P|189:100|229:82,1,89.9999999999999,8|4,0:0|0:3,0:0:0:0:
304,33,25640,5,8,0:2:0:0:
71,323,27477,5,8,0:1:0:0:
200,198,28090,6,0,B|283:234|283:234|367:205,1,180,4|0,1:1|1:2,0:0:0:0:
436,146,29008,1,2,1:2:0:0:
372,81,29314,2,0,B|288:45|288:45|204:74,1,180,2|0,1:2|1:2,0:0:0:0:
142,138,30232,1,0,1:2:0:0:
191,213,30538,6,0,L|195:303,1,89.9999999999999,2|2,1:2|1:2,0:0:0:0:
275,344,31151,2,0,B|361:370|361:370|438:323,2,180,0|0|0,1:2|1:2|1:2,0:0:0:0:
204,288,32681,1,0,1:2:0:0:
272,228,32987,6,0,L|361:214,1,89.9999999999999,2|0,1:3|1:2,0:0:0:0:
450,202,33600,2,0,L|436:113,1,89.9999999999999,2|2,1:2|1:2,0:0:0:0:
370,51,34212,2,0,B|309:47|309:47|265:86|265:86|205:80,1,180,0|0,1:2|1:2,0:0:0:0:
137,21,35130,1,0,1:2:0:0:
84,94,35436,6,0,L|77:184,1,89.9999999999999,2|2,1:2|1:2,0:0:0:0:
125,260,36049,2,0,B|170:255|170:255|201:288|201:288|245:283,1,135,0|10,1:2|0:2,0:0:0:0:
372,327,36967,5,8,0:0:0:0:
381,57,37885,6,0,P|309:108|223:92,1,180,4|0,1:1|1:2,0:0:0:0:
150,37,38804,1,2,0:2:0:0:
91,104,39110,2,0,L|82:194,1,89.9999999999999,2|8,0:2|0:0,0:0:0:0:
160,238,39722,2,0,L|169:328,1,89.9999999999999,0|8,1:2|0:0,0:0:0:0:
253,364,40334,6,0,P|304:323|370:329,1,135,2|2,1:2|0:2,0:0:0:0:
438,270,41100,1,2,1:2:0:0:
480,190,41406,2,0,L|474:100,1,89.9999999999999,8|2,0:2|1:2,0:0:0:0:
400,47,42018,2,0,P|349:89|284:81,1,135,2|8,0:2|0:0,0:0:0:0:
211,134,42783,6,0,P|131:106|72:168,1,180,0|2,1:2|1:2,0:0:0:0:
106,299,43855,2,0,P|145:321|189:321,1,89.9999999999999,10|2,0:2|1:2,0:0:0:0:
257,263,44467,2,0,P|299:246|343:250,1,89.9999999999999,2|2,0:2|1:2,0:0:0:0:
343,114,45232,6,0,B|266:68|266:68|182:101,1,180,4|2,1:2|1:2,0:0:0:0:
102,210,46304,2,0,L|91:299,1,89.9999999999999,6|2,1:2|1:2,0:0:0:0:
159,356,46916,1,2,0:2:0:0:
224,294,47222,2,0,P|290:296|332:346,1,135,10|4,0:2|1:2,0:0:0:0:
69,70,56865,5,8,0:0:0:0:
207,185,57477,6,0,L|296:196,1,89.9999999999999,4|2,1:1|0:2,0:0:0:0:
370,144,58090,2,0,B|403:83|403:83|379:22,2,135,10|2|2,0:2|1:2|1:2,0:0:0:0:
414,221,59314,1,10,0:2:0:0:
373,301,59620,1,2,0:2:0:0:
287,271,59926,6,0,P|251:245|207:247,1,89.9999999999999,2|2,1:2|0:2,0:0:0:0:
167,166,60538,2,0,P|131:192|87:190,1,89.9999999999999,8|0,0:0|1:2,0:0:0:0:
54,105,61151,6,0,B|110:33|110:33|199:42,1,180,0|10,0:0|0:2,0:0:0:0:
274,89,62069,1,10,0:2:0:0:
353,47,62375,6,0,B|418:114|418:114|379:192,1,180,4|0,1:1|1:2,0:0:0:0:
255,324,63447,2,0,B|175:261|165:365|88:314,1,180,6|2,1:2|0:2,0:0:0:0:
46,234,64365,1,2,1:2:0:0:
85,153,64671,6,0,P|74:89|124:48,1,135,6|8,1:2|0:0,0:0:0:0:
206,83,65436,1,2,1:2:0:0:
328,26,65896,6,0,L|417:32,1,89.9999999999999,2|2,1:3|1:3,0:0:0:0:
439,119,66508,2,0,L|349:125,1,89.9999999999999,2|2,1:3|1:3,0:0:0:0:
95,290,69569,6,0,P|141:243|207:240,1,135,6|8,1:1|0:2,0:0:0:0:
273,300,70335,1,0,1:2:0:0:
380,219,70794,2,0,L|394:84,1,135,2|8,1:2|0:2,0:0:0:0:
326,24,71559,1,2,1:2:0:0:
211,95,72018,6,0,B|145:79|145:79|96:126,1,135,6|8,1:2|0:2,0:0:0:0:
39,195,72784,1,0,1:2:0:0:
119,303,73243,2,0,P|182:288|227:334,1,135,2|8,1:2|0:2,0:0:0:0:
296,277,74008,1,0,1:2:0:0:
426,313,74467,6,0,P|449:252|421:193,1,135,6|10,1:1|0:2,0:0:0:0:
364,121,75233,1,2,1:2:0:0:
246,56,75692,6,0,L|157:69,1,89.9999999999999,2|2,1:2|1:2,0:0:0:0:
154,159,76304,2,0,L|243:173,1,89.9999999999999,2|2,0:0|1:2,0:0:0:0:
309,113,76916,6,0,P|354:66|418:78,1,135,6|8,1:2|0:2,0:0:0:0:
470,151,77682,1,2,1:2:0:0:
411,273,78141,6,0,L|322:285,1,89.9999999999999,6|2,1:1|1:2,0:0:0:0:
242,327,78753,2,0,L|153:314,1,89.9999999999999,0|8,1:2|0:3,0:0:0:0:
73,356,79365,5,6,1:2:0:0:
56,131,80131,1,8,0:2:0:0:
235,117,80743,1,0,0:0:0:0:
249,296,81355,1,10,0:2:0:0:
428,282,81967,5,0,1:2:0:0:
414,102,82580,2,0,P|365:58|299:59,2,135,8|10|8,0:2|0:2|0:3,0:0:0:0:
468,174,83804,1,8,0:2:0:0:
391,285,84263,6,0,B|305:255|305:255|265:273,1,135,4|8,1:1|0:2,0:0:0:0:
190,323,85029,2,0,P|150:304|106:311,1,89.9999999999999,0|10,1:2|0:2,0:0:0:0:
42,246,85641,2,0,P|49:203|31:162,1,89.9999999999999,2|8,1:2|0:2,0:0:0:0:
93,99,86253,1,0,1:2:0:0:
214,38,86712,6,0,B|259:20|259:20|343:38,1,135,6|8,1:2|0:2,0:0:0:0:
402,105,87478,1,0,1:2:0:0:
420,238,87937,6,0,B|427:286|427:286|406:323,1,89.9999999999999,2|2,1:2|1:3,0:0:0:0:
319,350,88549,2,0,B|272:359|272:359|238:334,1,89.9999999999999,2|2,1:3|1:3,0:0:0:0:
128,255,89314,6,0,B|152:217|152:217|133:129,1,135,6|8,1:1|0:3,0:0:0:0:
241,48,90233,1,2,1:2:0:0:
318,95,90539,2,0,L|407:88,2,89.9999999999999,2|2|8,1:2|1:2|0:3,0:0:0:0:
255,159,91457,1,2,1:2:0:0:
167,134,91763,6,0,B|134:167|134:167|151:253,1,135,14|6,0:1|1:2,0:0:0:0:
256,344,92682,2,0,B|328:373|312:290|378:323,1,135,14|10,0:1|0:0,0:0:0:0:
461,215,93600,1,8,0:0:0:0:
486,129,93906,1,4,0:3:0:0:
427,60,94212,6,0,L|339:77,1,89.9999999999999,4|2,1:2|0:0,0:0:0:0:
256,43,94825,2,0,B|192:63|192:63|132:30,1,135,10|2,0:2|1:2,0:0:0:0:
62,145,95743,1,2,0:2:0:0:
25,227,96049,2,0,L|33:317,1,89.9999999999999,10|2,0:2|1:2,0:0:0:0:
113,357,96661,5,4,1:2:0:0:
177,293,96967,2,0,L|266:306,1,89.9999999999999,2|2,1:2|0:2,0:0:0:0:
349,342,97580,2,0,B|382:308|382:308|357:177,1,180,12|4,0:0|0:3,0:0:0:0:
344,87,98498,1,0,3:0:0:0:
272,32,98804,1,8,0:2:0:0:
204,91,99110,5,2,0:0:0:0:
256,192,102152,12,0,106436,0:0:0:0:
