osu file format v14

[General]
AudioFilename: audio.mp3
AudioLeadIn: 0
PreviewTime: 68498
Countdown: 0
SampleSet: Soft
StackLeniency: 0.7
Mode: 0
LetterboxInBreaks: 0
WidescreenStoryboard: 0

[Editor]
DistanceSpacing: 1.2
BeatDivisor: 8
GridSize: 8
TimelineZoom: 2.5

[Metadata]
Title:Dawn Blue
TitleUnicode:Dawn Blue
Artist:Mori Calliope
ArtistUnicode:Mori Calliope
Creator:Cynplytholowazy
Version:Atri's Parallel
Source:ホロライブ・オルタナティブ
Tags:cover corporation hololive production alternative holoalt ホロライブプロダクション ホロライブ オルタナティブ japanese pop jpop j-pop vtuber virtual youtuber バーチャル ユーチューバー holoen english holomyth dead beats デッドビーツ 森 カリオペ 森美声 もりかりおぺ ボンジュール鈴木 Bonjour Suzuki 高橋 浩一郎 Kouichiro Takahashi 鈴木Daichi秀行 Hideyuki Daichi teaser pv promotional video -Atri- Firis Mistlud Firis_Mistlud KuranteMelodii krt Mir frozz Wanpachi fedora fedora- Yuuki_Noa Yuuki Noa
BeatmapID:3025203
BeatmapSetID:1469465

[Difficulty]
HPDrainRate:7
CircleSize:4.5
OverallDifficulty:8.1
ApproachRate:9.2
SliderMultiplier:2
SliderTickRate:1

[Events]
//Background and Video events
Video,0,"pv.mp4"
0,0,"atri_bg.jpg",0,0
//Break Periods
//Storyboard Layer 0 (Background)
//Storyboard Layer 1 (Fail)
//Storyboard Layer 2 (Pass)
//Storyboard Layer 3 (Foreground)
//Storyboard Layer 4 (Overlay)
//Storyboard Sound Samples

[TimingPoints]
-1297,306.122448979592,4,2,1,60,1,0
2835,-100,4,2,1,40,0,0
3600,-133.333333333333,4,2,2,55,0,0
3677,-133.333333333333,4,2,2,50,0,0
4060,-200,4,2,2,50,0,0
4672,-200,4,2,1,50,0,0
4825,-133.333333333333,4,2,1,50,0,0
5437,-133.333333333333,4,2,2,38,0,0
5590,-133.333333333333,4,2,2,40,0,0
5743,-133.333333333333,4,2,2,42,0,0
5896,-133.333333333333,4,2,2,44,0,0
6049,-133.333333333333,4,2,2,50,0,0
7121,-133.333333333333,4,2,1,50,0,0
7886,-133.333333333333,4,2,2,38,0,0
8039,-133.333333333333,4,2,2,40,0,0
8192,-133.333333333333,4,2,2,42,0,0
8345,-133.333333333333,4,2,2,44,0,0
8498,-133.333333333333,4,2,2,55,0,0
8575,-133.333333333333,4,2,2,50,0,0
9723,-133.333333333333,4,2,1,50,0,0
10335,-133.333333333333,4,2,2,38,0,0
10488,-133.333333333333,4,2,2,40,0,0
10641,-133.333333333333,4,2,2,42,0,0
10794,-133.333333333333,4,2,2,44,0,0
10947,-133.333333333333,4,2,2,50,0,0
11942,-133.333333333333,4,2,1,50,0,0
12784,-133.333333333333,4,2,2,38,0,0
12937,-133.333333333333,4,2,2,40,0,0
13090,-133.333333333333,4,2,2,42,0,0
13243,-133.333333333333,4,2,2,44,0,0
13396,-133.333333333333,4,2,2,50,0,0
13473,-133.333333333333,4,2,1,50,0,0
14009,-100,4,2,1,54,0,0
14468,-90.9090909090909,4,2,2,54,0,0
14544,-90.9090909090909,4,2,1,54,0,0
15539,-100,4,2,1,54,0,0
15845,306.122448979592,4,2,1,58,1,0
15921,-100,4,2,1,54,0,0
17222,-100,4,2,1,58,0,0
17375,-100,4,2,1,54,0,0
18293,-100,4,2,1,58,0,0
18447,-100,4,2,1,54,0,0
19212,-100,4,2,1,58,0,0
19288,-100,4,2,1,54,0,0
20742,-100,4,2,1,58,0,0
20819,-100,4,2,1,54,0,0
21814,-125,4,2,1,54,0,0
23191,-90.9090909090909,4,2,1,54,0,0
24263,-83.3333333333333,4,2,1,54,0,0
25334,-133.333333333333,4,2,1,54,0,0
25640,-133.333333333333,4,2,2,54,0,0
25793,-222.222222222222,4,2,2,54,0,0
26253,-125,4,2,2,54,0,0
26865,-125,4,2,2,48,0,0
27477,-250,4,2,2,70,0,0
28090,306.122448979592,4,2,1,65,1,0
28090,-200,4,2,1,65,0,0
28166,-200,4,2,1,60,0,0
36508,-100,4,2,1,60,0,0
37885,-100,4,2,1,68,0,0
37962,-100,4,2,1,64,0,0
47681,-166.666666666667,4,2,1,60,0,0
47758,-166.666666666667,4,2,1,54,0,0
52579,-200,4,2,1,54,0,0
53804,-222.222222222222,4,2,1,54,0,0
55028,-166.666666666667,4,2,1,54,0,0
56253,-250,4,2,1,54,0,0
56559,-84.7457627118644,4,2,2,65,0,0
56635,-84.7457627118644,4,2,1,60,0,0
57477,-100,4,2,1,65,0,0
57554,-100,4,2,1,60,0,0
59314,-83.3333333333333,4,2,1,60,0,0
59926,-100,4,2,1,60,0,0
61610,-83.3333333333333,4,2,1,60,0,0
62375,-100,4,2,1,68,0,0
62452,-100,4,2,1,65,0,0
63447,-90.9090909090909,4,2,1,65,0,0
64671,-86.9565217391304,4,2,1,65,0,0
65896,-76.9230769230769,4,2,1,70,0,0
66125,-76.9230769230769,4,2,1,5,0,0
66202,-76.9230769230769,4,2,1,70,0,0
66431,-76.9230769230769,4,2,1,5,0,0
66508,-76.9230769230769,4,2,1,70,0,0
66737,-76.9230769230769,4,2,1,5,0,0
66814,-76.9230769230769,4,2,1,70,0,0
67044,-76.9230769230769,4,2,1,5,0,0
67120,-166.666666666667,4,2,1,70,0,0
67273,-166.666666666667,4,2,2,42,0,0
68574,-166.666666666667,4,2,2,46,0,0
68651,-166.666666666667,4,2,2,50,0,0
68727,-166.666666666667,4,2,2,54,0,0
68804,-166.666666666667,4,2,2,60,0,0
69110,-100,4,2,2,70,0,0
69263,-100,4,2,1,70,0,0
69569,-83.3333333333333,4,2,1,90,0,1
69646,-83.3333333333333,4,2,1,85,0,1
69723,306.122448979592,4,2,1,85,1,1
69723,-83.3333333333333,4,2,1,85,0,1
75233,-90.9090909090909,4,2,1,85,0,1
76304,-83.3333333333333,4,2,1,85,0,1
76916,-90.9090909090909,4,2,1,85,0,1
77376,-100,4,2,1,85,0,1
78141,-83.3333333333333,4,2,1,85,0,1
79365,-100,4,2,1,82,0,0
79442,-100,4,2,1,70,0,0
84263,-83.3333333333333,4,2,1,82,0,1
84340,-83.3333333333333,4,2,1,78,0,1
87937,-74.0740740740741,4,2,1,78,0,1
88166,-74.0740740740741,4,2,1,5,0,1
88243,-74.0740740740741,4,2,1,78,0,1
88473,-74.0740740740741,4,2,1,5,0,1
88549,-74.0740740740741,4,2,1,78,0,1
88779,-74.0740740740741,4,2,1,5,0,1
88855,-125,4,2,1,78,0,1
89161,-200,4,2,1,78,0,1
89238,-200,4,2,1,5,0,1
89314,-100,4,2,1,60,0,0
89391,-100,4,2,1,66,0,0
90692,-100,4,2,1,72,0,0
90845,-100,4,2,1,66,0,0
91763,-100,4,2,1,72,0,0
91917,-100,4,2,1,66,0,0
92222,-100,4,2,1,72,0,0
92375,-100,4,2,1,66,0,0
92682,-100,4,2,1,72,0,0
92758,-100,4,2,1,66,0,0
94212,-100,4,2,1,72,0,0
94289,-100,4,2,1,66,0,0
95284,-125,4,2,1,66,0,0
96661,-90.9090909090909,4,2,1,66,0,0
97733,-111.111111111111,4,2,1,66,0,0
97885,-111.111111111111,4,2,1,40,0,0
98038,-111.111111111111,4,2,1,48,0,0
98115,-111.111111111111,4,2,1,5,0,0
98192,-90.9090909090909,4,2,1,56,0,0
98268,-90.9090909090909,4,2,1,5,0,0
98345,-76.9230769230769,4,2,1,64,0,0
98421,-76.9230769230769,4,2,1,5,0,0
98498,-58.8235294117647,4,2,1,68,0,0
98575,-58.8235294117647,4,2,1,5,0,0
98651,-52.6315789473684,4,2,1,68,0,0
98728,-52.6315789473684,4,2,1,5,0,0
98804,-47.6190476190476,4,2,1,72,0,0
98881,-47.6190476190476,4,2,1,5,0,0
98957,-40,4,2,1,72,0,0
99034,-40,4,2,1,5,0,0
99110,-183.975219911189,4,2,1,50,0,0
99187,-185.185185185185,4,2,1,50,0,0
100029,319.148936170213,4,2,1,50,1,0
100507,322.58064516129,4,2,1,40,1,0
101474,338.983050847458,4,2,1,30,1,0
102151,306.122448979592,4,2,1,20,1,0
102171,-185.185185185185,4,2,1,20,0,0
102248,-185.185185185185,4,2,1,20,0,0
106436,-185.185185185185,4,2,1,5,0,0

[Colours]
Combo1 : 145,145,255
Combo2 : 121,255,121
Combo3 : 255,128,255
Combo4 : 255,157,111

[HitObjects]
256,192,1151,12,2,3447,0:0:0:0:
53,20,3600,6,0,B|52:108|106:69|116:167,1,150.000005722046,4|0,3:1|0:0,0:0:0:0:
231,117,4060,2,0,B|179:146|220:164|166:203,1,100,0|0,3:2|0:0,0:0:0:0:
107,223,4519,2,0,L|48:217,1,50,2|2,3:2|0:0,0:0:0:0:
62,374,4825,6,0,B|72:308|123:283|180:293|180:293|143:309|136:347,2,225.000008583069,0|0|0,0:0|0:0|3:0,0:0:0:0:
262,257,6049,5,0,3:2:0:0:
263,345,6203,2,0,P|247:297|263:257,1,75.0000028610231
356,366,6509,2,0,P|359:309|423:235,1,150.000005722046,0|0,3:2|0:0,0:0:0:0:
493,231,6968,1,2,3:2:0:0:
493,231,7121,1,2,0:0:0:0:
404,71,7274,5,0,0:0:0:0:
465,120,7427,1,2,0:0:0:0:
434,142,7580,1,2,0:0:0:0:
396,146,7733,1,2,0:0:0:0:
313,82,7886,5,0,3:2:0:0:
320,170,8039,1,0,3:2:0:0:
242,21,8192,1,0,3:2:0:0:
235,109,8345,1,0,3:2:0:0:
80,8,8498,6,0,P|101:51|101:163,1,150.000005722046,4|0,3:2|0:0,0:0:0:0:
35,134,8958,2,0,P|7:189|94:195,1,150.000005722046,2|0,3:2|0:0,0:0:0:0:
126,271,9417,2,0,B|135:253|157:241|157:241|158:220|130:197,1,75.0000028610231,2|0,3:2|0:0,0:0:0:0:
4,300,9723,6,0,B|90:296|62:365|162:344,1,150.000005722046,2|0,0:0|0:0,0:0:0:0:
196,300,10182,2,0,B|302:290|302:290|243:319,1,150.000005722046,2|0,0:0|3:2,0:0:0:0:
214,374,10641,1,0,3:2:0:0:
256,216,10794,1,0,3:2:0:0:
445,349,10947,5,2,3:2:0:0:
440,364,11254,5,0,0:0:0:0:
390,280,11407,1,0,3:2:0:0:
374,285,11713,5,0,0:0:0:0:
399,176,11866,1,0,3:2:0:0:
380,168,12172,5,0,0:0:0:0:
453,71,12325,1,0,0:0:0:0:
486,135,12478,2,0,B|496:184|466:167|480:239,1,75.0000028610231
390,280,12784,5,0,3:2:0:0:
396,205,12937,1,0,3:2:0:0:
384,130,13090,1,0,3:2:0:0:
353,61,13243,1,0,3:2:0:0:
256,168,13396,6,0,B|240:104|272:120|256:48,1,112.500004291535,0|0,3:2|0:0,0:0:0:0:
256,40,13703,1,0,0:0:0:0:
64,98,13856,2,0,L|115:100,1,37.5000014305115,0|0,1:2|1:2,0:0:0:0:
155,37,14009,6,0,B|177:75|177:75|164:193,1,150,8|0,0:0|0:0,0:0:0:0:
162,195,14315,2,0,L|107:191,1,50,8|0,0:0|0:0,0:0:0:0:
48,345,14468,6,0,B|-17:288|38:186|81:253|60:283|20:277,1,165.000005035401,2|0,1:3|0:0,0:0:0:0:
36,277,14774,1,8,0:3:0:0:
132,278,14927,1,4,0:3:0:0:
183,352,15080,1,0,1:3:0:0:
174,162,15233,5,8,0:0:0:0:
238,279,15386,1,0,1:3:0:0:
344,186,15539,6,0,P|352:241|311:267,1,100,2|0,0:0|0:0,0:0:0:0:
494,358,15845,6,0,B|474:357|452:377|452:377|477:250,1,150,6|0,1:2|0:0,0:0:0:0:
482,265,16151,1,0,0:0:0:0:
436,111,16304,2,0,B|443:173|417:152|430:221,1,100,10|0,0:2|0:0,0:0:0:0:
512,195,16610,1,4,0:3:0:0:
358,113,16763,2,0,B|330:86|341:63|341:63|365:74|361:114,1,100,0|0,1:2|1:2,0:0:0:0:
486,46,17069,5,2,1:2:0:0:
306,176,17222,2,0,P|248:171|200:46,1,200,12|0,0:0|0:0,0:0:0:0:
202,40,17605,1,4,0:3:0:0:
212,29,17682,1,8,0:3:0:0:
218,122,17835,1,4,0:3:0:0:
123,127,17987,1,0,1:2:0:0:
118,32,18140,1,0,1:2:0:0:
19,207,18293,5,8,0:0:0:0:
195,222,18447,2,0,B|136:217|161:243|92:240,1,100,8|4,0:0|0:3,0:0:0:0:
33,288,18753,5,8,0:3:0:0:
96,355,18906,2,0,B|72:339|47:340|47:340|23:320|31:285,1,100,4|4,0:3|0:3,0:0:0:0:
66,25,19212,6,0,P|99:91|94:165,1,150,4|0,1:2|0:0,0:0:0:0:
87,178,19518,1,0,1:2:0:0:
177,76,19671,2,0,P|214:32|261:39,1,100,8|0,0:0|0:0,0:0:0:0:
315,89,19977,1,0,1:2:0:0:
509,32,20130,5,8,0:0:0:0:
406,141,20283,1,8,0:3:0:0:
323,15,20436,2,0,P|343:69|313:107,1,100,4|0,0:3|1:2,0:0:0:0:
509,270,20742,6,0,L|479:271,1,25,4|0,1:2|0:0,0:0:0:0:
506,280,20896,2,0,L|476:281,1,25,0|0,1:0|0:0,0:0:0:0:
410,367,21049,6,0,B|402:359|402:359|395:250,1,100,2|0,0:0|1:2,0:0:0:0:
445,209,21355,1,10,0:2:0:0:
326,372,21508,2,0,B|332:362|332:362|324:254,1,100,2|0,0:0|1:2,0:0:0:0:
256,152,21814,6,0,B|322:151|300:188|367:190,1,120,2|0,1:2|0:0,0:0:0:0:
375,181,22120,1,10,0:2:0:0:
390,91,22273,2,0,P|388:57|375:6,1,80,2|2,0:2|1:2,0:0:0:0:
137,181,22579,5,10,0:2:0:0:
256,56,22732,1,2,0:2:0:0:
256,152,22885,1,2,0:2:0:0:
122,91,23038,1,2,0:2:0:0:
2,260,23191,6,0,L|33:261,1,27.5000008392334,4|0,1:2|0:0,0:0:0:0:
5,270,23345,2,0,L|36:271,1,27.5000008392334
105,361,23498,6,0,B|113:352|113:352|120:238,1,110.000003356934,2|8,1:2|0:0,0:0:0:0:
64,198,23804,1,2,0:2:0:0:
193,366,23957,2,0,B|185:356|185:356|194:242,1,110.000003356934,2|12,1:2|0:0,0:0:0:0:
114,54,24263,6,0,B|125:22|99:3|99:3|55:30|50:85|106:139,1,179.999994506836,2|0,0:2|0:0,0:0:0:0:
95,120,24569,1,8,0:3:0:0:
301,87,24722,1,4,0:3:0:0:
214,206,24875,1,0,1:2:0:0:
174,204,24952,1,0,3:0:0:0:
136,187,25028,5,8,0:0:0:0:
181,0,25181,1,8,0:3:0:0:
282,164,25334,2,0,B|291:184|289:202|289:202|282:217|286:251,1,75.0000028610231,4|0,0:3|0:0,0:0:0:0:
475,339,25640,5,8,0:2:0:0:
475,339,25793,2,0,B|477:333|477:333|470:281,1,44.999998626709,0|0,1:2|1:2,0:0:0:0:
398,278,26100,5,0,1:2:0:0:
398,278,26253,2,0,B|385:321|403:317|392:379,1,80,8|0,0:0|0:0,0:0:0:0:
315,382,26559,5,0,1:2:0:0:
321,235,26712,1,0,1:2:0:0:
321,235,26865,1,0,0:0:0:0:
207,311,27018,5,8,0:0:0:0:
217,316,27095,1,8,0:0:0:0:
228,317,27171,1,8,0:0:0:0:
305,308,27324,1,0,1:2:0:0:
503,374,27477,6,0,P|476:310|479:227,1,140,8|0,0:1|0:0,0:0:0:0:
478,138,28090,6,0,B|506:87|488:50|488:50|478:58,2,100,4|0|0,1:1|1:2|1:2,0:0:0:0:
478,138,29008,2,0,L|426:134,1,50,2|2,1:2|0:2,0:0:0:0:
345,48,29314,5,2,1:2:0:0:
345,48,29467,2,0,P|359:81|354:100,1,50,2|0,0:2|1:2,0:0:0:0:
295,137,29773,2,0,B|241:133|256:163|183:156,2,100,2|2|2,0:2|0:2|0:2,0:0:0:0:
210,85,30538,6,0,P|170:52|184:7,1,100,2|2,1:2|1:2,0:0:0:0:
95,41,30998,2,0,P|86:92|40:102,1,100,2|2,0:2|0:2,0:0:0:0:
46,102,31610,6,0,P|82:108|146:153,1,100,2|0,0:2|0:0,0:0:0:0:
199,186,32069,1,2,1:2:0:0:
199,186,32222,2,0,L|197:246,1,50,2|0,0:2|1:2,0:0:0:0:
120,212,32528,2,0,L|118:272,1,50,2|0,0:2|1:2,0:0:0:0:
267,330,32834,1,8,0:0:0:0:
267,330,32987,6,0,P|231:336|167:381,2,100,2|0|2,1:3|1:2|1:2,0:0:0:0:
331,374,33753,1,2,0:2:0:0:
383,315,33906,1,2,1:2:0:0:
308,225,34059,6,0,P|325:178|320:162,1,50,2|0,0:2|1:2,0:0:0:0:
406,192,34365,2,0,P|388:145|374:136,1,50,2|0,0:2|1:2,0:0:0:0:
302,64,34671,6,0,P|294:93|311:108,1,50,2|0,0:2|1:2,0:0:0:0:
319,109,34977,2,0,P|344:92|341:70,1,50,2|0,0:2|1:2,0:0:0:0:
342,5,35283,1,2,0:2:0:0:
216,81,35436,6,0,B|161:76|177:109|110:105,1,100,2|2,1:2|1:2,0:0:0:0:
38,44,35896,2,0,P|54:73|54:95,1,50,2|0,0:2|1:2,0:0:0:0:
74,155,36202,2,0,P|58:184|40:196,1,50,2|0,0:2|1:2,0:0:0:0:
35,346,36508,6,0,L|34:288,1,50,10|0,0:2|0:0,0:0:0:0:
34,296,36814,1,0,1:2:0:0:
158,356,36967,2,0,B|130:374|130:374|100:320|142:250,1,150,8|0,0:0|0:0,0:0:0:0:
146,252,37273,1,0,1:2:0:0:
249,327,37426,5,0,3:0:0:0:
261,294,37503,1,0,3:0:0:0:
290,276,37579,1,10,0:2:0:0:
328,352,37732,5,0,3:0:0:0:
392,323,37809,1,0,3:0:0:0:
454,353,37885,2,0,P|426:302|424:195,1,150,4|0,1:1|0:0,0:0:0:0:
465,146,38192,2,0,P|469:197|424:216,1,100,8|0,0:0|0:0,0:0:0:0:
405,23,38498,1,0,1:2:0:0:
390,140,38651,1,0,1:2:0:0:
390,140,38957,6,0,B|313:134|331:185|237:171,1,150,8|0,0:0|0:0,0:0:0:0:
225,159,39263,1,2,1:2:0:0:
91,26,39416,2,0,L|198:37,1,100,8|2,0:0|0:2,0:0:0:0:
269,87,39722,1,0,1:2:0:0:
134,115,39875,1,2,1:2:0:0:
175,288,40028,2,0,P|147:241|94:246,1,100,8|2,0:0|0:2,0:0:0:0:
37,345,40258,1,0,0:0:0:0:
55,335,40334,6,0,B|121:342|121:342|134:355|134:355|211:366,1,150,2|0,1:2|0:0,0:0:0:0:
219,347,40641,1,10,0:2:0:0:
37,264,40794,2,0,B|25:252|25:252|31:158,1,100,2|0,0:2|1:2,0:0:0:0:
44,13,41100,1,2,1:2:0:0:
44,13,41406,6,0,P|63:63|62:111,1,100,8|0,0:2|0:0,0:0:0:0:
30,169,41712,1,2,1:2:0:0:
224,35,41865,2,0,P|166:43|153:132,1,150,8|0,0:0|0:0,0:0:0:0:
160,143,42171,1,0,1:2:0:0:
323,88,42324,1,2,1:2:0:0:
262,214,42477,2,0,P|243:164|244:116,1,100,8|2,0:0|0:2,0:0:0:0:
434,13,42783,6,0,B|429:100|429:100|431:105|431:105|427:175,1,150,0|0,1:2|0:0,0:0:0:0:
478,212,43090,2,0,B|451:225|443:246|443:246|432:230|375:217,1,100,8|0,0:0|0:0,0:0:0:0:
292,357,43396,1,2,1:2:0:0:
356,165,43549,1,2,1:2:0:0:
507,276,43702,1,2,0:2:0:0:
287,282,43855,6,0,B|282:254|282:254|359:254|365:333,1,150,10|0,0:2|0:0,0:0:0:0:
368,350,44161,1,2,1:2:0:0:
195,266,44314,1,8,0:0:0:0:
76,376,44467,2,0,P|126:359|132:315,1,100,2|0,0:2|1:2,0:0:0:0:
77,267,44773,1,2,1:2:0:0:
168,118,44926,2,0,P|171:37|177:7,1,100,8|2,0:0|0:2,0:0:0:0:
37,180,45232,6,0,B|50:199|50:199|213:188|213:188|231:156,2,200,4|8|2,1:2|0:0|1:2,0:0:0:0:
95,126,45998,1,2,1:2:0:0:
195,266,46151,1,8,0:0:0:0:
387,118,46304,6,0,P|328:121|317:82,1,100,6|0,1:2|0:0,0:0:0:0:
362,38,46610,1,2,1:2:0:0:
337,229,46763,6,0,P|317:284|309:345,1,100,8|2,0:0|0:2,0:0:0:0:
313,339,46993,1,0,3:0:0:0:
317,353,47069,1,8,0:0:0:0:
435,278,47222,1,10,0:2:0:0:
435,278,47375,1,4,0:3:0:0:
129,331,47681,6,0,B|90:326|44:352|76:369|48:408|-20:379|-10:331|40:311|44:352,2,179.999994506836,4|0|0,1:2|0:0|0:0,0:0:0:0:
128,330,48906,5,0,0:0:0:0:
59,271,49212,2,0,P|30:266|1:273,1,59.9999981689454,2|0,0:2|0:0,0:0:0:0:
0,273,49518,6,0,B|36:257|49:200|49:200|68:246|127:253,1,179.999994506836,2|0,0:2|0:0,0:0:0:0:
203,343,50130,6,0,B|213:270|188:290|203:216,1,119.999996337891,2|2,0:2|0:2,0:0:0:0:
253,180,50590,2,0,P|228:162|193:155,1,59.9999981689454,2|0,0:2|0:0,0:0:0:0:
119,175,50896,2,0,P|130:135|129:52,1,119.999996337891,2|0,0:2|0:0,0:0:0:0:
126,65,51355,5,2,0:2:0:0:
155,70,51508,1,2,0:2:0:0:
182,62,51661,1,2,0:2:0:0:
200,38,51814,1,2,0:2:0:0:
257,127,51967,5,2,0:2:0:0:
276,95,52120,1,2,0:2:0:0:
251,101,52273,1,2,0:2:0:0:
283,121,52426,1,0,0:0:0:0:
387,73,52579,6,0,P|362:115|357:236,1,150,2|0,0:2|0:0,0:0:0:0:
327,278,53192,2,0,P|377:279|414:234,1,100,2|2,0:2|0:2,0:0:0:0:
496,189,53804,6,0,P|433:198|422:260,1,134.999995880127,2|0,0:2|0:0,0:0:0:0:
440,324,54416,2,0,P|479:301|481:242,1,89.9999972534181,2|2,0:2|0:2,0:0:0:0:
491,381,55028,6,0,P|434:361|360:352,1,119.999996337891,2|2,0:2|0:2,0:0:0:0:
356,286,55487,2,0,B|289:308|338:350|257:363,1,119.999996337891,2|0,0:2|0:0,0:0:0:0:
201,327,55947,2,0,B|195:334|195:334|199:386,1,59.9999981689454,2|0,0:2|0:0,0:0:0:0:
85,285,56253,6,0,B|82:276|82:276|36:252,1,60,2|0,0:2|0:0,0:0:0:0:
37,252,56559,6,0,B|23:264|23:264|160:241|160:241|164:234|164:234|160:209,1,176.999993788147,2|0,0:3|0:0,0:0:0:0:
153,211,56865,6,0,L|157:172,1,29.4999989646912,8|0,0:0|0:0,0:0:0:0:
81,176,57018,5,8,0:3:0:0:
46,109,57171,1,4,0:3:0:0:
56,33,57324,1,4,0:3:0:0:
218,108,57477,5,4,1:1:0:0:
128,104,57630,2,0,L|237:96,1,100,0|2,1:2|0:2,0:0:0:0:
318,19,57936,5,0,1:2:0:0:
228,23,58089,2,0,L|337:31,1,100,10|2,0:2|0:2,0:0:0:0:
394,134,58396,5,0,1:2:0:0:
304,130,58549,2,0,L|413:122,1,100,2|0,1:2|0:0,0:0:0:0:
480,87,58855,5,2,1:2:0:0:
429,9,59008,2,0,P|473:33|462:94,1,100,2|0,1:2|0:0,0:0:0:0:
373,208,59314,6,0,P|446:215|451:266,1,119.999996337891,10|0,0:2|0:0,0:0:0:0:
368,288,59620,2,0,P|337:221|379:191,1,119.999996337891,2|0,0:2|0:0,0:0:0:0:
458,365,59926,5,2,1:2:0:0:
368,361,60079,2,0,L|477:353,1,100,0|2,1:2|0:2,0:0:0:0:
352,267,60385,5,2,1:2:0:0:
262,271,60538,1,8,0:0:0:0:
262,271,60692,2,0,L|371:279,1,100,2|0,0:2|1:2,0:0:0:0:
130,327,60998,1,2,1:2:0:0:
199,357,61151,5,0,0:0:0:0:
122,253,61304,1,0,1:2:0:0:
71,372,61457,1,2,1:2:0:0:
71,372,61610,1,0,0:0:0:0:
132,334,61763,6,0,P|152:296|136:260,1,59.9999981689454,10|0,0:2|0:0,0:0:0:0:
20,163,61916,2,0,P|42:199|82:203,1,59.9999981689454,0|0,0:0|1:2,0:0:0:0:
195,143,62069,6,0,B|213:14|213:14|186:66,1,179.999994506836,10|0,0:2|0:0,0:0:0:0:
116,147,62375,6,0,B|199:145|161:203|263:204,1,150,4|0,1:1|0:0,0:0:0:0:
268,187,62681,1,10,0:2:0:0:
415,128,62834,1,2,0:2:0:0:
324,242,62987,1,0,1:2:0:0:
387,22,63141,2,0,B|388:84|345:55|344:132,1,100,2|8,1:2|0:0,0:0:0:0:
433,338,63447,6,0,B|400:345|380:367|380:367|401:249,1,165.000005035401,6|0,1:2|0:0,0:0:0:0:
413,248,63753,1,2,1:2:0:0:
501,374,63906,1,8,0:0:0:0:
382,182,64059,2,0,B|426:161|482:179|441:212|499:229|540:198|551:167|478:99|465:185,1,220.000006713867,2|2,0:2|1:2,0:0:0:0:
338,240,64518,1,8,0:0:0:0:
253,19,64671,6,0,B|249:90|249:90|259:107|259:107|255:196,1,172.500003290176,6|0,1:2|0:0,0:0:0:0:
255,205,64977,1,0,1:2:0:0:
61,65,65130,2,0,P|58:130|108:159,1,115.000002193451,8|0,0:0|0:0,0:0:0:0:
342,117,65436,1,2,1:2:0:0:
208,268,65590,1,2,1:2:0:0:
134,27,65743,1,10,0:2:0:0:
254,330,65896,6,0,B|273:357|236:383|185:380|182:273|266:326|248:232,1,194.999991073609,2|0,1:3|0:0,0:0:0:0:
257,42,66202,6,0,B|239:16|276:-8|325:-6|328:99|245:47|263:141,1,194.999991073609,2|0,1:3|0:0,0:0:0:0:
111,184,66508,6,0,B|85:204|59:166|61:117|168:113|116:197|210:178,1,194.999991073609,2|0,1:3|0:0,0:0:0:0:
301,193,66814,6,0,B|394:175|343:259|450:256|453:207|426:169|399:189,1,194.999991073609,2|0,1:3|0:0,0:0:0:0:
468,10,67120,5,0,0:0:0:0:
468,10,67273,2,0,P|439:67|452:138,1,119.999996337891,8|2,0:2|1:2,0:0:0:0:
495,177,67732,1,2,1:2:0:0:
370,126,67885,1,8,0:2:0:0:
434,330,68192,5,2,1:2:0:0:
488,280,68345,2,0,P|447:259|414:258,1,59.9999981689454,8|8,0:2|0:2,0:0:0:0:
366,307,68651,1,8,0:2:0:0:
351,318,68727,1,8,0:2:0:0:
333,318,68804,1,2,1:2:0:0:
265,279,68957,1,0,0:0:0:0:
154,373,69110,6,0,L|159:323,1,50,8|0,0:1|0:0,0:0:0:0:
188,105,69263,1,2,1:2:0:0:
165,319,69416,1,8,0:2:0:0:
52,127,69569,6,0,B|157:126|99:190|233:187,1,179.999994506836,6|0,1:1|0:0,0:0:0:0:
244,176,69876,1,0,1:2:0:0:
98,281,70029,2,0,B|77:291|77:291|42:250|79:192,1,119.999996337891,8|0,0:2|0:0,0:0:0:0:
259,59,70335,1,0,1:2:0:0:
34,134,70488,1,0,1:2:0:0:
197,256,70641,1,10,0:2:0:0:
363,51,70794,6,0,B|339:82|339:82|347:227,1,179.999994506836,2|0,1:2|0:0,0:0:0:0:
370,240,71100,1,0,1:2:0:0:
250,366,71253,2,0,P|290:299|332:296,1,119.999996337891,8|0,0:2|0:0,0:0:0:0:
426,174,71559,1,2,1:2:0:0:
485,366,71712,2,0,P|406:364|383:329,1,119.999996337891,2|8,1:2|0:2,0:0:0:0:
445,52,72018,6,0,P|466:122|388:185,1,179.999994506836,6|0,1:2|0:0,0:0:0:0:
362,179,72325,1,0,1:2:0:0:
202,55,72478,1,8,0:2:0:0:
265,251,72631,1,0,0:0:0:0:
328,54,72784,1,0,1:2:0:0:
161,175,72937,1,0,1:2:0:0:
350,324,73090,1,10,0:2:0:0:
36,363,73243,6,0,B|144:371|102:311|218:315,1,179.999994506836,2|0,1:2|0:0,0:0:0:0:
233,323,73549,1,0,1:2:0:0:
137,312,73702,1,8,0:2:0:0:
41,293,73855,1,0,0:0:0:0:
138,186,74008,5,0,1:2:0:0:
66,198,74161,1,0,1:2:0:0:
210,173,74314,1,10,0:2:0:0:
71,48,74467,6,0,B|63:13|21:13|21:13|-5:41|-7:100|66:133,1,179.999994506836,6|0,1:1|0:0,0:0:0:0:
60,126,74774,1,2,1:2:0:0:
143,10,74927,1,10,0:2:0:0:
271,92,75080,1,2,0:0:0:0:
191,218,75233,6,0,B|195:167|195:167|192:159|192:159|198:99,1,110.000003356934,2|0,1:2|1:2,0:0:0:0:
221,43,75539,1,8,0:2:0:0:
417,164,75692,6,0,P|365:134|330:167,1,110.000003356934,2|0,1:2|0:0,0:0:0:0:
319,291,75998,2,0,L|431:283,1,110.000003356934,2|8,1:2|0:2,0:0:0:0:
256,131,76304,6,0,P|203:109|156:147,1,119.999996337891,2|0,0:0|1:2,0:0:0:0:
136,329,76610,2,0,L|258:321,1,119.999996337891,2|8,1:2|0:2,0:0:0:0:
469,183,76916,6,0,P|389:124|434:56,1,165.000005035401,6|0,1:2|0:0,0:0:0:0:
425,95,77223,1,0,1:2:0:0:
395,303,77376,6,0,P|435:254|474:259,1,100,8|0,0:2|0:0,0:0:0:0:
432,363,77682,2,0,P|392:372|373:364,1,50,2|0,1:2|0:0,0:0:0:0:
317,263,77835,2,0,P|379:273|394:310,1,100,2|10,1:2|0:2,0:0:0:0:
199,330,78141,6,0,B|208:258|208:258|211:253|211:253|223:147,1,179.999994506836,6|0,1:1|0:0,0:0:0:0:
203,128,78447,5,2,1:2:0:0:
486,175,78600,1,8,0:2:0:0:
260,213,78753,5,0,1:2:0:0:
421,96,78906,1,8,0:2:0:0:
340,156,79059,5,8,0:3:0:0:
343,167,79212,1,4,0:3:0:0:
146,9,79365,6,0,P|133:92|59:79,1,150,6|0,1:2|0:0,0:0:0:0:
61,79,79671,1,0,1:2:0:0:
256,144,79825,1,0,1:2:0:0:
256,144,80131,2,0,B|243:79|269:98|256:24,2,100,8|0|0,0:2|0:0|1:2,0:0:0:0:
130,211,80590,6,0,P|75:227|71:268,1,100,0|0,1:2|0:0,0:0:0:0:
153,278,80896,2,0,P|166:222|133:198,1,100,8|2,0:2|0:2,0:0:0:0:
88,139,81202,1,2,1:2:0:0:
48,349,81355,6,0,B|24:329|24:329|104:223|254:279|254:279|235:324,1,300,10|2,0:2|0:0,0:0:0:0:
249,293,81967,5,0,1:2:0:0:
378,365,82120,2,0,P|426:352|436:300,1,100,2|0,1:2|0:0,0:0:0:0:
486,241,82427,1,2,1:2:0:0:
336,275,82580,2,0,P|328:347|395:373,1,150,8|0,0:2|0:0,0:0:0:0:
413,365,82886,1,0,1:2:0:0:
343,201,83039,6,0,B|286:194|286:194|306:211|306:211|330:205,1,100,10|0,0:2|0:0,0:0:0:0:
477,163,83345,2,0,B|414:172|414:172|393:140|393:140|338:131,1,150,8|0,0:2|0:0,0:0:0:0:
320,129,83651,1,4,0:3:0:0:
212,10,83804,5,8,0:2:0:0:
216,39,83957,1,12,0:3:0:0:
220,68,84110,1,12,0:3:0:0:
55,196,84263,6,0,B|151:210|122:123|233:140,1,179.999994506836,4|0,1:1|0:0,0:0:0:0:
245,151,84569,1,0,1:2:0:0:
72,52,84723,2,0,B|81:17|55:-2|55:-2|5:48|70:138,1,179.999994506836,8|0,0:2|0:0,0:0:0:0:
75,126,85029,1,0,1:2:0:0:
202,216,85182,1,2,1:2:0:0:
88,384,85335,2,0,B|94:319|94:319|97:314|97:314|101:253,1,119.999996337891,10|2,0:2|0:2,0:0:0:0:
317,45,85641,5,2,1:2:0:0:
245,151,85794,1,0,1:2:0:0:
318,247,85947,1,8,0:2:0:0:
442,129,86100,2,0,B|373:128|402:170|323:163,1,119.999996337891,2|0,0:2|1:2,0:0:0:0:
226,61,86406,1,2,1:2:0:0:
456,138,86559,1,8,0:2:0:0:
313,383,86712,6,0,B|353:310|434:326|434:326|416:357,1,179.999994506836,6|0,1:2|0:0,0:0:0:0:
405,384,87018,1,0,1:2:0:0:
373,246,87171,2,0,B|387:182|357:195|377:116,1,119.999996337891,8|0,0:2|0:0,0:0:0:0:
397,30,87478,1,0,1:2:0:0:
305,100,87631,1,2,1:2:0:0:
500,212,87784,1,10,0:2:0:0:
271,196,87937,6,0,B|245:179|229:154|230:137|259:81|199:65|166:90|160:130|206:158|231:138,1,202.500000772476,2|0,1:2|0:0,0:0:0:0:
88,136,88243,6,0,B|113:122|144:120|157:130|191:182|235:139|230:97|198:72|151:98|156:130,1,202.500000772476,2|0,1:3|0:0,0:0:0:0:
230,8,88549,6,0,B|227:36|214:64|199:71|136:73|151:133|189:150|228:135|229:82|199:70,1,202.500000772476,2|0,1:3|0:0,0:0:0:0:
183,210,88855,6,0,B|163:277|206:254|182:356,1,120,2|0,1:3|0:0,0:0:0:0:
183,339,89161,2,0,L|151:332,1,25,0|0,1:2|0:0,0:0:0:0:
9,380,89314,6,0,P|52:293|109:311,1,150,6|0,1:1|0:0,0:0:0:0:
92,322,89620,1,8,0:3:0:0:
269,364,89774,2,0,B|304:316|304:316|264:337,1,100,8|0,0:3|0:0,0:0:0:0:
183,339,90080,1,4,0:3:0:0:
355,378,90233,2,0,B|415:381|394:347|468:346,1,100,2|0,1:2|1:2,0:0:0:0:
269,364,90539,5,2,1:2:0:0:
501,269,90692,2,0,P|443:264|395:139,1,200,12|0,0:0|0:0,0:0:0:0:
397,133,91075,1,4,0:3:0:0:
410,125,91152,1,8,0:3:0:0:
405,30,91305,1,4,0:3:0:0:
310,35,91457,1,2,1:2:0:0:
316,128,91610,1,0,1:2:0:0:
501,269,91763,6,0,P|449:270|401:297,1,100,14|2,0:1|0:0,0:0:0:0:
357,351,92069,1,10,0:2:0:0:
259,179,92223,2,0,P|220:233|224:328,1,150,6|0,1:2|0:0,0:0:0:0:
228,337,92529,1,0,1:2:0:0:
18,238,92682,6,0,P|84:247|92:162,1,150,14|0,0:1|0:0,0:0:0:0:
86,161,92988,1,0,1:2:0:0:
99,268,93141,1,10,0:0:0:0:
52,91,93294,2,0,B|77:85|97:68|97:68|113:93|141:101,1,100,2|0,1:2|3:0,0:0:0:0:
148,93,93524,1,0,3:0:0:0:
161,87,93600,2,0,L|159:51,1,25,8|0,0:0|0:0,0:0:0:0:
165,168,93753,5,8,0:3:0:0:
231,120,93906,1,4,0:3:0:0:
309,121,94059,1,0,1:2:0:0:
488,47,94212,6,0,L|447:48,1,25,4|0,1:2|0:0,0:0:0:0:
484,57,94365,2,0,L|443:58,1,25,0|0,1:2|0:0,0:0:0:0:
381,16,94518,6,0,B|369:88|369:88|380:107|404:101,1,100,2|0,0:0|1:2,0:0:0:0:
459,133,94825,1,10,0:2:0:0:
350,247,94978,2,0,B|338:175|338:175|349:156|373:162,1,100,2|0,0:2|1:2,0:0:0:0:
448,352,95284,6,0,P|405:327|335:331,1,120,2|0,1:2|0:0,0:0:0:0:
321,344,95590,1,10,0:2:0:0:
256,280,95743,2,0,B|248:232|264:240|256:184,1,80,2|2,0:2|1:2,0:0:0:0:
350,247,96049,5,10,0:2:0:0:
194,152,96202,1,2,0:2:0:0:
318,152,96355,5,2,1:2:0:0:
162,247,96508,1,2,0:2:0:0:
33,128,96661,6,0,L|75:129,1,27.5000008392334,4|0,1:2|0:0,0:0:0:0:
37,138,96814,2,0,L|79:139,1,27.5000008392334
145,89,96967,6,0,B|157:164|157:164|146:184|120:177,1,110.000003356934,2|8,1:2|0:0,0:0:0:0:
62,222,97274,1,2,0:2:0:0:
162,247,97427,1,2,1:2:0:0:
198,30,97580,1,12,0:0:0:0:
381,155,97733,6,0,B|300:144|331:177|246:166,1,134.999995880127,2|0,0:0|0:0,0:0:0:0:
238,156,98039,6,0,P|229:117|236:105,1,44.999998626709,4|0,0:3|0:0,0:0:0:0:
310,86,98192,6,0,P|335:62|371:75,1,55.0000016784668,4|0,0:3|0:0,0:0:0:0:
431,98,98345,6,0,P|469:131|465:149,1,64.9999970245363,4|0,0:3|0:0,0:0:0:0:
444,249,98498,6,0,P|429:222|449:242,1,85.0000016212464,0|0,3:0|0:0,0:0:0:0:
353,340,98651,6,0,P|353:305|361:337,1,94.9999974632264,0|0,3:0|0:0,0:0:0:0:
198,320,98804,6,0,P|216:287|206:322,1,104.999996795654,8|0,0:2|0:0,0:0:0:0:
99,173,98957,6,0,P|142:173|101:183,1,125,8|0,0:2|0:0,0:0:0:0:
256,32,99110,6,0,B|437:348|437:348|72:348|72:348|247:44,1,1080.00002636719,2|2,0:0|0:0,0:0:0:0:
256,192,102227,12,0,106436,0:0:0:0:
