osu file format v14

[General]
AudioFilename: 01_06_HUGE W.mp3
AudioLeadIn: 0
PreviewTime: 72205
Countdown: 0
SampleSet: Soft
StackLeniency: 0.7
Mode: 3
LetterboxInBreaks: 0
SpecialStyle: 0
WidescreenStoryboard: 0

[Editor]
DistanceSpacing: 0.8
BeatDivisor: 4
GridSize: 32
TimelineZoom: 1.8

[Metadata]
Title:HUGE W
TitleUnicode:HUGE W
Artist:Mori Calliope & Camellia
ArtistUnicode:Mori Calliope & かめりあ
Creator:AutotelicBrown
Version:Insane W
Source:
Tags:Win and cametek かめるかめりあ 大箭将也 masaya oya 森 カリオペ callioP ホロライブプロダクション Hololive Production UnAlive CVRD-140 vtuber virtual youtuber Holomyth カバー株式会社 COVER Corporation English Japanese Electronic Rap Hardcore Arden ardenlolo アーデン moistcr1tikal penguinz0 Charlie
BeatmapID:3605479
BeatmapSetID:1727626

[Difficulty]
HPDrainRate:8.5
CircleSize:4
OverallDifficulty:8
ApproachRate:5
SliderMultiplier:1.4
SliderTickRate:1

[Events]
//Background and Video events
0,0,"bg.jpg",0,0
//Break Periods
//Storyboard Layer 0 (Background)
//Storyboard Layer 1 (Fail)
//Storyboard Layer 2 (Pass)
//Storyboard Layer 3 (Foreground)
//Storyboard Layer 4 (Overlay)
//Storyboard Sound Samples

[TimingPoints]
166,394.736842105263,4,2,1,10,1,0
3323,-100,4,2,1,40,0,0
72797,-100,4,2,1,40,0,1
98060,-100,4,2,1,40,0,0
104376,-100,4,2,1,10,0,0
110692,-100,4,2,1,40,0,0
194376,-100,4,2,1,40,0,1
207008,-100,4,2,1,40,0,0
219639,-100,4,2,1,40,0,1
232271,-100,4,2,1,40,0,0
238587,-100,4,2,1,20,0,0

[HitObjects]
64,192,166,128,0,363:0:0:0:0:
64,192,462,1,0,0:0:0:0:
448,192,560,1,0,0:0:0:0:
448,192,659,1,0,0:0:0:0:
64,192,758,1,0,0:0:0:0:
448,192,856,1,0,0:0:0:0:
64,192,955,1,0,0:0:0:0:
64,192,1054,1,0,0:0:0:0:
320,192,1218,1,0,0:0:0:0:
192,192,1251,1,0,0:0:0:0:
448,192,1350,1,0,0:0:0:0:
64,192,1415,1,0,0:0:0:0:
320,192,1448,1,0,0:0:0:0:
192,192,1547,1,0,0:0:0:0:
64,192,1646,1,0,0:0:0:0:
448,192,1744,1,0,0:0:0:0:
448,192,1843,1,0,0:0:0:0:
64,192,1942,1,0,0:0:0:0:
448,192,2040,1,0,0:0:0:0:
64,192,2139,1,0,0:0:0:0:
64,192,2238,1,0,0:0:0:0:
320,192,2337,1,0,0:0:0:0:
192,192,2386,1,0,0:0:0:0:
448,192,2435,1,0,0:0:0:0:
64,192,2485,1,0,0:0:0:0:
320,192,2534,1,0,0:0:0:0:
64,192,2633,1,0,0:0:0:0:
192,192,2731,1,0,0:0:0:0:
448,192,2830,1,0,0:0:0:0:
320,192,2929,1,0,0:0:0:0:
192,192,3126,1,0,0:0:0:0:
448,192,3323,128,0,3521:0:0:0:0:
320,192,3323,1,0,0:0:0:0:
64,192,3323,1,0,0:0:0:0:
192,192,3521,1,0,0:0:0:0:
64,192,3521,1,0,0:0:0:0:
448,192,3718,1,0,0:0:0:0:
320,192,3718,1,0,0:0:0:0:
448,192,3817,1,0,0:0:0:0:
320,192,3948,1,0,0:0:0:0:
64,192,3948,1,0,0:0:0:0:
448,192,4113,1,0,0:0:0:0:
192,192,4113,1,0,0:0:0:0:
192,192,4212,1,0,0:0:0:0:
448,192,4360,1,0,0:0:0:0:
64,192,4360,1,0,0:0:0:0:
320,192,4508,1,0,0:0:0:0:
192,192,4508,1,0,0:0:0:0:
320,192,4606,1,0,0:0:0:0:
192,192,4738,1,0,0:0:0:0:
64,192,4738,1,0,0:0:0:0:
320,192,4902,1,0,0:0:0:0:
64,192,4902,1,0,0:0:0:0:
64,192,5001,1,0,0:0:0:0:
448,192,5149,1,0,0:0:0:0:
192,192,5149,1,0,0:0:0:0:
320,192,5297,1,0,0:0:0:0:
192,192,5297,1,0,0:0:0:0:
320,192,5396,1,0,0:0:0:0:
448,192,5560,1,0,0:0:0:0:
64,192,5560,1,0,0:0:0:0:
192,192,5692,1,0,0:0:0:0:
192,192,5790,1,0,0:0:0:0:
448,192,5922,1,0,0:0:0:0:
320,192,5922,1,0,0:0:0:0:
64,192,6004,1,0,0:0:0:0:
448,192,6087,1,0,0:0:0:0:
192,192,6087,1,0,0:0:0:0:
448,192,6185,1,0,0:0:0:0:
320,192,6317,1,0,0:0:0:0:
64,192,6317,1,0,0:0:0:0:
192,192,6481,128,0,6679:0:0:0:0:
64,192,6481,1,0,0:0:0:0:
448,192,6679,1,0,0:0:0:0:
320,192,6679,1,0,0:0:0:0:
448,192,6876,1,0,0:0:0:0:
64,192,6876,1,0,0:0:0:0:
448,192,6975,1,0,0:0:0:0:
320,192,7106,1,0,0:0:0:0:
192,192,7106,1,0,0:0:0:0:
448,192,7271,1,0,0:0:0:0:
64,192,7271,1,0,0:0:0:0:
64,192,7369,1,0,0:0:0:0:
320,192,7501,1,0,0:0:0:0:
192,192,7501,1,0,0:0:0:0:
448,192,7665,1,0,0:0:0:0:
320,192,7665,1,0,0:0:0:0:
448,192,7764,1,0,0:0:0:0:
192,192,7912,1,0,0:0:0:0:
64,192,7912,1,0,0:0:0:0:
320,192,8060,1,0,0:0:0:0:
64,192,8060,1,0,0:0:0:0:
64,192,8159,1,0,0:0:0:0:
448,192,8389,1,0,0:0:0:0:
64,192,8389,1,0,0:0:0:0:
320,192,8455,1,0,0:0:0:0:
192,192,8455,1,0,0:0:0:0:
320,192,8554,1,0,0:0:0:0:
448,192,8702,1,0,0:0:0:0:
192,192,8702,1,0,0:0:0:0:
64,192,8850,1,0,0:0:0:0:
192,192,8915,1,0,0:0:0:0:
448,192,8981,1,0,0:0:0:0:
320,192,9047,1,0,0:0:0:0:
64,192,9113,1,0,0:0:0:0:
192,192,9179,1,0,0:0:0:0:
448,192,9244,1,0,0:0:0:0:
320,192,9310,1,0,0:0:0:0:
64,192,9376,1,0,0:0:0:0:
192,192,9442,1,0,0:0:0:0:
448,192,9508,1,0,0:0:0:0:
320,192,9573,1,0,0:0:0:0:
192,192,9639,1,0,0:0:0:0:
64,192,9639,128,0,9837:0:0:0:0:
448,192,9837,1,0,0:0:0:0:
320,192,9837,1,0,0:0:0:0:
192,192,10034,1,0,0:0:0:0:
192,192,10133,1,0,0:0:0:0:
448,192,10198,1,0,0:0:0:0:
320,192,10264,1,0,0:0:0:0:
64,192,10264,1,0,0:0:0:0:
448,192,10429,1,0,0:0:0:0:
448,192,10527,1,0,0:0:0:0:
320,192,10626,1,0,0:0:0:0:
192,192,10626,1,0,0:0:0:0:
64,192,10823,1,0,0:0:0:0:
64,192,10922,1,0,0:0:0:0:
448,192,11054,1,0,0:0:0:0:
192,192,11054,1,0,0:0:0:0:
448,192,11218,1,0,0:0:0:0:
320,192,11218,1,0,0:0:0:0:
320,192,11317,1,0,0:0:0:0:
448,192,11465,1,0,0:0:0:0:
64,192,11465,1,0,0:0:0:0:
320,192,11613,1,0,0:0:0:0:
192,192,11613,1,0,0:0:0:0:
192,192,11712,1,0,0:0:0:0:
448,192,11835,1,0,0:0:0:0:
64,192,11835,1,0,0:0:0:0:
320,192,12008,1,0,0:0:0:0:
320,192,12106,1,0,0:0:0:0:
192,192,12230,1,0,0:0:0:0:
64,192,12230,1,0,0:0:0:0:
448,192,12402,1,0,0:0:0:0:
448,192,12501,1,0,0:0:0:0:
320,192,12731,1,0,0:0:0:0:
64,192,12731,1,0,0:0:0:0:
448,192,12797,128,0,12994:0:0:0:0:
192,192,12797,1,0,0:0:0:0:
64,192,12896,1,0,0:0:0:0:
320,192,12994,1,0,0:0:0:0:
192,192,12994,1,0,0:0:0:0:
448,192,13192,1,0,0:0:0:0:
64,192,13192,1,0,0:0:0:0:
64,192,13290,1,0,0:0:0:0:
320,192,13422,1,0,0:0:0:0:
192,192,13422,1,0,0:0:0:0:
448,192,13587,1,0,0:0:0:0:
192,192,13587,1,0,0:0:0:0:
448,192,13685,1,0,0:0:0:0:
320,192,13817,1,0,0:0:0:0:
64,192,13817,1,0,0:0:0:0:
192,192,13981,1,0,0:0:0:0:
64,192,13981,1,0,0:0:0:0:
64,192,14080,1,0,0:0:0:0:
448,192,14212,1,0,0:0:0:0:
320,192,14212,1,0,0:0:0:0:
448,192,14376,1,0,0:0:0:0:
192,192,14376,1,0,0:0:0:0:
192,192,14475,1,0,0:0:0:0:
320,192,14623,1,0,0:0:0:0:
64,192,14623,1,0,0:0:0:0:
448,192,14771,1,0,0:0:0:0:
192,192,14771,1,0,0:0:0:0:
448,192,14869,1,0,0:0:0:0:
64,192,14968,1,0,0:0:0:0:
320,192,15034,1,0,0:0:0:0:
448,192,15100,1,0,0:0:0:0:
192,192,15165,1,0,0:0:0:0:
64,192,15231,1,0,0:0:0:0:
320,192,15297,1,0,0:0:0:0:
448,192,15363,1,0,0:0:0:0:
192,192,15429,1,0,0:0:0:0:
64,192,15494,1,0,0:0:0:0:
320,192,15560,1,0,0:0:0:0:
448,192,15626,1,0,0:0:0:0:
192,192,15692,1,0,0:0:0:0:
64,192,15758,1,0,0:0:0:0:
320,192,15823,1,0,0:0:0:0:
448,192,15889,1,0,0:0:0:0:
192,192,15955,1,0,0:0:0:0:
64,192,15955,1,0,0:0:0:0:
320,192,16152,1,0,0:0:0:0:
192,192,16350,1,0,0:0:0:0:
448,192,16547,1,0,0:0:0:0:
320,192,16646,1,0,0:0:0:0:
64,192,16744,1,0,0:0:0:0:
192,192,16942,1,0,0:0:0:0:
64,192,17139,1,0,0:0:0:0:
320,192,17337,1,0,0:0:0:0:
64,192,17731,1,0,0:0:0:0:
320,192,17830,1,0,0:0:0:0:
192,192,17929,1,0,0:0:0:0:
448,192,18126,1,0,0:0:0:0:
320,192,18225,1,0,0:0:0:0:
192,192,18323,1,0,0:0:0:0:
448,192,18521,1,0,0:0:0:0:
64,192,18718,1,0,0:0:0:0:
192,192,18915,1,0,0:0:0:0:
320,192,19310,1,0,0:0:0:0:
64,192,19705,128,0,20100:0:0:0:0:
192,192,20100,128,0,20494:0:0:0:0:
448,192,20494,1,0,0:0:0:0:
320,192,20889,1,0,0:0:0:0:
64,192,21087,1,0,0:0:0:0:
448,192,21284,1,0,0:0:0:0:
320,192,21383,1,0,0:0:0:0:
64,192,21481,1,0,0:0:0:0:
192,192,21777,1,0,0:0:0:0:
320,192,21876,1,0,0:0:0:0:
64,192,21975,1,0,0:0:0:0:
448,192,22073,1,0,0:0:0:0:
320,192,22468,1,0,0:0:0:0:
192,192,22567,1,0,0:0:0:0:
448,192,22665,1,0,0:0:0:0:
320,192,22863,1,0,0:0:0:0:
64,192,23060,1,0,0:0:0:0:
192,192,23258,1,0,0:0:0:0:
64,192,23455,1,0,0:0:0:0:
320,192,23652,1,0,0:0:0:0:
192,192,24047,1,0,0:0:0:0:
320,192,24146,1,0,0:0:0:0:
64,192,24244,1,0,0:0:0:0:
448,192,24442,1,0,0:0:0:0:
192,192,24639,1,0,0:0:0:0:
320,192,24886,1,0,0:0:0:0:
448,192,25034,1,0,0:0:0:0:
64,192,25133,1,0,0:0:0:0:
192,192,25231,1,0,0:0:0:0:
64,192,25429,1,0,0:0:0:0:
320,192,25626,1,0,0:0:0:0:
64,192,25725,1,0,0:0:0:0:
448,192,25823,1,0,0:0:0:0:
192,192,25897,1,0,0:0:0:0:
320,192,25971,1,0,0:0:0:0:
64,192,26045,1,0,0:0:0:0:
448,192,26119,1,0,0:0:0:0:
320,192,26218,1,0,0:0:0:0:
64,192,26317,1,0,0:0:0:0:
448,192,26391,1,0,0:0:0:0:
192,192,26465,1,0,0:0:0:0:
320,192,26539,1,0,0:0:0:0:
64,192,26613,1,0,0:0:0:0:
448,192,26761,1,0,0:0:0:0:
192,192,26860,1,0,0:0:0:0:
320,192,26934,1,0,0:0:0:0:
64,192,27008,1,0,0:0:0:0:
448,192,27205,1,0,0:0:0:0:
192,192,27402,1,0,0:0:0:0:
448,192,27452,1,0,0:0:0:0:
64,192,27501,1,0,0:0:0:0:
320,192,27550,1,0,0:0:0:0:
192,192,27600,1,0,0:0:0:0:
448,192,27698,1,0,0:0:0:0:
64,192,27797,1,0,0:0:0:0:
320,192,27896,1,0,0:0:0:0:
192,192,27994,1,0,0:0:0:0:
64,192,28093,1,0,0:0:0:0:
320,192,28192,1,0,0:0:0:0:
448,192,28258,1,0,0:0:0:0:
192,192,28323,1,0,0:0:0:0:
64,192,28389,1,0,0:0:0:0:
320,192,28455,1,0,0:0:0:0:
448,192,28521,1,0,0:0:0:0:
192,192,28587,1,0,0:0:0:0:
64,192,28587,1,0,0:0:0:0:
320,192,28981,1,0,0:0:0:0:
192,192,29080,1,0,0:0:0:0:
192,192,29277,1,0,0:0:0:0:
320,192,29376,1,0,0:0:0:0:
320,192,29573,1,0,0:0:0:0:
192,192,29672,1,0,0:0:0:0:
448,192,29771,1,0,0:0:0:0:
192,192,29869,1,0,0:0:0:0:
320,192,29968,1,0,0:0:0:0:
64,192,30067,1,0,0:0:0:0:
320,192,30165,1,0,0:0:0:0:
192,192,30363,1,0,0:0:0:0:
320,192,30462,1,0,0:0:0:0:
448,192,30560,1,0,0:0:0:0:
64,192,30659,1,0,0:0:0:0:
320,192,30758,1,0,0:0:0:0:
192,192,30856,1,0,0:0:0:0:
448,192,30955,1,0,0:0:0:0:
320,192,31152,1,0,0:0:0:0:
192,192,31152,1,0,0:0:0:0:
64,192,31152,1,0,0:0:0:0:
448,192,31350,1,0,0:0:0:0:
320,192,31547,1,0,0:0:0:0:
448,192,31744,1,0,0:0:0:0:
192,192,31744,1,0,0:0:0:0:
64,192,31744,1,0,0:0:0:0:
320,192,32139,1,0,0:0:0:0:
192,192,32238,1,0,0:0:0:0:
320,192,32337,1,0,0:0:0:0:
192,192,32435,1,0,0:0:0:0:
320,192,32534,1,0,0:0:0:0:
192,192,32633,1,0,0:0:0:0:
320,192,32731,1,0,0:0:0:0:
192,192,32830,1,0,0:0:0:0:
448,192,32929,1,0,0:0:0:0:
64,192,32978,1,0,0:0:0:0:
320,192,33027,1,0,0:0:0:0:
192,192,33077,1,0,0:0:0:0:
448,192,33126,1,0,0:0:0:0:
64,192,33175,1,0,0:0:0:0:
320,192,33225,1,0,0:0:0:0:
192,192,33274,1,0,0:0:0:0:
64,192,33422,1,0,0:0:0:0:
448,192,33521,1,0,0:0:0:0:
320,192,33718,1,0,0:0:0:0:
192,192,33718,1,0,0:0:0:0:
64,192,33718,128,0,34113:0:0:0:0:
448,192,34113,1,0,0:0:0:0:
320,192,34113,128,0,34508:0:0:0:0:
192,192,34113,1,0,0:0:0:0:
448,192,34508,1,0,0:0:0:0:
192,192,34508,128,0,34902:0:0:0:0:
64,192,34508,1,0,0:0:0:0:
448,192,34902,1,0,0:0:0:0:
320,192,34902,1,0,0:0:0:0:
64,192,34902,1,0,0:0:0:0:
448,192,35100,1,0,0:0:0:0:
192,192,35198,1,0,0:0:0:0:
320,192,35297,1,0,0:0:0:0:
448,192,35396,1,0,0:0:0:0:
320,192,35494,1,0,0:0:0:0:
64,192,35593,1,0,0:0:0:0:
448,192,35692,1,0,0:0:0:0:
192,192,35692,1,0,0:0:0:0:
64,192,35889,1,0,0:0:0:0:
320,192,35988,1,0,0:0:0:0:
192,192,36087,1,0,0:0:0:0:
64,192,36185,1,0,0:0:0:0:
192,192,36284,1,0,0:0:0:0:
448,192,36383,1,0,0:0:0:0:
320,192,36481,1,0,0:0:0:0:
64,192,36481,1,0,0:0:0:0:
448,192,36679,1,0,0:0:0:0:
192,192,36777,1,0,0:0:0:0:
320,192,36876,1,0,0:0:0:0:
448,192,36975,1,0,0:0:0:0:
320,192,37073,1,0,0:0:0:0:
64,192,37172,1,0,0:0:0:0:
448,192,37271,1,0,0:0:0:0:
192,192,37271,1,0,0:0:0:0:
64,192,37468,1,0,0:0:0:0:
192,192,37567,1,0,0:0:0:0:
64,192,37665,1,0,0:0:0:0:
448,192,37863,1,0,0:0:0:0:
320,192,37962,1,0,0:0:0:0:
448,192,38060,1,0,0:0:0:0:
192,192,38060,1,0,0:0:0:0:
64,192,38060,1,0,0:0:0:0:
64,192,38258,1,0,0:0:0:0:
320,192,38356,1,0,0:0:0:0:
192,192,38455,1,0,0:0:0:0:
64,192,38554,1,0,0:0:0:0:
192,192,38652,1,0,0:0:0:0:
448,192,38751,1,0,0:0:0:0:
320,192,38850,1,0,0:0:0:0:
64,192,38850,1,0,0:0:0:0:
448,192,39047,1,0,0:0:0:0:
192,192,39146,1,0,0:0:0:0:
320,192,39244,1,0,0:0:0:0:
448,192,39343,1,0,0:0:0:0:
320,192,39442,1,0,0:0:0:0:
448,192,39639,1,0,0:0:0:0:
192,192,39639,1,0,0:0:0:0:
64,192,39639,1,0,0:0:0:0:
320,192,39837,1,0,0:0:0:0:
448,192,39935,1,0,0:0:0:0:
192,192,40034,1,0,0:0:0:0:
64,192,40133,1,0,0:0:0:0:
192,192,40231,1,0,0:0:0:0:
448,192,40429,1,0,0:0:0:0:
320,192,40429,1,0,0:0:0:0:
64,192,40429,1,0,0:0:0:0:
192,192,40626,1,0,0:0:0:0:
448,192,40725,1,0,0:0:0:0:
320,192,40823,1,0,0:0:0:0:
192,192,40823,1,0,0:0:0:0:
448,192,40922,1,0,0:0:0:0:
64,192,41021,1,0,0:0:0:0:
192,192,41119,1,0,0:0:0:0:
448,192,41218,1,0,0:0:0:0:
320,192,41218,1,0,0:0:0:0:
64,192,41218,1,0,0:0:0:0:
448,192,41415,1,0,0:0:0:0:
192,192,41415,1,0,0:0:0:0:
64,192,41514,1,0,0:0:0:0:
448,192,41613,1,0,0:0:0:0:
320,192,41613,1,0,0:0:0:0:
448,192,41810,1,0,0:0:0:0:
192,192,41810,1,0,0:0:0:0:
320,192,41909,1,0,0:0:0:0:
192,192,42008,1,0,0:0:0:0:
64,192,42008,1,0,0:0:0:0:
320,192,42205,1,0,0:0:0:0:
64,192,42205,1,0,0:0:0:0:
448,192,42304,1,0,0:0:0:0:
192,192,42402,1,0,0:0:0:0:
64,192,42402,1,0,0:0:0:0:
320,192,42600,1,0,0:0:0:0:
64,192,42600,1,0,0:0:0:0:
192,192,42698,1,0,0:0:0:0:
448,192,42797,1,0,0:0:0:0:
320,192,42797,1,0,0:0:0:0:
64,192,42797,1,0,0:0:0:0:
448,192,42994,1,0,0:0:0:0:
192,192,42994,1,0,0:0:0:0:
64,192,43093,1,0,0:0:0:0:
448,192,43192,1,0,0:0:0:0:
320,192,43192,1,0,0:0:0:0:
448,192,43389,1,0,0:0:0:0:
192,192,43389,1,0,0:0:0:0:
320,192,43488,1,0,0:0:0:0:
192,192,43587,1,0,0:0:0:0:
64,192,43587,1,0,0:0:0:0:
320,192,43784,1,0,0:0:0:0:
64,192,43784,1,0,0:0:0:0:
448,192,43883,1,0,0:0:0:0:
192,192,43981,1,0,0:0:0:0:
64,192,43981,1,0,0:0:0:0:
320,192,44179,1,0,0:0:0:0:
64,192,44179,1,0,0:0:0:0:
192,192,44277,1,0,0:0:0:0:
448,192,44376,1,0,0:0:0:0:
320,192,44376,1,0,0:0:0:0:
448,192,44475,1,0,0:0:0:0:
192,192,44573,1,0,0:0:0:0:
64,192,44573,1,0,0:0:0:0:
64,192,44672,1,0,0:0:0:0:
448,192,44771,1,0,0:0:0:0:
320,192,44771,1,0,0:0:0:0:
320,192,44869,1,0,0:0:0:0:
192,192,44968,1,0,0:0:0:0:
64,192,44968,1,0,0:0:0:0:
192,192,45067,1,0,0:0:0:0:
448,192,45165,1,0,0:0:0:0:
320,192,45165,1,0,0:0:0:0:
448,192,45264,1,0,0:0:0:0:
192,192,45363,1,0,0:0:0:0:
64,192,45363,1,0,0:0:0:0:
64,192,45462,1,0,0:0:0:0:
448,192,45560,1,0,0:0:0:0:
320,192,45610,1,0,0:0:0:0:
64,192,45659,1,0,0:0:0:0:
192,192,45708,1,0,0:0:0:0:
448,192,45758,1,0,0:0:0:0:
320,192,45807,1,0,0:0:0:0:
64,192,45856,1,0,0:0:0:0:
192,192,45906,1,0,0:0:0:0:
448,192,45955,1,0,0:0:0:0:
64,192,46448,1,0,0:0:0:0:
320,192,46547,1,0,0:0:0:0:
192,192,46646,1,0,0:0:0:0:
320,192,46744,1,0,0:0:0:0:
64,192,46843,1,0,0:0:0:0:
448,192,46942,1,0,0:0:0:0:
192,192,47139,1,0,0:0:0:0:
64,192,47287,1,0,0:0:0:0:
448,192,47386,1,0,0:0:0:0:
320,192,47534,1,0,0:0:0:0:
192,192,47534,128,0,47830:0:0:0:0:
64,192,47534,1,0,0:0:0:0:
64,192,47830,1,0,0:0:0:0:
448,192,47929,1,0,0:0:0:0:
320,192,47978,1,0,0:0:0:0:
192,192,48027,1,0,0:0:0:0:
64,192,48077,1,0,0:0:0:0:
448,192,48126,1,0,0:0:0:0:
320,192,48175,1,0,0:0:0:0:
192,192,48225,1,0,0:0:0:0:
448,192,48323,1,0,0:0:0:0:
64,192,48323,1,0,0:0:0:0:
192,192,48521,1,0,0:0:0:0:
448,192,48619,128,0,48817:0:0:0:0:
320,192,48718,1,0,0:0:0:0:
64,192,48817,1,0,0:0:0:0:
192,192,48915,1,0,0:0:0:0:
64,192,49014,1,0,0:0:0:0:
448,192,49113,1,0,0:0:0:0:
320,192,49113,1,0,0:0:0:0:
192,192,49212,1,0,0:0:0:0:
320,192,49310,1,0,0:0:0:0:
64,192,49409,128,0,49606:0:0:0:0:
192,192,49508,1,0,0:0:0:0:
448,192,49606,1,0,0:0:0:0:
320,192,49705,1,0,0:0:0:0:
448,192,49804,1,0,0:0:0:0:
64,192,49853,1,0,0:0:0:0:
320,192,49902,1,0,0:0:0:0:
192,192,49902,1,0,0:0:0:0:
64,192,50100,1,0,0:0:0:0:
448,192,50198,128,0,50396:0:0:0:0:
320,192,50297,1,0,0:0:0:0:
64,192,50396,1,0,0:0:0:0:
192,192,50494,1,0,0:0:0:0:
64,192,50593,1,0,0:0:0:0:
448,192,50692,1,0,0:0:0:0:
320,192,50692,1,0,0:0:0:0:
192,192,50790,128,0,50988:0:0:0:0:
320,192,50988,1,0,0:0:0:0:
448,192,51087,1,0,0:0:0:0:
64,192,51136,1,0,0:0:0:0:
192,192,51185,1,0,0:0:0:0:
320,192,51235,1,0,0:0:0:0:
448,192,51284,1,0,0:0:0:0:
64,192,51333,1,0,0:0:0:0:
192,192,51383,1,0,0:0:0:0:
320,192,51432,1,0,0:0:0:0:
448,192,51481,1,0,0:0:0:0:
64,192,51481,1,0,0:0:0:0:
192,192,51679,1,0,0:0:0:0:
448,192,51777,128,0,51975:0:0:0:0:
320,192,51876,1,0,0:0:0:0:
64,192,51975,1,0,0:0:0:0:
192,192,52073,1,0,0:0:0:0:
64,192,52172,1,0,0:0:0:0:
448,192,52271,1,0,0:0:0:0:
320,192,52271,1,0,0:0:0:0:
192,192,52369,1,0,0:0:0:0:
320,192,52468,1,0,0:0:0:0:
64,192,52567,128,0,52764:0:0:0:0:
192,192,52665,1,0,0:0:0:0:
448,192,52764,1,0,0:0:0:0:
320,192,52826,1,0,0:0:0:0:
192,192,52888,1,0,0:0:0:0:
448,192,52949,1,0,0:0:0:0:
64,192,53011,1,0,0:0:0:0:
320,192,53060,1,0,0:0:0:0:
192,192,53060,1,0,0:0:0:0:
448,192,53225,1,0,0:0:0:0:
192,192,53290,1,0,0:0:0:0:
320,192,53356,1,0,0:0:0:0:
448,192,53455,128,0,53751:0:0:0:0:
64,192,53455,128,0,53850:0:0:0:0:
448,192,53850,1,0,0:0:0:0:
320,192,53850,128,0,54146:0:0:0:0:
192,192,53850,1,0,0:0:0:0:
448,192,54146,1,0,0:0:0:0:
64,192,54244,1,0,0:0:0:0:
192,192,54294,1,0,0:0:0:0:
320,192,54343,1,0,0:0:0:0:
448,192,54392,1,0,0:0:0:0:
64,192,54442,1,0,0:0:0:0:
192,192,54491,1,0,0:0:0:0:
320,192,54540,1,0,0:0:0:0:
448,192,54639,1,0,0:0:0:0:
64,192,54639,1,0,0:0:0:0:
320,192,54837,1,0,0:0:0:0:
64,192,54935,128,0,55133:0:0:0:0:
192,192,55034,1,0,0:0:0:0:
448,192,55133,1,0,0:0:0:0:
320,192,55231,1,0,0:0:0:0:
448,192,55330,1,0,0:0:0:0:
192,192,55429,1,0,0:0:0:0:
64,192,55429,1,0,0:0:0:0:
320,192,55527,128,0,55725:0:0:0:0:
448,192,55626,1,0,0:0:0:0:
192,192,55725,128,0,55922:0:0:0:0:
64,192,55823,1,0,0:0:0:0:
448,192,55922,1,0,0:0:0:0:
320,192,56021,1,0,0:0:0:0:
448,192,56119,1,0,0:0:0:0:
64,192,56169,1,0,0:0:0:0:
320,192,56218,128,0,56415:0:0:0:0:
192,192,56218,1,0,0:0:0:0:
448,192,56415,1,0,0:0:0:0:
64,192,56514,1,0,0:0:0:0:
192,192,56613,1,0,0:0:0:0:
448,192,56712,1,0,0:0:0:0:
192,192,56810,1,0,0:0:0:0:
320,192,56909,1,0,0:0:0:0:
448,192,57008,1,0,0:0:0:0:
64,192,57008,1,0,0:0:0:0:
192,192,57106,128,0,57304:0:0:0:0:
320,192,57304,1,0,0:0:0:0:
64,192,57402,1,0,0:0:0:0:
448,192,57452,1,0,0:0:0:0:
320,192,57501,1,0,0:0:0:0:
192,192,57550,1,0,0:0:0:0:
64,192,57600,1,0,0:0:0:0:
448,192,57649,1,0,0:0:0:0:
320,192,57698,1,0,0:0:0:0:
192,192,57748,1,0,0:0:0:0:
448,192,57797,1,0,0:0:0:0:
64,192,57797,1,0,0:0:0:0:
192,192,57994,1,0,0:0:0:0:
448,192,58093,128,0,58290:0:0:0:0:
320,192,58192,1,0,0:0:0:0:
64,192,58290,1,0,0:0:0:0:
192,192,58389,1,0,0:0:0:0:
64,192,58488,1,0,0:0:0:0:
448,192,58587,1,0,0:0:0:0:
320,192,58587,1,0,0:0:0:0:
192,192,58685,1,0,0:0:0:0:
320,192,58784,1,0,0:0:0:0:
64,192,58883,1,0,0:0:0:0:
192,192,58981,1,0,0:0:0:0:
448,192,59080,1,0,0:0:0:0:
320,192,59179,1,0,0:0:0:0:
64,192,59277,1,0,0:0:0:0:
448,192,59327,1,0,0:0:0:0:
320,192,59376,1,0,0:0:0:0:
192,192,59376,1,0,0:0:0:0:
64,192,59573,1,0,0:0:0:0:
448,192,59771,1,0,0:0:0:0:
192,192,59804,1,0,0:0:0:0:
64,192,59837,1,0,0:0:0:0:
320,192,59968,1,0,0:0:0:0:
448,192,60165,1,0,0:0:0:0:
192,192,60165,1,0,0:0:0:0:
64,192,60165,128,0,60363:0:0:0:0:
320,192,60363,1,0,0:0:0:0:
192,192,60412,1,0,0:0:0:0:
448,192,60462,1,0,0:0:0:0:
64,192,60511,1,0,0:0:0:0:
320,192,60560,1,0,0:0:0:0:
192,192,60708,1,0,0:0:0:0:
448,192,60856,1,0,0:0:0:0:
320,192,60955,128,0,61152:0:0:0:0:
192,192,60955,1,0,0:0:0:0:
64,192,61054,1,0,0:0:0:0:
448,192,61152,128,0,61350:0:0:0:0:
192,192,61251,1,0,0:0:0:0:
320,192,61350,128,0,61547:0:0:0:0:
64,192,61448,1,0,0:0:0:0:
448,192,61547,1,0,0:0:0:0:
192,192,61613,1,0,0:0:0:0:
320,192,61679,1,0,0:0:0:0:
448,192,61744,1,0,0:0:0:0:
64,192,61744,128,0,61942:0:0:0:0:
320,192,61843,1,0,0:0:0:0:
192,192,61942,128,0,62139:0:0:0:0:
448,192,62040,1,0,0:0:0:0:
64,192,62139,128,0,62337:0:0:0:0:
320,192,62238,1,0,0:0:0:0:
192,192,62337,1,0,0:0:0:0:
448,192,62435,1,0,0:0:0:0:
64,192,62485,1,0,0:0:0:0:
320,192,62534,128,0,62731:0:0:0:0:
192,192,62534,1,0,0:0:0:0:
64,192,62633,1,0,0:0:0:0:
448,192,62731,128,0,62929:0:0:0:0:
192,192,62830,1,0,0:0:0:0:
320,192,62929,128,0,63126:0:0:0:0:
64,192,63027,1,0,0:0:0:0:
448,192,63126,1,0,0:0:0:0:
192,192,63225,1,0,0:0:0:0:
448,192,63323,1,0,0:0:0:0:
320,192,63323,1,0,0:0:0:0:
64,192,63422,128,0,63619:0:0:0:0:
448,192,63619,1,0,0:0:0:0:
320,192,63718,1,0,0:0:0:0:
192,192,63915,1,0,0:0:0:0:
320,192,64014,1,0,0:0:0:0:
448,192,64113,128,0,64310:0:0:0:0:
64,192,64113,1,0,0:0:0:0:
192,192,64212,1,0,0:0:0:0:
320,192,64310,128,0,64508:0:0:0:0:
64,192,64409,1,0,0:0:0:0:
448,192,64508,128,0,64705:0:0:0:0:
192,192,64606,1,0,0:0:0:0:
320,192,64705,1,0,0:0:0:0:
64,192,64771,1,0,0:0:0:0:
448,192,64837,1,0,0:0:0:0:
320,192,64902,1,0,0:0:0:0:
192,192,64902,128,0,65100:0:0:0:0:
448,192,65001,1,0,0:0:0:0:
64,192,65100,128,0,65297:0:0:0:0:
320,192,65198,1,0,0:0:0:0:
192,192,65297,128,0,65494:0:0:0:0:
448,192,65396,1,0,0:0:0:0:
64,192,65494,1,0,0:0:0:0:
320,192,65593,1,0,0:0:0:0:
192,192,65642,1,0,0:0:0:0:
448,192,65692,128,0,65889:0:0:0:0:
64,192,65692,1,0,0:0:0:0:
192,192,65790,1,0,0:0:0:0:
320,192,65889,1,0,0:0:0:0:
64,192,65988,1,0,0:0:0:0:
448,192,66087,1,0,0:0:0:0:
320,192,66152,1,0,0:0:0:0:
64,192,66218,1,0,0:0:0:0:
192,192,66284,1,0,0:0:0:0:
448,192,66350,1,0,0:0:0:0:
320,192,66415,1,0,0:0:0:0:
192,192,66481,128,0,66777:0:0:0:0:
64,192,66481,1,0,0:0:0:0:
448,192,66777,1,0,0:0:0:0:
64,192,66876,1,0,0:0:0:0:
320,192,67271,128,0,67468:0:0:0:0:
192,192,67271,1,0,0:0:0:0:
64,192,67369,1,0,0:0:0:0:
448,192,67468,128,0,67665:0:0:0:0:
192,192,67567,1,0,0:0:0:0:
320,192,67665,128,0,67863:0:0:0:0:
64,192,67764,1,0,0:0:0:0:
448,192,67863,1,0,0:0:0:0:
192,192,67929,1,0,0:0:0:0:
320,192,67994,1,0,0:0:0:0:
448,192,68060,1,0,0:0:0:0:
64,192,68060,128,0,68258:0:0:0:0:
320,192,68159,1,0,0:0:0:0:
192,192,68258,128,0,68455:0:0:0:0:
448,192,68356,1,0,0:0:0:0:
64,192,68455,128,0,68652:0:0:0:0:
320,192,68554,1,0,0:0:0:0:
192,192,68652,1,0,0:0:0:0:
448,192,68751,1,0,0:0:0:0:
64,192,68800,1,0,0:0:0:0:
320,192,68850,128,0,69047:0:0:0:0:
192,192,68850,1,0,0:0:0:0:
64,192,68948,1,0,0:0:0:0:
448,192,69047,128,0,69244:0:0:0:0:
192,192,69146,1,0,0:0:0:0:
320,192,69244,128,0,69442:0:0:0:0:
64,192,69343,1,0,0:0:0:0:
448,192,69442,1,0,0:0:0:0:
192,192,69540,1,0,0:0:0:0:
448,192,69639,1,0,0:0:0:0:
64,192,69639,1,0,0:0:0:0:
192,192,69718,1,0,0:0:0:0:
320,192,69797,1,0,0:0:0:0:
448,192,69876,1,0,0:0:0:0:
64,192,69955,1,0,0:0:0:0:
320,192,70034,1,0,0:0:0:0:
192,192,70113,1,0,0:0:0:0:
448,192,70192,1,0,0:0:0:0:
64,192,70271,1,0,0:0:0:0:
192,192,70350,1,0,0:0:0:0:
448,192,70429,1,0,0:0:0:0:
320,192,70429,1,0,0:0:0:0:
64,192,70508,1,0,0:0:0:0:
320,192,70587,1,0,0:0:0:0:
192,192,70665,1,0,0:0:0:0:
448,192,70744,1,0,0:0:0:0:
64,192,70823,1,0,0:0:0:0:
192,192,70902,1,0,0:0:0:0:
320,192,70981,1,0,0:0:0:0:
448,192,71060,1,0,0:0:0:0:
64,192,71139,1,0,0:0:0:0:
192,192,71218,1,0,0:0:0:0:
320,192,71415,1,0,0:0:0:0:
192,192,71514,1,0,0:0:0:0:
448,192,71613,1,0,0:0:0:0:
192,192,71712,1,0,0:0:0:0:
320,192,71810,1,0,0:0:0:0:
64,192,71909,1,0,0:0:0:0:
448,192,72008,128,0,72205:0:0:0:0:
320,192,72205,1,0,0:0:0:0:
64,192,72402,1,0,0:0:0:0:
192,192,72600,1,0,0:0:0:0:
448,192,72797,1,0,0:0:0:0:
320,192,72797,1,0,0:0:0:0:
64,192,72797,1,0,0:0:0:0:
192,192,72896,1,0,0:0:0:0:
448,192,72994,1,0,0:0:0:0:
320,192,73093,1,0,0:0:0:0:
64,192,73093,1,0,0:0:0:0:
192,192,73192,1,0,0:0:0:0:
64,192,73192,1,0,0:0:0:0:
448,192,73389,1,0,0:0:0:0:
320,192,73389,1,0,0:0:0:0:
192,192,73488,1,0,0:0:0:0:
64,192,73488,1,0,0:0:0:0:
448,192,73587,1,0,0:0:0:0:
320,192,73587,1,0,0:0:0:0:
192,192,73685,1,0,0:0:0:0:
448,192,73784,1,0,0:0:0:0:
320,192,73883,1,0,0:0:0:0:
64,192,73883,1,0,0:0:0:0:
192,192,73981,1,0,0:0:0:0:
64,192,73981,1,0,0:0:0:0:
448,192,74179,1,0,0:0:0:0:
320,192,74179,1,0,0:0:0:0:
192,192,74277,1,0,0:0:0:0:
64,192,74277,1,0,0:0:0:0:
448,192,74376,1,0,0:0:0:0:
320,192,74376,1,0,0:0:0:0:
192,192,74475,1,0,0:0:0:0:
448,192,74573,1,0,0:0:0:0:
320,192,74672,1,0,0:0:0:0:
64,192,74672,1,0,0:0:0:0:
448,192,74771,1,0,0:0:0:0:
64,192,74771,1,0,0:0:0:0:
192,192,74968,1,0,0:0:0:0:
64,192,75067,1,0,0:0:0:0:
448,192,75165,1,0,0:0:0:0:
320,192,75165,1,0,0:0:0:0:
192,192,75264,1,0,0:0:0:0:
448,192,75363,1,0,0:0:0:0:
320,192,75363,1,0,0:0:0:0:
64,192,75462,1,0,0:0:0:0:
448,192,75560,1,0,0:0:0:0:
64,192,75560,1,0,0:0:0:0:
320,192,75758,1,0,0:0:0:0:
192,192,75758,1,0,0:0:0:0:
448,192,75856,1,0,0:0:0:0:
320,192,75955,1,0,0:0:0:0:
192,192,75955,1,0,0:0:0:0:
64,192,75955,1,0,0:0:0:0:
448,192,76152,1,0,0:0:0:0:
64,192,76152,1,0,0:0:0:0:
320,192,76251,1,0,0:0:0:0:
448,192,76350,1,0,0:0:0:0:
192,192,76350,1,0,0:0:0:0:
64,192,76448,1,0,0:0:0:0:
320,192,76547,1,0,0:0:0:0:
192,192,76547,1,0,0:0:0:0:
448,192,76646,1,0,0:0:0:0:
320,192,76744,1,0,0:0:0:0:
64,192,76744,1,0,0:0:0:0:
192,192,76843,1,0,0:0:0:0:
448,192,76942,1,0,0:0:0:0:
192,192,77040,1,0,0:0:0:0:
64,192,77040,1,0,0:0:0:0:
448,192,77139,1,0,0:0:0:0:
320,192,77139,1,0,0:0:0:0:
64,192,77238,1,0,0:0:0:0:
320,192,77337,1,0,0:0:0:0:
192,192,77337,1,0,0:0:0:0:
448,192,77435,1,0,0:0:0:0:
64,192,77435,1,0,0:0:0:0:
320,192,77534,1,0,0:0:0:0:
192,192,77534,1,0,0:0:0:0:
448,192,77633,1,0,0:0:0:0:
192,192,77731,1,0,0:0:0:0:
64,192,77731,1,0,0:0:0:0:
448,192,77830,1,0,0:0:0:0:
320,192,77830,1,0,0:0:0:0:
64,192,77929,1,0,0:0:0:0:
320,192,78027,1,0,0:0:0:0:
192,192,78027,1,0,0:0:0:0:
448,192,78126,1,0,0:0:0:0:
64,192,78126,1,0,0:0:0:0:
320,192,78225,1,0,0:0:0:0:
448,192,78323,1,0,0:0:0:0:
192,192,78323,1,0,0:0:0:0:
64,192,78422,1,0,0:0:0:0:
320,192,78521,1,0,0:0:0:0:
192,192,78521,1,0,0:0:0:0:
448,192,78619,1,0,0:0:0:0:
64,192,78718,1,0,0:0:0:0:
192,192,78784,1,0,0:0:0:0:
448,192,78850,1,0,0:0:0:0:
320,192,78915,1,0,0:0:0:0:
64,192,78981,1,0,0:0:0:0:
192,192,79047,1,0,0:0:0:0:
448,192,79113,1,0,0:0:0:0:
320,192,79113,1,0,0:0:0:0:
192,192,79212,1,0,0:0:0:0:
448,192,79310,1,0,0:0:0:0:
320,192,79409,1,0,0:0:0:0:
64,192,79409,1,0,0:0:0:0:
192,192,79508,1,0,0:0:0:0:
64,192,79508,1,0,0:0:0:0:
448,192,79705,1,0,0:0:0:0:
320,192,79705,1,0,0:0:0:0:
192,192,79804,1,0,0:0:0:0:
64,192,79804,1,0,0:0:0:0:
448,192,79902,1,0,0:0:0:0:
320,192,79902,1,0,0:0:0:0:
192,192,80001,1,0,0:0:0:0:
448,192,80100,1,0,0:0:0:0:
320,192,80198,1,0,0:0:0:0:
64,192,80198,1,0,0:0:0:0:
192,192,80297,1,0,0:0:0:0:
64,192,80297,1,0,0:0:0:0:
448,192,80494,1,0,0:0:0:0:
320,192,80494,1,0,0:0:0:0:
192,192,80593,1,0,0:0:0:0:
64,192,80593,1,0,0:0:0:0:
448,192,80692,1,0,0:0:0:0:
320,192,80692,1,0,0:0:0:0:
192,192,80790,1,0,0:0:0:0:
448,192,80889,1,0,0:0:0:0:
320,192,80988,1,0,0:0:0:0:
64,192,80988,1,0,0:0:0:0:
448,192,81087,1,0,0:0:0:0:
64,192,81087,1,0,0:0:0:0:
192,192,81284,1,0,0:0:0:0:
64,192,81383,1,0,0:0:0:0:
448,192,81481,1,0,0:0:0:0:
320,192,81481,1,0,0:0:0:0:
192,192,81580,1,0,0:0:0:0:
448,192,81679,1,0,0:0:0:0:
320,192,81679,1,0,0:0:0:0:
64,192,81777,1,0,0:0:0:0:
448,192,81876,1,0,0:0:0:0:
64,192,81876,1,0,0:0:0:0:
320,192,82073,1,0,0:0:0:0:
192,192,82073,1,0,0:0:0:0:
448,192,82172,1,0,0:0:0:0:
320,192,82271,1,0,0:0:0:0:
192,192,82271,1,0,0:0:0:0:
64,192,82271,1,0,0:0:0:0:
448,192,82468,1,0,0:0:0:0:
64,192,82468,1,0,0:0:0:0:
320,192,82567,1,0,0:0:0:0:
448,192,82665,1,0,0:0:0:0:
192,192,82665,1,0,0:0:0:0:
64,192,82764,1,0,0:0:0:0:
320,192,82863,1,0,0:0:0:0:
192,192,82863,1,0,0:0:0:0:
64,192,82962,1,0,0:0:0:0:
448,192,83060,1,0,0:0:0:0:
320,192,83060,1,0,0:0:0:0:
192,192,83159,1,0,0:0:0:0:
448,192,83258,1,0,0:0:0:0:
64,192,83258,1,0,0:0:0:0:
320,192,83356,1,0,0:0:0:0:
192,192,83455,1,0,0:0:0:0:
448,192,83554,1,0,0:0:0:0:
192,192,83652,1,0,0:0:0:0:
64,192,83652,1,0,0:0:0:0:
320,192,83751,1,0,0:0:0:0:
448,192,83850,1,0,0:0:0:0:
64,192,83850,1,0,0:0:0:0:
192,192,83948,1,0,0:0:0:0:
448,192,84047,1,0,0:0:0:0:
320,192,84047,1,0,0:0:0:0:
64,192,84146,1,0,0:0:0:0:
320,192,84244,1,0,0:0:0:0:
192,192,84244,1,0,0:0:0:0:
64,192,84343,1,0,0:0:0:0:
448,192,84442,1,0,0:0:0:0:
192,192,84442,1,0,0:0:0:0:
320,192,84540,1,0,0:0:0:0:
448,192,84639,1,0,0:0:0:0:
64,192,84639,1,0,0:0:0:0:
192,192,84738,1,0,0:0:0:0:
320,192,84837,1,0,0:0:0:0:
64,192,84837,1,0,0:0:0:0:
448,192,84935,1,0,0:0:0:0:
192,192,85034,1,0,0:0:0:0:
64,192,85100,1,0,0:0:0:0:
320,192,85165,1,0,0:0:0:0:
448,192,85231,1,0,0:0:0:0:
192,192,85297,1,0,0:0:0:0:
64,192,85363,1,0,0:0:0:0:
448,192,85429,1,0,0:0:0:0:
320,192,85429,1,0,0:0:0:0:
64,192,85527,1,0,0:0:0:0:
320,192,85626,1,0,0:0:0:0:
192,192,85626,1,0,0:0:0:0:
448,192,85725,1,0,0:0:0:0:
448,192,85823,1,0,0:0:0:0:
64,192,85823,1,0,0:0:0:0:
192,192,85922,1,0,0:0:0:0:
320,192,86021,1,0,0:0:0:0:
64,192,86021,1,0,0:0:0:0:
448,192,86119,1,0,0:0:0:0:
320,192,86218,1,0,0:0:0:0:
192,192,86218,1,0,0:0:0:0:
64,192,86317,1,0,0:0:0:0:
448,192,86415,1,0,0:0:0:0:
320,192,86415,1,0,0:0:0:0:
192,192,86514,1,0,0:0:0:0:
448,192,86613,1,0,0:0:0:0:
192,192,86613,1,0,0:0:0:0:
320,192,86712,1,0,0:0:0:0:
192,192,86810,1,0,0:0:0:0:
64,192,86810,1,0,0:0:0:0:
448,192,86909,1,0,0:0:0:0:
64,192,87008,1,0,0:0:0:0:
448,192,87106,1,0,0:0:0:0:
320,192,87205,1,0,0:0:0:0:
192,192,87205,1,0,0:0:0:0:
64,192,87304,1,0,0:0:0:0:
448,192,87402,1,0,0:0:0:0:
64,192,87402,1,0,0:0:0:0:
320,192,87501,1,0,0:0:0:0:
448,192,87600,1,0,0:0:0:0:
192,192,87600,1,0,0:0:0:0:
64,192,87698,1,0,0:0:0:0:
320,192,87797,1,0,0:0:0:0:
192,192,87797,1,0,0:0:0:0:
448,192,87896,1,0,0:0:0:0:
192,192,87994,1,0,0:0:0:0:
64,192,87994,1,0,0:0:0:0:
320,192,88093,1,0,0:0:0:0:
320,192,88192,1,0,0:0:0:0:
64,192,88192,1,0,0:0:0:0:
192,192,88290,1,0,0:0:0:0:
448,192,88389,1,0,0:0:0:0:
320,192,88389,1,0,0:0:0:0:
64,192,88488,1,0,0:0:0:0:
448,192,88587,1,0,0:0:0:0:
192,192,88685,1,0,0:0:0:0:
448,192,88784,1,0,0:0:0:0:
320,192,88784,1,0,0:0:0:0:
64,192,88883,1,0,0:0:0:0:
448,192,88981,1,0,0:0:0:0:
64,192,88981,1,0,0:0:0:0:
320,192,89080,1,0,0:0:0:0:
192,192,89179,1,0,0:0:0:0:
64,192,89179,1,0,0:0:0:0:
448,192,89277,1,0,0:0:0:0:
192,192,89376,1,0,0:0:0:0:
320,192,89475,1,0,0:0:0:0:
192,192,89573,1,0,0:0:0:0:
64,192,89573,1,0,0:0:0:0:
448,192,89672,1,0,0:0:0:0:
448,192,89771,1,0,0:0:0:0:
64,192,89771,1,0,0:0:0:0:
320,192,89869,1,0,0:0:0:0:
448,192,89968,1,0,0:0:0:0:
192,192,89968,1,0,0:0:0:0:
64,192,90067,1,0,0:0:0:0:
320,192,90165,1,0,0:0:0:0:
192,192,90264,1,0,0:0:0:0:
64,192,90264,1,0,0:0:0:0:
448,192,90363,1,0,0:0:0:0:
320,192,90363,1,0,0:0:0:0:
192,192,90462,1,0,0:0:0:0:
192,192,90560,1,0,0:0:0:0:
448,192,90659,1,0,0:0:0:0:
320,192,90758,1,0,0:0:0:0:
64,192,90758,1,0,0:0:0:0:
192,192,90856,1,0,0:0:0:0:
448,192,90955,1,0,0:0:0:0:
64,192,90955,1,0,0:0:0:0:
320,192,91054,1,0,0:0:0:0:
192,192,91152,1,0,0:0:0:0:
448,192,91251,1,0,0:0:0:0:
64,192,91251,1,0,0:0:0:0:
448,192,91350,1,0,0:0:0:0:
192,192,91448,1,0,0:0:0:0:
448,192,91547,1,0,0:0:0:0:
320,192,91547,1,0,0:0:0:0:
64,192,91646,1,0,0:0:0:0:
448,192,91744,1,0,0:0:0:0:
320,192,91744,1,0,0:0:0:0:
192,192,91744,1,0,0:0:0:0:
64,192,91843,1,0,0:0:0:0:
320,192,91942,1,0,0:0:0:0:
192,192,91942,1,0,0:0:0:0:
448,192,92040,1,0,0:0:0:0:
448,192,92139,1,0,0:0:0:0:
64,192,92139,1,0,0:0:0:0:
192,192,92238,1,0,0:0:0:0:
320,192,92337,1,0,0:0:0:0:
64,192,92337,1,0,0:0:0:0:
448,192,92435,1,0,0:0:0:0:
320,192,92534,1,0,0:0:0:0:
192,192,92534,1,0,0:0:0:0:
64,192,92633,1,0,0:0:0:0:
448,192,92731,1,0,0:0:0:0:
320,192,92731,1,0,0:0:0:0:
192,192,92830,1,0,0:0:0:0:
448,192,92929,1,0,0:0:0:0:
192,192,92929,1,0,0:0:0:0:
320,192,93027,1,0,0:0:0:0:
192,192,93126,1,0,0:0:0:0:
64,192,93126,1,0,0:0:0:0:
448,192,93225,1,0,0:0:0:0:
64,192,93323,1,0,0:0:0:0:
448,192,93422,1,0,0:0:0:0:
320,192,93521,1,0,0:0:0:0:
192,192,93521,1,0,0:0:0:0:
64,192,93619,1,0,0:0:0:0:
448,192,93718,1,0,0:0:0:0:
64,192,93718,1,0,0:0:0:0:
320,192,93817,1,0,0:0:0:0:
448,192,93915,1,0,0:0:0:0:
192,192,93915,1,0,0:0:0:0:
64,192,94014,1,0,0:0:0:0:
320,192,94113,1,0,0:0:0:0:
192,192,94113,1,0,0:0:0:0:
448,192,94212,1,0,0:0:0:0:
192,192,94310,1,0,0:0:0:0:
64,192,94310,1,0,0:0:0:0:
320,192,94409,1,0,0:0:0:0:
320,192,94508,1,0,0:0:0:0:
64,192,94508,1,0,0:0:0:0:
192,192,94606,1,0,0:0:0:0:
448,192,94705,1,0,0:0:0:0:
320,192,94705,1,0,0:0:0:0:
64,192,94804,1,0,0:0:0:0:
448,192,94902,1,0,0:0:0:0:
192,192,95001,1,0,0:0:0:0:
448,192,95100,1,0,0:0:0:0:
320,192,95100,1,0,0:0:0:0:
64,192,95198,1,0,0:0:0:0:
448,192,95297,1,0,0:0:0:0:
64,192,95297,1,0,0:0:0:0:
320,192,95396,1,0,0:0:0:0:
192,192,95494,1,0,0:0:0:0:
64,192,95494,1,0,0:0:0:0:
448,192,95593,1,0,0:0:0:0:
320,192,95692,1,0,0:0:0:0:
192,192,95692,1,0,0:0:0:0:
64,192,95790,1,0,0:0:0:0:
320,192,95889,1,0,0:0:0:0:
192,192,95889,1,0,0:0:0:0:
448,192,95988,1,0,0:0:0:0:
320,192,96087,1,0,0:0:0:0:
192,192,96087,1,0,0:0:0:0:
64,192,96185,1,0,0:0:0:0:
448,192,96284,1,0,0:0:0:0:
320,192,96284,1,0,0:0:0:0:
192,192,96383,1,0,0:0:0:0:
448,192,96481,1,0,0:0:0:0:
64,192,96580,1,0,0:0:0:0:
320,192,96679,1,0,0:0:0:0:
192,192,96679,1,0,0:0:0:0:
64,192,96777,1,0,0:0:0:0:
448,192,96876,1,0,0:0:0:0:
192,192,96975,1,0,0:0:0:0:
448,192,97073,1,0,0:0:0:0:
320,192,97073,1,0,0:0:0:0:
64,192,97139,1,0,0:0:0:0:
192,192,97205,1,0,0:0:0:0:
320,192,97271,1,0,0:0:0:0:
320,192,97369,1,0,0:0:0:0:
64,192,97468,1,0,0:0:0:0:
64,192,97567,1,0,0:0:0:0:
448,192,97665,1,0,0:0:0:0:
192,192,97731,1,0,0:0:0:0:
320,192,97797,1,0,0:0:0:0:
64,192,97863,1,0,0:0:0:0:
448,192,97929,1,0,0:0:0:0:
320,192,97994,1,0,0:0:0:0:
192,192,98060,1,0,0:0:0:0:
64,192,98060,1,0,0:0:0:0:
320,192,98455,1,0,0:0:0:0:
192,192,98554,1,0,0:0:0:0:
192,192,98751,1,0,0:0:0:0:
320,192,98850,1,0,0:0:0:0:
320,192,99047,1,0,0:0:0:0:
192,192,99146,1,0,0:0:0:0:
448,192,99244,1,0,0:0:0:0:
192,192,99343,1,0,0:0:0:0:
320,192,99442,1,0,0:0:0:0:
64,192,99540,1,0,0:0:0:0:
320,192,99639,1,0,0:0:0:0:
192,192,99837,1,0,0:0:0:0:
320,192,99935,1,0,0:0:0:0:
448,192,100034,1,0,0:0:0:0:
64,192,100133,1,0,0:0:0:0:
320,192,100231,1,0,0:0:0:0:
192,192,100330,1,0,0:0:0:0:
448,192,100429,1,0,0:0:0:0:
320,192,100626,1,0,0:0:0:0:
192,192,100626,1,0,0:0:0:0:
64,192,100626,1,0,0:0:0:0:
448,192,100823,1,0,0:0:0:0:
320,192,101021,1,0,0:0:0:0:
448,192,101218,1,0,0:0:0:0:
192,192,101218,1,0,0:0:0:0:
64,192,101218,1,0,0:0:0:0:
320,192,101613,1,0,0:0:0:0:
192,192,101712,1,0,0:0:0:0:
320,192,101810,1,0,0:0:0:0:
192,192,101909,1,0,0:0:0:0:
320,192,102008,1,0,0:0:0:0:
192,192,102106,1,0,0:0:0:0:
320,192,102205,1,0,0:0:0:0:
192,192,102304,1,0,0:0:0:0:
448,192,102402,1,0,0:0:0:0:
64,192,102452,1,0,0:0:0:0:
320,192,102501,1,0,0:0:0:0:
192,192,102550,1,0,0:0:0:0:
448,192,102600,1,0,0:0:0:0:
64,192,102649,1,0,0:0:0:0:
320,192,102698,1,0,0:0:0:0:
192,192,102748,1,0,0:0:0:0:
64,192,102896,1,0,0:0:0:0:
448,192,102994,1,0,0:0:0:0:
320,192,103192,1,0,0:0:0:0:
192,192,103192,1,0,0:0:0:0:
64,192,103192,1,0,0:0:0:0:
448,192,103290,1,0,0:0:0:0:
64,192,103389,1,0,0:0:0:0:
448,192,103587,1,0,0:0:0:0:
320,192,103587,1,0,0:0:0:0:
192,192,103587,1,0,0:0:0:0:
64,192,103685,1,0,0:0:0:0:
320,192,103784,1,0,0:0:0:0:
448,192,103981,1,0,0:0:0:0:
192,192,103981,1,0,0:0:0:0:
64,192,103981,1,0,0:0:0:0:
320,192,104080,1,0,0:0:0:0:
192,192,104179,1,0,0:0:0:0:
448,192,104277,1,0,0:0:0:0:
320,192,104376,1,0,0:0:0:0:
192,192,104376,1,0,0:0:0:0:
64,192,104376,1,0,0:0:0:0:
448,192,104672,1,0,0:0:0:0:
64,192,104771,1,0,0:0:0:0:
64,192,104869,1,0,0:0:0:0:
448,192,104968,1,0,0:0:0:0:
64,192,105067,1,0,0:0:0:0:
448,192,105165,1,0,0:0:0:0:
448,192,105264,1,0,0:0:0:0:
192,192,105462,1,0,0:0:0:0:
320,192,105560,1,0,0:0:0:0:
320,192,105659,1,0,0:0:0:0:
192,192,105758,1,0,0:0:0:0:
320,192,105856,1,0,0:0:0:0:
64,192,105955,1,0,0:0:0:0:
64,192,106054,1,0,0:0:0:0:
448,192,106152,1,0,0:0:0:0:
64,192,106251,1,0,0:0:0:0:
320,192,106350,1,0,0:0:0:0:
320,192,106448,1,0,0:0:0:0:
192,192,106547,1,0,0:0:0:0:
320,192,106646,1,0,0:0:0:0:
64,192,106744,1,0,0:0:0:0:
64,192,106843,128,0,107040:0:0:0:0:
192,192,107040,1,0,0:0:0:0:
448,192,107139,1,0,0:0:0:0:
448,192,107238,1,0,0:0:0:0:
192,192,107337,1,0,0:0:0:0:
320,192,107435,1,0,0:0:0:0:
64,192,107534,128,0,107731:0:0:0:0:
64,192,107830,1,0,0:0:0:0:
320,192,107929,1,0,0:0:0:0:
320,192,108027,1,0,0:0:0:0:
192,192,108126,1,0,0:0:0:0:
320,192,108225,1,0,0:0:0:0:
192,192,108323,1,0,0:0:0:0:
192,192,108422,1,0,0:0:0:0:
448,192,108619,1,0,0:0:0:0:
64,192,108718,1,0,0:0:0:0:
64,192,108817,1,0,0:0:0:0:
448,192,108915,1,0,0:0:0:0:
64,192,109014,1,0,0:0:0:0:
320,192,109113,1,0,0:0:0:0:
320,192,109212,1,0,0:0:0:0:
192,192,109310,1,0,0:0:0:0:
320,192,109409,1,0,0:0:0:0:
64,192,109508,1,0,0:0:0:0:
64,192,109606,1,0,0:0:0:0:
320,192,109705,1,0,0:0:0:0:
192,192,109754,1,0,0:0:0:0:
448,192,109804,1,0,0:0:0:0:
64,192,109853,1,0,0:0:0:0:
320,192,109902,1,0,0:0:0:0:
64,192,110001,1,0,0:0:0:0:
192,192,110100,1,0,0:0:0:0:
448,192,110198,1,0,0:0:0:0:
320,192,110297,1,0,0:0:0:0:
64,192,110396,1,0,0:0:0:0:
192,192,110494,1,0,0:0:0:0:
448,192,110593,1,0,0:0:0:0:
320,192,110692,128,0,110889:0:0:0:0:
64,192,110692,1,0,0:0:0:0:
192,192,110790,1,0,0:0:0:0:
448,192,110889,1,0,0:0:0:0:
64,192,110889,1,0,0:0:0:0:
192,192,110988,1,0,0:0:0:0:
320,192,111087,1,0,0:0:0:0:
64,192,111087,1,0,0:0:0:0:
320,192,111185,1,0,0:0:0:0:
192,192,111284,1,0,0:0:0:0:
64,192,111284,1,0,0:0:0:0:
448,192,111383,1,0,0:0:0:0:
320,192,111481,1,0,0:0:0:0:
192,192,111481,1,0,0:0:0:0:
192,192,111580,1,0,0:0:0:0:
448,192,111744,1,0,0:0:0:0:
320,192,111744,1,0,0:0:0:0:
64,192,111876,1,0,0:0:0:0:
64,192,111975,1,0,0:0:0:0:
448,192,112106,1,0,0:0:0:0:
192,192,112106,1,0,0:0:0:0:
320,192,112271,1,0,0:0:0:0:
64,192,112271,1,0,0:0:0:0:
320,192,112369,1,0,0:0:0:0:
192,192,112468,1,0,0:0:0:0:
64,192,112468,1,0,0:0:0:0:
448,192,112567,1,0,0:0:0:0:
320,192,112665,1,0,0:0:0:0:
192,192,112665,1,0,0:0:0:0:
192,192,112764,1,0,0:0:0:0:
320,192,112912,1,0,0:0:0:0:
64,192,112912,1,0,0:0:0:0:
448,192,113060,1,0,0:0:0:0:
192,192,113060,1,0,0:0:0:0:
448,192,113159,1,0,0:0:0:0:
192,192,113290,1,0,0:0:0:0:
320,192,113455,1,0,0:0:0:0:
64,192,113455,1,0,0:0:0:0:
64,192,113554,1,0,0:0:0:0:
448,192,113652,1,0,0:0:0:0:
320,192,113718,1,0,0:0:0:0:
192,192,113784,1,0,0:0:0:0:
448,192,113850,1,0,0:0:0:0:
64,192,113850,128,0,114047:0:0:0:0:
320,192,114047,1,0,0:0:0:0:
192,192,114047,1,0,0:0:0:0:
448,192,114244,1,0,0:0:0:0:
192,192,114244,1,0,0:0:0:0:
448,192,114343,1,0,0:0:0:0:
320,192,114491,1,0,0:0:0:0:
64,192,114491,1,0,0:0:0:0:
320,192,114639,1,0,0:0:0:0:
192,192,114639,1,0,0:0:0:0:
192,192,114738,1,0,0:0:0:0:
448,192,114902,1,0,0:0:0:0:
64,192,114902,1,0,0:0:0:0:
320,192,115034,1,0,0:0:0:0:
192,192,115034,1,0,0:0:0:0:
320,192,115133,1,0,0:0:0:0:
448,192,115281,1,0,0:0:0:0:
192,192,115281,1,0,0:0:0:0:
64,192,115429,1,0,0:0:0:0:
448,192,115527,1,0,0:0:0:0:
64,192,115527,1,0,0:0:0:0:
320,192,115626,1,0,0:0:0:0:
448,192,115725,1,0,0:0:0:0:
192,192,115823,1,0,0:0:0:0:
64,192,115823,1,0,0:0:0:0:
192,192,115922,1,0,0:0:0:0:
320,192,116087,1,0,0:0:0:0:
64,192,116087,1,0,0:0:0:0:
448,192,116218,1,0,0:0:0:0:
192,192,116218,1,0,0:0:0:0:
448,192,116317,1,0,0:0:0:0:
320,192,116465,1,0,0:0:0:0:
192,192,116465,1,0,0:0:0:0:
64,192,116613,1,0,0:0:0:0:
192,192,116679,1,0,0:0:0:0:
448,192,116744,1,0,0:0:0:0:
320,192,116810,1,0,0:0:0:0:
64,192,116876,1,0,0:0:0:0:
192,192,116942,1,0,0:0:0:0:
448,192,117008,128,0,117205:0:0:0:0:
320,192,117008,1,0,0:0:0:0:
192,192,117205,1,0,0:0:0:0:
64,192,117205,1,0,0:0:0:0:
448,192,117402,1,0,0:0:0:0:
64,192,117402,1,0,0:0:0:0:
64,192,117501,1,0,0:0:0:0:
448,192,117633,1,0,0:0:0:0:
192,192,117633,1,0,0:0:0:0:
320,192,117797,1,0,0:0:0:0:
192,192,117797,1,0,0:0:0:0:
320,192,117896,1,0,0:0:0:0:
448,192,118044,1,0,0:0:0:0:
64,192,118044,1,0,0:0:0:0:
448,192,118192,1,0,0:0:0:0:
192,192,118192,1,0,0:0:0:0:
192,192,118290,1,0,0:0:0:0:
320,192,118422,1,0,0:0:0:0:
64,192,118422,1,0,0:0:0:0:
448,192,118587,1,0,0:0:0:0:
192,192,118587,1,0,0:0:0:0:
448,192,118685,1,0,0:0:0:0:
320,192,118784,1,0,0:0:0:0:
64,192,118784,1,0,0:0:0:0:
192,192,118883,1,0,0:0:0:0:
448,192,118981,1,0,0:0:0:0:
64,192,118981,1,0,0:0:0:0:
64,192,119080,1,0,0:0:0:0:
320,192,119179,1,0,0:0:0:0:
192,192,119277,1,0,0:0:0:0:
64,192,119277,1,0,0:0:0:0:
448,192,119376,1,0,0:0:0:0:
320,192,119376,1,0,0:0:0:0:
448,192,119573,1,0,0:0:0:0:
64,192,119573,1,0,0:0:0:0:
320,192,119771,1,0,0:0:0:0:
192,192,119771,1,0,0:0:0:0:
320,192,119968,1,0,0:0:0:0:
64,192,119968,1,0,0:0:0:0:
192,192,120165,1,0,0:0:0:0:
64,192,120165,1,0,0:0:0:0:
448,192,120363,1,0,0:0:0:0:
320,192,120462,1,0,0:0:0:0:
448,192,120560,1,0,0:0:0:0:
64,192,120560,1,0,0:0:0:0:
64,192,120659,1,0,0:0:0:0:
320,192,120758,1,0,0:0:0:0:
192,192,120758,1,0,0:0:0:0:
448,192,120856,1,0,0:0:0:0:
320,192,120955,1,0,0:0:0:0:
64,192,120955,1,0,0:0:0:0:
320,192,121054,1,0,0:0:0:0:
192,192,121152,1,0,0:0:0:0:
64,192,121152,1,0,0:0:0:0:
448,192,121251,1,0,0:0:0:0:
192,192,121350,1,0,0:0:0:0:
192,192,121448,1,0,0:0:0:0:
448,192,121547,1,0,0:0:0:0:
320,192,121547,1,0,0:0:0:0:
64,192,121646,1,0,0:0:0:0:
448,192,121744,1,0,0:0:0:0:
192,192,121744,1,0,0:0:0:0:
448,192,121843,1,0,0:0:0:0:
320,192,121942,1,0,0:0:0:0:
64,192,121942,1,0,0:0:0:0:
320,192,122139,1,0,0:0:0:0:
192,192,122139,1,0,0:0:0:0:
192,192,122238,1,0,0:0:0:0:
448,192,122402,1,0,0:0:0:0:
64,192,122402,1,0,0:0:0:0:
320,192,122534,1,0,0:0:0:0:
448,192,122600,1,0,0:0:0:0:
192,192,122665,1,0,0:0:0:0:
64,192,122731,1,0,0:0:0:0:
320,192,122797,1,0,0:0:0:0:
448,192,122863,1,0,0:0:0:0:
192,192,122929,1,0,0:0:0:0:
64,192,122994,1,0,0:0:0:0:
320,192,123060,1,0,0:0:0:0:
448,192,123126,1,0,0:0:0:0:
192,192,123192,1,0,0:0:0:0:
64,192,123258,1,0,0:0:0:0:
448,192,123323,1,0,0:0:0:0:
320,192,123323,1,0,0:0:0:0:
64,192,123521,1,0,0:0:0:0:
320,192,123619,1,0,0:0:0:0:
192,192,123718,1,0,0:0:0:0:
64,192,123817,1,0,0:0:0:0:
192,192,123915,1,0,0:0:0:0:
448,192,124014,1,0,0:0:0:0:
320,192,124113,1,0,0:0:0:0:
64,192,124113,1,0,0:0:0:0:
448,192,124310,1,0,0:0:0:0:
192,192,124409,1,0,0:0:0:0:
320,192,124508,1,0,0:0:0:0:
448,192,124606,1,0,0:0:0:0:
320,192,124705,1,0,0:0:0:0:
64,192,124804,1,0,0:0:0:0:
448,192,124902,1,0,0:0:0:0:
192,192,124902,1,0,0:0:0:0:
64,192,125100,1,0,0:0:0:0:
320,192,125198,1,0,0:0:0:0:
192,192,125297,1,0,0:0:0:0:
64,192,125396,1,0,0:0:0:0:
192,192,125494,1,0,0:0:0:0:
448,192,125593,1,0,0:0:0:0:
320,192,125692,1,0,0:0:0:0:
64,192,125692,1,0,0:0:0:0:
448,192,125889,1,0,0:0:0:0:
320,192,125988,1,0,0:0:0:0:
448,192,126087,1,0,0:0:0:0:
64,192,126284,1,0,0:0:0:0:
192,192,126383,1,0,0:0:0:0:
448,192,126481,1,0,0:0:0:0:
320,192,126481,1,0,0:0:0:0:
64,192,126481,1,0,0:0:0:0:
448,192,126679,1,0,0:0:0:0:
192,192,126777,1,0,0:0:0:0:
320,192,126876,1,0,0:0:0:0:
448,192,126975,1,0,0:0:0:0:
320,192,127073,1,0,0:0:0:0:
64,192,127172,1,0,0:0:0:0:
448,192,127271,1,0,0:0:0:0:
192,192,127271,1,0,0:0:0:0:
64,192,127468,1,0,0:0:0:0:
320,192,127567,1,0,0:0:0:0:
192,192,127665,1,0,0:0:0:0:
64,192,127764,1,0,0:0:0:0:
192,192,127863,1,0,0:0:0:0:
448,192,128060,1,0,0:0:0:0:
320,192,128060,1,0,0:0:0:0:
64,192,128060,1,0,0:0:0:0:
192,192,128258,1,0,0:0:0:0:
64,192,128356,1,0,0:0:0:0:
320,192,128455,1,0,0:0:0:0:
448,192,128554,1,0,0:0:0:0:
320,192,128652,1,0,0:0:0:0:
448,192,128850,1,0,0:0:0:0:
192,192,128850,1,0,0:0:0:0:
64,192,128850,1,0,0:0:0:0:
320,192,129047,1,0,0:0:0:0:
448,192,129146,1,0,0:0:0:0:
64,192,129244,1,0,0:0:0:0:
192,192,129310,1,0,0:0:0:0:
448,192,129376,1,0,0:0:0:0:
320,192,129442,1,0,0:0:0:0:
64,192,129508,1,0,0:0:0:0:
192,192,129573,1,0,0:0:0:0:
448,192,129639,1,0,0:0:0:0:
320,192,129639,1,0,0:0:0:0:
448,192,129837,1,0,0:0:0:0:
192,192,129837,1,0,0:0:0:0:
64,192,129935,1,0,0:0:0:0:
448,192,130034,1,0,0:0:0:0:
320,192,130034,1,0,0:0:0:0:
448,192,130231,1,0,0:0:0:0:
192,192,130231,1,0,0:0:0:0:
320,192,130330,1,0,0:0:0:0:
192,192,130429,1,0,0:0:0:0:
64,192,130429,1,0,0:0:0:0:
320,192,130626,1,0,0:0:0:0:
64,192,130626,1,0,0:0:0:0:
448,192,130725,1,0,0:0:0:0:
192,192,130823,1,0,0:0:0:0:
64,192,130823,1,0,0:0:0:0:
320,192,131021,1,0,0:0:0:0:
64,192,131021,1,0,0:0:0:0:
192,192,131119,1,0,0:0:0:0:
448,192,131218,1,0,0:0:0:0:
320,192,131218,1,0,0:0:0:0:
64,192,131218,1,0,0:0:0:0:
448,192,131415,1,0,0:0:0:0:
192,192,131415,1,0,0:0:0:0:
64,192,131514,1,0,0:0:0:0:
448,192,131613,1,0,0:0:0:0:
320,192,131613,1,0,0:0:0:0:
448,192,131810,1,0,0:0:0:0:
192,192,131810,1,0,0:0:0:0:
320,192,131909,1,0,0:0:0:0:
192,192,132008,1,0,0:0:0:0:
64,192,132008,1,0,0:0:0:0:
320,192,132205,1,0,0:0:0:0:
64,192,132205,1,0,0:0:0:0:
448,192,132304,1,0,0:0:0:0:
192,192,132402,1,0,0:0:0:0:
64,192,132402,1,0,0:0:0:0:
320,192,132600,1,0,0:0:0:0:
64,192,132600,1,0,0:0:0:0:
192,192,132698,1,0,0:0:0:0:
448,192,132797,1,0,0:0:0:0:
320,192,132797,1,0,0:0:0:0:
448,192,132896,1,0,0:0:0:0:
192,192,132994,1,0,0:0:0:0:
64,192,132994,1,0,0:0:0:0:
64,192,133093,1,0,0:0:0:0:
448,192,133192,1,0,0:0:0:0:
320,192,133192,1,0,0:0:0:0:
320,192,133290,1,0,0:0:0:0:
192,192,133389,1,0,0:0:0:0:
64,192,133389,1,0,0:0:0:0:
192,192,133488,1,0,0:0:0:0:
448,192,133587,1,0,0:0:0:0:
320,192,133587,1,0,0:0:0:0:
448,192,133685,1,0,0:0:0:0:
192,192,133784,1,0,0:0:0:0:
64,192,133784,1,0,0:0:0:0:
64,192,133883,1,0,0:0:0:0:
448,192,133981,1,0,0:0:0:0:
320,192,134031,1,0,0:0:0:0:
64,192,134080,1,0,0:0:0:0:
192,192,134129,1,0,0:0:0:0:
448,192,134179,1,0,0:0:0:0:
320,192,134228,1,0,0:0:0:0:
64,192,134277,1,0,0:0:0:0:
192,192,134327,1,0,0:0:0:0:
448,192,134376,1,0,0:0:0:0:
64,192,134869,1,0,0:0:0:0:
320,192,134968,1,0,0:0:0:0:
192,192,135067,1,0,0:0:0:0:
320,192,135165,1,0,0:0:0:0:
64,192,135264,1,0,0:0:0:0:
448,192,135363,1,0,0:0:0:0:
192,192,135560,1,0,0:0:0:0:
64,192,135708,1,0,0:0:0:0:
448,192,135807,1,0,0:0:0:0:
320,192,135955,1,0,0:0:0:0:
192,192,135955,128,0,136251:0:0:0:0:
64,192,135955,1,0,0:0:0:0:
64,192,136251,1,0,0:0:0:0:
448,192,136350,1,0,0:0:0:0:
320,192,136399,1,0,0:0:0:0:
192,192,136448,1,0,0:0:0:0:
64,192,136498,1,0,0:0:0:0:
448,192,136547,1,0,0:0:0:0:
320,192,136596,1,0,0:0:0:0:
192,192,136646,1,0,0:0:0:0:
64,192,136744,1,0,0:0:0:0:
64,192,136942,1,0,0:0:0:0:
448,192,137040,128,0,137238:0:0:0:0:
192,192,137238,1,0,0:0:0:0:
64,192,137337,1,0,0:0:0:0:
192,192,137435,1,0,0:0:0:0:
320,192,137534,1,0,0:0:0:0:
320,192,137731,1,0,0:0:0:0:
64,192,137830,128,0,138027:0:0:0:0:
448,192,138027,1,0,0:0:0:0:
320,192,138126,1,0,0:0:0:0:
448,192,138225,1,0,0:0:0:0:
192,192,138323,1,0,0:0:0:0:
192,192,138521,1,0,0:0:0:0:
448,192,138619,128,0,138817:0:0:0:0:
64,192,138817,1,0,0:0:0:0:
192,192,138915,1,0,0:0:0:0:
64,192,139014,1,0,0:0:0:0:
448,192,139113,1,0,0:0:0:0:
192,192,139310,1,0,0:0:0:0:
448,192,139508,1,0,0:0:0:0:
320,192,139705,1,0,0:0:0:0:
448,192,139771,1,0,0:0:0:0:
192,192,139837,1,0,0:0:0:0:
320,192,139902,1,0,0:0:0:0:
64,192,140100,1,0,0:0:0:0:
320,192,140297,1,0,0:0:0:0:
192,192,140494,1,0,0:0:0:0:
64,192,140560,1,0,0:0:0:0:
320,192,140626,1,0,0:0:0:0:
192,192,140692,1,0,0:0:0:0:
192,192,140790,1,0,0:0:0:0:
320,192,140889,1,0,0:0:0:0:
320,192,140988,1,0,0:0:0:0:
64,192,141087,1,0,0:0:0:0:
64,192,141185,1,0,0:0:0:0:
448,192,141284,1,0,0:0:0:0:
448,192,141383,1,0,0:0:0:0:
192,192,141481,1,0,0:0:0:0:
64,192,141531,1,0,0:0:0:0:
320,192,141580,1,0,0:0:0:0:
448,192,141629,1,0,0:0:0:0:
192,192,141679,1,0,0:0:0:0:
64,192,141728,1,0,0:0:0:0:
320,192,141777,1,0,0:0:0:0:
448,192,141827,1,0,0:0:0:0:
192,192,141876,128,0,142271:0:0:0:0:
448,192,142271,128,0,142665:0:0:0:0:
320,192,142271,1,0,0:0:0:0:
64,192,142271,1,0,0:0:0:0:
320,192,142665,1,0,0:0:0:0:
192,192,142665,1,0,0:0:0:0:
64,192,142764,1,0,0:0:0:0:
192,192,142863,1,0,0:0:0:0:
64,192,142962,1,0,0:0:0:0:
448,192,143060,1,0,0:0:0:0:
320,192,143060,1,0,0:0:0:0:
192,192,143159,1,0,0:0:0:0:
320,192,143258,1,0,0:0:0:0:
448,192,143356,128,0,143554:0:0:0:0:
192,192,143455,1,0,0:0:0:0:
64,192,143455,1,0,0:0:0:0:
320,192,143554,1,0,0:0:0:0:
64,192,143652,1,0,0:0:0:0:
448,192,143751,1,0,0:0:0:0:
320,192,143850,1,0,0:0:0:0:
192,192,143850,1,0,0:0:0:0:
448,192,143948,1,0,0:0:0:0:
192,192,144047,1,0,0:0:0:0:
64,192,144146,128,0,144343:0:0:0:0:
448,192,144244,1,0,0:0:0:0:
320,192,144244,1,0,0:0:0:0:
192,192,144343,1,0,0:0:0:0:
448,192,144442,1,0,0:0:0:0:
64,192,144540,1,0,0:0:0:0:
320,192,144639,1,0,0:0:0:0:
192,192,144639,1,0,0:0:0:0:
64,192,144738,1,0,0:0:0:0:
320,192,144837,1,0,0:0:0:0:
448,192,144935,128,0,145133:0:0:0:0:
192,192,145034,1,0,0:0:0:0:
64,192,145034,1,0,0:0:0:0:
320,192,145133,1,0,0:0:0:0:
192,192,145231,1,0,0:0:0:0:
448,192,145330,1,0,0:0:0:0:
320,192,145429,1,0,0:0:0:0:
64,192,145429,1,0,0:0:0:0:
192,192,145527,128,0,145725:0:0:0:0:
320,192,145725,1,0,0:0:0:0:
448,192,145823,1,0,0:0:0:0:
64,192,145873,1,0,0:0:0:0:
192,192,145922,1,0,0:0:0:0:
320,192,145971,1,0,0:0:0:0:
448,192,146021,1,0,0:0:0:0:
64,192,146070,1,0,0:0:0:0:
192,192,146119,1,0,0:0:0:0:
320,192,146169,1,0,0:0:0:0:
448,192,146218,1,0,0:0:0:0:
64,192,146218,1,0,0:0:0:0:
192,192,146317,1,0,0:0:0:0:
320,192,146415,1,0,0:0:0:0:
448,192,146514,128,0,146712:0:0:0:0:
192,192,146613,1,0,0:0:0:0:
64,192,146613,1,0,0:0:0:0:
320,192,146712,1,0,0:0:0:0:
64,192,146810,1,0,0:0:0:0:
448,192,146909,1,0,0:0:0:0:
320,192,147008,1,0,0:0:0:0:
192,192,147008,1,0,0:0:0:0:
448,192,147106,1,0,0:0:0:0:
192,192,147205,1,0,0:0:0:0:
64,192,147304,128,0,147501:0:0:0:0:
448,192,147402,1,0,0:0:0:0:
320,192,147402,1,0,0:0:0:0:
192,192,147501,1,0,0:0:0:0:
448,192,147600,1,0,0:0:0:0:
320,192,147698,1,0,0:0:0:0:
192,192,147797,1,0,0:0:0:0:
64,192,147797,1,0,0:0:0:0:
192,192,147994,1,0,0:0:0:0:
64,192,147994,1,0,0:0:0:0:
448,192,148192,1,0,0:0:0:0:
320,192,148192,1,0,0:0:0:0:
192,192,148258,1,0,0:0:0:0:
64,192,148323,1,0,0:0:0:0:
448,192,148389,1,0,0:0:0:0:
320,192,148455,1,0,0:0:0:0:
192,192,148521,1,0,0:0:0:0:
448,192,148587,128,0,148981:0:0:0:0:
64,192,148587,1,0,0:0:0:0:
64,192,148784,1,0,0:0:0:0:
320,192,148981,1,0,0:0:0:0:
192,192,148981,1,0,0:0:0:0:
64,192,149080,1,0,0:0:0:0:
192,192,149179,1,0,0:0:0:0:
448,192,149277,1,0,0:0:0:0:
320,192,149277,1,0,0:0:0:0:
448,192,149376,1,0,0:0:0:0:
320,192,149376,1,0,0:0:0:0:
192,192,149475,1,0,0:0:0:0:
64,192,149573,1,0,0:0:0:0:
192,192,149672,1,0,0:0:0:0:
448,192,149771,1,0,0:0:0:0:
64,192,149771,1,0,0:0:0:0:
320,192,149869,1,0,0:0:0:0:
192,192,149968,1,0,0:0:0:0:
320,192,150067,1,0,0:0:0:0:
192,192,150165,1,0,0:0:0:0:
64,192,150165,1,0,0:0:0:0:
448,192,150264,1,0,0:0:0:0:
320,192,150363,1,0,0:0:0:0:
448,192,150462,1,0,0:0:0:0:
320,192,150560,1,0,0:0:0:0:
192,192,150560,1,0,0:0:0:0:
64,192,150659,1,0,0:0:0:0:
448,192,150758,1,0,0:0:0:0:
64,192,150856,1,0,0:0:0:0:
448,192,150955,1,0,0:0:0:0:
320,192,150955,1,0,0:0:0:0:
192,192,151054,1,0,0:0:0:0:
64,192,151152,1,0,0:0:0:0:
192,192,151251,1,0,0:0:0:0:
320,192,151350,1,0,0:0:0:0:
64,192,151350,1,0,0:0:0:0:
448,192,151448,1,0,0:0:0:0:
192,192,151547,1,0,0:0:0:0:
448,192,151646,1,0,0:0:0:0:
192,192,151744,1,0,0:0:0:0:
64,192,151744,1,0,0:0:0:0:
320,192,151843,128,0,152040:0:0:0:0:
192,192,152040,1,0,0:0:0:0:
64,192,152139,1,0,0:0:0:0:
448,192,152189,1,0,0:0:0:0:
320,192,152238,1,0,0:0:0:0:
192,192,152287,1,0,0:0:0:0:
64,192,152337,1,0,0:0:0:0:
448,192,152386,1,0,0:0:0:0:
320,192,152435,1,0,0:0:0:0:
192,192,152485,1,0,0:0:0:0:
448,192,152534,1,0,0:0:0:0:
64,192,152534,1,0,0:0:0:0:
320,192,152633,1,0,0:0:0:0:
192,192,152731,1,0,0:0:0:0:
448,192,152830,128,0,153027:0:0:0:0:
192,192,152929,1,0,0:0:0:0:
64,192,152929,1,0,0:0:0:0:
320,192,153027,1,0,0:0:0:0:
64,192,153126,1,0,0:0:0:0:
448,192,153225,1,0,0:0:0:0:
320,192,153323,1,0,0:0:0:0:
192,192,153323,1,0,0:0:0:0:
448,192,153422,1,0,0:0:0:0:
64,192,153521,1,0,0:0:0:0:
320,192,153619,1,0,0:0:0:0:
192,192,153619,1,0,0:0:0:0:
448,192,153718,1,0,0:0:0:0:
320,192,153915,1,0,0:0:0:0:
64,192,153915,1,0,0:0:0:0:
448,192,154014,1,0,0:0:0:0:
192,192,154113,1,0,0:0:0:0:
64,192,154310,1,0,0:0:0:0:
448,192,154508,1,0,0:0:0:0:
192,192,154540,1,0,0:0:0:0:
64,192,154573,1,0,0:0:0:0:
320,192,154705,1,0,0:0:0:0:
448,192,154902,128,0,155297:0:0:0:0:
192,192,154902,128,0,155297:0:0:0:0:
64,192,154902,128,0,155297:0:0:0:0:
320,192,155494,1,0,0:0:0:0:
448,192,155544,1,0,0:0:0:0:
192,192,155593,1,0,0:0:0:0:
64,192,155642,1,0,0:0:0:0:
448,192,155692,1,0,0:0:0:0:
320,192,155692,1,0,0:0:0:0:
192,192,155790,1,0,0:0:0:0:
64,192,155889,1,0,0:0:0:0:
448,192,155988,1,0,0:0:0:0:
320,192,156087,1,0,0:0:0:0:
192,192,156087,1,0,0:0:0:0:
64,192,156087,1,0,0:0:0:0:
448,192,156185,1,0,0:0:0:0:
192,192,156284,1,0,0:0:0:0:
320,192,156350,1,0,0:0:0:0:
64,192,156415,1,0,0:0:0:0:
448,192,156481,1,0,0:0:0:0:
320,192,156481,1,0,0:0:0:0:
192,192,156481,1,0,0:0:0:0:
64,192,156580,1,0,0:0:0:0:
448,192,156679,1,0,0:0:0:0:
320,192,156777,1,0,0:0:0:0:
448,192,156876,1,0,0:0:0:0:
192,192,156876,1,0,0:0:0:0:
64,192,156876,1,0,0:0:0:0:
320,192,156975,1,0,0:0:0:0:
64,192,157073,1,0,0:0:0:0:
192,192,157172,1,0,0:0:0:0:
448,192,157271,1,0,0:0:0:0:
320,192,157271,1,0,0:0:0:0:
64,192,157271,1,0,0:0:0:0:
192,192,157369,1,0,0:0:0:0:
448,192,157468,1,0,0:0:0:0:
64,192,157468,1,0,0:0:0:0:
320,192,157567,1,0,0:0:0:0:
448,192,157665,1,0,0:0:0:0:
192,192,157665,1,0,0:0:0:0:
64,192,157665,1,0,0:0:0:0:
320,192,157764,1,0,0:0:0:0:
448,192,158060,1,0,0:0:0:0:
320,192,158060,1,0,0:0:0:0:
64,192,158060,1,0,0:0:0:0:
192,192,158159,128,0,158356:0:0:0:0:
448,192,158356,1,0,0:0:0:0:
320,192,158455,1,0,0:0:0:0:
192,192,158504,1,0,0:0:0:0:
64,192,158554,1,0,0:0:0:0:
448,192,158603,1,0,0:0:0:0:
320,192,158652,1,0,0:0:0:0:
192,192,158751,1,0,0:0:0:0:
448,192,158850,1,0,0:0:0:0:
320,192,158850,1,0,0:0:0:0:
64,192,158850,1,0,0:0:0:0:
192,192,158948,1,0,0:0:0:0:
448,192,159047,1,0,0:0:0:0:
64,192,159146,1,0,0:0:0:0:
448,192,159244,1,0,0:0:0:0:
320,192,159244,1,0,0:0:0:0:
192,192,159244,1,0,0:0:0:0:
64,192,159343,1,0,0:0:0:0:
320,192,159442,1,0,0:0:0:0:
192,192,159508,1,0,0:0:0:0:
448,192,159573,1,0,0:0:0:0:
320,192,159639,1,0,0:0:0:0:
192,192,159639,1,0,0:0:0:0:
64,192,159639,1,0,0:0:0:0:
448,192,159738,1,0,0:0:0:0:
64,192,159837,1,0,0:0:0:0:
192,192,159935,1,0,0:0:0:0:
448,192,160034,1,0,0:0:0:0:
320,192,160034,1,0,0:0:0:0:
64,192,160034,1,0,0:0:0:0:
192,192,160133,1,0,0:0:0:0:
448,192,160231,1,0,0:0:0:0:
320,192,160330,1,0,0:0:0:0:
64,192,160429,1,0,0:0:0:0:
192,192,160494,1,0,0:0:0:0:
448,192,160560,1,0,0:0:0:0:
320,192,160626,1,0,0:0:0:0:
64,192,160692,1,0,0:0:0:0:
192,192,160758,1,0,0:0:0:0:
448,192,160823,128,0,161021:0:0:0:0:
320,192,160823,1,0,0:0:0:0:
192,192,161021,128,0,161218:0:0:0:0:
448,192,161218,1,0,0:0:0:0:
320,192,161218,1,0,0:0:0:0:
64,192,161218,1,0,0:0:0:0:
192,192,161415,1,0,0:0:0:0:
320,192,161465,1,0,0:0:0:0:
64,192,161514,1,0,0:0:0:0:
448,192,161564,1,0,0:0:0:0:
320,192,161613,1,0,0:0:0:0:
192,192,161613,1,0,0:0:0:0:
448,192,161712,1,0,0:0:0:0:
64,192,161712,1,0,0:0:0:0:
320,192,161909,1,0,0:0:0:0:
192,192,161909,1,0,0:0:0:0:
448,192,162106,1,0,0:0:0:0:
320,192,162106,1,0,0:0:0:0:
64,192,162205,1,0,0:0:0:0:
192,192,162254,1,0,0:0:0:0:
448,192,162304,1,0,0:0:0:0:
320,192,162353,1,0,0:0:0:0:
192,192,162402,1,0,0:0:0:0:
64,192,162402,1,0,0:0:0:0:
448,192,162600,1,0,0:0:0:0:
320,192,162600,1,0,0:0:0:0:
448,192,162797,1,0,0:0:0:0:
192,192,162797,1,0,0:0:0:0:
64,192,162797,1,0,0:0:0:0:
320,192,162896,1,0,0:0:0:0:
64,192,162896,1,0,0:0:0:0:
448,192,162994,1,0,0:0:0:0:
192,192,162994,1,0,0:0:0:0:
320,192,163093,1,0,0:0:0:0:
192,192,163192,1,0,0:0:0:0:
64,192,163192,1,0,0:0:0:0:
448,192,163290,1,0,0:0:0:0:
320,192,163290,1,0,0:0:0:0:
192,192,163389,1,0,0:0:0:0:
448,192,163488,1,0,0:0:0:0:
64,192,163488,1,0,0:0:0:0:
320,192,163587,1,0,0:0:0:0:
192,192,163685,1,0,0:0:0:0:
64,192,163685,1,0,0:0:0:0:
448,192,163784,1,0,0:0:0:0:
320,192,163833,1,0,0:0:0:0:
64,192,163883,1,0,0:0:0:0:
192,192,163932,1,0,0:0:0:0:
448,192,163981,1,0,0:0:0:0:
320,192,163981,1,0,0:0:0:0:
192,192,164179,1,0,0:0:0:0:
448,192,164277,1,0,0:0:0:0:
320,192,164376,1,0,0:0:0:0:
192,192,164376,1,0,0:0:0:0:
64,192,164376,1,0,0:0:0:0:
192,192,164475,1,0,0:0:0:0:
64,192,164475,1,0,0:0:0:0:
448,192,164573,1,0,0:0:0:0:
320,192,164573,1,0,0:0:0:0:
192,192,164672,1,0,0:0:0:0:
64,192,164721,1,0,0:0:0:0:
448,192,164771,1,0,0:0:0:0:
320,192,164820,1,0,0:0:0:0:
192,192,164869,1,0,0:0:0:0:
64,192,164869,1,0,0:0:0:0:
192,192,164968,1,0,0:0:0:0:
64,192,164968,1,0,0:0:0:0:
448,192,165067,1,0,0:0:0:0:
448,192,165165,1,0,0:0:0:0:
320,192,165165,1,0,0:0:0:0:
192,192,165264,1,0,0:0:0:0:
64,192,165264,1,0,0:0:0:0:
448,192,165363,1,0,0:0:0:0:
320,192,165462,1,0,0:0:0:0:
64,192,165511,1,0,0:0:0:0:
192,192,165560,1,0,0:0:0:0:
448,192,165593,1,0,0:0:0:0:
320,192,165626,1,0,0:0:0:0:
64,192,165758,1,0,0:0:0:0:
192,192,165790,1,0,0:0:0:0:
448,192,165823,1,0,0:0:0:0:
320,192,165955,128,0,166481:0:0:0:0:
192,192,165955,128,0,167008:0:0:0:0:
64,192,165955,128,0,167534:0:0:0:0:
448,192,167534,1,0,0:0:0:0:
320,192,167534,1,0,0:0:0:0:
192,192,167534,1,0,0:0:0:0:
64,192,168323,1,0,0:0:0:0:
320,192,169113,1,0,0:0:0:0:
192,192,169902,1,0,0:0:0:0:
448,192,170494,1,0,0:0:0:0:
320,192,170692,1,0,0:0:0:0:
64,192,170692,1,0,0:0:0:0:
192,192,171087,1,0,0:0:0:0:
320,192,171481,1,0,0:0:0:0:
192,192,171876,1,0,0:0:0:0:
320,192,172271,1,0,0:0:0:0:
192,192,172665,1,0,0:0:0:0:
320,192,173060,1,0,0:0:0:0:
192,192,173455,1,0,0:0:0:0:
448,192,173850,1,0,0:0:0:0:
320,192,173850,128,0,174047:0:0:0:0:
64,192,173850,1,0,0:0:0:0:
192,192,174047,1,0,0:0:0:0:
64,192,174244,1,0,0:0:0:0:
192,192,174343,1,0,0:0:0:0:
320,192,174442,1,0,0:0:0:0:
64,192,174540,1,0,0:0:0:0:
448,192,174639,1,0,0:0:0:0:
320,192,174738,1,0,0:0:0:0:
192,192,174837,1,0,0:0:0:0:
448,192,174935,1,0,0:0:0:0:
64,192,175034,1,0,0:0:0:0:
192,192,175133,1,0,0:0:0:0:
320,192,175231,1,0,0:0:0:0:
64,192,175330,1,0,0:0:0:0:
448,192,175429,1,0,0:0:0:0:
320,192,175527,1,0,0:0:0:0:
192,192,175626,1,0,0:0:0:0:
448,192,175725,1,0,0:0:0:0:
64,192,175823,1,0,0:0:0:0:
192,192,175922,1,0,0:0:0:0:
320,192,176021,1,0,0:0:0:0:
64,192,176119,1,0,0:0:0:0:
448,192,176218,1,0,0:0:0:0:
320,192,176317,1,0,0:0:0:0:
192,192,176415,1,0,0:0:0:0:
448,192,176514,1,0,0:0:0:0:
64,192,176613,1,0,0:0:0:0:
192,192,176712,1,0,0:0:0:0:
320,192,176810,1,0,0:0:0:0:
64,192,176909,1,0,0:0:0:0:
448,192,177008,1,0,0:0:0:0:
192,192,177008,128,0,177205:0:0:0:0:
320,192,177205,1,0,0:0:0:0:
448,192,177402,1,0,0:0:0:0:
448,192,177501,1,0,0:0:0:0:
192,192,177600,1,0,0:0:0:0:
320,192,177698,1,0,0:0:0:0:
64,192,177797,1,0,0:0:0:0:
64,192,177896,1,0,0:0:0:0:
320,192,177994,1,0,0:0:0:0:
192,192,178093,1,0,0:0:0:0:
448,192,178192,1,0,0:0:0:0:
448,192,178290,1,0,0:0:0:0:
192,192,178389,1,0,0:0:0:0:
320,192,178488,1,0,0:0:0:0:
64,192,178587,1,0,0:0:0:0:
64,192,178685,1,0,0:0:0:0:
320,192,178784,1,0,0:0:0:0:
192,192,178883,1,0,0:0:0:0:
448,192,178981,1,0,0:0:0:0:
448,192,179080,1,0,0:0:0:0:
192,192,179179,1,0,0:0:0:0:
320,192,179277,1,0,0:0:0:0:
64,192,179376,1,0,0:0:0:0:
64,192,179475,1,0,0:0:0:0:
320,192,179573,1,0,0:0:0:0:
192,192,179672,1,0,0:0:0:0:
448,192,179771,1,0,0:0:0:0:
448,192,179869,1,0,0:0:0:0:
192,192,179968,1,0,0:0:0:0:
320,192,180067,1,0,0:0:0:0:
448,192,180165,1,0,0:0:0:0:
192,192,180165,1,0,0:0:0:0:
64,192,180165,1,0,0:0:0:0:
320,192,180363,1,0,0:0:0:0:
192,192,180462,1,0,0:0:0:0:
448,192,180560,1,0,0:0:0:0:
64,192,180560,1,0,0:0:0:0:
320,192,180659,1,0,0:0:0:0:
448,192,180758,1,0,0:0:0:0:
192,192,180856,1,0,0:0:0:0:
448,192,180955,1,0,0:0:0:0:
320,192,180955,1,0,0:0:0:0:
192,192,181152,1,0,0:0:0:0:
320,192,181251,1,0,0:0:0:0:
448,192,181350,1,0,0:0:0:0:
64,192,181350,1,0,0:0:0:0:
192,192,181448,1,0,0:0:0:0:
64,192,181547,1,0,0:0:0:0:
320,192,181646,1,0,0:0:0:0:
192,192,181744,1,0,0:0:0:0:
64,192,181744,1,0,0:0:0:0:
320,192,181942,1,0,0:0:0:0:
192,192,182040,1,0,0:0:0:0:
448,192,182139,1,0,0:0:0:0:
64,192,182139,1,0,0:0:0:0:
320,192,182238,1,0,0:0:0:0:
448,192,182337,1,0,0:0:0:0:
192,192,182435,1,0,0:0:0:0:
448,192,182534,1,0,0:0:0:0:
320,192,182534,1,0,0:0:0:0:
64,192,182731,1,0,0:0:0:0:
192,192,182830,1,0,0:0:0:0:
320,192,182929,1,0,0:0:0:0:
64,192,182929,1,0,0:0:0:0:
192,192,183126,1,0,0:0:0:0:
64,192,183225,1,0,0:0:0:0:
448,192,183323,1,0,0:0:0:0:
320,192,183323,1,0,0:0:0:0:
192,192,183323,1,0,0:0:0:0:
320,192,183521,1,0,0:0:0:0:
192,192,183619,1,0,0:0:0:0:
448,192,183718,1,0,0:0:0:0:
64,192,183718,1,0,0:0:0:0:
320,192,183817,1,0,0:0:0:0:
448,192,183915,1,0,0:0:0:0:
192,192,184014,1,0,0:0:0:0:
448,192,184113,1,0,0:0:0:0:
320,192,184113,1,0,0:0:0:0:
192,192,184310,1,0,0:0:0:0:
320,192,184409,1,0,0:0:0:0:
448,192,184508,1,0,0:0:0:0:
64,192,184508,1,0,0:0:0:0:
192,192,184606,1,0,0:0:0:0:
64,192,184705,1,0,0:0:0:0:
320,192,184902,1,0,0:0:0:0:
448,192,184902,1,0,0:0:0:0:
64,192,184902,1,0,0:0:0:0:
192,192,184902,1,0,0:0:0:0:
320,192,185100,1,0,0:0:0:0:
192,192,185198,1,0,0:0:0:0:
448,192,185297,1,0,0:0:0:0:
64,192,185297,1,0,0:0:0:0:
320,192,185396,1,0,0:0:0:0:
448,192,185494,1,0,0:0:0:0:
320,192,185692,1,0,0:0:0:0:
192,192,185692,1,0,0:0:0:0:
64,192,185758,1,0,0:0:0:0:
448,192,185823,1,0,0:0:0:0:
320,192,185889,1,0,0:0:0:0:
192,192,185955,1,0,0:0:0:0:
448,192,186021,1,0,0:0:0:0:
64,192,186087,1,0,0:0:0:0:
320,192,186284,1,0,0:0:0:0:
320,192,186481,1,0,0:0:0:0:
448,192,186481,1,0,0:0:0:0:
64,192,186481,1,0,0:0:0:0:
192,192,186481,1,0,0:0:0:0:
64,192,186679,1,0,0:0:0:0:
320,192,186777,1,0,0:0:0:0:
448,192,186876,1,0,0:0:0:0:
192,192,186876,1,0,0:0:0:0:
64,192,186876,1,0,0:0:0:0:
320,192,187073,1,0,0:0:0:0:
192,192,187172,1,0,0:0:0:0:
448,192,187271,1,0,0:0:0:0:
320,192,187271,1,0,0:0:0:0:
64,192,187271,1,0,0:0:0:0:
192,192,187468,1,0,0:0:0:0:
448,192,187567,1,0,0:0:0:0:
320,192,187665,1,0,0:0:0:0:
192,192,187665,1,0,0:0:0:0:
64,192,187665,1,0,0:0:0:0:
448,192,187863,1,0,0:0:0:0:
192,192,187962,1,0,0:0:0:0:
320,192,188060,1,0,0:0:0:0:
448,192,188060,1,0,0:0:0:0:
64,192,188060,1,0,0:0:0:0:
192,192,188060,1,0,0:0:0:0:
320,192,188258,1,0,0:0:0:0:
192,192,188356,1,0,0:0:0:0:
448,192,188455,1,0,0:0:0:0:
320,192,188455,1,0,0:0:0:0:
64,192,188455,1,0,0:0:0:0:
192,192,188652,1,0,0:0:0:0:
448,192,188751,1,0,0:0:0:0:
320,192,188850,1,0,0:0:0:0:
192,192,188850,1,0,0:0:0:0:
64,192,188850,1,0,0:0:0:0:
448,192,189047,1,0,0:0:0:0:
64,192,189146,1,0,0:0:0:0:
448,192,189244,1,0,0:0:0:0:
320,192,189244,1,0,0:0:0:0:
192,192,189244,1,0,0:0:0:0:
64,192,189442,1,0,0:0:0:0:
320,192,189540,1,0,0:0:0:0:
192,192,189639,1,0,0:0:0:0:
64,192,189639,1,0,0:0:0:0:
192,192,189738,1,0,0:0:0:0:
64,192,189738,1,0,0:0:0:0:
448,192,189837,1,0,0:0:0:0:
320,192,189837,1,0,0:0:0:0:
448,192,189935,1,0,0:0:0:0:
320,192,189935,1,0,0:0:0:0:
192,192,190034,1,0,0:0:0:0:
64,192,190034,1,0,0:0:0:0:
192,192,190133,1,0,0:0:0:0:
64,192,190133,1,0,0:0:0:0:
448,192,190231,1,0,0:0:0:0:
320,192,190231,1,0,0:0:0:0:
448,192,190330,1,0,0:0:0:0:
320,192,190330,1,0,0:0:0:0:
192,192,190429,1,0,0:0:0:0:
64,192,190429,1,0,0:0:0:0:
192,192,190527,1,0,0:0:0:0:
64,192,190527,1,0,0:0:0:0:
448,192,190626,1,0,0:0:0:0:
320,192,190626,1,0,0:0:0:0:
448,192,190725,1,0,0:0:0:0:
320,192,190725,1,0,0:0:0:0:
64,192,190823,1,0,0:0:0:0:
192,192,190873,1,0,0:0:0:0:
448,192,190922,1,0,0:0:0:0:
320,192,190971,1,0,0:0:0:0:
64,192,191021,1,0,0:0:0:0:
192,192,191070,1,0,0:0:0:0:
448,192,191119,1,0,0:0:0:0:
320,192,191169,1,0,0:0:0:0:
64,192,191218,1,0,0:0:0:0:
192,192,191383,1,0,0:0:0:0:
448,192,191465,1,0,0:0:0:0:
64,192,191712,1,0,0:0:0:0:
320,192,192008,1,0,0:0:0:0:
192,192,192402,1,0,0:0:0:0:
320,192,192481,1,0,0:0:0:0:
64,192,192560,1,0,0:0:0:0:
448,192,192639,1,0,0:0:0:0:
192,192,192718,1,0,0:0:0:0:
448,192,192797,1,0,0:0:0:0:
320,192,192797,1,0,0:0:0:0:
64,192,192797,1,0,0:0:0:0:
64,192,192994,1,0,0:0:0:0:
448,192,193093,1,0,0:0:0:0:
320,192,193093,1,0,0:0:0:0:
192,192,193093,1,0,0:0:0:0:
448,192,193290,1,0,0:0:0:0:
320,192,193389,1,0,0:0:0:0:
192,192,193389,1,0,0:0:0:0:
64,192,193389,1,0,0:0:0:0:
448,192,193587,128,0,193784:0:0:0:0:
320,192,193784,1,0,0:0:0:0:
64,192,193981,1,0,0:0:0:0:
192,192,194179,1,0,0:0:0:0:
448,192,194376,1,0,0:0:0:0:
320,192,194376,1,0,0:0:0:0:
64,192,194376,1,0,0:0:0:0:
192,192,194475,1,0,0:0:0:0:
448,192,194573,1,0,0:0:0:0:
320,192,194672,1,0,0:0:0:0:
64,192,194672,1,0,0:0:0:0:
192,192,194771,1,0,0:0:0:0:
64,192,194771,1,0,0:0:0:0:
448,192,194968,1,0,0:0:0:0:
320,192,194968,1,0,0:0:0:0:
192,192,195067,1,0,0:0:0:0:
64,192,195067,1,0,0:0:0:0:
448,192,195165,1,0,0:0:0:0:
320,192,195165,1,0,0:0:0:0:
192,192,195264,1,0,0:0:0:0:
448,192,195363,1,0,0:0:0:0:
320,192,195462,1,0,0:0:0:0:
64,192,195462,1,0,0:0:0:0:
192,192,195560,1,0,0:0:0:0:
64,192,195560,1,0,0:0:0:0:
448,192,195758,1,0,0:0:0:0:
320,192,195758,1,0,0:0:0:0:
192,192,195856,1,0,0:0:0:0:
64,192,195856,1,0,0:0:0:0:
448,192,195955,1,0,0:0:0:0:
320,192,195955,1,0,0:0:0:0:
192,192,196054,1,0,0:0:0:0:
448,192,196152,1,0,0:0:0:0:
320,192,196251,1,0,0:0:0:0:
64,192,196251,1,0,0:0:0:0:
448,192,196350,1,0,0:0:0:0:
64,192,196350,1,0,0:0:0:0:
192,192,196547,1,0,0:0:0:0:
64,192,196646,1,0,0:0:0:0:
448,192,196744,1,0,0:0:0:0:
320,192,196744,1,0,0:0:0:0:
192,192,196843,1,0,0:0:0:0:
448,192,196942,1,0,0:0:0:0:
320,192,196942,1,0,0:0:0:0:
64,192,197040,1,0,0:0:0:0:
448,192,197139,1,0,0:0:0:0:
64,192,197139,1,0,0:0:0:0:
320,192,197337,1,0,0:0:0:0:
192,192,197337,1,0,0:0:0:0:
448,192,197435,1,0,0:0:0:0:
320,192,197534,1,0,0:0:0:0:
192,192,197534,1,0,0:0:0:0:
64,192,197534,1,0,0:0:0:0:
448,192,197731,1,0,0:0:0:0:
64,192,197731,1,0,0:0:0:0:
320,192,197830,1,0,0:0:0:0:
448,192,197929,1,0,0:0:0:0:
192,192,197929,1,0,0:0:0:0:
64,192,198027,1,0,0:0:0:0:
320,192,198126,1,0,0:0:0:0:
192,192,198126,1,0,0:0:0:0:
448,192,198225,1,0,0:0:0:0:
320,192,198323,1,0,0:0:0:0:
64,192,198323,1,0,0:0:0:0:
192,192,198422,1,0,0:0:0:0:
448,192,198521,1,0,0:0:0:0:
192,192,198619,1,0,0:0:0:0:
64,192,198619,1,0,0:0:0:0:
448,192,198718,1,0,0:0:0:0:
320,192,198718,1,0,0:0:0:0:
64,192,198817,1,0,0:0:0:0:
320,192,198915,1,0,0:0:0:0:
192,192,198915,1,0,0:0:0:0:
448,192,199014,1,0,0:0:0:0:
64,192,199014,1,0,0:0:0:0:
320,192,199113,1,0,0:0:0:0:
192,192,199113,1,0,0:0:0:0:
448,192,199212,1,0,0:0:0:0:
192,192,199310,1,0,0:0:0:0:
64,192,199310,1,0,0:0:0:0:
448,192,199409,1,0,0:0:0:0:
320,192,199409,1,0,0:0:0:0:
64,192,199508,1,0,0:0:0:0:
320,192,199606,1,0,0:0:0:0:
192,192,199606,1,0,0:0:0:0:
448,192,199705,1,0,0:0:0:0:
64,192,199705,1,0,0:0:0:0:
320,192,199804,1,0,0:0:0:0:
448,192,199902,1,0,0:0:0:0:
192,192,199902,1,0,0:0:0:0:
64,192,200001,1,0,0:0:0:0:
320,192,200100,1,0,0:0:0:0:
192,192,200100,1,0,0:0:0:0:
448,192,200198,1,0,0:0:0:0:
64,192,200297,1,0,0:0:0:0:
192,192,200363,1,0,0:0:0:0:
448,192,200429,1,0,0:0:0:0:
320,192,200494,1,0,0:0:0:0:
64,192,200560,1,0,0:0:0:0:
192,192,200626,1,0,0:0:0:0:
448,192,200692,1,0,0:0:0:0:
320,192,200692,1,0,0:0:0:0:
192,192,200790,1,0,0:0:0:0:
448,192,200889,1,0,0:0:0:0:
320,192,200988,1,0,0:0:0:0:
64,192,200988,1,0,0:0:0:0:
192,192,201087,1,0,0:0:0:0:
64,192,201087,1,0,0:0:0:0:
448,192,201284,1,0,0:0:0:0:
320,192,201284,1,0,0:0:0:0:
192,192,201383,1,0,0:0:0:0:
64,192,201383,1,0,0:0:0:0:
448,192,201481,1,0,0:0:0:0:
320,192,201481,1,0,0:0:0:0:
192,192,201580,1,0,0:0:0:0:
448,192,201679,1,0,0:0:0:0:
320,192,201777,1,0,0:0:0:0:
64,192,201777,1,0,0:0:0:0:
192,192,201876,1,0,0:0:0:0:
64,192,201876,1,0,0:0:0:0:
448,192,202073,1,0,0:0:0:0:
320,192,202073,1,0,0:0:0:0:
192,192,202172,1,0,0:0:0:0:
64,192,202172,1,0,0:0:0:0:
448,192,202271,1,0,0:0:0:0:
320,192,202271,1,0,0:0:0:0:
192,192,202369,1,0,0:0:0:0:
448,192,202468,1,0,0:0:0:0:
320,192,202567,1,0,0:0:0:0:
64,192,202567,1,0,0:0:0:0:
448,192,202665,1,0,0:0:0:0:
64,192,202665,1,0,0:0:0:0:
192,192,202863,1,0,0:0:0:0:
64,192,202962,1,0,0:0:0:0:
448,192,203060,1,0,0:0:0:0:
320,192,203060,1,0,0:0:0:0:
192,192,203159,1,0,0:0:0:0:
448,192,203258,1,0,0:0:0:0:
320,192,203258,1,0,0:0:0:0:
64,192,203356,1,0,0:0:0:0:
448,192,203455,1,0,0:0:0:0:
64,192,203455,1,0,0:0:0:0:
320,192,203652,1,0,0:0:0:0:
192,192,203652,1,0,0:0:0:0:
448,192,203751,1,0,0:0:0:0:
320,192,203850,1,0,0:0:0:0:
192,192,203850,1,0,0:0:0:0:
64,192,203850,1,0,0:0:0:0:
448,192,204047,1,0,0:0:0:0:
64,192,204047,1,0,0:0:0:0:
320,192,204146,1,0,0:0:0:0:
448,192,204244,1,0,0:0:0:0:
192,192,204244,1,0,0:0:0:0:
64,192,204343,1,0,0:0:0:0:
320,192,204442,1,0,0:0:0:0:
192,192,204442,1,0,0:0:0:0:
64,192,204540,1,0,0:0:0:0:
448,192,204639,1,0,0:0:0:0:
320,192,204639,1,0,0:0:0:0:
192,192,204738,1,0,0:0:0:0:
448,192,204837,1,0,0:0:0:0:
64,192,204837,1,0,0:0:0:0:
320,192,204935,1,0,0:0:0:0:
192,192,205034,1,0,0:0:0:0:
448,192,205133,1,0,0:0:0:0:
192,192,205231,1,0,0:0:0:0:
64,192,205231,1,0,0:0:0:0:
320,192,205330,1,0,0:0:0:0:
448,192,205429,1,0,0:0:0:0:
64,192,205429,1,0,0:0:0:0:
192,192,205527,1,0,0:0:0:0:
448,192,205626,1,0,0:0:0:0:
320,192,205626,1,0,0:0:0:0:
64,192,205725,1,0,0:0:0:0:
320,192,205823,1,0,0:0:0:0:
192,192,205823,1,0,0:0:0:0:
64,192,205922,1,0,0:0:0:0:
448,192,206021,1,0,0:0:0:0:
192,192,206021,1,0,0:0:0:0:
320,192,206119,1,0,0:0:0:0:
448,192,206218,1,0,0:0:0:0:
64,192,206218,1,0,0:0:0:0:
192,192,206317,1,0,0:0:0:0:
320,192,206415,1,0,0:0:0:0:
64,192,206415,1,0,0:0:0:0:
448,192,206514,1,0,0:0:0:0:
192,192,206613,1,0,0:0:0:0:
64,192,206679,1,0,0:0:0:0:
320,192,206744,1,0,0:0:0:0:
448,192,206810,1,0,0:0:0:0:
192,192,206876,1,0,0:0:0:0:
64,192,206942,1,0,0:0:0:0:
448,192,207008,1,0,0:0:0:0:
320,192,207008,1,0,0:0:0:0:
448,192,207205,1,0,0:0:0:0:
320,192,207205,1,0,0:0:0:0:
448,192,207402,128,0,207567:0:0:0:0:
192,192,207402,1,0,0:0:0:0:
64,192,207402,1,0,0:0:0:0:
320,192,207567,1,0,0:0:0:0:
192,192,207698,1,0,0:0:0:0:
448,192,207797,1,0,0:0:0:0:
320,192,207797,128,0,208093:0:0:0:0:
64,192,207797,1,0,0:0:0:0:
192,192,208093,128,0,208389:0:0:0:0:
448,192,208389,1,0,0:0:0:0:
320,192,208488,1,0,0:0:0:0:
192,192,208587,1,0,0:0:0:0:
448,192,208685,1,0,0:0:0:0:
320,192,208784,128,0,208981:0:0:0:0:
64,192,208784,1,0,0:0:0:0:
448,192,208981,1,0,0:0:0:0:
64,192,208981,1,0,0:0:0:0:
192,192,209080,1,0,0:0:0:0:
320,192,209179,1,0,0:0:0:0:
192,192,209277,1,0,0:0:0:0:
448,192,209376,1,0,0:0:0:0:
320,192,209376,128,0,209672:0:0:0:0:
64,192,209376,1,0,0:0:0:0:
192,192,209672,128,0,209968:0:0:0:0:
64,192,209968,1,0,0:0:0:0:
448,192,210034,1,0,0:0:0:0:
320,192,210100,1,0,0:0:0:0:
192,192,210165,1,0,0:0:0:0:
64,192,210165,1,0,0:0:0:0:
448,192,210363,1,0,0:0:0:0:
320,192,210462,1,0,0:0:0:0:
448,192,210560,128,0,210758:0:0:0:0:
192,192,210758,128,0,210955:0:0:0:0:
448,192,210955,128,0,211152:0:0:0:0:
320,192,210955,1,0,0:0:0:0:
64,192,210955,1,0,0:0:0:0:
192,192,211152,1,0,0:0:0:0:
320,192,211251,128,0,211547:0:0:0:0:
448,192,211547,128,0,211744:0:0:0:0:
192,192,211744,128,0,211942:0:0:0:0:
448,192,211942,1,0,0:0:0:0:
64,192,211942,1,0,0:0:0:0:
320,192,212040,1,0,0:0:0:0:
448,192,212139,1,0,0:0:0:0:
64,192,212139,1,0,0:0:0:0:
192,192,212238,1,0,0:0:0:0:
320,192,212337,128,0,212534:0:0:0:0:
448,192,212534,128,0,212863:0:0:0:0:
192,192,212534,1,0,0:0:0:0:
64,192,212534,1,0,0:0:0:0:
192,192,212863,1,0,0:0:0:0:
320,192,212929,1,0,0:0:0:0:
64,192,213008,1,0,0:0:0:0:
448,192,213087,1,0,0:0:0:0:
320,192,213165,1,0,0:0:0:0:
192,192,213244,1,0,0:0:0:0:
448,192,213323,1,0,0:0:0:0:
320,192,213323,1,0,0:0:0:0:
64,192,213323,1,0,0:0:0:0:
448,192,213521,1,0,0:0:0:0:
448,192,213718,128,0,213948:0:0:0:0:
320,192,213948,128,0,214113:0:0:0:0:
448,192,214113,1,0,0:0:0:0:
192,192,214113,128,0,214409:0:0:0:0:
64,192,214113,1,0,0:0:0:0:
320,192,214409,128,0,214705:0:0:0:0:
192,192,214705,1,0,0:0:0:0:
448,192,214804,1,0,0:0:0:0:
192,192,214902,1,0,0:0:0:0:
320,192,215001,1,0,0:0:0:0:
448,192,215100,128,0,215297:0:0:0:0:
64,192,215100,1,0,0:0:0:0:
192,192,215297,128,0,215494:0:0:0:0:
64,192,215297,1,0,0:0:0:0:
448,192,215494,128,0,215692:0:0:0:0:
320,192,215692,128,0,215889:0:0:0:0:
192,192,215692,1,0,0:0:0:0:
64,192,215692,1,0,0:0:0:0:
448,192,215889,1,0,0:0:0:0:
192,192,215988,128,0,216136:0:0:0:0:
320,192,216136,1,0,0:0:0:0:
448,192,216284,128,0,216481:0:0:0:0:
192,192,216350,1,0,0:0:0:0:
64,192,216415,1,0,0:0:0:0:
320,192,216481,1,0,0:0:0:0:
448,192,216679,1,0,0:0:0:0:
192,192,216777,1,0,0:0:0:0:
320,192,216876,128,0,217073:0:0:0:0:
192,192,217073,128,0,217271:0:0:0:0:
448,192,217271,128,0,217567:0:0:0:0:
320,192,217271,1,0,0:0:0:0:
64,192,217271,1,0,0:0:0:0:
192,192,217567,128,0,217863:0:0:0:0:
320,192,217863,1,0,0:0:0:0:
448,192,217962,1,0,0:0:0:0:
320,192,218060,128,0,218258:0:0:0:0:
192,192,218258,128,0,218455:0:0:0:0:
64,192,218258,1,0,0:0:0:0:
320,192,218455,1,0,0:0:0:0:
64,192,218455,128,0,218652:0:0:0:0:
448,192,218652,1,0,0:0:0:0:
320,192,218751,1,0,0:0:0:0:
192,192,218751,1,0,0:0:0:0:
448,192,218850,128,0,219047:0:0:0:0:
64,192,218850,1,0,0:0:0:0:
320,192,219047,1,0,0:0:0:0:
192,192,219047,1,0,0:0:0:0:
448,192,219244,1,0,0:0:0:0:
64,192,219244,128,0,219442:0:0:0:0:
320,192,219442,1,0,0:0:0:0:
448,192,219491,1,0,0:0:0:0:
192,192,219540,1,0,0:0:0:0:
64,192,219590,1,0,0:0:0:0:
448,192,219639,1,0,0:0:0:0:
320,192,219639,1,0,0:0:0:0:
64,192,219738,1,0,0:0:0:0:
320,192,219837,1,0,0:0:0:0:
192,192,219837,1,0,0:0:0:0:
448,192,219935,1,0,0:0:0:0:
448,192,220034,1,0,0:0:0:0:
64,192,220034,1,0,0:0:0:0:
192,192,220133,1,0,0:0:0:0:
320,192,220231,1,0,0:0:0:0:
64,192,220231,1,0,0:0:0:0:
448,192,220330,1,0,0:0:0:0:
320,192,220429,1,0,0:0:0:0:
192,192,220429,1,0,0:0:0:0:
64,192,220527,1,0,0:0:0:0:
448,192,220626,1,0,0:0:0:0:
320,192,220626,1,0,0:0:0:0:
192,192,220725,1,0,0:0:0:0:
448,192,220823,1,0,0:0:0:0:
192,192,220823,1,0,0:0:0:0:
320,192,220922,1,0,0:0:0:0:
192,192,221021,1,0,0:0:0:0:
64,192,221021,1,0,0:0:0:0:
448,192,221119,1,0,0:0:0:0:
64,192,221218,1,0,0:0:0:0:
448,192,221317,1,0,0:0:0:0:
320,192,221415,1,0,0:0:0:0:
192,192,221415,1,0,0:0:0:0:
64,192,221514,1,0,0:0:0:0:
448,192,221613,1,0,0:0:0:0:
64,192,221613,1,0,0:0:0:0:
320,192,221712,1,0,0:0:0:0:
448,192,221810,1,0,0:0:0:0:
192,192,221810,1,0,0:0:0:0:
64,192,221909,1,0,0:0:0:0:
320,192,222008,1,0,0:0:0:0:
192,192,222008,1,0,0:0:0:0:
448,192,222106,1,0,0:0:0:0:
192,192,222205,1,0,0:0:0:0:
64,192,222205,1,0,0:0:0:0:
320,192,222304,1,0,0:0:0:0:
320,192,222402,1,0,0:0:0:0:
64,192,222402,1,0,0:0:0:0:
192,192,222501,1,0,0:0:0:0:
448,192,222600,1,0,0:0:0:0:
320,192,222600,1,0,0:0:0:0:
64,192,222698,1,0,0:0:0:0:
448,192,222797,1,0,0:0:0:0:
192,192,222896,1,0,0:0:0:0:
448,192,222994,1,0,0:0:0:0:
320,192,222994,1,0,0:0:0:0:
64,192,223093,1,0,0:0:0:0:
448,192,223192,1,0,0:0:0:0:
64,192,223192,1,0,0:0:0:0:
320,192,223290,1,0,0:0:0:0:
192,192,223389,1,0,0:0:0:0:
64,192,223389,1,0,0:0:0:0:
448,192,223488,1,0,0:0:0:0:
192,192,223587,1,0,0:0:0:0:
320,192,223685,1,0,0:0:0:0:
192,192,223784,1,0,0:0:0:0:
64,192,223784,1,0,0:0:0:0:
448,192,223883,1,0,0:0:0:0:
448,192,223981,1,0,0:0:0:0:
64,192,223981,1,0,0:0:0:0:
320,192,224080,1,0,0:0:0:0:
448,192,224179,1,0,0:0:0:0:
192,192,224179,1,0,0:0:0:0:
64,192,224277,1,0,0:0:0:0:
320,192,224376,1,0,0:0:0:0:
192,192,224475,1,0,0:0:0:0:
64,192,224475,1,0,0:0:0:0:
448,192,224573,1,0,0:0:0:0:
320,192,224573,1,0,0:0:0:0:
192,192,224672,1,0,0:0:0:0:
192,192,224771,1,0,0:0:0:0:
448,192,224869,1,0,0:0:0:0:
320,192,224968,1,0,0:0:0:0:
64,192,224968,1,0,0:0:0:0:
448,192,225067,1,0,0:0:0:0:
192,192,225165,1,0,0:0:0:0:
64,192,225165,1,0,0:0:0:0:
192,192,225264,1,0,0:0:0:0:
64,192,225264,1,0,0:0:0:0:
448,192,225462,1,0,0:0:0:0:
64,192,225462,1,0,0:0:0:0:
320,192,225560,1,0,0:0:0:0:
192,192,225560,1,0,0:0:0:0:
448,192,225758,1,0,0:0:0:0:
320,192,225807,1,0,0:0:0:0:
64,192,225856,1,0,0:0:0:0:
192,192,225906,1,0,0:0:0:0:
448,192,225955,1,0,0:0:0:0:
320,192,225955,1,0,0:0:0:0:
64,192,226054,1,0,0:0:0:0:
320,192,226152,1,0,0:0:0:0:
192,192,226152,1,0,0:0:0:0:
448,192,226251,1,0,0:0:0:0:
448,192,226350,1,0,0:0:0:0:
64,192,226350,1,0,0:0:0:0:
192,192,226448,1,0,0:0:0:0:
320,192,226547,1,0,0:0:0:0:
64,192,226547,1,0,0:0:0:0:
448,192,226646,1,0,0:0:0:0:
320,192,226744,1,0,0:0:0:0:
192,192,226744,1,0,0:0:0:0:
64,192,226843,1,0,0:0:0:0:
448,192,226942,1,0,0:0:0:0:
320,192,226942,1,0,0:0:0:0:
192,192,227040,1,0,0:0:0:0:
448,192,227139,1,0,0:0:0:0:
192,192,227139,1,0,0:0:0:0:
320,192,227238,1,0,0:0:0:0:
192,192,227337,1,0,0:0:0:0:
64,192,227337,1,0,0:0:0:0:
448,192,227435,1,0,0:0:0:0:
64,192,227534,1,0,0:0:0:0:
448,192,227633,1,0,0:0:0:0:
320,192,227731,1,0,0:0:0:0:
192,192,227731,1,0,0:0:0:0:
64,192,227830,1,0,0:0:0:0:
448,192,227929,1,0,0:0:0:0:
64,192,227929,1,0,0:0:0:0:
320,192,228027,1,0,0:0:0:0:
448,192,228126,1,0,0:0:0:0:
192,192,228126,1,0,0:0:0:0:
64,192,228225,1,0,0:0:0:0:
320,192,228323,1,0,0:0:0:0:
192,192,228323,1,0,0:0:0:0:
448,192,228422,1,0,0:0:0:0:
192,192,228521,1,0,0:0:0:0:
64,192,228521,1,0,0:0:0:0:
320,192,228619,1,0,0:0:0:0:
320,192,228718,1,0,0:0:0:0:
64,192,228718,1,0,0:0:0:0:
192,192,228817,1,0,0:0:0:0:
448,192,228915,1,0,0:0:0:0:
320,192,228915,1,0,0:0:0:0:
64,192,229014,1,0,0:0:0:0:
448,192,229113,1,0,0:0:0:0:
192,192,229212,1,0,0:0:0:0:
448,192,229310,1,0,0:0:0:0:
320,192,229310,1,0,0:0:0:0:
64,192,229409,1,0,0:0:0:0:
448,192,229508,1,0,0:0:0:0:
64,192,229508,1,0,0:0:0:0:
320,192,229606,1,0,0:0:0:0:
192,192,229705,1,0,0:0:0:0:
64,192,229705,1,0,0:0:0:0:
448,192,229804,1,0,0:0:0:0:
320,192,229902,1,0,0:0:0:0:
192,192,229902,1,0,0:0:0:0:
64,192,230001,1,0,0:0:0:0:
448,192,230100,1,0,0:0:0:0:
192,192,230198,1,0,0:0:0:0:
64,192,230198,1,0,0:0:0:0:
448,192,230297,1,0,0:0:0:0:
320,192,230297,1,0,0:0:0:0:
192,192,230396,1,0,0:0:0:0:
448,192,230494,1,0,0:0:0:0:
320,192,230494,1,0,0:0:0:0:
64,192,230593,1,0,0:0:0:0:
192,192,230692,1,0,0:0:0:0:
448,192,230790,1,0,0:0:0:0:
320,192,230889,1,0,0:0:0:0:
192,192,230889,1,0,0:0:0:0:
64,192,230988,1,0,0:0:0:0:
448,192,231087,1,0,0:0:0:0:
192,192,231185,1,0,0:0:0:0:
448,192,231284,1,0,0:0:0:0:
320,192,231284,1,0,0:0:0:0:
64,192,231350,1,0,0:0:0:0:
192,192,231415,1,0,0:0:0:0:
320,192,231481,1,0,0:0:0:0:
320,192,231580,1,0,0:0:0:0:
64,192,231679,1,0,0:0:0:0:
64,192,231777,1,0,0:0:0:0:
448,192,231876,1,0,0:0:0:0:
192,192,231942,1,0,0:0:0:0:
320,192,232008,1,0,0:0:0:0:
64,192,232073,1,0,0:0:0:0:
448,192,232139,1,0,0:0:0:0:
320,192,232205,1,0,0:0:0:0:
192,192,232271,1,0,0:0:0:0:
64,192,232271,1,0,0:0:0:0:
320,192,232665,1,0,0:0:0:0:
192,192,232764,1,0,0:0:0:0:
192,192,232962,1,0,0:0:0:0:
320,192,233060,1,0,0:0:0:0:
320,192,233258,1,0,0:0:0:0:
192,192,233356,1,0,0:0:0:0:
448,192,233455,1,0,0:0:0:0:
192,192,233554,1,0,0:0:0:0:
320,192,233652,1,0,0:0:0:0:
64,192,233751,1,0,0:0:0:0:
320,192,233850,1,0,0:0:0:0:
192,192,234047,1,0,0:0:0:0:
320,192,234146,1,0,0:0:0:0:
448,192,234244,1,0,0:0:0:0:
64,192,234343,1,0,0:0:0:0:
320,192,234442,1,0,0:0:0:0:
192,192,234540,1,0,0:0:0:0:
448,192,234639,1,0,0:0:0:0:
320,192,234837,1,0,0:0:0:0:
192,192,234837,1,0,0:0:0:0:
64,192,234837,1,0,0:0:0:0:
448,192,235034,1,0,0:0:0:0:
320,192,235231,1,0,0:0:0:0:
448,192,235429,1,0,0:0:0:0:
192,192,235429,1,0,0:0:0:0:
64,192,235429,1,0,0:0:0:0:
320,192,235823,1,0,0:0:0:0:
192,192,235922,1,0,0:0:0:0:
320,192,236021,1,0,0:0:0:0:
192,192,236119,1,0,0:0:0:0:
320,192,236218,1,0,0:0:0:0:
192,192,236317,1,0,0:0:0:0:
320,192,236415,1,0,0:0:0:0:
192,192,236514,1,0,0:0:0:0:
448,192,236613,1,0,0:0:0:0:
64,192,236662,1,0,0:0:0:0:
320,192,236712,1,0,0:0:0:0:
192,192,236761,1,0,0:0:0:0:
448,192,236810,1,0,0:0:0:0:
64,192,236860,1,0,0:0:0:0:
320,192,236909,1,0,0:0:0:0:
192,192,236958,1,0,0:0:0:0:
64,192,237106,1,0,0:0:0:0:
448,192,237205,1,0,0:0:0:0:
320,192,237402,1,0,0:0:0:0:
192,192,237402,1,0,0:0:0:0:
64,192,237402,1,0,0:0:0:0:
448,192,237501,1,0,0:0:0:0:
64,192,237600,1,0,0:0:0:0:
448,192,237797,1,0,0:0:0:0:
320,192,237797,1,0,0:0:0:0:
192,192,237797,1,0,0:0:0:0:
64,192,237896,1,0,0:0:0:0:
320,192,237994,1,0,0:0:0:0:
448,192,238192,1,0,0:0:0:0:
192,192,238192,1,0,0:0:0:0:
64,192,238192,1,0,0:0:0:0:
320,192,238290,1,0,0:0:0:0:
192,192,238389,1,0,0:0:0:0:
448,192,238488,1,0,0:0:0:0:
320,192,238587,1,0,0:0:0:0:
192,192,238587,1,0,0:0:0:0:
64,192,238587,1,0,0:0:0:0:
448,192,238883,1,0,0:0:0:0:
64,192,238981,1,0,0:0:0:0:
64,192,239080,1,0,0:0:0:0:
448,192,239179,1,0,0:0:0:0:
64,192,239277,1,0,0:0:0:0:
448,192,239376,1,0,0:0:0:0:
448,192,239475,1,0,0:0:0:0:
192,192,239672,1,0,0:0:0:0:
320,192,239771,1,0,0:0:0:0:
320,192,239869,1,0,0:0:0:0:
192,192,239968,1,0,0:0:0:0:
320,192,240067,1,0,0:0:0:0:
64,192,240165,1,0,0:0:0:0:
64,192,240264,1,0,0:0:0:0:
448,192,240363,1,0,0:0:0:0:
64,192,240462,1,0,0:0:0:0:
320,192,240560,1,0,0:0:0:0:
320,192,240659,1,0,0:0:0:0:
192,192,240758,1,0,0:0:0:0:
320,192,240856,1,0,0:0:0:0:
64,192,240955,1,0,0:0:0:0:
64,192,241054,128,0,241251:0:0:0:0:
448,192,241251,1,0,0:0:0:0:
192,192,241350,1,0,0:0:0:0:
192,192,241448,1,0,0:0:0:0:
320,192,241547,1,0,0:0:0:0:
192,192,241646,1,0,0:0:0:0:
320,192,241744,128,0,242040:0:0:0:0:
448,192,242040,1,0,0:0:0:0:
64,192,242139,1,0,0:0:0:0:
64,192,242238,1,0,0:0:0:0:
448,192,242337,1,0,0:0:0:0:
64,192,242435,1,0,0:0:0:0:
448,192,242534,1,0,0:0:0:0:
448,192,242633,1,0,0:0:0:0:
192,192,242830,1,0,0:0:0:0:
320,192,242929,1,0,0:0:0:0:
320,192,243027,1,0,0:0:0:0:
192,192,243126,1,0,0:0:0:0:
320,192,243225,1,0,0:0:0:0:
64,192,243323,1,0,0:0:0:0:
64,192,243422,1,0,0:0:0:0:
448,192,243521,1,0,0:0:0:0:
64,192,243619,1,0,0:0:0:0:
320,192,243718,1,0,0:0:0:0:
320,192,243817,1,0,0:0:0:0:
192,192,243915,1,0,0:0:0:0:
320,192,244014,1,0,0:0:0:0:
64,192,244113,1,0,0:0:0:0:
64,192,244212,128,0,244409:0:0:0:0:
448,192,244409,1,0,0:0:0:0:
192,192,244508,1,0,0:0:0:0:
64,192,244606,1,0,0:0:0:0:
320,192,244705,1,0,0:0:0:0:
192,192,244804,1,0,0:0:0:0:
448,192,244902,128,0,245297:0:0:0:0:
64,192,244902,128,0,245297:0:0:0:0:
320,192,245376,1,0,0:0:0:0:
192,192,245560,1,0,0:0:0:0:
320,192,245766,1,0,0:0:0:0:
64,192,246243,1,0,0:0:0:0:
448,192,246448,128,0,246827:0:0:0:0:
192,192,246827,1,0,0:0:0:0:
