osu file format v14

[General]
AudioFilename: 01_06_HUGE W.mp3
AudioLeadIn: 0
PreviewTime: 72205
Countdown: 0
SampleSet: Soft
StackLeniency: 0.7
Mode: 3
LetterboxInBreaks: 0
SpecialStyle: 0
WidescreenStoryboard: 0

[Editor]
DistanceSpacing: 0.8
BeatDivisor: 4
GridSize: 32
TimelineZoom: 1

[Metadata]
Title:HUGE W
TitleUnicode:HUGE W
Artist:Mori Calliope & Camellia
ArtistUnicode:Mori Calliope & かめりあ
Creator:AutotelicBrown
Version:Advanced W
Source:
Tags:Win and cametek かめるかめりあ 大箭将也 masaya oya 森 カリオペ callioP ホロライブプロダクション Hololive Production UnAlive CVRD-140 vtuber virtual youtuber Holomyth カバー株式会社 COVER Corporation English Japanese Electronic Rap Hardcore Arden ardenlolo アーデン moistcr1tikal penguinz0 Charlie
BeatmapID:3626163
BeatmapSetID:1727626

[Difficulty]
HPDrainRate:7.2
CircleSize:4
OverallDifficulty:7.2
ApproachRate:5
SliderMultiplier:1.4
SliderTickRate:1

[Events]
//Background and Video events
0,0,"bg.jpg",0,0
//Break Periods
//Storyboard Layer 0 (Background)
//Storyboard Layer 1 (Fail)
//Storyboard Layer 2 (Pass)
//Storyboard Layer 3 (Foreground)
//Storyboard Layer 4 (Overlay)
//Storyboard Sound Samples

[TimingPoints]
166,394.736842105263,4,2,1,10,1,0
3323,-100,4,2,1,40,0,0
72797,-100,4,2,1,40,0,1
98060,-100,4,2,1,40,0,0
104376,-100,4,2,1,10,0,0
110692,-100,4,2,1,40,0,0
194376,-100,4,2,1,40,0,1
207008,-100,4,2,1,40,0,0
219639,-100,4,2,1,40,0,1
232271,-100,4,2,1,40,0,0
238587,-100,4,2,1,20,0,0

[HitObjects]
320,192,1218,5,0,0:0:0:0:
192,192,1415,1,0,0:0:0:0:
448,192,2337,1,0,0:0:0:0:
192,192,2435,1,0,0:0:0:0:
320,192,2534,1,0,0:0:0:0:
192,192,2731,1,0,0:0:0:0:
448,192,2929,1,0,0:0:0:0:
64,192,3126,1,0,0:0:0:0:
320,192,3323,128,0,3521:0:0:0:0:
192,192,3323,1,0,0:0:0:0:
64,192,3521,1,0,0:0:0:0:
448,192,3718,1,0,0:0:0:0:
192,192,3718,1,0,0:0:0:0:
320,192,3948,1,0,0:0:0:0:
448,192,4113,1,0,0:0:0:0:
64,192,4113,1,0,0:0:0:0:
192,192,4360,1,0,0:0:0:0:
320,192,4508,1,0,0:0:0:0:
64,192,4508,1,0,0:0:0:0:
448,192,4738,1,0,0:0:0:0:
320,192,4902,1,0,0:0:0:0:
192,192,4902,1,0,0:0:0:0:
64,192,5149,1,0,0:0:0:0:
448,192,5297,1,0,0:0:0:0:
320,192,5297,1,0,0:0:0:0:
192,192,5560,1,0,0:0:0:0:
448,192,5692,1,0,0:0:0:0:
64,192,5922,1,0,0:0:0:0:
320,192,6087,1,0,0:0:0:0:
192,192,6087,1,0,0:0:0:0:
448,192,6317,1,0,0:0:0:0:
64,192,6481,1,0,0:0:0:0:
192,192,6481,1,0,0:0:0:0:
320,192,6679,1,0,0:0:0:0:
448,192,6876,1,0,0:0:0:0:
64,192,6876,1,0,0:0:0:0:
192,192,7106,1,0,0:0:0:0:
448,192,7271,1,0,0:0:0:0:
64,192,7271,1,0,0:0:0:0:
320,192,7501,1,0,0:0:0:0:
448,192,7665,1,0,0:0:0:0:
192,192,7665,1,0,0:0:0:0:
64,192,7912,1,0,0:0:0:0:
320,192,8060,1,0,0:0:0:0:
192,192,8060,1,0,0:0:0:0:
64,192,8389,1,0,0:0:0:0:
448,192,8455,1,0,0:0:0:0:
320,192,8455,1,0,0:0:0:0:
192,192,8702,1,0,0:0:0:0:
448,192,8850,128,0,9639:0:0:0:0:
64,192,9047,1,0,0:0:0:0:
192,192,9244,1,0,0:0:0:0:
320,192,9442,1,0,0:0:0:0:
192,192,9639,1,0,0:0:0:0:
64,192,9639,128,0,9837:0:0:0:0:
320,192,9837,1,0,0:0:0:0:
192,192,10034,1,0,0:0:0:0:
448,192,10198,1,0,0:0:0:0:
64,192,10264,1,0,0:0:0:0:
320,192,10429,1,0,0:0:0:0:
64,192,10626,1,0,0:0:0:0:
192,192,10823,1,0,0:0:0:0:
448,192,11054,1,0,0:0:0:0:
320,192,11218,1,0,0:0:0:0:
64,192,11218,1,0,0:0:0:0:
448,192,11465,1,0,0:0:0:0:
192,192,11613,1,0,0:0:0:0:
64,192,11613,1,0,0:0:0:0:
320,192,11835,1,0,0:0:0:0:
64,192,12008,1,0,0:0:0:0:
192,192,12230,1,0,0:0:0:0:
448,192,12402,1,0,0:0:0:0:
64,192,12731,1,0,0:0:0:0:
320,192,12797,1,0,0:0:0:0:
448,192,12797,1,0,0:0:0:0:
192,192,12994,1,0,0:0:0:0:
448,192,13192,1,0,0:0:0:0:
64,192,13192,1,0,0:0:0:0:
320,192,13422,1,0,0:0:0:0:
192,192,13587,1,0,0:0:0:0:
64,192,13587,1,0,0:0:0:0:
320,192,13817,1,0,0:0:0:0:
448,192,13981,1,0,0:0:0:0:
64,192,13981,1,0,0:0:0:0:
192,192,14212,1,0,0:0:0:0:
320,192,14376,1,0,0:0:0:0:
64,192,14376,1,0,0:0:0:0:
192,192,14623,1,0,0:0:0:0:
448,192,14771,128,0,15955:0:0:0:0:
320,192,14771,1,0,0:0:0:0:
64,192,15034,1,0,0:0:0:0:
192,192,15165,1,0,0:0:0:0:
320,192,15363,1,0,0:0:0:0:
64,192,15560,1,0,0:0:0:0:
320,192,15758,1,0,0:0:0:0:
192,192,15955,1,0,0:0:0:0:
64,192,15955,1,0,0:0:0:0:
320,192,16152,1,0,0:0:0:0:
192,192,16350,1,0,0:0:0:0:
448,192,16547,1,0,0:0:0:0:
64,192,16744,1,0,0:0:0:0:
320,192,16942,1,0,0:0:0:0:
64,192,17139,1,0,0:0:0:0:
192,192,17337,1,0,0:0:0:0:
320,192,17731,1,0,0:0:0:0:
64,192,17830,1,0,0:0:0:0:
192,192,17929,1,0,0:0:0:0:
448,192,18126,1,0,0:0:0:0:
192,192,18323,1,0,0:0:0:0:
320,192,18521,1,0,0:0:0:0:
64,192,18718,1,0,0:0:0:0:
192,192,18915,1,0,0:0:0:0:
320,192,19310,1,0,0:0:0:0:
64,192,19705,128,0,20100:0:0:0:0:
192,192,20100,128,0,20494:0:0:0:0:
448,192,20494,1,0,0:0:0:0:
320,192,20889,1,0,0:0:0:0:
64,192,21087,1,0,0:0:0:0:
448,192,21284,1,0,0:0:0:0:
192,192,21481,1,0,0:0:0:0:
320,192,21777,1,0,0:0:0:0:
64,192,21975,1,0,0:0:0:0:
448,192,22073,1,0,0:0:0:0:
192,192,22468,1,0,0:0:0:0:
448,192,22665,1,0,0:0:0:0:
320,192,22863,1,0,0:0:0:0:
64,192,23060,1,0,0:0:0:0:
192,192,23258,1,0,0:0:0:0:
64,192,23455,1,0,0:0:0:0:
320,192,23652,1,0,0:0:0:0:
192,192,24047,1,0,0:0:0:0:
320,192,24146,1,0,0:0:0:0:
64,192,24244,1,0,0:0:0:0:
448,192,24442,1,0,0:0:0:0:
192,192,24639,1,0,0:0:0:0:
320,192,24886,1,0,0:0:0:0:
448,192,25034,1,0,0:0:0:0:
64,192,25231,1,0,0:0:0:0:
192,192,25626,1,0,0:0:0:0:
448,192,25823,1,0,0:0:0:0:
64,192,26021,1,0,0:0:0:0:
320,192,26218,1,0,0:0:0:0:
192,192,26415,1,0,0:0:0:0:
64,192,26613,1,0,0:0:0:0:
320,192,26810,1,0,0:0:0:0:
192,192,27008,1,0,0:0:0:0:
448,192,27205,1,0,0:0:0:0:
64,192,27402,128,0,27600:0:0:0:0:
192,192,27600,1,0,0:0:0:0:
448,192,27698,1,0,0:0:0:0:
320,192,27797,1,0,0:0:0:0:
64,192,27994,1,0,0:0:0:0:
320,192,28093,1,0,0:0:0:0:
192,192,28192,128,0,28587:0:0:0:0:
448,192,28587,1,0,0:0:0:0:
64,192,28587,1,0,0:0:0:0:
320,192,28981,1,0,0:0:0:0:
192,192,29080,1,0,0:0:0:0:
64,192,29277,1,0,0:0:0:0:
448,192,29376,1,0,0:0:0:0:
192,192,29573,1,0,0:0:0:0:
320,192,29672,1,0,0:0:0:0:
448,192,29869,1,0,0:0:0:0:
64,192,29968,1,0,0:0:0:0:
320,192,30165,1,0,0:0:0:0:
64,192,30363,1,0,0:0:0:0:
448,192,30560,1,0,0:0:0:0:
192,192,30659,1,0,0:0:0:0:
64,192,30856,1,0,0:0:0:0:
448,192,30955,1,0,0:0:0:0:
320,192,31152,1,0,0:0:0:0:
192,192,31152,1,0,0:0:0:0:
64,192,31547,1,0,0:0:0:0:
448,192,31744,1,0,0:0:0:0:
192,192,31744,1,0,0:0:0:0:
320,192,32139,1,0,0:0:0:0:
192,192,32337,1,0,0:0:0:0:
320,192,32534,1,0,0:0:0:0:
192,192,32731,1,0,0:0:0:0:
320,192,32929,128,0,33225:0:0:0:0:
192,192,33225,1,0,0:0:0:0:
448,192,33521,1,0,0:0:0:0:
192,192,33718,1,0,0:0:0:0:
64,192,33718,128,0,34113:0:0:0:0:
448,192,34113,1,0,0:0:0:0:
320,192,34113,128,0,34508:0:0:0:0:
192,192,34508,128,0,34902:0:0:0:0:
64,192,34508,1,0,0:0:0:0:
448,192,34902,1,0,0:0:0:0:
64,192,34902,1,0,0:0:0:0:
320,192,35100,1,0,0:0:0:0:
192,192,35297,1,0,0:0:0:0:
448,192,35396,1,0,0:0:0:0:
320,192,35494,1,0,0:0:0:0:
448,192,35692,1,0,0:0:0:0:
64,192,35692,1,0,0:0:0:0:
192,192,35889,1,0,0:0:0:0:
320,192,36087,1,0,0:0:0:0:
64,192,36185,1,0,0:0:0:0:
192,192,36284,1,0,0:0:0:0:
448,192,36481,1,0,0:0:0:0:
64,192,36481,1,0,0:0:0:0:
320,192,36679,1,0,0:0:0:0:
192,192,36876,1,0,0:0:0:0:
448,192,36975,1,0,0:0:0:0:
320,192,37073,1,0,0:0:0:0:
448,192,37271,1,0,0:0:0:0:
64,192,37271,1,0,0:0:0:0:
192,192,37468,1,0,0:0:0:0:
64,192,37567,1,0,0:0:0:0:
320,192,37665,1,0,0:0:0:0:
448,192,37863,1,0,0:0:0:0:
320,192,37962,1,0,0:0:0:0:
192,192,38060,1,0,0:0:0:0:
64,192,38060,1,0,0:0:0:0:
320,192,38258,1,0,0:0:0:0:
192,192,38455,1,0,0:0:0:0:
448,192,38554,1,0,0:0:0:0:
320,192,38652,1,0,0:0:0:0:
448,192,38850,1,0,0:0:0:0:
64,192,38850,1,0,0:0:0:0:
192,192,39047,1,0,0:0:0:0:
320,192,39244,1,0,0:0:0:0:
64,192,39343,1,0,0:0:0:0:
192,192,39442,1,0,0:0:0:0:
448,192,39639,1,0,0:0:0:0:
320,192,39639,1,0,0:0:0:0:
64,192,39837,1,0,0:0:0:0:
192,192,40034,1,0,0:0:0:0:
448,192,40133,1,0,0:0:0:0:
320,192,40231,1,0,0:0:0:0:
192,192,40429,1,0,0:0:0:0:
64,192,40429,1,0,0:0:0:0:
320,192,40626,1,0,0:0:0:0:
64,192,40725,1,0,0:0:0:0:
448,192,40823,1,0,0:0:0:0:
192,192,40823,1,0,0:0:0:0:
320,192,41021,1,0,0:0:0:0:
192,192,41119,1,0,0:0:0:0:
448,192,41218,1,0,0:0:0:0:
64,192,41218,1,0,0:0:0:0:
320,192,41415,1,0,0:0:0:0:
192,192,41613,1,0,0:0:0:0:
64,192,41613,1,0,0:0:0:0:
320,192,41810,1,0,0:0:0:0:
448,192,42008,1,0,0:0:0:0:
64,192,42008,1,0,0:0:0:0:
192,192,42205,1,0,0:0:0:0:
448,192,42402,1,0,0:0:0:0:
320,192,42402,1,0,0:0:0:0:
64,192,42600,1,0,0:0:0:0:
320,192,42797,1,0,0:0:0:0:
192,192,42797,1,0,0:0:0:0:
448,192,42994,1,0,0:0:0:0:
320,192,43192,1,0,0:0:0:0:
64,192,43192,1,0,0:0:0:0:
448,192,43389,1,0,0:0:0:0:
320,192,43587,1,0,0:0:0:0:
192,192,43587,1,0,0:0:0:0:
64,192,43784,1,0,0:0:0:0:
448,192,43981,1,0,0:0:0:0:
192,192,43981,1,0,0:0:0:0:
64,192,44179,1,0,0:0:0:0:
320,192,44376,1,0,0:0:0:0:
192,192,44475,1,0,0:0:0:0:
448,192,44573,1,0,0:0:0:0:
64,192,44771,1,0,0:0:0:0:
320,192,44869,1,0,0:0:0:0:
192,192,44968,1,0,0:0:0:0:
448,192,45165,1,0,0:0:0:0:
64,192,45264,1,0,0:0:0:0:
320,192,45363,1,0,0:0:0:0:
192,192,45560,128,0,45955:0:0:0:0:
448,192,45955,1,0,0:0:0:0:
320,192,46942,1,0,0:0:0:0:
64,192,47139,1,0,0:0:0:0:
448,192,47287,1,0,0:0:0:0:
320,192,47534,1,0,0:0:0:0:
192,192,47534,128,0,47929:0:0:0:0:
448,192,47929,1,0,0:0:0:0:
320,192,48027,1,0,0:0:0:0:
64,192,48126,1,0,0:0:0:0:
192,192,48225,1,0,0:0:0:0:
448,192,48323,1,0,0:0:0:0:
320,192,48323,1,0,0:0:0:0:
192,192,48521,1,0,0:0:0:0:
448,192,48619,128,0,48817:0:0:0:0:
320,192,48817,1,0,0:0:0:0:
192,192,49113,1,0,0:0:0:0:
64,192,49113,1,0,0:0:0:0:
320,192,49310,1,0,0:0:0:0:
64,192,49409,128,0,49606:0:0:0:0:
192,192,49606,1,0,0:0:0:0:
448,192,49902,1,0,0:0:0:0:
320,192,49902,1,0,0:0:0:0:
192,192,50100,1,0,0:0:0:0:
448,192,50198,128,0,50396:0:0:0:0:
320,192,50396,1,0,0:0:0:0:
448,192,50692,1,0,0:0:0:0:
64,192,50692,1,0,0:0:0:0:
192,192,50790,1,0,0:0:0:0:
320,192,51087,1,0,0:0:0:0:
448,192,51185,1,0,0:0:0:0:
192,192,51284,1,0,0:0:0:0:
64,192,51383,1,0,0:0:0:0:
448,192,51481,1,0,0:0:0:0:
320,192,51481,1,0,0:0:0:0:
192,192,51679,1,0,0:0:0:0:
448,192,51777,128,0,51975:0:0:0:0:
320,192,51975,1,0,0:0:0:0:
192,192,52271,1,0,0:0:0:0:
64,192,52271,1,0,0:0:0:0:
320,192,52468,1,0,0:0:0:0:
64,192,52567,128,0,52764:0:0:0:0:
192,192,52764,1,0,0:0:0:0:
448,192,53060,1,0,0:0:0:0:
320,192,53060,1,0,0:0:0:0:
64,192,53192,1,0,0:0:0:0:
192,192,53323,1,0,0:0:0:0:
448,192,53455,128,0,53850:0:0:0:0:
320,192,53850,128,0,54244:0:0:0:0:
192,192,53850,1,0,0:0:0:0:
64,192,54244,1,0,0:0:0:0:
192,192,54343,1,0,0:0:0:0:
448,192,54442,1,0,0:0:0:0:
320,192,54540,1,0,0:0:0:0:
192,192,54639,1,0,0:0:0:0:
64,192,54639,1,0,0:0:0:0:
320,192,54837,1,0,0:0:0:0:
64,192,54935,128,0,55133:0:0:0:0:
192,192,55133,1,0,0:0:0:0:
448,192,55429,128,0,55626:0:0:0:0:
320,192,55429,1,0,0:0:0:0:
64,192,55626,1,0,0:0:0:0:
192,192,55725,128,0,55922:0:0:0:0:
320,192,55922,1,0,0:0:0:0:
448,192,56218,128,0,56415:0:0:0:0:
64,192,56218,1,0,0:0:0:0:
320,192,56415,1,0,0:0:0:0:
192,192,56613,1,0,0:0:0:0:
320,192,56810,1,0,0:0:0:0:
448,192,57008,1,0,0:0:0:0:
64,192,57008,1,0,0:0:0:0:
192,192,57106,1,0,0:0:0:0:
320,192,57402,1,0,0:0:0:0:
448,192,57501,1,0,0:0:0:0:
192,192,57600,1,0,0:0:0:0:
64,192,57698,1,0,0:0:0:0:
448,192,57797,1,0,0:0:0:0:
320,192,57797,1,0,0:0:0:0:
192,192,57994,1,0,0:0:0:0:
448,192,58093,128,0,58290:0:0:0:0:
320,192,58290,1,0,0:0:0:0:
192,192,58587,1,0,0:0:0:0:
64,192,58587,1,0,0:0:0:0:
320,192,58784,1,0,0:0:0:0:
192,192,58883,1,0,0:0:0:0:
448,192,58981,1,0,0:0:0:0:
64,192,59179,1,0,0:0:0:0:
320,192,59376,1,0,0:0:0:0:
192,192,59376,1,0,0:0:0:0:
64,192,59573,1,0,0:0:0:0:
448,192,59771,1,0,0:0:0:0:
320,192,59968,1,0,0:0:0:0:
448,192,60165,1,0,0:0:0:0:
64,192,60165,1,0,0:0:0:0:
192,192,60363,1,0,0:0:0:0:
320,192,60462,1,0,0:0:0:0:
64,192,60560,1,0,0:0:0:0:
448,192,60708,1,0,0:0:0:0:
320,192,60856,1,0,0:0:0:0:
192,192,60955,128,0,61152:0:0:0:0:
64,192,60955,1,0,0:0:0:0:
448,192,61152,128,0,61350:0:0:0:0:
192,192,61350,128,0,61547:0:0:0:0:
64,192,61547,1,0,0:0:0:0:
448,192,61646,1,0,0:0:0:0:
320,192,61744,128,0,61942:0:0:0:0:
192,192,61744,1,0,0:0:0:0:
64,192,61942,128,0,62139:0:0:0:0:
320,192,62139,128,0,62337:0:0:0:0:
192,192,62337,1,0,0:0:0:0:
448,192,62534,128,0,62731:0:0:0:0:
64,192,62534,1,0,0:0:0:0:
192,192,62731,128,0,62929:0:0:0:0:
448,192,62929,128,0,63126:0:0:0:0:
320,192,63126,1,0,0:0:0:0:
192,192,63323,1,0,0:0:0:0:
64,192,63323,1,0,0:0:0:0:
448,192,63422,1,0,0:0:0:0:
320,192,63718,1,0,0:0:0:0:
192,192,63915,1,0,0:0:0:0:
448,192,64113,128,0,64310:0:0:0:0:
320,192,64113,1,0,0:0:0:0:
64,192,64310,128,0,64508:0:0:0:0:
448,192,64508,128,0,64705:0:0:0:0:
320,192,64705,1,0,0:0:0:0:
64,192,64804,1,0,0:0:0:0:
448,192,64902,1,0,0:0:0:0:
192,192,64902,128,0,65100:0:0:0:0:
320,192,65100,128,0,65297:0:0:0:0:
192,192,65297,128,0,65494:0:0:0:0:
448,192,65494,1,0,0:0:0:0:
320,192,65692,1,0,0:0:0:0:
64,192,65692,128,0,65889:0:0:0:0:
448,192,65889,1,0,0:0:0:0:
192,192,66087,128,0,66481:0:0:0:0:
448,192,66481,1,0,0:0:0:0:
64,192,66481,128,0,66876:0:0:0:0:
320,192,66876,1,0,0:0:0:0:
192,192,67271,128,0,67468:0:0:0:0:
64,192,67271,1,0,0:0:0:0:
448,192,67468,128,0,67665:0:0:0:0:
192,192,67665,128,0,67863:0:0:0:0:
64,192,67863,1,0,0:0:0:0:
448,192,67962,1,0,0:0:0:0:
320,192,68060,128,0,68258:0:0:0:0:
192,192,68060,1,0,0:0:0:0:
64,192,68258,128,0,68455:0:0:0:0:
320,192,68455,128,0,68652:0:0:0:0:
192,192,68652,1,0,0:0:0:0:
448,192,68850,128,0,69047:0:0:0:0:
64,192,68850,1,0,0:0:0:0:
192,192,69047,128,0,69244:0:0:0:0:
448,192,69244,128,0,69442:0:0:0:0:
320,192,69442,1,0,0:0:0:0:
192,192,69639,1,0,0:0:0:0:
64,192,69639,128,0,70429:0:0:0:0:
448,192,70034,1,0,0:0:0:0:
192,192,70231,1,0,0:0:0:0:
448,192,70429,128,0,71218:0:0:0:0:
320,192,70429,1,0,0:0:0:0:
192,192,70823,1,0,0:0:0:0:
64,192,71021,1,0,0:0:0:0:
320,192,71218,1,0,0:0:0:0:
192,192,71415,1,0,0:0:0:0:
448,192,71514,1,0,0:0:0:0:
64,192,71712,1,0,0:0:0:0:
192,192,71810,1,0,0:0:0:0:
320,192,72008,1,0,0:0:0:0:
64,192,72205,1,0,0:0:0:0:
448,192,72402,1,0,0:0:0:0:
320,192,72600,1,0,0:0:0:0:
192,192,72797,1,0,0:0:0:0:
64,192,72797,128,0,74376:0:0:0:0:
448,192,73192,1,0,0:0:0:0:
320,192,73389,1,0,0:0:0:0:
192,192,73488,1,0,0:0:0:0:
448,192,73587,1,0,0:0:0:0:
192,192,73981,1,0,0:0:0:0:
320,192,74179,1,0,0:0:0:0:
192,192,74277,1,0,0:0:0:0:
448,192,74376,128,0,75165:0:0:0:0:
320,192,74376,1,0,0:0:0:0:
192,192,74771,1,0,0:0:0:0:
320,192,75165,128,0,75955:0:0:0:0:
64,192,75165,1,0,0:0:0:0:
192,192,75363,1,0,0:0:0:0:
448,192,75560,1,0,0:0:0:0:
64,192,75758,1,0,0:0:0:0:
448,192,75955,1,0,0:0:0:0:
192,192,75955,1,0,0:0:0:0:
320,192,76152,1,0,0:0:0:0:
448,192,76350,1,0,0:0:0:0:
64,192,76350,1,0,0:0:0:0:
192,192,76547,1,0,0:0:0:0:
448,192,76744,1,0,0:0:0:0:
320,192,77040,1,0,0:0:0:0:
192,192,77139,1,0,0:0:0:0:
64,192,77139,1,0,0:0:0:0:
448,192,77337,1,0,0:0:0:0:
192,192,77435,1,0,0:0:0:0:
320,192,77534,1,0,0:0:0:0:
64,192,77731,1,0,0:0:0:0:
448,192,77830,1,0,0:0:0:0:
192,192,77929,1,0,0:0:0:0:
320,192,78027,1,0,0:0:0:0:
448,192,78126,1,0,0:0:0:0:
192,192,78323,1,0,0:0:0:0:
64,192,78521,1,0,0:0:0:0:
448,192,78718,128,0,79113:0:0:0:0:
320,192,78718,1,0,0:0:0:0:
192,192,79113,1,0,0:0:0:0:
64,192,79113,128,0,80692:0:0:0:0:
448,192,79508,1,0,0:0:0:0:
320,192,79705,1,0,0:0:0:0:
192,192,79804,1,0,0:0:0:0:
448,192,79902,1,0,0:0:0:0:
192,192,80297,1,0,0:0:0:0:
320,192,80494,1,0,0:0:0:0:
192,192,80593,1,0,0:0:0:0:
448,192,80692,128,0,81481:0:0:0:0:
320,192,80692,1,0,0:0:0:0:
192,192,81087,1,0,0:0:0:0:
320,192,81481,128,0,82271:0:0:0:0:
64,192,81481,1,0,0:0:0:0:
192,192,81679,1,0,0:0:0:0:
448,192,81876,1,0,0:0:0:0:
64,192,82073,1,0,0:0:0:0:
448,192,82271,1,0,0:0:0:0:
192,192,82271,1,0,0:0:0:0:
64,192,82468,1,0,0:0:0:0:
320,192,82665,1,0,0:0:0:0:
192,192,82665,1,0,0:0:0:0:
448,192,82863,1,0,0:0:0:0:
320,192,83060,1,0,0:0:0:0:
192,192,83258,1,0,0:0:0:0:
448,192,83455,1,0,0:0:0:0:
64,192,83652,1,0,0:0:0:0:
320,192,83850,1,0,0:0:0:0:
192,192,84047,1,0,0:0:0:0:
448,192,84244,1,0,0:0:0:0:
64,192,84244,1,0,0:0:0:0:
320,192,84442,1,0,0:0:0:0:
192,192,84442,1,0,0:0:0:0:
448,192,84639,1,0,0:0:0:0:
320,192,84837,1,0,0:0:0:0:
64,192,85034,128,0,85429:0:0:0:0:
448,192,85429,1,0,0:0:0:0:
320,192,85429,1,0,0:0:0:0:
192,192,85626,1,0,0:0:0:0:
448,192,85725,1,0,0:0:0:0:
320,192,85823,1,0,0:0:0:0:
64,192,85823,1,0,0:0:0:0:
192,192,86021,1,0,0:0:0:0:
448,192,86218,1,0,0:0:0:0:
320,192,86218,1,0,0:0:0:0:
64,192,86415,1,0,0:0:0:0:
448,192,86514,1,0,0:0:0:0:
320,192,86613,1,0,0:0:0:0:
192,192,86613,1,0,0:0:0:0:
64,192,86810,1,0,0:0:0:0:
448,192,87008,1,0,0:0:0:0:
320,192,87205,1,0,0:0:0:0:
64,192,87304,1,0,0:0:0:0:
448,192,87402,1,0,0:0:0:0:
192,192,87402,1,0,0:0:0:0:
320,192,87600,1,0,0:0:0:0:
192,192,87797,1,0,0:0:0:0:
64,192,87797,1,0,0:0:0:0:
448,192,87994,1,0,0:0:0:0:
64,192,88093,1,0,0:0:0:0:
320,192,88192,1,0,0:0:0:0:
192,192,88192,1,0,0:0:0:0:
448,192,88389,1,0,0:0:0:0:
64,192,88587,1,0,0:0:0:0:
320,192,88784,1,0,0:0:0:0:
192,192,88883,1,0,0:0:0:0:
448,192,88981,1,0,0:0:0:0:
64,192,88981,1,0,0:0:0:0:
192,192,89179,1,0,0:0:0:0:
320,192,89376,1,0,0:0:0:0:
64,192,89573,1,0,0:0:0:0:
448,192,89672,1,0,0:0:0:0:
320,192,89771,1,0,0:0:0:0:
192,192,89771,1,0,0:0:0:0:
64,192,89968,1,0,0:0:0:0:
448,192,90165,1,0,0:0:0:0:
192,192,90363,1,0,0:0:0:0:
320,192,90462,1,0,0:0:0:0:
64,192,90560,1,0,0:0:0:0:
448,192,90758,1,0,0:0:0:0:
192,192,90955,1,0,0:0:0:0:
64,192,90955,1,0,0:0:0:0:
320,192,91152,1,0,0:0:0:0:
64,192,91251,1,0,0:0:0:0:
448,192,91350,1,0,0:0:0:0:
192,192,91350,1,0,0:0:0:0:
64,192,91547,1,0,0:0:0:0:
448,192,91744,1,0,0:0:0:0:
320,192,91744,1,0,0:0:0:0:
192,192,91942,1,0,0:0:0:0:
448,192,92040,1,0,0:0:0:0:
320,192,92139,1,0,0:0:0:0:
64,192,92139,1,0,0:0:0:0:
192,192,92337,1,0,0:0:0:0:
448,192,92534,1,0,0:0:0:0:
320,192,92534,1,0,0:0:0:0:
64,192,92731,1,0,0:0:0:0:
448,192,92830,1,0,0:0:0:0:
320,192,92929,1,0,0:0:0:0:
192,192,92929,1,0,0:0:0:0:
64,192,93126,1,0,0:0:0:0:
448,192,93323,1,0,0:0:0:0:
320,192,93521,1,0,0:0:0:0:
64,192,93619,1,0,0:0:0:0:
448,192,93718,1,0,0:0:0:0:
192,192,93718,1,0,0:0:0:0:
320,192,93915,1,0,0:0:0:0:
192,192,94113,1,0,0:0:0:0:
64,192,94113,1,0,0:0:0:0:
448,192,94310,1,0,0:0:0:0:
64,192,94409,1,0,0:0:0:0:
320,192,94508,1,0,0:0:0:0:
192,192,94508,1,0,0:0:0:0:
448,192,94705,1,0,0:0:0:0:
64,192,94902,1,0,0:0:0:0:
320,192,95100,1,0,0:0:0:0:
192,192,95198,1,0,0:0:0:0:
448,192,95297,1,0,0:0:0:0:
64,192,95297,1,0,0:0:0:0:
192,192,95494,1,0,0:0:0:0:
320,192,95692,1,0,0:0:0:0:
448,192,95889,1,0,0:0:0:0:
64,192,95889,1,0,0:0:0:0:
320,192,96087,1,0,0:0:0:0:
192,192,96284,1,0,0:0:0:0:
64,192,96284,1,0,0:0:0:0:
448,192,96481,1,0,0:0:0:0:
320,192,96679,1,0,0:0:0:0:
192,192,96679,1,0,0:0:0:0:
64,192,96876,1,0,0:0:0:0:
448,192,97073,1,0,0:0:0:0:
320,192,97172,1,0,0:0:0:0:
192,192,97271,1,0,0:0:0:0:
448,192,97468,1,0,0:0:0:0:
64,192,97665,1,0,0:0:0:0:
192,192,97764,1,0,0:0:0:0:
448,192,97863,1,0,0:0:0:0:
320,192,97962,1,0,0:0:0:0:
192,192,98060,1,0,0:0:0:0:
64,192,98060,1,0,0:0:0:0:
320,192,98455,1,0,0:0:0:0:
192,192,98554,1,0,0:0:0:0:
64,192,98751,1,0,0:0:0:0:
448,192,98850,1,0,0:0:0:0:
192,192,99047,1,0,0:0:0:0:
320,192,99146,1,0,0:0:0:0:
448,192,99343,1,0,0:0:0:0:
64,192,99442,1,0,0:0:0:0:
320,192,99639,1,0,0:0:0:0:
64,192,99837,1,0,0:0:0:0:
448,192,100034,1,0,0:0:0:0:
192,192,100133,1,0,0:0:0:0:
64,192,100330,1,0,0:0:0:0:
448,192,100429,1,0,0:0:0:0:
320,192,100626,1,0,0:0:0:0:
192,192,100626,1,0,0:0:0:0:
64,192,101021,1,0,0:0:0:0:
448,192,101218,1,0,0:0:0:0:
192,192,101218,1,0,0:0:0:0:
320,192,101613,1,0,0:0:0:0:
192,192,101810,1,0,0:0:0:0:
320,192,102008,1,0,0:0:0:0:
192,192,102205,1,0,0:0:0:0:
320,192,102402,128,0,102698:0:0:0:0:
192,192,102698,1,0,0:0:0:0:
448,192,102994,1,0,0:0:0:0:
64,192,103192,1,0,0:0:0:0:
320,192,103290,1,0,0:0:0:0:
192,192,103389,1,0,0:0:0:0:
448,192,103587,1,0,0:0:0:0:
64,192,103685,1,0,0:0:0:0:
320,192,103784,1,0,0:0:0:0:
192,192,103981,1,0,0:0:0:0:
448,192,104080,1,0,0:0:0:0:
320,192,104179,1,0,0:0:0:0:
448,192,104376,1,0,0:0:0:0:
64,192,104376,1,0,0:0:0:0:
320,192,107040,1,0,0:0:0:0:
64,192,107238,1,0,0:0:0:0:
448,192,107337,1,0,0:0:0:0:
192,192,107435,1,0,0:0:0:0:
448,192,109705,1,0,0:0:0:0:
192,192,109804,1,0,0:0:0:0:
320,192,109902,1,0,0:0:0:0:
192,192,110100,1,0,0:0:0:0:
448,192,110297,1,0,0:0:0:0:
64,192,110494,1,0,0:0:0:0:
320,192,110692,1,0,0:0:0:0:
192,192,110692,128,0,110889:0:0:0:0:
448,192,110889,1,0,0:0:0:0:
320,192,111087,1,0,0:0:0:0:
64,192,111087,1,0,0:0:0:0:
192,192,111284,1,0,0:0:0:0:
64,192,111383,1,0,0:0:0:0:
448,192,111481,1,0,0:0:0:0:
320,192,111481,1,0,0:0:0:0:
192,192,111744,1,0,0:0:0:0:
448,192,111876,1,0,0:0:0:0:
320,192,112106,1,0,0:0:0:0:
192,192,112271,1,0,0:0:0:0:
64,192,112271,1,0,0:0:0:0:
448,192,112468,1,0,0:0:0:0:
320,192,112665,1,0,0:0:0:0:
64,192,112665,1,0,0:0:0:0:
192,192,112912,1,0,0:0:0:0:
448,192,113060,1,0,0:0:0:0:
320,192,113060,1,0,0:0:0:0:
64,192,113290,1,0,0:0:0:0:
448,192,113455,1,0,0:0:0:0:
192,192,113455,1,0,0:0:0:0:
320,192,113652,1,0,0:0:0:0:
192,192,113751,1,0,0:0:0:0:
64,192,113850,1,0,0:0:0:0:
448,192,113850,1,0,0:0:0:0:
192,192,114047,1,0,0:0:0:0:
320,192,114244,1,0,0:0:0:0:
64,192,114244,1,0,0:0:0:0:
448,192,114491,1,0,0:0:0:0:
320,192,114639,1,0,0:0:0:0:
192,192,114639,1,0,0:0:0:0:
64,192,114902,1,0,0:0:0:0:
448,192,115034,1,0,0:0:0:0:
320,192,115034,1,0,0:0:0:0:
192,192,115281,1,0,0:0:0:0:
448,192,115429,1,0,0:0:0:0:
64,192,115527,1,0,0:0:0:0:
320,192,115626,1,0,0:0:0:0:
192,192,115823,1,0,0:0:0:0:
64,192,115823,1,0,0:0:0:0:
448,192,116087,1,0,0:0:0:0:
320,192,116218,1,0,0:0:0:0:
192,192,116218,1,0,0:0:0:0:
64,192,116415,1,0,0:0:0:0:
448,192,116613,128,0,117008:0:0:0:0:
192,192,116712,1,0,0:0:0:0:
64,192,117008,128,0,117205:0:0:0:0:
320,192,117008,1,0,0:0:0:0:
192,192,117205,1,0,0:0:0:0:
448,192,117402,1,0,0:0:0:0:
64,192,117402,1,0,0:0:0:0:
320,192,117633,1,0,0:0:0:0:
448,192,117797,1,0,0:0:0:0:
192,192,117797,1,0,0:0:0:0:
64,192,118044,1,0,0:0:0:0:
320,192,118192,1,0,0:0:0:0:
192,192,118192,1,0,0:0:0:0:
64,192,118422,1,0,0:0:0:0:
448,192,118587,1,0,0:0:0:0:
320,192,118587,1,0,0:0:0:0:
192,192,118784,1,0,0:0:0:0:
448,192,118981,1,0,0:0:0:0:
64,192,118981,1,0,0:0:0:0:
320,192,119179,1,0,0:0:0:0:
192,192,119376,1,0,0:0:0:0:
64,192,119376,1,0,0:0:0:0:
448,192,119573,1,0,0:0:0:0:
192,192,119771,1,0,0:0:0:0:
320,192,119968,1,0,0:0:0:0:
64,192,120165,1,0,0:0:0:0:
448,192,120363,1,0,0:0:0:0:
320,192,120462,1,0,0:0:0:0:
192,192,120560,1,0,0:0:0:0:
64,192,120560,1,0,0:0:0:0:
448,192,120758,1,0,0:0:0:0:
320,192,120955,1,0,0:0:0:0:
64,192,120955,1,0,0:0:0:0:
192,192,121202,1,0,0:0:0:0:
448,192,121350,1,0,0:0:0:0:
64,192,121547,1,0,0:0:0:0:
320,192,121646,1,0,0:0:0:0:
448,192,121744,1,0,0:0:0:0:
192,192,121744,1,0,0:0:0:0:
64,192,121942,1,0,0:0:0:0:
320,192,122139,1,0,0:0:0:0:
192,192,122139,1,0,0:0:0:0:
64,192,122402,1,0,0:0:0:0:
448,192,122534,128,0,123323:0:0:0:0:
320,192,122534,1,0,0:0:0:0:
192,192,122781,1,0,0:0:0:0:
64,192,122929,1,0,0:0:0:0:
320,192,123126,1,0,0:0:0:0:
192,192,123323,1,0,0:0:0:0:
64,192,123323,1,0,0:0:0:0:
320,192,123521,1,0,0:0:0:0:
192,192,123718,1,0,0:0:0:0:
448,192,123817,1,0,0:0:0:0:
320,192,123915,1,0,0:0:0:0:
448,192,124113,1,0,0:0:0:0:
64,192,124113,1,0,0:0:0:0:
192,192,124310,1,0,0:0:0:0:
320,192,124508,1,0,0:0:0:0:
64,192,124606,1,0,0:0:0:0:
192,192,124705,1,0,0:0:0:0:
448,192,124902,1,0,0:0:0:0:
64,192,124902,1,0,0:0:0:0:
320,192,125100,1,0,0:0:0:0:
192,192,125297,1,0,0:0:0:0:
448,192,125396,1,0,0:0:0:0:
320,192,125494,1,0,0:0:0:0:
448,192,125692,1,0,0:0:0:0:
64,192,125692,1,0,0:0:0:0:
192,192,125889,1,0,0:0:0:0:
64,192,125988,1,0,0:0:0:0:
320,192,126087,1,0,0:0:0:0:
448,192,126284,1,0,0:0:0:0:
320,192,126383,1,0,0:0:0:0:
192,192,126481,1,0,0:0:0:0:
64,192,126481,1,0,0:0:0:0:
320,192,126679,1,0,0:0:0:0:
192,192,126876,1,0,0:0:0:0:
448,192,126975,1,0,0:0:0:0:
320,192,127073,1,0,0:0:0:0:
448,192,127271,1,0,0:0:0:0:
64,192,127271,1,0,0:0:0:0:
192,192,127468,1,0,0:0:0:0:
320,192,127665,1,0,0:0:0:0:
64,192,127764,1,0,0:0:0:0:
192,192,127863,1,0,0:0:0:0:
448,192,128060,1,0,0:0:0:0:
320,192,128060,1,0,0:0:0:0:
64,192,128258,1,0,0:0:0:0:
192,192,128455,1,0,0:0:0:0:
448,192,128554,1,0,0:0:0:0:
320,192,128652,1,0,0:0:0:0:
192,192,128850,1,0,0:0:0:0:
64,192,128850,1,0,0:0:0:0:
320,192,129047,1,0,0:0:0:0:
64,192,129146,1,0,0:0:0:0:
448,192,129244,1,0,0:0:0:0:
192,192,129244,1,0,0:0:0:0:
320,192,129442,1,0,0:0:0:0:
192,192,129540,1,0,0:0:0:0:
448,192,129639,1,0,0:0:0:0:
64,192,129639,1,0,0:0:0:0:
320,192,129837,1,0,0:0:0:0:
192,192,130034,1,0,0:0:0:0:
64,192,130034,1,0,0:0:0:0:
320,192,130231,1,0,0:0:0:0:
448,192,130429,1,0,0:0:0:0:
64,192,130429,1,0,0:0:0:0:
192,192,130626,1,0,0:0:0:0:
448,192,130823,1,0,0:0:0:0:
320,192,130823,1,0,0:0:0:0:
64,192,131021,1,0,0:0:0:0:
320,192,131218,1,0,0:0:0:0:
192,192,131218,1,0,0:0:0:0:
448,192,131415,1,0,0:0:0:0:
320,192,131613,1,0,0:0:0:0:
64,192,131613,1,0,0:0:0:0:
448,192,131810,1,0,0:0:0:0:
320,192,132008,1,0,0:0:0:0:
192,192,132008,1,0,0:0:0:0:
64,192,132205,1,0,0:0:0:0:
448,192,132402,1,0,0:0:0:0:
192,192,132402,1,0,0:0:0:0:
64,192,132600,1,0,0:0:0:0:
320,192,132797,1,0,0:0:0:0:
192,192,132896,1,0,0:0:0:0:
448,192,132994,1,0,0:0:0:0:
64,192,133192,1,0,0:0:0:0:
320,192,133290,1,0,0:0:0:0:
192,192,133389,1,0,0:0:0:0:
448,192,133587,1,0,0:0:0:0:
64,192,133685,1,0,0:0:0:0:
320,192,133784,1,0,0:0:0:0:
192,192,133981,128,0,134376:0:0:0:0:
448,192,134376,1,0,0:0:0:0:
320,192,135363,1,0,0:0:0:0:
64,192,135560,1,0,0:0:0:0:
448,192,135708,1,0,0:0:0:0:
320,192,135955,1,0,0:0:0:0:
192,192,135955,128,0,136350:0:0:0:0:
448,192,136350,1,0,0:0:0:0:
320,192,136448,1,0,0:0:0:0:
64,192,136547,1,0,0:0:0:0:
192,192,136646,1,0,0:0:0:0:
320,192,136744,1,0,0:0:0:0:
64,192,136942,1,0,0:0:0:0:
448,192,137040,128,0,137238:0:0:0:0:
320,192,137238,1,0,0:0:0:0:
192,192,137534,1,0,0:0:0:0:
448,192,137731,1,0,0:0:0:0:
64,192,137830,128,0,138027:0:0:0:0:
192,192,138027,1,0,0:0:0:0:
320,192,138323,1,0,0:0:0:0:
64,192,138521,1,0,0:0:0:0:
448,192,138619,128,0,138817:0:0:0:0:
320,192,138817,1,0,0:0:0:0:
192,192,139113,1,0,0:0:0:0:
448,192,139310,1,0,0:0:0:0:
320,192,139508,1,0,0:0:0:0:
64,192,139705,1,0,0:0:0:0:
448,192,139804,1,0,0:0:0:0:
192,192,139902,1,0,0:0:0:0:
320,192,140100,1,0,0:0:0:0:
64,192,140297,1,0,0:0:0:0:
448,192,140494,1,0,0:0:0:0:
192,192,140593,1,0,0:0:0:0:
320,192,140692,1,0,0:0:0:0:
64,192,140889,1,0,0:0:0:0:
192,192,140988,1,0,0:0:0:0:
448,192,141087,1,0,0:0:0:0:
64,192,141284,1,0,0:0:0:0:
192,192,141383,1,0,0:0:0:0:
320,192,141481,128,0,141876:0:0:0:0:
192,192,141876,128,0,142271:0:0:0:0:
448,192,142271,128,0,142665:0:0:0:0:
320,192,142271,1,0,0:0:0:0:
320,192,142665,1,0,0:0:0:0:
64,192,142665,1,0,0:0:0:0:
192,192,142863,1,0,0:0:0:0:
448,192,143060,1,0,0:0:0:0:
64,192,143060,1,0,0:0:0:0:
320,192,143258,1,0,0:0:0:0:
448,192,143356,1,0,0:0:0:0:
192,192,143455,1,0,0:0:0:0:
64,192,143455,1,0,0:0:0:0:
320,192,143554,1,0,0:0:0:0:
448,192,143850,1,0,0:0:0:0:
64,192,143850,1,0,0:0:0:0:
192,192,144047,1,0,0:0:0:0:
64,192,144146,1,0,0:0:0:0:
448,192,144244,1,0,0:0:0:0:
320,192,144244,1,0,0:0:0:0:
192,192,144343,1,0,0:0:0:0:
448,192,144639,1,0,0:0:0:0:
64,192,144639,1,0,0:0:0:0:
320,192,144837,1,0,0:0:0:0:
448,192,144935,1,0,0:0:0:0:
192,192,145034,1,0,0:0:0:0:
64,192,145034,1,0,0:0:0:0:
320,192,145133,1,0,0:0:0:0:
448,192,145429,1,0,0:0:0:0:
64,192,145429,1,0,0:0:0:0:
192,192,145527,1,0,0:0:0:0:
320,192,145823,128,0,146218:0:0:0:0:
448,192,146218,1,0,0:0:0:0:
64,192,146218,1,0,0:0:0:0:
192,192,146415,1,0,0:0:0:0:
64,192,146514,1,0,0:0:0:0:
448,192,146613,1,0,0:0:0:0:
320,192,146613,1,0,0:0:0:0:
192,192,146712,1,0,0:0:0:0:
448,192,147008,1,0,0:0:0:0:
64,192,147008,1,0,0:0:0:0:
320,192,147205,1,0,0:0:0:0:
448,192,147304,1,0,0:0:0:0:
192,192,147402,1,0,0:0:0:0:
64,192,147402,1,0,0:0:0:0:
320,192,147501,1,0,0:0:0:0:
448,192,147797,1,0,0:0:0:0:
64,192,147797,1,0,0:0:0:0:
320,192,147994,1,0,0:0:0:0:
192,192,147994,1,0,0:0:0:0:
448,192,148192,128,0,148587:0:0:0:0:
64,192,148192,1,0,0:0:0:0:
320,192,148587,128,0,148981:0:0:0:0:
64,192,148587,1,0,0:0:0:0:
64,192,148784,1,0,0:0:0:0:
448,192,148981,1,0,0:0:0:0:
192,192,148981,1,0,0:0:0:0:
64,192,149277,1,0,0:0:0:0:
320,192,149376,1,0,0:0:0:0:
192,192,149376,1,0,0:0:0:0:
448,192,149573,1,0,0:0:0:0:
192,192,149771,1,0,0:0:0:0:
64,192,149771,1,0,0:0:0:0:
320,192,149968,1,0,0:0:0:0:
64,192,150067,1,0,0:0:0:0:
448,192,150165,1,0,0:0:0:0:
192,192,150165,1,0,0:0:0:0:
320,192,150363,1,0,0:0:0:0:
448,192,150560,1,0,0:0:0:0:
64,192,150560,1,0,0:0:0:0:
192,192,150758,1,0,0:0:0:0:
448,192,150856,1,0,0:0:0:0:
320,192,150955,1,0,0:0:0:0:
64,192,150955,1,0,0:0:0:0:
192,192,151152,1,0,0:0:0:0:
448,192,151350,1,0,0:0:0:0:
64,192,151350,1,0,0:0:0:0:
320,192,151547,1,0,0:0:0:0:
64,192,151646,1,0,0:0:0:0:
448,192,151744,1,0,0:0:0:0:
192,192,151744,1,0,0:0:0:0:
320,192,151843,1,0,0:0:0:0:
192,192,152139,128,0,152534:0:0:0:0:
448,192,152534,1,0,0:0:0:0:
64,192,152534,1,0,0:0:0:0:
320,192,152731,1,0,0:0:0:0:
448,192,152830,1,0,0:0:0:0:
192,192,152929,1,0,0:0:0:0:
64,192,152929,1,0,0:0:0:0:
320,192,153027,1,0,0:0:0:0:
448,192,153323,1,0,0:0:0:0:
64,192,153323,1,0,0:0:0:0:
320,192,153619,1,0,0:0:0:0:
192,192,153619,1,0,0:0:0:0:
448,192,153915,1,0,0:0:0:0:
64,192,153915,1,0,0:0:0:0:
192,192,154113,1,0,0:0:0:0:
64,192,154310,1,0,0:0:0:0:
320,192,154508,128,0,154705:0:0:0:0:
192,192,154705,1,0,0:0:0:0:
448,192,154902,128,0,155297:0:0:0:0:
64,192,154902,128,0,155297:0:0:0:0:
320,192,155494,1,0,0:0:0:0:
64,192,155593,1,0,0:0:0:0:
448,192,155692,1,0,0:0:0:0:
192,192,155692,1,0,0:0:0:0:
64,192,155889,1,0,0:0:0:0:
320,192,156087,1,0,0:0:0:0:
192,192,156087,1,0,0:0:0:0:
448,192,156284,1,0,0:0:0:0:
320,192,156383,1,0,0:0:0:0:
192,192,156481,1,0,0:0:0:0:
64,192,156481,1,0,0:0:0:0:
320,192,156679,1,0,0:0:0:0:
448,192,156876,1,0,0:0:0:0:
64,192,156876,1,0,0:0:0:0:
192,192,157073,1,0,0:0:0:0:
448,192,157271,1,0,0:0:0:0:
320,192,157271,1,0,0:0:0:0:
192,192,157468,1,0,0:0:0:0:
64,192,157468,1,0,0:0:0:0:
448,192,157665,1,0,0:0:0:0:
320,192,157665,1,0,0:0:0:0:
448,192,158060,1,0,0:0:0:0:
64,192,158060,1,0,0:0:0:0:
192,192,158159,1,0,0:0:0:0:
320,192,158455,128,0,158850:0:0:0:0:
64,192,158652,1,0,0:0:0:0:
448,192,158850,1,0,0:0:0:0:
192,192,158850,1,0,0:0:0:0:
320,192,159047,1,0,0:0:0:0:
448,192,159244,1,0,0:0:0:0:
64,192,159244,1,0,0:0:0:0:
192,192,159442,1,0,0:0:0:0:
64,192,159540,1,0,0:0:0:0:
448,192,159639,1,0,0:0:0:0:
320,192,159639,1,0,0:0:0:0:
64,192,159837,1,0,0:0:0:0:
320,192,160034,1,0,0:0:0:0:
192,192,160034,1,0,0:0:0:0:
448,192,160231,1,0,0:0:0:0:
192,192,160429,1,0,0:0:0:0:
64,192,160429,1,0,0:0:0:0:
448,192,160626,1,0,0:0:0:0:
320,192,160626,1,0,0:0:0:0:
192,192,160823,128,0,161021:0:0:0:0:
64,192,160823,1,0,0:0:0:0:
320,192,161021,128,0,161218:0:0:0:0:
448,192,161218,1,0,0:0:0:0:
64,192,161218,1,0,0:0:0:0:
192,192,161415,1,0,0:0:0:0:
64,192,161514,1,0,0:0:0:0:
448,192,161613,1,0,0:0:0:0:
320,192,161613,1,0,0:0:0:0:
192,192,161712,1,0,0:0:0:0:
448,192,161909,1,0,0:0:0:0:
192,192,162106,1,0,0:0:0:0:
64,192,162106,1,0,0:0:0:0:
448,192,162402,1,0,0:0:0:0:
320,192,162402,1,0,0:0:0:0:
320,192,162797,1,0,0:0:0:0:
64,192,162797,1,0,0:0:0:0:
448,192,162896,1,0,0:0:0:0:
192,192,162994,1,0,0:0:0:0:
320,192,163093,1,0,0:0:0:0:
64,192,163192,1,0,0:0:0:0:
192,192,163290,1,0,0:0:0:0:
448,192,163488,1,0,0:0:0:0:
192,192,163685,1,0,0:0:0:0:
64,192,163685,1,0,0:0:0:0:
448,192,163981,1,0,0:0:0:0:
320,192,163981,1,0,0:0:0:0:
448,192,164376,1,0,0:0:0:0:
192,192,164376,1,0,0:0:0:0:
64,192,164475,1,0,0:0:0:0:
320,192,164573,1,0,0:0:0:0:
192,192,164771,1,0,0:0:0:0:
448,192,164869,1,0,0:0:0:0:
320,192,164968,1,0,0:0:0:0:
448,192,165165,1,0,0:0:0:0:
64,192,165165,1,0,0:0:0:0:
192,192,165264,1,0,0:0:0:0:
320,192,165363,1,0,0:0:0:0:
64,192,165462,1,0,0:0:0:0:
192,192,165560,128,0,165758:0:0:0:0:
448,192,165758,128,0,165955:0:0:0:0:
320,192,165955,128,0,166744:0:0:0:0:
64,192,165955,128,0,167534:0:0:0:0:
448,192,167534,1,0,0:0:0:0:
320,192,167534,1,0,0:0:0:0:
192,192,167534,1,0,0:0:0:0:
64,192,168323,1,0,0:0:0:0:
320,192,169113,1,0,0:0:0:0:
192,192,169902,1,0,0:0:0:0:
448,192,170494,1,0,0:0:0:0:
320,192,170692,1,0,0:0:0:0:
64,192,170692,1,0,0:0:0:0:
192,192,171087,1,0,0:0:0:0:
320,192,171481,1,0,0:0:0:0:
192,192,171876,1,0,0:0:0:0:
320,192,172271,1,0,0:0:0:0:
192,192,172665,1,0,0:0:0:0:
320,192,173060,1,0,0:0:0:0:
192,192,173455,1,0,0:0:0:0:
448,192,173850,1,0,0:0:0:0:
320,192,173850,1,0,0:0:0:0:
64,192,174244,1,0,0:0:0:0:
320,192,174343,1,0,0:0:0:0:
448,192,174639,1,0,0:0:0:0:
192,192,174738,1,0,0:0:0:0:
64,192,175034,1,0,0:0:0:0:
320,192,175133,1,0,0:0:0:0:
448,192,175429,1,0,0:0:0:0:
192,192,175527,1,0,0:0:0:0:
64,192,175823,1,0,0:0:0:0:
320,192,175922,1,0,0:0:0:0:
448,192,176218,1,0,0:0:0:0:
192,192,176317,1,0,0:0:0:0:
64,192,176613,1,0,0:0:0:0:
448,192,176712,1,0,0:0:0:0:
320,192,176810,1,0,0:0:0:0:
192,192,177008,1,0,0:0:0:0:
64,192,177008,1,0,0:0:0:0:
448,192,177402,1,0,0:0:0:0:
192,192,177501,1,0,0:0:0:0:
320,192,177600,1,0,0:0:0:0:
64,192,177797,1,0,0:0:0:0:
192,192,177994,1,0,0:0:0:0:
448,192,178192,1,0,0:0:0:0:
64,192,178290,1,0,0:0:0:0:
320,192,178389,1,0,0:0:0:0:
192,192,178587,1,0,0:0:0:0:
64,192,178784,1,0,0:0:0:0:
448,192,178981,1,0,0:0:0:0:
192,192,179080,1,0,0:0:0:0:
320,192,179179,1,0,0:0:0:0:
64,192,179376,1,0,0:0:0:0:
192,192,179573,1,0,0:0:0:0:
448,192,179771,1,0,0:0:0:0:
320,192,179869,1,0,0:0:0:0:
64,192,179968,1,0,0:0:0:0:
320,192,180165,1,0,0:0:0:0:
192,192,180165,1,0,0:0:0:0:
448,192,180363,1,0,0:0:0:0:
64,192,180560,1,0,0:0:0:0:
320,192,180659,1,0,0:0:0:0:
192,192,180758,1,0,0:0:0:0:
320,192,180955,1,0,0:0:0:0:
64,192,181152,1,0,0:0:0:0:
448,192,181350,1,0,0:0:0:0:
192,192,181448,1,0,0:0:0:0:
320,192,181547,1,0,0:0:0:0:
192,192,181744,1,0,0:0:0:0:
448,192,181942,1,0,0:0:0:0:
64,192,182139,1,0,0:0:0:0:
320,192,182238,1,0,0:0:0:0:
192,192,182337,1,0,0:0:0:0:
320,192,182534,1,0,0:0:0:0:
64,192,182731,1,0,0:0:0:0:
448,192,182830,1,0,0:0:0:0:
192,192,182929,1,0,0:0:0:0:
64,192,183126,1,0,0:0:0:0:
192,192,183225,1,0,0:0:0:0:
448,192,183323,1,0,0:0:0:0:
320,192,183323,1,0,0:0:0:0:
64,192,183521,1,0,0:0:0:0:
448,192,183718,1,0,0:0:0:0:
192,192,183817,1,0,0:0:0:0:
320,192,183915,1,0,0:0:0:0:
192,192,184113,1,0,0:0:0:0:
448,192,184310,1,0,0:0:0:0:
64,192,184508,1,0,0:0:0:0:
320,192,184606,1,0,0:0:0:0:
192,192,184705,1,0,0:0:0:0:
448,192,184902,1,0,0:0:0:0:
64,192,184902,1,0,0:0:0:0:
320,192,185100,1,0,0:0:0:0:
448,192,185297,1,0,0:0:0:0:
192,192,185396,1,0,0:0:0:0:
320,192,185494,1,0,0:0:0:0:
192,192,185692,1,0,0:0:0:0:
64,192,185692,1,0,0:0:0:0:
448,192,185889,1,0,0:0:0:0:
320,192,185988,1,0,0:0:0:0:
64,192,186087,1,0,0:0:0:0:
192,192,186284,1,0,0:0:0:0:
448,192,186481,1,0,0:0:0:0:
64,192,186481,1,0,0:0:0:0:
320,192,186679,1,0,0:0:0:0:
192,192,186876,1,0,0:0:0:0:
64,192,186876,1,0,0:0:0:0:
448,192,187073,1,0,0:0:0:0:
320,192,187271,1,0,0:0:0:0:
192,192,187271,1,0,0:0:0:0:
64,192,187468,1,0,0:0:0:0:
448,192,187665,1,0,0:0:0:0:
320,192,187665,1,0,0:0:0:0:
192,192,187863,1,0,0:0:0:0:
448,192,188060,1,0,0:0:0:0:
64,192,188060,1,0,0:0:0:0:
192,192,188258,1,0,0:0:0:0:
448,192,188455,1,0,0:0:0:0:
320,192,188455,1,0,0:0:0:0:
64,192,188652,1,0,0:0:0:0:
320,192,188850,1,0,0:0:0:0:
192,192,188850,1,0,0:0:0:0:
448,192,189047,1,0,0:0:0:0:
192,192,189244,1,0,0:0:0:0:
64,192,189244,1,0,0:0:0:0:
320,192,189442,1,0,0:0:0:0:
448,192,189639,1,0,0:0:0:0:
192,192,189738,1,0,0:0:0:0:
64,192,189837,1,0,0:0:0:0:
320,192,190034,1,0,0:0:0:0:
192,192,190133,1,0,0:0:0:0:
64,192,190231,1,0,0:0:0:0:
448,192,190429,1,0,0:0:0:0:
320,192,190527,1,0,0:0:0:0:
192,192,190626,1,0,0:0:0:0:
448,192,190823,128,0,191218:0:0:0:0:
64,192,191218,1,0,0:0:0:0:
192,192,192402,128,0,192797:0:0:0:0:
448,192,192797,1,0,0:0:0:0:
320,192,192797,1,0,0:0:0:0:
448,192,193093,1,0,0:0:0:0:
64,192,193093,1,0,0:0:0:0:
320,192,193389,1,0,0:0:0:0:
192,192,193389,1,0,0:0:0:0:
64,192,193784,1,0,0:0:0:0:
448,192,193981,1,0,0:0:0:0:
320,192,194179,1,0,0:0:0:0:
192,192,194376,1,0,0:0:0:0:
64,192,194376,128,0,195955:0:0:0:0:
448,192,194771,1,0,0:0:0:0:
320,192,194968,1,0,0:0:0:0:
192,192,195067,1,0,0:0:0:0:
448,192,195165,1,0,0:0:0:0:
192,192,195560,1,0,0:0:0:0:
320,192,195758,1,0,0:0:0:0:
192,192,195856,1,0,0:0:0:0:
448,192,195955,128,0,196744:0:0:0:0:
320,192,195955,1,0,0:0:0:0:
192,192,196350,1,0,0:0:0:0:
320,192,196744,128,0,197534:0:0:0:0:
64,192,196744,1,0,0:0:0:0:
192,192,196942,1,0,0:0:0:0:
448,192,197139,1,0,0:0:0:0:
64,192,197337,1,0,0:0:0:0:
448,192,197534,1,0,0:0:0:0:
192,192,197534,1,0,0:0:0:0:
320,192,197731,1,0,0:0:0:0:
448,192,197929,1,0,0:0:0:0:
64,192,197929,1,0,0:0:0:0:
192,192,198126,1,0,0:0:0:0:
448,192,198323,1,0,0:0:0:0:
320,192,198619,1,0,0:0:0:0:
192,192,198718,1,0,0:0:0:0:
64,192,198718,1,0,0:0:0:0:
448,192,198915,1,0,0:0:0:0:
192,192,199014,1,0,0:0:0:0:
320,192,199113,1,0,0:0:0:0:
64,192,199310,1,0,0:0:0:0:
448,192,199409,1,0,0:0:0:0:
192,192,199508,1,0,0:0:0:0:
320,192,199606,1,0,0:0:0:0:
448,192,199705,1,0,0:0:0:0:
192,192,199902,1,0,0:0:0:0:
64,192,200100,1,0,0:0:0:0:
448,192,200297,128,0,200692:0:0:0:0:
320,192,200297,1,0,0:0:0:0:
192,192,200692,1,0,0:0:0:0:
64,192,200692,128,0,202271:0:0:0:0:
448,192,201087,1,0,0:0:0:0:
320,192,201284,1,0,0:0:0:0:
192,192,201383,1,0,0:0:0:0:
448,192,201481,1,0,0:0:0:0:
192,192,201876,1,0,0:0:0:0:
320,192,202073,1,0,0:0:0:0:
192,192,202172,1,0,0:0:0:0:
448,192,202271,128,0,203060:0:0:0:0:
320,192,202271,1,0,0:0:0:0:
192,192,202665,1,0,0:0:0:0:
320,192,203060,128,0,203850:0:0:0:0:
64,192,203060,1,0,0:0:0:0:
192,192,203258,1,0,0:0:0:0:
448,192,203455,1,0,0:0:0:0:
64,192,203652,1,0,0:0:0:0:
448,192,203850,1,0,0:0:0:0:
192,192,203850,1,0,0:0:0:0:
64,192,204047,1,0,0:0:0:0:
320,192,204244,1,0,0:0:0:0:
192,192,204244,1,0,0:0:0:0:
448,192,204442,1,0,0:0:0:0:
320,192,204639,1,0,0:0:0:0:
192,192,204837,1,0,0:0:0:0:
448,192,205034,1,0,0:0:0:0:
64,192,205231,1,0,0:0:0:0:
320,192,205429,1,0,0:0:0:0:
192,192,205626,1,0,0:0:0:0:
448,192,205823,1,0,0:0:0:0:
64,192,205823,1,0,0:0:0:0:
320,192,206021,1,0,0:0:0:0:
192,192,206021,1,0,0:0:0:0:
448,192,206218,1,0,0:0:0:0:
320,192,206415,1,0,0:0:0:0:
64,192,206613,128,0,207008:0:0:0:0:
448,192,207008,1,0,0:0:0:0:
448,192,207205,1,0,0:0:0:0:
192,192,207402,1,0,0:0:0:0:
64,192,207402,1,0,0:0:0:0:
320,192,207567,1,0,0:0:0:0:
448,192,207797,1,0,0:0:0:0:
64,192,207797,1,0,0:0:0:0:
192,192,208093,1,0,0:0:0:0:
320,192,208389,1,0,0:0:0:0:
192,192,208587,1,0,0:0:0:0:
64,192,208784,1,0,0:0:0:0:
448,192,208981,1,0,0:0:0:0:
320,192,209080,1,0,0:0:0:0:
192,192,209179,1,0,0:0:0:0:
448,192,209376,1,0,0:0:0:0:
64,192,209376,1,0,0:0:0:0:
192,192,209672,1,0,0:0:0:0:
64,192,209968,1,0,0:0:0:0:
320,192,210067,1,0,0:0:0:0:
192,192,210165,1,0,0:0:0:0:
448,192,210363,1,0,0:0:0:0:
320,192,210560,1,0,0:0:0:0:
64,192,210758,1,0,0:0:0:0:
448,192,210955,1,0,0:0:0:0:
192,192,210955,1,0,0:0:0:0:
320,192,211152,1,0,0:0:0:0:
64,192,211251,1,0,0:0:0:0:
448,192,211547,1,0,0:0:0:0:
64,192,211744,1,0,0:0:0:0:
320,192,211942,1,0,0:0:0:0:
448,192,212040,1,0,0:0:0:0:
192,192,212139,1,0,0:0:0:0:
64,192,212337,1,0,0:0:0:0:
448,192,212534,1,0,0:0:0:0:
320,192,212534,1,0,0:0:0:0:
192,192,212929,128,0,213323:0:0:0:0:
320,192,213323,1,0,0:0:0:0:
64,192,213323,1,0,0:0:0:0:
448,192,213521,1,0,0:0:0:0:
320,192,213718,1,0,0:0:0:0:
192,192,213948,1,0,0:0:0:0:
448,192,214113,1,0,0:0:0:0:
64,192,214113,1,0,0:0:0:0:
320,192,214409,1,0,0:0:0:0:
192,192,214705,1,0,0:0:0:0:
448,192,214902,1,0,0:0:0:0:
64,192,215100,1,0,0:0:0:0:
192,192,215297,1,0,0:0:0:0:
448,192,215494,1,0,0:0:0:0:
320,192,215692,1,0,0:0:0:0:
64,192,215692,1,0,0:0:0:0:
192,192,215988,1,0,0:0:0:0:
320,192,216284,1,0,0:0:0:0:
64,192,216383,1,0,0:0:0:0:
448,192,216481,1,0,0:0:0:0:
192,192,216679,1,0,0:0:0:0:
64,192,216876,1,0,0:0:0:0:
320,192,217073,1,0,0:0:0:0:
448,192,217271,1,0,0:0:0:0:
192,192,217271,1,0,0:0:0:0:
64,192,217567,1,0,0:0:0:0:
320,192,217863,1,0,0:0:0:0:
448,192,218060,1,0,0:0:0:0:
64,192,218258,1,0,0:0:0:0:
320,192,218455,1,0,0:0:0:0:
192,192,218455,1,0,0:0:0:0:
448,192,218751,1,0,0:0:0:0:
192,192,218850,1,0,0:0:0:0:
64,192,218850,1,0,0:0:0:0:
320,192,219047,1,0,0:0:0:0:
448,192,219244,1,0,0:0:0:0:
64,192,219244,1,0,0:0:0:0:
192,192,219442,1,0,0:0:0:0:
64,192,219540,1,0,0:0:0:0:
448,192,219639,1,0,0:0:0:0:
320,192,219639,1,0,0:0:0:0:
192,192,219837,1,0,0:0:0:0:
448,192,219935,1,0,0:0:0:0:
320,192,220034,1,0,0:0:0:0:
64,192,220034,1,0,0:0:0:0:
192,192,220231,1,0,0:0:0:0:
448,192,220429,1,0,0:0:0:0:
320,192,220429,1,0,0:0:0:0:
64,192,220626,1,0,0:0:0:0:
448,192,220725,1,0,0:0:0:0:
320,192,220823,1,0,0:0:0:0:
192,192,220823,1,0,0:0:0:0:
64,192,221021,1,0,0:0:0:0:
448,192,221218,1,0,0:0:0:0:
320,192,221415,1,0,0:0:0:0:
64,192,221514,1,0,0:0:0:0:
448,192,221613,1,0,0:0:0:0:
192,192,221613,1,0,0:0:0:0:
320,192,221810,1,0,0:0:0:0:
192,192,222008,1,0,0:0:0:0:
64,192,222008,1,0,0:0:0:0:
448,192,222205,1,0,0:0:0:0:
64,192,222304,1,0,0:0:0:0:
320,192,222402,1,0,0:0:0:0:
192,192,222402,1,0,0:0:0:0:
448,192,222600,1,0,0:0:0:0:
64,192,222797,1,0,0:0:0:0:
320,192,222994,1,0,0:0:0:0:
192,192,223093,1,0,0:0:0:0:
448,192,223192,1,0,0:0:0:0:
64,192,223192,1,0,0:0:0:0:
192,192,223389,1,0,0:0:0:0:
320,192,223587,1,0,0:0:0:0:
64,192,223784,1,0,0:0:0:0:
448,192,223883,1,0,0:0:0:0:
320,192,223981,1,0,0:0:0:0:
192,192,223981,1,0,0:0:0:0:
64,192,224179,1,0,0:0:0:0:
448,192,224376,1,0,0:0:0:0:
192,192,224573,1,0,0:0:0:0:
320,192,224672,1,0,0:0:0:0:
64,192,224771,1,0,0:0:0:0:
448,192,224968,1,0,0:0:0:0:
192,192,225165,1,0,0:0:0:0:
64,192,225165,1,0,0:0:0:0:
320,192,225264,1,0,0:0:0:0:
64,192,225462,1,0,0:0:0:0:
192,192,225758,1,0,0:0:0:0:
64,192,225856,1,0,0:0:0:0:
448,192,225955,1,0,0:0:0:0:
320,192,225955,1,0,0:0:0:0:
192,192,226152,1,0,0:0:0:0:
448,192,226251,1,0,0:0:0:0:
320,192,226350,1,0,0:0:0:0:
64,192,226350,1,0,0:0:0:0:
192,192,226547,1,0,0:0:0:0:
448,192,226744,1,0,0:0:0:0:
320,192,226744,1,0,0:0:0:0:
64,192,226942,1,0,0:0:0:0:
448,192,227040,1,0,0:0:0:0:
320,192,227139,1,0,0:0:0:0:
192,192,227139,1,0,0:0:0:0:
64,192,227337,1,0,0:0:0:0:
448,192,227534,1,0,0:0:0:0:
320,192,227731,1,0,0:0:0:0:
64,192,227830,1,0,0:0:0:0:
448,192,227929,1,0,0:0:0:0:
192,192,227929,1,0,0:0:0:0:
320,192,228126,1,0,0:0:0:0:
192,192,228323,1,0,0:0:0:0:
64,192,228323,1,0,0:0:0:0:
448,192,228521,1,0,0:0:0:0:
64,192,228619,1,0,0:0:0:0:
320,192,228718,1,0,0:0:0:0:
192,192,228718,1,0,0:0:0:0:
448,192,228915,1,0,0:0:0:0:
64,192,229113,1,0,0:0:0:0:
320,192,229310,1,0,0:0:0:0:
192,192,229409,1,0,0:0:0:0:
448,192,229508,1,0,0:0:0:0:
64,192,229508,1,0,0:0:0:0:
192,192,229705,1,0,0:0:0:0:
320,192,229902,1,0,0:0:0:0:
64,192,230100,1,0,0:0:0:0:
448,192,230198,1,0,0:0:0:0:
320,192,230297,1,0,0:0:0:0:
192,192,230494,1,0,0:0:0:0:
64,192,230494,1,0,0:0:0:0:
448,192,230692,1,0,0:0:0:0:
320,192,230889,1,0,0:0:0:0:
192,192,230889,1,0,0:0:0:0:
64,192,231087,1,0,0:0:0:0:
448,192,231284,1,0,0:0:0:0:
320,192,231383,1,0,0:0:0:0:
192,192,231481,1,0,0:0:0:0:
448,192,231679,1,0,0:0:0:0:
64,192,231876,1,0,0:0:0:0:
192,192,231975,1,0,0:0:0:0:
448,192,232073,1,0,0:0:0:0:
320,192,232172,1,0,0:0:0:0:
192,192,232271,1,0,0:0:0:0:
64,192,232271,1,0,0:0:0:0:
320,192,232665,1,0,0:0:0:0:
192,192,232764,1,0,0:0:0:0:
64,192,232962,1,0,0:0:0:0:
448,192,233060,1,0,0:0:0:0:
192,192,233258,1,0,0:0:0:0:
320,192,233356,1,0,0:0:0:0:
448,192,233554,1,0,0:0:0:0:
64,192,233652,1,0,0:0:0:0:
320,192,233850,1,0,0:0:0:0:
64,192,234047,1,0,0:0:0:0:
448,192,234244,1,0,0:0:0:0:
192,192,234343,1,0,0:0:0:0:
64,192,234540,1,0,0:0:0:0:
448,192,234639,1,0,0:0:0:0:
320,192,234837,1,0,0:0:0:0:
192,192,234837,1,0,0:0:0:0:
64,192,235231,1,0,0:0:0:0:
448,192,235429,1,0,0:0:0:0:
192,192,235429,1,0,0:0:0:0:
320,192,235823,1,0,0:0:0:0:
192,192,236021,1,0,0:0:0:0:
320,192,236218,1,0,0:0:0:0:
192,192,236415,1,0,0:0:0:0:
320,192,236613,128,0,236909:0:0:0:0:
192,192,236909,1,0,0:0:0:0:
448,192,237205,1,0,0:0:0:0:
64,192,237402,1,0,0:0:0:0:
320,192,237501,1,0,0:0:0:0:
192,192,237600,1,0,0:0:0:0:
448,192,237797,1,0,0:0:0:0:
64,192,237896,1,0,0:0:0:0:
320,192,237994,1,0,0:0:0:0:
192,192,238192,1,0,0:0:0:0:
448,192,238290,1,0,0:0:0:0:
320,192,238389,1,0,0:0:0:0:
448,192,238587,1,0,0:0:0:0:
64,192,238587,1,0,0:0:0:0:
320,192,239129,1,0,0:0:0:0:
192,192,239606,1,0,0:0:0:0:
448,192,239993,1,0,0:0:0:0:
64,192,240511,1,0,0:0:0:0:
192,192,240856,1,0,0:0:0:0:
448,192,241054,1,0,0:0:0:0:
320,192,241251,1,0,0:0:0:0:
64,192,241744,1,0,0:0:0:0:
320,192,242008,1,0,0:0:0:0:
448,192,242213,1,0,0:0:0:0:
192,192,242534,128,0,244902:0:0:0:0:
320,192,242830,1,0,0:0:0:0:
64,192,243200,1,0,0:0:0:0:
448,192,243496,1,0,0:0:0:0:
448,192,244902,1,0,0:0:0:0:
64,192,244902,1,0,0:0:0:0:
320,192,245376,1,0,0:0:0:0:
192,192,245560,1,0,0:0:0:0:
320,192,245766,1,0,0:0:0:0:
64,192,246243,1,0,0:0:0:0:
448,192,246448,128,0,246827:0:0:0:0:
192,192,246827,1,0,0:0:0:0:
