osu file format v14

[General]
AudioFilename: audio.mp3
AudioLeadIn: 0
PreviewTime: 76905
Countdown: 1
SampleSet: Normal
StackLeniency: 0.1
Mode: 0
LetterboxInBreaks: 0
WidescreenStoryboard: 0

[Editor]
Bookmarks: 27155,33155,35155,36155,42155,60155,74155,76155,78155,83155,88155,92405,93155,96155,100405,102655,104905,106155,106905,107905,109905,113405,115905,122905,125405,127405,136405,140405,147155,159155,159405,160405,164405,172405,178405,188405,191405,197405,202405,204405,208655,210405,212655,215905,220405,221405,222405,228405,233155,233655,233905,235405,239405,246155,259905,271655,274905,284905,290655,290717,290780,290842,290905,294905,299905
DistanceSpacing: 0.7
BeatDivisor: 4
GridSize: 4
TimelineZoom: 3.199999

[Metadata]
Title:Quell The Voiceless
TitleUnicode:Quell The Voiceless
Artist:Mordant Rapture
ArtistUnicode:Mordant Rapture
Creator:_Nico_
Version:Those Who Strayed Far From His Path
Source:
Tags:Technical Symphonic Death Metal abnegation stream deathstream rsi
BeatmapID:1948627
BeatmapSetID:933385

[Difficulty]
HPDrainRate:5
CircleSize:4
OverallDifficulty:9.6
ApproachRate:10
SliderMultiplier:2
SliderTickRate:1

[Events]
//Background and Video events
0,0,"bg.jpg",0,0
//Break Periods
2,36355,39205
2,40355,41705
//Storyboard Layer 0 (Background)
//Storyboard Layer 1 (Fail)
//Storyboard Layer 2 (Pass)
//Storyboard Layer 3 (Foreground)
//Storyboard Sound Samples

[TimingPoints]
155,250,3,1,1,40,1,0
155,-100,3,1,1,40,0,0
1655,-100,3,1,1,50,0,0
7155,-133.333333333333,3,1,1,50,0,0
7655,-100,3,1,1,50,0,0
13405,250,5,1,1,50,1,0
13405,-133.333333333333,5,1,1,50,0,0
14655,250,4,1,1,50,1,0
14655,-133.333333333333,4,1,1,50,0,0
15155,-100,4,1,1,50,0,1
21155,250,3,1,1,50,1,1
21155,-100,4,1,1,50,0,1
24155,-100,4,1,1,50,0,0
27155,-100,4,1,1,50,0,1
30155,-400,4,1,1,50,0,1
30405,-100,4,1,1,50,0,1
33155,-100,4,1,1,50,0,1
36155,-100,4,1,1,50,0,0
39655,-100,4,1,1,50,0,0
42155,250,4,1,1,50,1,0
42155,-100,4,1,1,50,0,0
44155,-100,4,1,1,50,0,0
47155,-100,4,1,1,50,0,0
48155,-400,4,1,1,50,0,0
48405,-100,4,1,1,50,0,0
50155,-200,4,1,1,50,0,0
50405,-100,4,1,1,50,0,0
52155,-200,4,1,1,50,0,0
52405,-100,4,1,1,50,0,0
54155,-200,4,1,1,50,0,0
54405,-100,4,1,1,50,0,0
56155,-200,4,1,1,50,0,0
56405,-100,4,1,1,50,0,0
60155,-100,4,1,1,50,0,0
62155,-400,4,1,1,50,0,0
62405,-100,4,1,1,50,0,0
68155,-100,4,1,1,50,0,0
70155,-133.333333333333,4,1,1,50,0,0
70405,-100,4,1,1,50,0,0
74155,-100,4,1,1,50,0,0
76155,-100,4,1,1,50,0,0
78155,-100,4,1,1,50,0,1
80905,-100,4,1,1,50,0,1
83155,-100,4,1,1,50,0,1
86655,-100,4,1,1,50,0,1
88155,-100,4,1,1,50,0,1
91905,-200,4,1,1,50,0,0
92405,-133.333333333333,4,1,1,50,0,0
93155,-100,4,1,1,50,0,1
97155,-83.3333333333333,4,1,1,50,0,1
98155,-90.9090909090909,4,1,1,50,0,1
98405,-100,4,1,1,50,0,1
99155,-100,4,1,1,50,0,0
99905,-400,4,1,1,50,0,0
100405,-100,4,1,1,50,0,0
101155,-100,4,1,1,50,0,0
102655,250,3,1,1,50,1,0
102655,-100,3,1,1,50,0,0
104905,-100,3,1,1,50,0,0
106155,-100,3,1,1,50,0,0
107905,-100,3,1,1,50,0,0
109905,-100,3,1,1,50,0,0
113405,-100,3,1,1,50,0,0
114405,-80,3,1,1,50,0,0
114655,-100,3,1,1,50,0,0
114905,-133.333333333333,3,1,1,50,0,0
115155,-100,3,1,1,50,0,0
115655,-100,3,1,1,50,0,0
115905,-100,3,1,1,50,0,0
117405,-250,3,1,1,50,0,0
118405,250,4,1,1,50,1,0
118405,-133.333333333333,4,1,1,50,0,0
118655,-100,4,1,1,50,0,1
118905,-100,4,1,1,50,0,1
120405,-100,4,1,1,50,0,0
121155,-100,4,1,1,50,0,1
122905,-100,4,1,1,50,0,0
123405,-100,4,1,1,50,0,0
123655,-100,4,1,1,50,0,1
125405,-100,4,1,1,50,0,0
126905,-200,4,1,1,50,0,0
127405,-133.333333333333,4,1,1,50,0,0
127655,-100,4,1,1,50,0,1
132655,-100,4,1,1,50,0,1
135905,-100,4,1,1,50,0,0
136405,-100,4,1,1,50,0,0
140405,-133.333333333333,4,1,1,50,0,0
141405,-200,4,1,1,50,0,0
143405,-133.333333333333,4,1,1,50,0,0
144405,-100,4,1,1,50,0,0
146405,-100,4,1,1,50,0,0
148405,-100,4,1,1,50,0,0
150405,-100,4,1,1,50,0,0
152405,-133.333333333333,4,1,1,50,0,0
153405,-100,4,1,1,50,0,0
154405,-133.333333333333,4,1,1,50,0,0
154655,-80,4,1,1,50,0,0
155405,-100,4,1,1,50,0,0
156405,-250,4,1,1,50,0,0
159155,-250,4,1,1,50,0,0
159405,-250,4,1,1,50,0,0
160405,-250,4,1,1,50,0,0
164405,-250,4,1,1,50,0,0
166905,-400,4,1,1,50,0,0
167655,-250,4,1,1,50,0,0
169405,-181.818181818182,4,1,1,50,0,0
170405,-133.333333333333,4,1,1,50,0,0
171155,-80,4,1,1,50,0,0
171405,-117.647058823529,4,1,1,50,0,0
172405,-100,4,1,1,50,0,1
174405,-100,4,1,1,50,0,0
176405,-100,4,1,1,50,0,1
178405,-100,4,1,1,50,0,0
178905,-80,4,1,1,50,0,0
179405,-100,4,1,1,50,0,0
180405,-100,4,1,1,50,0,1
182405,-80,4,1,1,50,0,0
182655,-100,4,1,1,50,0,0
184405,-100,4,1,1,50,0,1
186405,-100,4,1,1,50,0,0
188405,-100,4,1,1,50,0,0
191405,-100,4,1,1,50,0,0
191905,-133.333333333333,4,1,1,50,0,0
192405,-100,4,1,1,50,0,0
194405,-100,4,1,1,50,0,0
196405,-133.333333333333,4,1,1,50,0,0
197405,-100,4,1,1,50,0,0
198530,-133.333333333333,4,1,1,50,0,0
199155,-100,4,1,1,50,0,0
200405,-100,4,1,1,50,0,0
202405,-1000,4,1,1,50,0,0
204405,-100,4,1,1,50,0,0
208405,-133.333333333333,4,1,1,50,0,0
208655,-100,4,1,1,50,0,0
210405,-200,4,1,1,50,0,0
211405,-100,4,1,1,50,0,0
212655,-100,4,1,1,50,0,0
214405,-200,4,1,1,50,0,0
214655,-100,4,1,1,50,0,0
216405,-133.333333333333,4,1,1,50,0,0
220405,-100,4,1,1,50,0,0
221405,-100,4,1,1,50,0,0
222405,-100,4,1,1,40,0,0
222655,-100,4,1,1,50,0,0
228405,-100,4,1,1,40,0,0
228530,-100,4,1,1,50,0,0
232405,-100,4,1,1,50,0,0
233155,-133.333333333333,4,1,1,50,0,0
233905,-100,4,1,1,50,0,0
235405,-100,4,1,1,50,0,0
236905,-133.333333333333,4,1,1,50,0,0
237155,-100,4,1,1,50,0,1
238905,-100,4,1,1,50,0,0
239655,-100,4,1,1,50,0,1
241405,-80,4,1,1,50,0,0
241905,-133.333333333333,4,1,1,50,0,0
242155,-100,4,1,1,50,0,1
243905,-100,4,1,1,50,0,0
245905,-153.846153846154,4,1,1,50,0,0
246155,-100,4,1,1,50,0,1
247905,-100,4,1,1,50,0,0
248405,-153.846153846154,4,1,1,50,0,0
248655,-100,4,1,1,50,0,1
252905,-100,4,1,1,50,0,0
254405,-133.333333333333,4,1,1,50,0,0
254905,-133.333333333333,4,1,1,50,0,1
256905,-133.333333333333,4,1,1,50,0,0
257405,-133.333333333333,4,1,1,50,0,1
259405,-133.333333333333,4,1,1,50,0,0
259905,-100,4,1,1,50,0,0
264905,-133.333333333333,4,1,1,50,0,1
266905,-133.333333333333,4,1,1,50,0,0
267405,-133.333333333333,4,1,1,50,0,1
269405,-133.333333333333,4,1,1,50,0,0
274155,-133.333333333333,4,1,1,50,0,0
274905,-100,4,1,1,50,0,1
276905,-133.333333333333,4,1,1,50,0,1
277405,-100,4,1,1,50,0,1
279405,-133.333333333333,4,1,1,50,0,1
279905,-100,4,1,1,50,0,1
281905,-133.333333333333,4,1,1,50,0,1
282405,-100,4,1,1,50,0,1
284405,-133.333333333333,4,1,1,50,0,1
284905,-100,4,1,1,50,0,1
286905,-133.333333333333,4,1,1,50,0,1
287405,-100,4,1,1,50,0,1
289405,-133.333333333333,4,1,1,50,0,1
289905,-100,4,1,1,50,0,1
291905,-133.333333333333,4,1,1,50,0,1
292405,-100,4,1,1,50,0,1
294905,-100,4,1,1,50,0,0
297405,-133.333333333333,4,1,1,50,0,0
299905,-100,4,1,1,50,0,1
302905,-100,4,1,1,50,0,0
303905,-133.333333333333,4,1,1,50,0,0
308905,-100,4,1,1,50,0,1
311905,250,4,1,1,50,1,0
311905,-100,4,1,1,50,0,0
312155,250,3,1,1,50,1,0
312155,-100,4,1,1,50,0,0

[HitObjects]
75,348,155,5,2,0:0:0:0:
75,328,405,1,2,0:0:0:0:
75,308,655,6,2,L|75:251,3,50
75,32,905,2,2,L|75:89,3,50
75,171,1155,5,2,0:0:0:0:
84,166,1217,1,2,0:0:0:0:
93,162,1280,1,2,0:0:0:0:
102,158,1342,1,2,0:0:0:0:
111,154,1405,1,10,0:0:0:0:
115,154,1655,5,4,0:0:0:0:
157,128,1717,1,0,0:0:0:0:
206,128,1780,1,0,0:0:0:0:
249,153,1842,1,0,0:0:0:0:
272,196,1905,1,0,0:0:0:0:
318,213,1967,1,0,0:0:0:0:
368,208,2030,2,0,P|394:202|415:187,1,50,4|0,0:0|0:0,0:0:0:0:
318,19,2155,5,0,0:0:0:0:
318,68,2217,1,0,0:0:0:0:
318,118,2280,1,0,0:0:0:0:
318,167,2342,1,0,0:0:0:0:
318,217,2405,5,2,0:0:0:0:
397,78,2530,1,2,0:0:0:0:
318,221,2655,1,2,0:0:0:0:
236,83,2780,1,2,0:0:0:0:
318,225,2905,1,10,0:0:0:0:
318,226,3155,5,4,0:0:0:0:
274,204,3217,1,0,0:0:0:0:
227,217,3280,1,0,0:0:0:0:
202,259,3342,1,0,0:0:0:0:
182,306,3405,1,0,0:0:0:0:
138,328,3467,1,0,0:0:0:0:
92,314,3530,2,0,P|69:286|61:258,1,50,4|0,0:0|0:0,0:0:0:0:
182,310,3655,5,0,0:0:0:0:
214,348,3717,1,0,0:0:0:0:
263,359,3780,1,0,0:0:0:0:
310,344,3842,1,0,0:0:0:0:
343,306,3905,6,2,L|365:365,3,50
478,178,4155,2,2,L|454:240,3,50
363,36,4405,5,10,0:0:0:0:
363,40,4655,5,4,0:0:0:0:
341,84,4717,1,0,0:0:0:0:
295,102,4780,1,0,0:0:0:0:
249,83,4842,1,0,0:0:0:0:
222,42,4905,1,0,0:0:0:0:
176,25,4967,1,0,0:0:0:0:
131,44,5030,2,0,P|109:59|92:85,1,50,4|0,0:0|0:0,0:0:0:0:
74,176,5155,5,2,0:0:0:0:
118,200,5217,1,2,0:0:0:0:
133,248,5280,1,2,0:0:0:0:
120,295,5342,1,2,0:0:0:0:
78,322,5405,5,4,0:0:0:0:
94,319,5467,1,2,0:0:0:0:
111,316,5530,1,2,0:0:0:0:
127,313,5592,1,2,0:0:0:0:
163,331,5655,5,6,0:0:0:0:
180,328,5717,1,2,0:0:0:0:
197,325,5780,1,2,0:0:0:0:
212,323,5842,1,2,0:0:0:0:
248,340,5905,6,0,L|295:318,3,50,6|0|0|0,0:0|0:0|0:0|0:0,0:0:0:0:
383,263,6155,6,8,B|410:261|420:248|413:223|413:223|398:194|388:157|416:123|416:123|438:163,1,200,12|8,0:0|0:0,0:0:0:0:
488,255,6530,1,10,0:0:0:0:
368,27,6655,5,10,0:0:0:0:
315,161,6780,1,10,0:0:0:0:
365,20,6905,5,10,0:0:0:0:
489,264,7030,1,10,0:0:0:0:
365,20,7155,6,2,P|289:52|220:29,1,150.000005722046,12|2,0:0|0:0,0:0:0:0:
22,30,7655,5,4,0:0:0:0:
60,61,7717,1,0,0:0:0:0:
75,107,7780,1,0,0:0:0:0:
62,155,7842,1,0,0:0:0:0:
32,195,7905,1,0,0:0:0:0:
14,242,7967,1,0,0:0:0:0:
25,289,8030,2,0,P|49:316|67:324,1,50,4|0,0:0|0:0,0:0:0:0:
194,300,8155,5,2,0:0:0:0:
236,274,8217,1,2,0:0:0:0:
285,280,8280,5,2,0:0:0:0:
285,270,8342,1,2,0:0:0:0:
285,259,8405,6,2,L|258:218,3,50
361,146,8655,2,2,L|382:98,3,50
275,31,8905,5,10,0:0:0:0:
280,28,9155,5,4,0:0:0:0:
258,72,9217,1,0,0:0:0:0:
214,91,9280,1,0,0:0:0:0:
166,78,9342,1,0,0:0:0:0:
122,47,9405,1,0,0:0:0:0:
75,32,9467,1,0,0:0:0:0:
30,50,9530,2,0,P|11:73|3:98,1,50,4|0,0:0|0:0,0:0:0:0:
27,362,9655,5,2,0:0:0:0:
27,312,9717,1,2,0:0:0:0:
27,262,9780,1,2,0:0:0:0:
27,212,9842,1,2,0:0:0:0:
27,162,9905,5,2,0:0:0:0:
166,83,10030,1,2,0:0:0:0:
23,162,10155,1,2,0:0:0:0:
161,244,10280,1,2,0:0:0:0:
19,162,10405,1,10,0:0:0:0:
18,161,10655,5,4,0:0:0:0:
68,161,10717,1,0,0:0:0:0:
118,161,10780,1,0,0:0:0:0:
168,161,10842,1,0,0:0:0:0:
218,161,10905,1,0,0:0:0:0:
268,161,10967,1,0,0:0:0:0:
323,161,11030,2,0,L|386:161,1,50,4|0,0:0|0:0,0:0:0:0:
479,162,11155,5,2,0:0:0:0:
471,114,11217,1,2,0:0:0:0:
428,91,11280,1,2,0:0:0:0:
384,109,11342,1,2,0:0:0:0:
371,156,11405,6,2,P|381:188|399:208,3,50
497,371,11655,2,2,P|487:339|469:319,3,50
401,282,11905,5,10,0:0:0:0:
389,290,11967,1,2,0:0:0:0:
377,299,12030,1,2,0:0:0:0:
364,307,12092,1,2,0:0:0:0:
348,349,12155,6,0,B|334:313|334:313|334:251,1,100,2|0,0:0|0:0,0:0:0:0:
334,160,12405,5,2,0:0:0:0:
202,282,12530,1,2,0:0:0:0:
248,108,12655,5,2,0:0:0:0:
414,212,12780,1,2,0:0:0:0:
239,101,12905,5,2,0:0:0:0:
201,291,13030,1,2,0:0:0:0:
426,218,13155,5,2,0:0:0:0:
230,92,13280,1,2,0:0:0:0:
200,300,13405,6,0,P|128:270|65:300,1,150.000005722046,4|0,0:0|0:0,0:0:0:0:
30,217,14655,5,6,0:0:0:0:
33,211,14717,2,2,B|47:179|77:173|77:173|82:123|82:123|71:106|54:88|54:55|65:33|82:19,1,225.000008583069
171,60,15155,5,12,0:0:0:0:
193,93,15217,1,0,0:0:0:0:
230,108,15280,1,0,0:0:0:0:
269,102,15342,1,0,0:0:0:0:
297,73,15405,1,0,0:0:0:0:
329,49,15467,1,0,0:0:0:0:
368,42,15530,5,12,0:0:0:0:
338,68,15592,1,0,0:0:0:0:
318,103,15655,1,0,0:0:0:0:
318,142,15717,1,0,0:0:0:0:
335,178,15780,1,0,0:0:0:0:
367,200,15842,1,0,0:0:0:0:
407,202,15905,5,0,0:0:0:0:
380,188,15967,1,0,0:0:0:0:
349,187,16030,2,0,P|316:202|296:220,1,50
252,288,16155,5,12,0:0:0:0:
245,301,16217,1,0,0:0:0:0:
241,315,16280,1,0,0:0:0:0:
241,330,16342,1,0,0:0:0:0:
243,345,16405,1,0,0:0:0:0:
248,359,16467,1,0,0:0:0:0:
256,372,16530,1,0,0:0:0:0:
268,381,16592,1,0,0:0:0:0:
286,380,16655,5,12,0:0:0:0:
271,343,16717,1,0,0:0:0:0:
241,315,16780,1,0,0:0:0:0:
204,301,16842,1,0,0:0:0:0:
164,301,16905,1,0,0:0:0:0:
128,318,16967,1,0,0:0:0:0:
101,347,17030,5,12,0:0:0:0:
137,331,17092,1,0,0:0:0:0:
153,294,17155,1,0,0:0:0:0:
139,256,17217,1,0,0:0:0:0:
107,229,17280,1,0,0:0:0:0:
68,222,17342,1,0,0:0:0:0:
31,239,17405,5,0,0:0:0:0:
52,218,17467,1,0,0:0:0:0:
71,195,17530,2,0,L|105:153,1,50
193,49,17655,5,12,0:0:0:0:
197,63,17717,1,0,0:0:0:0:
205,75,17780,1,0,0:0:0:0:
215,87,17842,1,0,0:0:0:0:
227,96,17905,1,0,0:0:0:0:
241,102,17967,1,0,0:0:0:0:
255,104,18030,1,0,0:0:0:0:
270,103,18092,1,0,0:0:0:0:
284,97,18155,5,12,0:0:0:0:
287,137,18217,1,0,0:0:0:0:
292,177,18280,1,0,0:0:0:0:
296,217,18342,1,0,0:0:0:0:
301,258,18405,1,0,0:0:0:0:
305,298,18467,1,0,0:0:0:0:
309,339,18530,5,12,0:0:0:0:
271,327,18592,1,0,0:0:0:0:
250,293,18655,1,0,0:0:0:0:
257,255,18717,1,0,0:0:0:0:
289,232,18780,1,0,0:0:0:0:
328,238,18842,1,0,0:0:0:0:
350,272,18905,5,2,0:0:0:0:
351,247,18967,1,2,0:0:0:0:
351,222,19030,2,2,L|350:171,1,50
453,83,19155,6,0,L|453:25,7,50,12|0|0|0|0|0|0|0,0:0|0:0|0:0|0:0|0:0|0:0|0:0|0:0,0:0:0:0:
350,82,19655,6,0,P|338:65|304:48,1,50,8|0,0:0|0:0,0:0:0:0:
155,22,19780,2,0,L|103:-1,1,50,8|0,0:0|0:0,0:0:0:0:
236,227,19905,6,0,P|239:206|227:170,1,50,8|0,0:0|0:0,0:0:0:0:
139,38,20030,2,0,L|118:-15,1,50,8|0,0:0|0:0,0:0:0:0:
68,260,20155,6,0,P|85:248|102:214,1,50,8|0,0:0|0:0,0:0:0:0:
123,54,20280,2,0,L|146:2,1,50,8|0,0:0|0:0,0:0:0:0:
20,304,20405,5,12,0:0:0:0:
20,319,20467,1,0,0:0:0:0:
20,334,20530,1,0,0:0:0:0:
20,349,20592,1,0,0:0:0:0:
20,364,20655,6,2,P|50:354|71:335,3,50,12|2|2|2,0:0|0:0|0:0|0:0,0:0:0:0:
281,295,20905,2,2,P|269:326|256:345,3,50,12|2|2|2,0:0|0:0|0:0|0:0,0:0:0:0:
163,261,21155,5,12,0:0:0:0:
184,216,21217,1,0,0:0:0:0:
179,167,21280,1,0,0:0:0:0:
147,129,21342,1,0,0:0:0:0:
100,115,21405,1,0,0:0:0:0:
53,128,21467,1,0,0:0:0:0:
25,170,21530,5,12,0:0:0:0:
73,172,21592,1,0,0:0:0:0:
111,141,21655,1,0,0:0:0:0:
120,93,21717,1,0,0:0:0:0:
94,51,21780,1,0,0:0:0:0:
48,37,21842,1,0,0:0:0:0:
25,57,21905,5,0,0:0:0:0:
45,70,21967,1,0,0:0:0:0:
69,75,22030,2,0,P|101:76|123:65,1,50
203,17,22155,5,12,0:0:0:0:
230,6,22217,1,0,0:0:0:0:
259,0,22280,1,0,0:0:0:0:
288,4,22342,1,0,0:0:0:0:
317,8,22405,1,0,0:0:0:0:
344,19,22467,1,0,0:0:0:0:
364,41,22530,2,0,P|363:73|369:97,1,50
403,243,22655,5,12,0:0:0:0:
377,202,22717,1,0,0:0:0:0:
329,189,22780,1,0,0:0:0:0:
283,205,22842,1,0,0:0:0:0:
257,248,22905,1,0,0:0:0:0:
215,275,22967,1,0,0:0:0:0:
166,268,23030,5,12,0:0:0:0:
201,232,23092,1,0,0:0:0:0:
251,232,23155,1,0,0:0:0:0:
286,266,23217,1,0,0:0:0:0:
291,316,23280,1,0,0:0:0:0:
258,353,23342,1,0,0:0:0:0:
208,362,23405,5,0,0:0:0:0:
232,362,23467,1,0,0:0:0:0:
257,362,23530,2,0,P|285:362|312:362,1,50
504,362,23655,5,12,0:0:0:0:
479,362,23717,1,0,0:0:0:0:
454,362,23780,1,0,0:0:0:0:
429,362,23842,1,0,0:0:0:0:
404,362,23905,1,0,0:0:0:0:
379,362,23967,1,0,0:0:0:0:
354,362,24030,1,0,0:0:0:0:
329,362,24092,1,0,0:0:0:0:
303,362,24155,5,6,0:0:0:0:
303,364,24280,1,10,0:0:0:0:
166,268,24405,5,0,0:0:0:0:
158,244,24467,1,0,0:0:0:0:
150,220,24530,1,10,0:0:0:0:
303,366,24655,5,0,0:0:0:0:
303,368,24780,1,10,0:0:0:0:
255,228,24905,5,0,0:0:0:0:
262,209,24967,1,0,0:0:0:0:
269,190,25030,1,10,0:0:0:0:
145,198,25155,5,0,0:0:0:0:
145,198,25280,1,10,0:0:0:0:
151,83,25405,5,0,0:0:0:0:
143,59,25467,1,0,0:0:0:0:
135,35,25530,1,10,0:0:0:0:
276,90,25655,5,2,0:0:0:0:
283,83,25717,1,2,0:0:0:0:
290,76,25780,1,2,0:0:0:0:
297,69,25842,1,2,0:0:0:0:
304,62,25905,5,2,0:0:0:0:
342,51,25967,1,2,0:0:0:0:
382,55,26030,1,2,0:0:0:0:
414,78,26092,1,2,0:0:0:0:
431,114,26155,5,2,0:0:0:0:
438,107,26217,1,2,0:0:0:0:
445,100,26280,1,2,0:0:0:0:
452,93,26342,1,2,0:0:0:0:
456,52,26405,5,2,0:0:0:0:
463,45,26467,1,2,0:0:0:0:
470,38,26530,1,2,0:0:0:0:
477,31,26592,1,2,0:0:0:0:
507,4,26655,5,6,0:0:0:0:
507,183,26905,1,6,0:0:0:0:
489,8,27155,5,12,0:0:0:0:
452,40,27217,1,0,0:0:0:0:
437,87,27280,1,0,0:0:0:0:
449,135,27342,1,0,0:0:0:0:
489,167,27405,1,0,0:0:0:0:
512,209,27467,1,0,0:0:0:0:
510,258,27530,1,0,0:0:0:0:
482,300,27592,1,0,0:0:0:0:
437,322,27655,5,6,0:0:0:0:
400,288,27717,1,0,0:0:0:0:
352,273,27780,1,0,0:0:0:0:
303,279,27842,1,0,0:0:0:0:
260,304,27905,1,0,0:0:0:0:
226,339,27967,1,0,0:0:0:0:
177,353,28030,1,0,0:0:0:0:
128,343,28092,1,0,0:0:0:0:
101,300,28155,5,6,0:0:0:0:
125,300,28217,1,0,0:0:0:0:
150,300,28280,2,0,L|206:298,1,50
357,194,28405,5,6,0:0:0:0:
333,194,28467,1,0,0:0:0:0:
308,194,28530,2,0,L|252:192,1,50
199,298,28655,5,6,0:0:0:0:
174,266,28717,1,0,0:0:0:0:
149,235,28780,1,0,0:0:0:0:
124,203,28842,1,0,0:0:0:0:
99,172,28905,1,0,0:0:0:0:
74,141,28967,1,0,0:0:0:0:
49,109,29030,1,0,0:0:0:0:
25,78,29092,1,0,0:0:0:0:
0,46,29155,5,6,0:0:0:0:
30,77,29217,1,0,0:0:0:0:
73,88,29280,1,0,0:0:0:0:
116,74,29342,1,0,0:0:0:0:
147,42,29405,1,0,0:0:0:0:
178,10,29467,1,0,0:0:0:0:
221,2,29530,1,0,0:0:0:0:
263,13,29592,1,0,0:0:0:0:
287,50,29655,5,6,0:0:0:0:
254,80,29717,1,0,0:0:0:0:
244,123,29780,1,0,0:0:0:0:
259,165,29842,1,0,0:0:0:0:
298,187,29905,1,0,0:0:0:0:
330,218,29967,1,0,0:0:0:0:
341,261,30030,1,0,0:0:0:0:
326,302,30092,1,0,0:0:0:0:
297,336,30155,6,0,P|267:348|255:350,1,37.5,6|0,0:0|0:0,0:0:0:0:
162,364,30405,6,0,L|137:309,1,50,10|0,0:0|0:0,0:0:0:0:
85,201,30530,2,0,L|58:141,1,50,10|0,0:0|0:0,0:0:0:0:
256,262,30655,6,0,L|199:240,1,50,10|0,0:0|0:0,0:0:0:0:
81,201,30780,2,0,L|19:177,1,50,10|0,0:0|0:0,0:0:0:0:
244,121,30905,6,0,L|188:146,1,50,10|0,0:0|0:0,0:0:0:0:
77,201,31030,2,0,L|17:228,1,50,10|0,0:0|0:0,0:0:0:0:
135,27,31155,6,0,L|113:83,1,50,10|0,0:0|0:0,0:0:0:0:
73,201,31280,2,0,L|49:262,1,50,10|0,0:0|0:0,0:0:0:0:
0,35,31405,6,0,L|25:90,1,50,10|0,0:0|0:0,0:0:0:0:
71,201,31530,2,0,L|98:261,1,50,10|0,0:0|0:0,0:0:0:0:
150,367,31655,6,0,B|171:350|201:346|201:346|229:320|235:289,1,100,6|0,0:0|0:0,0:0:0:0:
274,234,31905,5,0,0:0:0:0:
306,203,31967,1,0,0:0:0:0:
349,192,32030,1,0,0:0:0:0:
393,202,32092,1,0,0:0:0:0:
428,230,32155,6,0,L|450:176,3,50,4|0|0|0,0:0|0:0|0:0|0:0,0:0:0:0:
349,273,32405,5,0,0:0:0:0:
339,301,32467,1,0,0:0:0:0:
324,327,32530,1,0,0:0:0:0:
304,349,32592,1,0,0:0:0:0:
277,364,32655,6,0,P|299:377|337:377,3,50,4|0|0|0,0:0|0:0|0:0|0:0,0:0:0:0:
428,230,32905,2,0,P|410:206|380:189,3,50,4|0|0|0,0:0|0:0|0:0|0:0,0:0:0:0:
208,144,33155,5,12,0:0:0:0:
208,146,33217,1,0,0:0:0:0:
208,148,33280,1,0,0:0:0:0:
208,150,33342,1,0,0:0:0:0:
208,152,33405,1,0,0:0:0:0:
208,154,33467,1,0,0:0:0:0:
180,196,33530,5,12,0:0:0:0:
180,194,33592,1,0,0:0:0:0:
180,192,33655,1,0,0:0:0:0:
180,190,33717,1,0,0:0:0:0:
181,188,33780,1,0,0:0:0:0:
180,186,33842,1,0,0:0:0:0:
180,184,33905,1,0,0:0:0:0:
180,182,33967,1,0,0:0:0:0:
180,180,34030,1,0,0:0:0:0:
181,178,34092,1,0,0:0:0:0:
209,136,34155,5,12,0:0:0:0:
209,134,34217,1,0,0:0:0:0:
209,132,34280,1,0,0:0:0:0:
209,130,34342,1,0,0:0:0:0:
209,128,34405,1,0,0:0:0:0:
209,126,34467,1,0,0:0:0:0:
209,124,34530,1,0,0:0:0:0:
209,122,34592,1,0,0:0:0:0:
255,102,34655,5,12,0:0:0:0:
225,63,34717,1,0,0:0:0:0:
177,53,34780,1,0,0:0:0:0:
130,70,34842,1,0,0:0:0:0:
95,106,34905,1,0,0:0:0:0:
46,107,34967,1,0,0:0:0:0:
13,69,35030,2,0,P|7:43|16:10,1,50,12|0,0:0|0:0,0:0:0:0:
256,102,35155,5,0,0:0:0:0:
286,63,35217,1,0,0:0:0:0:
334,53,35280,1,0,0:0:0:0:
381,70,35342,1,0,0:0:0:0:
416,106,35405,1,0,0:0:0:0:
465,107,35467,1,0,0:0:0:0:
498,69,35530,2,0,P|504:43|495:10,1,50
256,102,35655,5,12,0:0:0:0:
256,112,35717,1,2,0:0:0:0:
256,122,35780,1,2,0:0:0:0:
256,132,35842,1,2,0:0:0:0:
256,142,35905,1,2,0:0:0:0:
256,152,35967,1,2,0:0:0:0:
256,162,36030,1,2,0:0:0:0:
256,172,36092,1,2,0:0:0:0:
262,211,36155,5,12,0:0:0:0:
480,32,39655,5,2,0:0:0:0:
480,192,39905,1,2,0:0:0:0:
480,352,40155,1,2,0:0:0:0:
438,352,42155,5,2,0:0:0:0:
438,312,42217,1,2,0:0:0:0:
436,271,42280,1,2,0:0:0:0:
438,231,42342,1,2,0:0:0:0:
438,190,42405,1,2,0:0:0:0:
438,150,42467,1,2,0:0:0:0:
438,109,42530,5,2,0:0:0:0:
438,119,42592,1,0,0:0:0:0:
438,129,42655,1,0,0:0:0:0:
438,139,42717,1,0,0:0:0:0:
438,149,42780,1,0,0:0:0:0:
438,159,42842,1,0,0:0:0:0:
466,193,42905,5,2,0:0:0:0:
431,165,42967,1,2,0:0:0:0:
387,158,43030,1,2,0:0:0:0:
346,175,43092,1,2,0:0:0:0:
316,209,43155,6,2,L|316:146,3,50
201,37,43405,5,8,0:0:0:0:
179,58,43467,1,8,0:0:0:0:
158,79,43530,1,8,0:0:0:0:
137,101,43592,1,8,0:0:0:0:
93,111,43655,5,8,0:0:0:0:
82,121,43717,1,0,0:0:0:0:
72,132,43780,1,0,0:0:0:0:
61,143,43842,1,0,0:0:0:0:
16,149,43905,6,0,P|9:204|20:255,1,100,8|0,0:0|0:0,0:0:0:0:
71,344,44155,5,12,0:0:0:0:
95,360,44217,1,0,0:0:0:0:
124,370,44280,1,0,0:0:0:0:
154,372,44342,1,0,0:0:0:0:
183,364,44405,2,0,P|214:343|229:324,1,50,12|0,0:0|0:0,0:0:0:0:
293,262,44530,5,12,0:0:0:0:
313,240,44592,1,0,0:0:0:0:
340,226,44655,1,0,0:0:0:0:
369,222,44717,1,0,0:0:0:0:
400,222,44780,1,0,0:0:0:0:
428,230,44842,1,0,0:0:0:0:
454,245,44905,5,12,0:0:0:0:
452,225,44967,1,0,0:0:0:0:
450,204,45030,2,0,L|446:135,1,50
317,33,45155,6,0,L|321:102,3,50,12|0|0|0,0:0|0:0|0:0|0:0,0:0:0:0:
185,13,45405,2,0,L|181:82,3,50,12|0|0|0,0:0|0:0|0:0|0:0,0:0:0:0:
60,31,45655,5,12,0:0:0:0:
38,50,45717,1,0,0:0:0:0:
27,77,45780,1,0,0:0:0:0:
27,106,45842,1,0,0:0:0:0:
56,141,45905,5,12,0:0:0:0:
70,167,45967,1,0,0:0:0:0:
69,197,46030,1,0,0:0:0:0:
59,225,46092,1,0,0:0:0:0:
26,254,46155,5,12,0:0:0:0:
33,247,46217,1,0,0:0:0:0:
40,240,46280,1,0,0:0:0:0:
48,234,46342,1,0,0:0:0:0:
58,231,46405,1,0,0:0:0:0:
67,228,46467,1,0,0:0:0:0:
78,226,46530,1,0,0:0:0:0:
88,227,46592,1,0,0:0:0:0:
97,229,46655,1,0,0:0:0:0:
106,232,46717,1,0,0:0:0:0:
115,238,46780,1,0,0:0:0:0:
122,243,46842,1,0,0:0:0:0:
145,287,46905,6,0,L|157:224,3,50,12|0|0|0,0:0|0:0|0:0|0:0,0:0:0:0:
251,212,47155,2,0,L|263:149,3,50,12|0|0|0,0:0|0:0|0:0|0:0,0:0:0:0:
360,153,47405,2,0,L|372:90,3,50,12|0|0|0,0:0|0:0|0:0|0:0,0:0:0:0:
423,269,47655,5,10,0:0:0:0:
433,266,47717,1,0,0:0:0:0:
442,261,47780,1,0,0:0:0:0:
450,256,47842,1,0,0:0:0:0:
458,249,47905,1,0,0:0:0:0:
464,241,47967,1,0,0:0:0:0:
468,232,48030,1,0,0:0:0:0:
471,223,48092,1,0,0:0:0:0:
473,213,48155,6,0,P|475:176|475:168,1,37.5,6|0,0:0|0:0,0:0:0:0:
360,153,48405,5,8,0:0:0:0:
360,124,48467,1,0,0:0:0:0:
360,94,48530,2,0,L|360:41,1,50
475,29,48655,6,0,L|475:79,3,50,10|0|0|0,0:0|0:0|0:0|0:0,0:0:0:0:
256,70,48905,2,0,L|256:17,3,50,10|0|0|0,0:0|0:0|0:0|0:0,0:0:0:0:
130,93,49155,5,12,0:0:0:0:
99,118,49217,1,0,0:0:0:0:
91,157,49280,1,0,0:0:0:0:
106,193,49342,1,0,0:0:0:0:
138,216,49405,5,12,0:0:0:0:
153,252,49467,1,0,0:0:0:0:
153,292,49530,1,0,0:0:0:0:
132,326,49592,1,0,0:0:0:0:
93,337,49655,5,12,0:0:0:0:
120,302,49717,1,0,0:0:0:0:
163,287,49780,1,0,0:0:0:0:
206,295,49842,1,0,0:0:0:0:
242,322,49905,1,8,0:0:0:0:
277,349,49967,1,0,0:0:0:0:
322,352,50030,1,0,0:0:0:0:
362,333,50092,1,0,0:0:0:0:
384,293,50155,6,0,P|392:253|381:212,1,75,12|0,0:0|0:0,0:0:0:0:
297,183,50405,6,0,P|286:207|291:231,1,50,10|0,0:0|0:0,0:0:0:0:
473,259,50530,2,0,P|483:234|478:210,1,50,10|0,0:0|0:0,0:0:0:0:
288,178,50655,6,0,P|276:205|281:230,1,50,10|0,0:0|0:0,0:0:0:0:
481,263,50780,2,0,P|493:236|487:210,1,50,10|0,0:0|0:0,0:0:0:0:
284,176,50905,6,0,P|271:204|277:231,1,50,10|0,0:0|0:0,0:0:0:0:
485,265,51030,2,0,P|497:237|491:210,1,50,10|0,0:0|0:0,0:0:0:0:
384,216,51155,5,12,0:0:0:0:
384,196,51217,1,0,0:0:0:0:
384,175,51280,1,0,0:0:0:0:
384,155,51342,1,0,0:0:0:0:
384,134,51405,1,0,0:0:0:0:
384,114,51467,1,0,0:0:0:0:
384,93,51530,1,0,0:0:0:0:
384,73,51592,1,0,0:0:0:0:
384,52,51655,5,12,0:0:0:0:
357,99,51717,1,0,0:0:0:0:
305,119,51780,1,0,0:0:0:0:
254,98,51842,1,0,0:0:0:0:
219,54,51905,5,12,0:0:0:0:
219,103,51967,1,8,0:0:0:0:
219,153,52030,1,8,0:0:0:0:
219,202,52092,1,8,0:0:0:0:
219,252,52155,2,0,L|219:330,1,75,12|0,0:0|0:0,0:0:0:0:
50,349,52405,5,12,0:0:0:0:
87,317,52467,1,0,0:0:0:0:
102,270,52530,1,0,0:0:0:0:
90,222,52592,1,0,0:0:0:0:
50,190,52655,1,0,0:0:0:0:
27,148,52717,1,0,0:0:0:0:
29,99,52780,1,0,0:0:0:0:
57,57,52842,1,0,0:0:0:0:
102,35,52905,5,6,0:0:0:0:
139,69,52967,1,0,0:0:0:0:
187,84,53030,1,0,0:0:0:0:
236,78,53092,1,0,0:0:0:0:
279,53,53155,5,12,0:0:0:0:
233,34,53217,1,0,0:0:0:0:
184,48,53280,1,0,0:0:0:0:
156,89,53342,1,0,0:0:0:0:
159,139,53405,1,0,0:0:0:0:
189,178,53467,1,0,0:0:0:0:
237,192,53530,1,0,0:0:0:0:
285,182,53592,1,0,0:0:0:0:
318,144,53655,5,12,0:0:0:0:
295,133,53717,1,0,0:0:0:0:
269,135,53780,2,0,P|241:153|225:170,1,50
392,247,53905,5,12,0:0:0:0:
415,258,53967,1,0,0:0:0:0:
441,256,54030,2,0,P|469:238|485:221,1,50
299,264,54155,6,0,P|257:264|226:282,1,75,12|0,0:0|0:0,0:0:0:0:
147,351,54405,6,0,P|182:366|205:364,1,50,8|0,0:0|0:0,0:0:0:0:
116,256,54530,2,0,P|81:241|58:243,1,50,8|0,0:0|0:0,0:0:0:0:
153,354,54655,6,0,P|192:367|217:362,1,50,8|0,0:0|0:0,0:0:0:0:
109,252,54780,2,0,P|70:239|45:244,1,50,8|0,0:0|0:0,0:0:0:0:
157,352,54905,6,0,P|198:361|222:355,1,50,8|0,0:0|0:0,0:0:0:0:
105,254,55030,2,0,P|64:245|40:251,1,50,8|0,0:0|0:0,0:0:0:0:
225,278,55155,5,4,0:0:0:0:
225,106,55405,1,4,0:0:0:0:
391,106,55655,1,4,0:0:0:0:
59,106,55905,1,4,0:0:0:0:
227,102,56155,6,0,P|250:69|279:49,1,75,6|0,0:0|0:0,0:0:0:0:
366,31,56405,5,6,0:0:0:0:
386,52,56467,1,0,0:0:0:0:
395,81,56530,1,0,0:0:0:0:
392,110,56592,1,0,0:0:0:0:
376,136,56655,1,0,0:0:0:0:
361,161,56717,1,0,0:0:0:0:
360,192,56780,1,0,0:0:0:0:
371,219,56842,1,0,0:0:0:0:
395,236,56905,2,0,P|426:249|446:252,3,50,6|0|0|0,0:0|0:0|0:0|0:0,0:0:0:0:
279,177,57155,5,10,0:0:0:0:
261,185,57217,1,0,0:0:0:0:
245,198,57280,1,0,0:0:0:0:
233,214,57342,1,0,0:0:0:0:
226,232,57405,1,0,0:0:0:0:
223,252,57467,1,0,0:0:0:0:
224,272,57530,1,0,0:0:0:0:
231,291,57592,1,0,0:0:0:0:
262,317,57655,5,6,0:0:0:0:
265,315,57905,1,6,0:0:0:0:
268,314,58155,5,6,0:0:0:0:
254,307,58217,1,0,0:0:0:0:
239,303,58280,1,0,0:0:0:0:
225,301,58342,1,0,0:0:0:0:
210,302,58405,1,0,0:0:0:0:
195,305,58467,1,0,0:0:0:0:
182,312,58530,5,6,0:0:0:0:
173,299,58592,1,0,0:0:0:0:
161,290,58655,1,0,0:0:0:0:
148,283,58717,1,0,0:0:0:0:
133,280,58780,1,0,0:0:0:0:
118,281,58842,1,0,0:0:0:0:
104,287,58905,5,6,0:0:0:0:
105,272,58967,1,0,0:0:0:0:
102,257,59030,1,0,0:0:0:0:
95,244,59092,1,0,0:0:0:0:
84,233,59155,1,0,0:0:0:0:
71,226,59217,1,0,0:0:0:0:
57,223,59280,6,0,L|47:173,5,50,6|0|0|0|0|0,0:0|0:0|0:0|0:0|0:0|0:0,0:0:0:0:
23,26,59655,5,6,0:0:0:0:
23,22,59905,1,6,0:0:0:0:
23,18,60155,5,6,0:0:0:0:
105,131,60280,1,8,0:0:0:0:
236,84,60405,1,0,0:0:0:0:
106,29,60530,1,8,0:0:0:0:
45,177,60655,2,0,P|90:205|139:196,1,100,0|8,0:0|0:0,0:0:0:0:
261,100,60905,2,0,P|216:72|167:81,1,100,0|8,0:0|0:0,0:0:0:0:
94,219,61155,5,0,0:0:0:0:
94,234,61217,1,0,0:0:0:0:
94,249,61280,1,8,0:0:0:0:
214,285,61405,1,0,0:0:0:0:
30,359,61530,1,8,0:0:0:0:
218,281,61655,5,0,0:0:0:0:
228,270,61717,1,0,0:0:0:0:
239,259,61780,1,8,0:0:0:0:
337,151,61905,1,0,0:0:0:0:
411,266,62030,1,8,0:0:0:0:
268,43,62155,6,0,L|268:86,1,37.5,6|0,0:0|0:0,0:0:0:0:
268,186,62405,5,12,0:0:0:0:
268,201,62467,1,0,0:0:0:0:
268,216,62530,1,0,0:0:0:0:
268,231,62592,1,0,0:0:0:0:
268,246,62655,5,12,0:0:0:0:
307,216,62717,1,0,0:0:0:0:
317,168,62780,1,0,0:0:0:0:
300,121,62842,1,0,0:0:0:0:
264,86,62905,1,6,0:0:0:0:
263,37,62967,1,0,0:0:0:0:
301,4,63030,2,0,P|327:-2|360:7,1,50
449,32,63155,5,12,0:0:0:0:
479,68,63217,1,0,0:0:0:0:
481,117,63280,1,0,0:0:0:0:
455,159,63342,1,0,0:0:0:0:
412,186,63405,1,6,0:0:0:0:
402,234,63467,1,0,0:0:0:0:
434,274,63530,2,0,P|458:284|492:282,1,50
332,356,63655,5,12,0:0:0:0:
332,351,63717,1,10,0:0:0:0:
332,346,63780,1,10,0:0:0:0:
332,341,63842,1,10,0:0:0:0:
332,336,63905,1,10,0:0:0:0:
332,331,63967,1,10,0:0:0:0:
332,326,64030,1,10,0:0:0:0:
332,321,64092,1,10,0:0:0:0:
332,316,64155,5,6,0:0:0:0:
250,203,64280,1,8,0:0:0:0:
118,250,64405,1,0,0:0:0:0:
249,305,64530,1,8,0:0:0:0:
310,156,64655,2,0,P|265:128|216:137,1,100,0|8,0:0|0:0,0:0:0:0:
94,234,64905,2,0,P|139:262|187:253,1,100,0|8,0:0|0:0,0:0:0:0:
388,163,65155,5,0,0:0:0:0:
388,148,65217,1,0,0:0:0:0:
388,133,65280,1,8,0:0:0:0:
268,96,65405,1,0,0:0:0:0:
452,22,65530,1,8,0:0:0:0:
264,100,65655,5,0,0:0:0:0:
253,111,65717,1,0,0:0:0:0:
243,123,65780,1,8,0:0:0:0:
152,191,65905,1,0,0:0:0:0:
106,69,66030,1,8,0:0:0:0:
215,324,66155,6,0,B|247:303|247:303|247:232|247:232|290:213,1,150,6|0,0:0|0:0,0:0:0:0:
86,324,66405,2,0,B|54:303|54:303|54:232|54:232|11:213,1,150,6|0,0:0|0:0,0:0:0:0:
150,255,66655,5,10,0:0:0:0:
151,240,66717,1,0,0:0:0:0:
156,226,66780,1,0,0:0:0:0:
165,214,66842,1,0,0:0:0:0:
177,205,66905,5,8,0:0:0:0:
152,168,66967,1,0,0:0:0:0:
155,124,67030,1,0,0:0:0:0:
186,92,67092,1,0,0:0:0:0:
230,82,67155,5,10,0:0:0:0:
236,95,67217,1,10,0:0:0:0:
242,108,67280,1,10,0:0:0:0:
284,222,67405,1,10,0:0:0:0:
376,21,67530,5,10,0:0:0:0:
368,40,67592,1,10,0:0:0:0:
361,60,67655,1,10,0:0:0:0:
284,226,67780,1,10,0:0:0:0:
478,117,67905,5,10,0:0:0:0:
478,167,67967,1,10,0:0:0:0:
478,217,68030,1,10,0:0:0:0:
478,267,68092,1,10,0:0:0:0:
478,317,68155,5,4,0:0:0:0:
372,162,68280,1,8,0:0:0:0:
345,317,68405,5,0,0:0:0:0:
222,138,68530,1,8,0:0:0:0:
213,317,68655,5,0,0:0:0:0:
213,288,68717,1,0,0:0:0:0:
213,258,68780,1,8,0:0:0:0:
84,33,68905,5,0,0:0:0:0:
84,62,68967,1,0,0:0:0:0:
84,92,69030,1,8,0:0:0:0:
114,293,69155,6,0,P|108:237|60:181,1,100,0|8,0:0|0:0,0:0:0:0:
194,211,69405,2,0,L|194:89,1,100,0|8,0:0|0:0,0:0:0:0:
273,293,69655,2,0,P|279:237|327:181,1,100,0|8,0:0|0:0,0:0:0:0:
477,262,69905,2,0,P|471:318|423:374,1,100,0|8,0:0|0:0,0:0:0:0:
402,175,70155,6,0,B|386:135|386:135|390:102|390:102|376:68,1,112.500004291535,12|0,0:0|0:0,0:0:0:0:
198,111,70405,5,6,0:0:0:0:
213,111,70467,1,0,0:0:0:0:
228,111,70530,1,8,0:0:0:0:
243,111,70592,1,0,0:0:0:0:
258,111,70655,5,6,0:0:0:0:
228,72,70717,1,0,0:0:0:0:
180,62,70780,1,8,0:0:0:0:
133,79,70842,1,0,0:0:0:0:
98,115,70905,1,0,0:0:0:0:
49,116,70967,1,0,0:0:0:0:
16,78,71030,2,0,P|10:52|19:19,1,50,8|0,0:0|0:0,0:0:0:0:
96,117,71155,5,6,0:0:0:0:
126,153,71217,1,0,0:0:0:0:
128,202,71280,1,8,0:0:0:0:
102,244,71342,1,0,0:0:0:0:
59,271,71405,1,0,0:0:0:0:
49,319,71467,1,0,0:0:0:0:
81,359,71530,2,0,P|105:369|139:367,1,50,8|0,0:0|0:0,0:0:0:0:
300,279,71655,5,12,0:0:0:0:
295,279,71717,1,10,0:0:0:0:
290,279,71780,1,10,0:0:0:0:
285,279,71842,1,10,0:0:0:0:
280,279,71905,1,10,0:0:0:0:
275,279,71967,1,10,0:0:0:0:
270,279,72030,1,10,0:0:0:0:
265,279,72092,1,10,0:0:0:0:
260,279,72155,6,0,L|253:174,1,100,12|0,0:0|0:0,0:0:0:0:
406,25,72405,2,0,L|413:130,1,100,8|0,0:0|0:0,0:0:0:0:
420,272,72655,6,0,P|402:314|363:352,1,100,8|0,0:0|0:0,0:0:0:0:
92,112,72905,2,0,P|110:70|149:32,1,100,8|0,0:0|0:0,0:0:0:0:
253,179,73155,5,10,0:0:0:0:
247,192,73217,1,10,0:0:0:0:
241,205,73280,1,10,0:0:0:0:
199,319,73405,1,10,0:0:0:0:
92,116,73530,5,10,0:0:0:0:
100,135,73592,1,10,0:0:0:0:
107,155,73655,1,10,0:0:0:0:
199,323,73780,1,10,0:0:0:0:
5,214,73905,5,10,0:0:0:0:
20,226,73967,1,10,0:0:0:0:
36,237,74030,1,10,0:0:0:0:
199,327,74155,6,0,B|247:342|247:342|305:342,1,100,8|0,0:0|0:0,0:0:0:0:
313,57,74405,2,0,B|265:42|265:42|207:42,1,100,8|0,0:0|0:0,0:0:0:0:
391,249,74655,6,0,B|406:201|406:201|406:143,1,100,8|0,0:0|0:0,0:0:0:0:
121,135,74905,2,0,B|106:183|106:183|106:241,1,100,8|0,0:0|0:0,0:0:0:0:
328,181,75155,5,8,0:0:0:0:
180,197,75280,1,8,0:0:0:0:
337,83,75405,1,8,0:0:0:0:
177,313,75530,1,8,0:0:0:0:
256,13,75655,5,12,0:0:0:0:
256,15,75717,1,10,0:0:0:0:
256,17,75780,1,10,0:0:0:0:
256,19,75842,1,10,0:0:0:0:
274,66,75905,5,12,0:0:0:0:
274,68,75967,1,10,0:0:0:0:
274,70,76030,1,10,0:0:0:0:
274,72,76092,1,10,0:0:0:0:
256,119,76155,5,12,0:0:0:0:
256,119,76905,6,0,B|235:160|241:192|252:222|252:222|235:240|239:277|256:314,1,200
343,153,77405,1,0,0:0:0:0:
343,157,77655,6,0,B|336:188|354:218|390:218|390:218|350:233|314:262|314:334|350:376|404:381|442:367,1,300,6|0,0:0|0:0,0:0:0:0:
410,295,78155,5,12,0:0:0:0:
408,295,78217,1,0,0:0:0:0:
406,295,78280,1,0,0:0:0:0:
404,295,78342,1,0,0:0:0:0:
402,295,78405,1,0,0:0:0:0:
400,295,78467,1,0,0:0:0:0:
398,295,78530,1,0,0:0:0:0:
396,295,78592,1,0,0:0:0:0:
394,295,78655,1,0,0:0:0:0:
392,295,78717,1,0,0:0:0:0:
390,295,78780,1,0,0:0:0:0:
388,295,78842,1,0,0:0:0:0:
386,295,78904,1,6,0:0:0:0:
384,295,78967,1,0,0:0:0:0:
382,295,79029,1,0,0:0:0:0:
380,295,79092,1,0,0:0:0:0:
348,270,79155,5,12,0:0:0:0:
350,270,79217,1,0,0:0:0:0:
352,270,79280,1,0,0:0:0:0:
354,270,79342,1,0,0:0:0:0:
356,270,79404,1,0,0:0:0:0:
358,270,79467,1,0,0:0:0:0:
360,270,79529,1,0,0:0:0:0:
362,270,79592,1,0,0:0:0:0:
394,246,79655,5,12,0:0:0:0:
392,246,79717,1,0,0:0:0:0:
390,246,79780,1,0,0:0:0:0:
388,246,79842,1,0,0:0:0:0:
361,233,79904,5,12,0:0:0:0:
363,233,79967,1,0,0:0:0:0:
365,233,80029,1,0,0:0:0:0:
367,233,80092,1,0,0:0:0:0:
381,206,80155,5,12,0:0:0:0:
379,206,80217,1,0,0:0:0:0:
377,206,80280,1,0,0:0:0:0:
375,206,80342,1,0,0:0:0:0:
361,178,80405,6,0,L|361:116,7,50,12|0|0|0|0|0|0|0,0:0|0:0|0:0|0:0|0:0|0:0|0:0|0:0,0:0:0:0:
184,34,80905,5,6,0:0:0:0:
186,34,80968,1,0,0:0:0:0:
188,34,81030,1,0,0:0:0:0:
190,34,81093,1,0,0:0:0:0:
222,59,81156,5,12,0:0:0:0:
220,59,81218,1,0,0:0:0:0:
218,59,81281,1,0,0:0:0:0:
216,59,81343,1,0,0:0:0:0:
214,59,81405,1,0,0:0:0:0:
212,59,81468,1,0,0:0:0:0:
210,59,81530,1,0,0:0:0:0:
208,59,81593,1,0,0:0:0:0:
176,83,81655,5,12,0:0:0:0:
178,83,81718,1,0,0:0:0:0:
180,83,81781,1,0,0:0:0:0:
182,83,81843,1,0,0:0:0:0:
209,96,81905,5,12,0:0:0:0:
207,96,81968,1,0,0:0:0:0:
205,96,82030,1,0,0:0:0:0:
203,96,82093,1,0,0:0:0:0:
189,123,82156,5,12,0:0:0:0:
191,123,82218,1,0,0:0:0:0:
193,123,82281,1,0,0:0:0:0:
195,123,82343,1,0,0:0:0:0:
197,123,82405,1,0,0:0:0:0:
199,123,82467,1,0,0:0:0:0:
201,123,82530,1,2,0:0:0:0:
203,123,82592,1,0,0:0:0:0:
205,123,82655,1,0,0:0:0:0:
207,123,82717,1,0,0:0:0:0:
209,123,82780,1,2,0:0:0:0:
211,123,82842,1,0,0:0:0:0:
213,123,82904,1,0,0:0:0:0:
215,123,82966,1,0,0:0:0:0:
217,123,83029,1,0,0:0:0:0:
219,123,83091,1,0,0:0:0:0:
259,92,83155,5,6,0:0:0:0:
259,137,83217,1,0,0:0:0:0:
242,179,83280,1,0,0:0:0:0:
205,204,83342,1,0,0:0:0:0:
159,205,83405,1,0,0:0:0:0:
114,214,83467,1,0,0:0:0:0:
79,244,83530,1,0,0:0:0:0:
64,286,83592,1,0,0:0:0:0:
67,332,83655,5,6,0:0:0:0:
97,301,83717,1,0,0:0:0:0:
140,290,83780,1,0,0:0:0:0:
183,304,83842,1,0,0:0:0:0:
214,336,83905,1,0,0:0:0:0:
245,368,83967,1,0,0:0:0:0:
288,379,84030,1,0,0:0:0:0:
330,365,84092,1,0,0:0:0:0:
354,328,84155,5,6,0:0:0:0:
321,298,84217,1,0,0:0:0:0:
311,255,84280,1,0,0:0:0:0:
326,213,84342,1,0,0:0:0:0:
365,191,84405,1,0,0:0:0:0:
397,160,84467,1,0,0:0:0:0:
408,117,84530,1,0,0:0:0:0:
393,76,84592,1,0,0:0:0:0:
364,42,84655,5,12,0:0:0:0:
364,66,84717,1,0,0:0:0:0:
364,91,84780,2,0,L|364:151,1,50
231,141,84905,5,12,0:0:0:0:
231,165,84967,1,0,0:0:0:0:
231,190,85030,2,0,L|231:250,1,50
86,39,85155,5,12,0:0:0:0:
54,70,85217,1,0,0:0:0:0:
43,113,85280,1,0,0:0:0:0:
57,155,85342,1,0,0:0:0:0:
86,189,85405,1,12,0:0:0:0:
119,219,85467,1,0,0:0:0:0:
129,262,85530,1,0,0:0:0:0:
114,304,85592,1,0,0:0:0:0:
73,325,85655,5,12,0:0:0:0:
96,292,85717,1,0,0:0:0:0:
135,283,85780,1,0,0:0:0:0:
170,300,85842,1,0,0:0:0:0:
190,333,85905,5,12,0:0:0:0:
217,319,85967,1,0,0:0:0:0:
244,305,86030,1,0,0:0:0:0:
271,291,86092,1,0,0:0:0:0:
298,277,86155,6,0,L|324:336,3,50,12|0|0|0,0:0|0:0|0:0|0:0,0:0:0:0:
443,196,86405,2,0,L|420:258,3,50,12|0|0|0,0:0|0:0|0:0|0:0,0:0:0:0:
274,198,86655,5,6,0:0:0:0:
271,153,86717,1,0,0:0:0:0:
295,115,86780,1,0,0:0:0:0:
335,96,86842,1,0,0:0:0:0:
378,108,86905,1,0,0:0:0:0:
423,109,86967,1,0,0:0:0:0:
461,86,87030,1,0,0:0:0:0:
479,47,87092,1,0,0:0:0:0:
483,2,87155,5,12,0:0:0:0:
457,32,87217,1,10,0:0:0:0:
419,45,87280,1,10,0:0:0:0:
379,42,87342,1,10,0:0:0:0:
354,10,87405,5,10,0:0:0:0:
354,25,87467,1,2,0:0:0:0:
354,40,87530,1,2,0:0:0:0:
354,55,87592,1,2,0:0:0:0:
354,70,87655,1,2,0:0:0:0:
354,85,87717,1,2,0:0:0:0:
354,100,87780,1,2,0:0:0:0:
354,114,87842,1,2,0:0:0:0:
354,129,87905,2,2,L|354:233,1,100,14|2,0:0|0:0,0:0:0:0:
318,346,88155,5,12,0:0:0:0:
304,331,88217,1,0,0:0:0:0:
288,319,88280,1,0,0:0:0:0:
270,310,88342,1,0,0:0:0:0:
251,305,88405,1,0,0:0:0:0:
231,303,88467,1,0,0:0:0:0:
211,305,88530,1,0,0:0:0:0:
192,310,88592,1,0,0:0:0:0:
173,319,88655,1,6,0:0:0:0:
157,331,88717,1,0,0:0:0:0:
139,339,88780,1,0,0:0:0:0:
119,344,88842,1,0,0:0:0:0:
99,344,88905,1,6,0:0:0:0:
80,340,88967,1,0,0:0:0:0:
62,331,89030,1,0,0:0:0:0:
46,319,89092,1,0,0:0:0:0:
37,301,89155,5,12,0:0:0:0:
55,307,89217,1,0,0:0:0:0:
75,308,89280,1,0,0:0:0:0:
94,302,89342,1,0,0:0:0:0:
110,290,89405,1,2,0:0:0:0:
121,273,89467,1,0,0:0:0:0:
126,254,89530,1,0,0:0:0:0:
124,234,89592,1,0,0:0:0:0:
117,215,89655,2,0,P|91:189|63:179,7,50,12|0|0|0|0|0|0|0,0:0|0:0|0:0|0:0|0:0|0:0|0:0|0:0,0:0:0:0:
97,60,90155,5,6,0:0:0:0:
111,73,90217,1,0,0:0:0:0:
128,84,90280,1,0,0:0:0:0:
147,90,90342,1,0,0:0:0:0:
167,92,90405,1,0,0:0:0:0:
186,90,90467,1,0,0:0:0:0:
205,83,90530,1,0,0:0:0:0:
222,72,90592,1,0,0:0:0:0:
235,56,90655,5,6,0:0:0:0:
249,70,90717,1,0,0:0:0:0:
266,81,90780,1,0,0:0:0:0:
285,87,90842,1,0,0:0:0:0:
305,89,90905,1,0,0:0:0:0:
325,86,90967,1,0,0:0:0:0:
343,80,91030,1,0,0:0:0:0:
360,69,91092,1,0,0:0:0:0:
373,53,91155,2,0,P|386:75|391:102,7,50,12|0|0|0|0|0|0|0,0:0|0:0|0:0|0:0|0:0|0:0|0:0|0:0,0:0:0:0:
391,213,91655,5,6,0:0:0:0:
391,223,91717,1,0,0:0:0:0:
391,233,91780,1,0,0:0:0:0:
391,243,91842,1,0,0:0:0:0:
391,253,91905,2,0,L|391:358,1,100,12|0,0:0|0:0,0:0:0:0:
276,230,92405,6,0,L|279:320,1,75.0000028610231,10|0,0:0|0:0,0:0:0:0:
175,196,92655,2,0,L|178:286,1,75.0000028610231,10|0,0:0|0:0,0:0:0:0:
73,162,92905,2,0,L|76:252,1,75.0000028610231,10|0,0:0|0:0,0:0:0:0:
43,74,93155,5,12,0:0:0:0:
64,74,93217,1,0,0:0:0:0:
84,77,93280,1,0,0:0:0:0:
103,83,93342,1,0,0:0:0:0:
120,93,93405,1,0,0:0:0:0:
135,106,93467,1,0,0:0:0:0:
148,121,93530,1,0,0:0:0:0:
158,138,93592,1,0,0:0:0:0:
165,156,93655,5,6,0:0:0:0:
185,158,93717,1,0,0:0:0:0:
203,165,93780,1,0,0:0:0:0:
221,176,93842,1,0,0:0:0:0:
234,190,93905,5,6,0:0:0:0:
254,192,93967,1,0,0:0:0:0:
272,199,94030,1,0,0:0:0:0:
290,210,94092,1,0,0:0:0:0:
295,231,94155,5,12,0:0:0:0:
278,223,94217,1,0,0:0:0:0:
263,209,94280,1,0,0:0:0:0:
254,192,94342,1,0,0:0:0:0:
251,172,94405,1,2,0:0:0:0:
255,152,94467,1,0,0:0:0:0:
265,135,94530,1,0,0:0:0:0:
281,122,94592,1,0,0:0:0:0:
299,114,94655,6,0,P|335:113|362:126,7,50,12|0|0|0|0|0|0|0,0:0|0:0|0:0|0:0|0:0|0:0|0:0|0:0,0:0:0:0:
295,231,95155,5,12,0:0:0:0:
302,248,95217,1,0,0:0:0:0:
316,264,95280,1,0,0:0:0:0:
333,273,95342,1,0,0:0:0:0:
352,275,95405,1,2,0:0:0:0:
373,272,95467,1,0,0:0:0:0:
390,262,95530,1,0,0:0:0:0:
403,245,95592,1,0,0:0:0:0:
410,227,95655,6,0,P|410:190|397:163,7,50,12|0|0|0|0|0|0|0,0:0|0:0|0:0|0:0|0:0|0:0|0:0|0:0,0:0:0:0:
438,43,96155,5,12,0:0:0:0:
449,59,96217,1,0,0:0:0:0:
458,77,96280,1,0,0:0:0:0:
463,97,96342,1,0,0:0:0:0:
466,116,96405,1,0,0:0:0:0:
466,136,96467,1,0,0:0:0:0:
462,156,96530,1,0,0:0:0:0:
456,175,96592,1,0,0:0:0:0:
446,193,96655,6,0,P|425:217|398:231,7,50,12|0|0|0|0|0|0|0,0:0|0:0|0:0|0:0|0:0|0:0|0:0|0:0,0:0:0:0:
348,317,97155,5,6,0:0:0:0:
318,286,97217,1,0,0:0:0:0:
275,275,97280,1,0,0:0:0:0:
232,289,97342,1,0,0:0:0:0:
201,321,97405,1,0,0:0:0:0:
170,353,97467,1,0,0:0:0:0:
127,364,97530,1,0,0:0:0:0:
85,350,97592,1,0,0:0:0:0:
61,313,97655,5,6,0:0:0:0:
94,283,97717,1,0,0:0:0:0:
104,240,97780,1,0,0:0:0:0:
89,198,97842,1,0,0:0:0:0:
50,176,97905,1,0,0:0:0:0:
18,145,97967,1,0,0:0:0:0:
7,102,98030,1,0,0:0:0:0:
22,61,98092,1,0,0:0:0:0:
51,27,98155,5,6,0:0:0:0:
61,58,98217,1,2,0:0:0:0:
72,89,98280,2,2,L|91:143,1,55.0000016784668
223,73,98405,5,6,0:0:0:0:
213,101,98467,1,2,0:0:0:0:
206,130,98530,2,2,L|190:187,1,50
159,302,98655,6,0,L|159:354,7,50,12|0|0|0|0|0|0|0,0:0|0:0|0:0|0:0|0:0|0:0|0:0|0:0,0:0:0:0:
173,196,99155,5,10,0:0:0:0:
211,164,99217,1,10,0:0:0:0:
259,153,99280,1,10,0:0:0:0:
307,164,99342,1,10,0:0:0:0:
345,195,99405,5,10,0:0:0:0:
346,185,99467,1,2,0:0:0:0:
346,175,99530,1,2,0:0:0:0:
346,165,99592,1,2,0:0:0:0:
307,132,99655,5,2,0:0:0:0:
308,122,99717,1,2,0:0:0:0:
308,112,99780,1,2,0:0:0:0:
308,102,99842,1,2,0:0:0:0:
331,57,99905,6,2,L|331:7,1,50,6|2,0:0|0:0,0:0:0:0:
431,92,100405,5,6,0:0:0:0:
416,117,100467,1,0,0:0:0:0:
412,147,100530,1,0,0:0:0:0:
419,176,100592,1,0,0:0:0:0:
443,195,100655,5,6,0:0:0:0:
457,220,100717,1,0,0:0:0:0:
461,250,100780,1,0,0:0:0:0:
454,279,100842,1,0,0:0:0:0:
432,300,100905,6,0,L|468:342,3,50,6|0|0|0,0:0|0:0|0:0|0:0,0:0:0:0:
263,243,101155,5,6,0:0:0:0:
263,253,101217,1,0,0:0:0:0:
263,264,101280,1,0,0:0:0:0:
263,274,101342,1,0,0:0:0:0:
263,284,101405,1,2,0:0:0:0:
263,294,101467,1,0,0:0:0:0:
263,305,101530,1,0,0:0:0:0:
263,315,101592,1,0,0:0:0:0:
263,326,101655,5,10,0:0:0:0:
254,298,101717,1,10,0:0:0:0:
234,276,101780,1,10,0:0:0:0:
207,264,101842,1,10,0:0:0:0:
177,265,101905,5,10,0:0:0:0:
177,255,101967,1,8,0:0:0:0:
177,244,102030,1,8,0:0:0:0:
177,234,102092,1,8,0:0:0:0:
191,196,102155,5,12,0:0:0:0:
7,115,102405,1,0,0:0:0:0:
191,38,102655,5,0,0:0:0:0:
285,154,102780,1,8,0:0:0:0:
382,38,102905,1,0,0:0:0:0:
281,149,103030,2,0,L|281:249,1,100,8|0,0:0|0:0,0:0:0:0:
281,348,103280,5,8,0:0:0:0:
382,237,103405,1,0,0:0:0:0:
369,326,103530,1,8,0:0:0:0:
441,371,103655,1,0,0:0:0:0:
391,229,103780,1,8,0:0:0:0:
285,352,103905,6,0,B|236:339|236:339|177:346,1,100,0|8,0:0|0:0,0:0:0:0:
44,273,104155,2,0,B|92:285|92:285|151:278,1,100,0|8,0:0|0:0,0:0:0:0:
295,160,104405,2,0,B|307:111|307:111|300:52,1,100,0|8,0:0|0:0,0:0:0:0:
114,99,104655,2,0,B|133:143|133:143|177:188,1,100,0|8,0:0|0:0,0:0:0:0:
231,234,104905,5,0,0:0:0:0:
385,57,105030,1,8,0:0:0:0:
231,235,105155,5,0,0:0:0:0:
472,185,105280,1,8,0:0:0:0:
232,237,105405,5,0,0:0:0:0:
444,334,105530,1,8,0:0:0:0:
232,239,105655,6,0,P|189:264|140:273,1,100,0|8,0:0|0:0,0:0:0:0:
114,99,105905,2,0,P|156:73|205:64,1,100,0|8,0:0|0:0,0:0:0:0:
360,103,106155,5,0,0:0:0:0:
376,251,106280,1,8,0:0:0:0:
225,238,106405,5,0,0:0:0:0:
380,255,106530,1,8,0:0:0:0:
357,95,106655,5,0,0:0:0:0:
220,244,106780,1,8,0:0:0:0:
216,248,106905,5,6,0:0:0:0:
216,252,106967,1,0,0:0:0:0:
216,256,107030,1,0,0:0:0:0:
216,260,107092,1,0,0:0:0:0:
216,264,107155,5,6,0:0:0:0:
180,246,107217,1,0,0:0:0:0:
139,248,107280,1,0,0:0:0:0:
107,272,107342,1,0,0:0:0:0:
92,309,107405,5,12,0:0:0:0:
92,299,107467,1,10,0:0:0:0:
92,288,107530,1,10,0:0:0:0:
92,278,107592,1,10,0:0:0:0:
92,267,107655,2,0,P|88:237|74:208,3,50,10|0|0|0,0:0|0:0|0:0|0:0,0:0:0:0:
60,109,107905,5,6,0:0:0:0:
86,96,107967,1,0,0:0:0:0:
115,90,108030,1,0,0:0:0:0:
144,92,108092,1,0,0:0:0:0:
172,102,108155,1,0,0:0:0:0:
201,105,108217,1,0,0:0:0:0:
230,100,108280,1,0,0:0:0:0:
257,88,108342,1,0,0:0:0:0:
274,63,108405,6,0,L|285:117,3,50,6|0|0|0,0:0|0:0|0:0|0:0,0:0:0:0:
195,183,108655,2,0,L|184:237,3,50,6|0|0|0,0:0|0:0|0:0|0:0,0:0:0:0:
205,348,108905,5,12,0:0:0:0:
218,332,108967,1,0,0:0:0:0:
233,320,109030,1,0,0:0:0:0:
251,310,109092,1,0,0:0:0:0:
269,304,109155,1,0,0:0:0:0:
289,301,109217,1,0,0:0:0:0:
309,301,109280,1,0,0:0:0:0:
329,305,109342,1,0,0:0:0:0:
347,314,109405,5,12,0:0:0:0:
353,284,109467,1,8,0:0:0:0:
359,255,109530,1,8,0:0:0:0:
365,225,109592,1,8,0:0:0:0:
372,196,109655,5,12,0:0:0:0:
384,203,109717,1,8,0:0:0:0:
398,209,109780,1,8,0:0:0:0:
413,210,109842,1,8,0:0:0:0:
428,211,109905,6,0,P|444:163|444:99,1,100,6|8,0:0|0:0,0:0:0:0:
287,25,110155,2,0,P|271:73|271:137,1,100,0|8,0:0|0:0,0:0:0:0:
278,242,110405,5,0,0:0:0:0:
358,104,110530,1,8,0:0:0:0:
181,68,110655,2,0,P|126:54|60:68,1,100,0|8,0:0|0:0,0:0:0:0:
119,173,110905,5,0,0:0:0:0:
117,202,110967,1,0,0:0:0:0:
114,232,111030,1,8,0:0:0:0:
104,351,111155,1,0,0:0:0:0:
201,281,111280,1,8,0:0:0:0:
91,232,111405,5,0,0:0:0:0:
62,230,111467,1,0,0:0:0:0:
32,227,111530,1,8,0:0:0:0:
2,224,111655,6,0,L|2:331,1,100,0|8,0:0|0:0,0:0:0:0:
120,344,111905,5,0,0:0:0:0:
145,328,112030,1,8,0:0:0:0:
174,324,112155,2,0,B|193:277|193:277|193:206,1,100,0|8,0:0|0:0,0:0:0:0:
383,179,112405,5,0,0:0:0:0:
358,163,112530,1,8,0:0:0:0:
329,159,112655,2,0,B|310:112|310:112|310:41,1,100,0|8,0:0|0:0,0:0:0:0:
154,52,112905,5,0,0:0:0:0:
247,167,113030,1,8,0:0:0:0:
150,48,113155,2,0,B|169:95|169:95|169:166,1,100,8|0,0:0|0:0,0:0:0:0:
136,300,113405,5,12,0:0:0:0:
128,318,113530,1,0,0:0:0:0:
44,181,113655,5,0,0:0:0:0:
25,188,113780,1,0,0:0:0:0:
257,245,113905,5,0,0:0:0:0:
275,253,114030,1,0,0:0:0:0:
423,312,114155,2,0,P|451:264|457:203,1,100
341,34,114405,6,0,P|325:83|325:155,1,125,8|0,0:0|0:0,0:0:0:0:
87,254,114655,2,0,P|136:238|197:238,1,100
356,358,114905,2,0,P|340:309|340:266,1,75.0000028610231
374,214,115155,5,0,0:0:0:0:
466,83,115280,1,0,0:0:0:0:
374,216,115405,2,0,L|318:307,2,100
457,101,115905,5,10,0:0:0:0:
311,168,116030,1,10,0:0:0:0:
378,22,116155,1,10,0:0:0:0:
308,334,116280,1,10,0:0:0:0:
185,68,116405,1,10,0:0:0:0:
185,64,116655,5,10,0:0:0:0:
251,210,116780,1,10,0:0:0:0:
106,143,116905,1,10,0:0:0:0:
418,213,117030,1,10,0:0:0:0:
152,336,117155,1,10,0:0:0:0:
102,55,117405,6,2,L|102:150,1,80
205,157,117905,1,4,0:0:0:0:
36,227,118155,1,4,0:0:0:0:
205,337,118405,6,0,P|242:285|296:263,1,112.500004291535,4|0,0:0|0:0,0:0:0:0:
399,246,118655,5,10,0:0:0:0:
400,236,118717,1,2,0:0:0:0:
404,226,118780,1,8,0:0:0:0:
410,218,118842,1,2,0:0:0:0:
418,213,118905,5,10,0:0:0:0:
422,184,118967,1,2,0:0:0:0:
438,158,119030,1,8,0:0:0:0:
463,142,119092,1,2,0:0:0:0:
493,143,119155,5,12,0:0:0:0:
496,187,119217,1,2,0:0:0:0:
483,230,119280,1,8,0:0:0:0:
449,259,119342,1,2,0:0:0:0:
404,271,119405,1,8,0:0:0:0:
361,260,119467,1,2,0:0:0:0:
332,225,119530,1,8,0:0:0:0:
324,181,119592,1,2,0:0:0:0:
347,143,119655,5,12,0:0:0:0:
346,191,119717,1,2,0:0:0:0:
316,232,119780,1,8,0:0:0:0:
270,237,119842,1,2,0:0:0:0:
223,223,119905,1,8,0:0:0:0:
198,179,119967,1,2,0:0:0:0:
202,128,120030,1,8,0:0:0:0:
235,91,120092,1,2,0:0:0:0:
283,77,120155,6,0,L|232:24,3,50,10|2|8|2,0:0|0:0|0:0|0:0,0:0:0:0:
347,141,120405,5,4,0:0:0:0:
347,141,120655,1,4,0:0:0:0:
347,141,120905,1,4,0:0:0:0:
347,140,121155,5,12,0:0:0:0:
332,125,121217,1,0,0:0:0:0:
318,111,121280,1,8,0:0:0:0:
304,97,121342,1,0,0:0:0:0:
290,83,121405,1,8,0:0:0:0:
275,69,121467,1,0,0:0:0:0:
261,55,121530,1,8,0:0:0:0:
247,41,121592,1,0,0:0:0:0:
233,27,121655,5,12,0:0:0:0:
193,10,121717,1,2,0:0:0:0:
148,7,121780,1,8,0:0:0:0:
109,29,121842,1,2,0:0:0:0:
82,67,121905,1,8,0:0:0:0:
78,111,121967,1,2,0:0:0:0:
100,150,122030,1,8,0:0:0:0:
139,173,122092,1,2,0:0:0:0:
182,164,122155,5,12,0:0:0:0:
137,150,122217,1,2,0:0:0:0:
88,163,122280,1,8,0:0:0:0:
68,205,122342,1,2,0:0:0:0:
65,254,122405,1,8,0:0:0:0:
98,293,122467,1,2,0:0:0:0:
147,306,122530,1,8,0:0:0:0:
194,288,122592,1,2,0:0:0:0:
223,247,122655,6,0,L|255:313,3,50,10|2|8|2,0:0|0:0|0:0|0:0,0:0:0:0:
182,162,122905,5,4,0:0:0:0:
348,258,123155,1,4,0:0:0:0:
351,258,123405,2,0,L|352:100,1,150,4|0,0:0|0:0,0:0:0:0:
326,30,123655,5,10,0:0:0:0:
294,61,123717,1,0,0:0:0:0:
252,79,123780,1,8,0:0:0:0:
208,71,123842,1,0,0:0:0:0:
175,39,123905,1,8,0:0:0:0:
137,13,123967,1,0,0:0:0:0:
91,10,124030,1,8,0:0:0:0:
50,29,124092,1,0,0:0:0:0:
25,67,124155,5,12,0:0:0:0:
64,62,124217,1,0,0:0:0:0:
99,81,124280,1,8,0:0:0:0:
119,115,124342,1,0,0:0:0:0:
121,155,124405,1,8,0:0:0:0:
120,194,124467,1,0,0:0:0:0:
134,231,124530,1,8,0:0:0:0:
164,256,124592,1,0,0:0:0:0:
203,250,124655,5,12,0:0:0:0:
180,207,124717,1,2,0:0:0:0:
137,182,124780,1,8,0:0:0:0:
93,197,124842,1,2,0:0:0:0:
56,230,124905,1,8,0:0:0:0:
52,281,124967,1,2,0:0:0:0:
77,325,125030,1,8,0:0:0:0:
124,345,125092,1,2,0:0:0:0:
173,337,125155,6,0,L|160:386,3,50,12|2|8|2,0:0|0:0|0:0|0:0,0:0:0:0:
198,248,125405,2,0,P|219:200|255:171,1,100,6|8,0:0|0:0,0:0:0:0:
412,134,125655,5,2,0:0:0:0:
430,129,125780,1,10,0:0:0:0:
345,267,125905,5,2,0:0:0:0:
360,281,126030,1,10,0:0:0:0:
306,48,126155,5,2,0:0:0:0:
299,24,126280,1,10,0:0:0:0:
139,36,126405,5,0,0:0:0:0:
146,64,126467,1,0,0:0:0:0:
153,93,126530,1,8,0:0:0:0:
32,198,126655,5,0,0:0:0:0:
25,226,126717,1,0,0:0:0:0:
18,255,126780,1,8,0:0:0:0:
185,269,126905,6,4,P|161:315|103:355,1,100
32,198,127405,6,0,P|56:152|118:111,1,112.500004291535,4|0,0:0|0:0,0:0:0:0:
236,121,127655,5,8,0:0:0:0:
240,130,127717,1,2,0:0:0:0:
241,140,127780,1,8,0:0:0:0:
240,150,127842,1,2,0:0:0:0:
236,159,127905,5,8,0:0:0:0:
247,186,127967,1,2,0:0:0:0:
246,216,128030,1,8,0:0:0:0:
232,243,128092,1,2,0:0:0:0:
206,257,128155,5,12,0:0:0:0:
181,220,128217,1,2,0:0:0:0:
171,176,128280,1,8,0:0:0:0:
186,134,128342,1,2,0:0:0:0:
219,101,128405,1,8,0:0:0:0:
261,89,128467,1,2,0:0:0:0:
304,105,128530,1,8,0:0:0:0:
333,139,128592,1,2,0:0:0:0:
332,184,128655,5,12,0:0:0:0:
309,142,128717,1,2,0:0:0:0:
314,91,128780,1,8,0:0:0:0:
352,64,128842,1,2,0:0:0:0:
399,52,128905,1,8,0:0:0:0:
443,78,128967,1,2,0:0:0:0:
465,124,129030,1,8,0:0:0:0:
455,173,129092,1,2,0:0:0:0:
420,209,129155,6,0,L|490:229,3,50,12|2|8|2,0:0|0:0|0:0|0:0,0:0:0:0:
336,184,129405,5,4,0:0:0:0:
336,264,129655,1,4,0:0:0:0:
336,344,129905,2,0,P|287:317|189:330,1,150,4|0,0:0|0:0,0:0:0:0:
49,339,130155,5,8,0:0:0:0:
64,326,130217,1,0,0:0:0:0:
82,317,130280,1,8,0:0:0:0:
101,311,130342,1,0,0:0:0:0:
121,307,130405,1,8,0:0:0:0:
141,307,130467,1,0,0:0:0:0:
160,310,130530,1,8,0:0:0:0:
179,316,130592,1,0,0:0:0:0:
196,326,130655,5,12,0:0:0:0:
213,287,130717,1,2,0:0:0:0:
216,242,130780,1,8,0:0:0:0:
194,203,130842,1,2,0:0:0:0:
156,175,130905,1,8,0:0:0:0:
112,172,130967,1,2,0:0:0:0:
73,193,131030,1,8,0:0:0:0:
49,232,131092,1,2,0:0:0:0:
59,276,131155,5,12,0:0:0:0:
59,246,131217,1,0,0:0:0:0:
59,216,131280,1,8,0:0:0:0:
59,186,131342,1,0,0:0:0:0:
59,156,131405,1,8,0:0:0:0:
59,126,131467,1,0,0:0:0:0:
59,96,131530,1,8,0:0:0:0:
59,66,131592,1,0,0:0:0:0:
59,36,131655,5,12,0:0:0:0:
66,42,131717,1,0,0:0:0:0:
74,48,131780,1,8,0:0:0:0:
83,53,131842,1,0,0:0:0:0:
92,57,131905,1,8,0:0:0:0:
102,59,131967,1,0,0:0:0:0:
112,60,132030,1,8,0:0:0:0:
122,59,132092,1,0,0:0:0:0:
132,57,132155,6,0,L|132:110,3,50,12|0|0|0,0:0|0:0|0:0|0:0,0:0:0:0:
272,121,132405,2,0,L|272:174,3,50,12|0|0|0,0:0|0:0|0:0|0:0,0:0:0:0:
378,27,132655,5,12,0:0:0:0:
415,35,132717,1,0,0:0:0:0:
441,64,132780,1,8,0:0:0:0:
449,103,132842,1,0,0:0:0:0:
437,141,132905,1,8,0:0:0:0:
422,178,132967,1,0,0:0:0:0:
423,217,133030,1,8,0:0:0:0:
443,251,133092,1,0,0:0:0:0:
482,258,133155,5,12,0:0:0:0:
475,211,133217,1,2,0:0:0:0:
443,173,133280,1,8,0:0:0:0:
397,172,133342,1,2,0:0:0:0:
350,190,133405,1,8,0:0:0:0:
329,236,133467,1,2,0:0:0:0:
338,286,133530,1,8,0:0:0:0:
375,321,133592,1,2,0:0:0:0:
424,331,133655,6,0,L|395:372,3,50,12|2|8|2,0:0|0:0|0:0|0:0,0:0:0:0:
263,323,133905,5,10,0:0:0:0:
238,308,133967,1,0,0:0:0:0:
208,304,134030,1,0,0:0:0:0:
179,311,134092,1,0,0:0:0:0:
154,328,134155,5,10,0:0:0:0:
129,342,134217,1,0,0:0:0:0:
99,346,134280,1,0,0:0:0:0:
70,339,134342,1,0,0:0:0:0:
49,317,134405,6,0,L|7:353,3,50,10|0|0|0,0:0|0:0|0:0|0:0,0:0:0:0:
63,218,134655,2,0,L|105:182,3,50,10|0|0|0,0:0|0:0|0:0|0:0,0:0:0:0:
28,64,134905,5,12,0:0:0:0:
53,49,134967,1,0,0:0:0:0:
83,45,135030,1,0,0:0:0:0:
112,52,135092,1,0,0:0:0:0:
140,61,135155,5,12,0:0:0:0:
165,47,135217,1,0,0:0:0:0:
195,43,135280,1,0,0:0:0:0:
224,50,135342,1,0,0:0:0:0:
248,67,135405,5,12,0:0:0:0:
212,94,135467,1,0,0:0:0:0:
195,136,135530,1,0,0:0:0:0:
204,179,135592,1,0,0:0:0:0:
228,216,135655,1,0,0:0:0:0:
246,256,135717,1,0,0:0:0:0:
245,301,135780,1,0,0:0:0:0:
221,339,135842,1,0,0:0:0:0:
179,357,135905,5,12,0:0:0:0:
179,337,136155,1,4,0:0:0:0:
179,317,136405,1,4,0:0:0:0:
179,297,136655,5,2,0:0:0:0:
193,282,136780,1,2,0:0:0:0:
209,270,136905,1,2,0:0:0:0:
226,259,137030,1,2,0:0:0:0:
244,251,137155,1,2,0:0:0:0:
263,245,137280,1,2,0:0:0:0:
282,243,137405,5,10,0:0:0:0:
474,188,137655,1,0,0:0:0:0:
38,60,137905,1,0,0:0:0:0:
474,324,138155,1,0,0:0:0:0:
38,348,138405,5,12,0:0:0:0:
68,315,138467,1,0,0:0:0:0:
111,305,138530,1,0,0:0:0:0:
153,320,138592,1,0,0:0:0:0:
174,361,138655,5,12,0:0:0:0:
141,338,138717,1,0,0:0:0:0:
132,299,138780,1,0,0:0:0:0:
149,264,138842,1,0,0:0:0:0:
182,244,138905,5,12,0:0:0:0:
170,227,138967,1,0,0:0:0:0:
166,207,139030,1,0,0:0:0:0:
171,187,139092,1,0,0:0:0:0:
182,170,139155,6,0,L|171:117,3,50,12|0|0|0,0:0|0:0|0:0|0:0,0:0:0:0:
149,23,139405,5,0,0:0:0:0:
363,361,139655,1,0,0:0:0:0:
287,82,139905,5,10,0:0:0:0:
225,302,140030,1,10,0:0:0:0:
146,161,140155,5,10,0:0:0:0:
366,223,140280,1,10,0:0:0:0:
286,85,140405,6,0,B|312:98|352:103|382:91|398:75|410:48|410:48|426:117|426:117|454:128|479:163|485:211|458:249|426:260|418:258,1,375.000014305115,10|0,0:0|0:0,0:0:0:0:
366,285,141155,1,10,0:0:0:0:
481,352,141280,1,10,0:0:0:0:
365,286,141405,2,0,P|276:267|195:286,1,175,10|0,0:0|0:0,0:0:0:0:
122,346,141905,5,6,0:0:0:0:
278,346,142155,1,6,0:0:0:0:
123,346,142405,5,8,0:0:0:0:
154,171,142530,1,8,0:0:0:0:
32,294,142655,5,8,0:0:0:0:
159,167,142780,2,0,L|190:58,1,100,8|0,0:0|0:0,0:0:0:0:
102,33,143155,5,8,0:0:0:0:
277,64,143280,1,8,0:0:0:0:
98,31,143405,6,0,L|73:106,1,75.0000028610231,8|0,0:0|0:0,0:0:0:0:
414,31,143655,2,0,L|439:106,1,75.0000028610231,8|0,0:0|0:0,0:0:0:0:
257,22,143905,5,8,0:0:0:0:
257,134,144030,1,8,0:0:0:0:
257,246,144155,1,8,0:0:0:0:
257,358,144280,1,8,0:0:0:0:
243,20,144405,5,12,0:0:0:0:
243,49,144467,1,0,0:0:0:0:
243,79,144530,1,10,0:0:0:0:
243,109,144592,1,0,0:0:0:0:
243,139,144655,1,10,0:0:0:0:
244,169,144717,1,0,0:0:0:0:
244,199,144780,1,10,0:0:0:0:
244,229,144842,1,0,0:0:0:0:
244,259,144905,5,12,0:0:0:0:
230,233,144967,1,0,0:0:0:0:
231,203,145030,1,10,0:0:0:0:
245,177,145092,1,0,0:0:0:0:
269,161,145155,1,10,0:0:0:0:
299,158,145217,1,0,0:0:0:0:
326,169,145280,1,10,0:0:0:0:
345,192,145342,1,0,0:0:0:0:
358,219,145405,1,12,0:0:0:0:
369,245,145467,1,0,0:0:0:0:
392,264,145530,1,10,0:0:0:0:
422,271,145592,1,0,0:0:0:0:
450,262,145655,1,10,0:0:0:0:
471,242,145717,1,0,0:0:0:0:
480,212,145780,1,10,0:0:0:0:
475,185,145842,1,0,0:0:0:0:
455,162,145905,6,0,L|472:106,3,50,12|0|0|0,0:0|0:0|0:0|0:0,0:0:0:0:
387,24,146155,2,0,L|370:80,3,50,12|0|0|0,0:0|0:0|0:0|0:0,0:0:0:0:
254,43,146405,5,12,0:0:0:0:
224,76,146467,1,0,0:0:0:0:
181,86,146530,1,0,0:0:0:0:
139,71,146592,1,0,0:0:0:0:
118,30,146655,5,12,0:0:0:0:
122,32,146717,1,0,0:0:0:0:
126,34,146780,2,0,L|114:89,1,50
39,163,146905,5,12,0:0:0:0:
35,165,146967,1,0,0:0:0:0:
31,167,147030,2,0,L|43:222,1,50
134,309,147155,5,12,0:0:0:0:
129,307,147217,1,0,0:0:0:0:
125,306,147280,2,0,L|94:353,1,50
241,265,147405,5,6,0:0:0:0:
241,275,147467,1,0,0:0:0:0:
241,286,147530,1,0,0:0:0:0:
241,296,147592,1,0,0:0:0:0:
241,306,147655,1,2,0:0:0:0:
241,316,147717,1,0,0:0:0:0:
241,327,147780,1,0,0:0:0:0:
241,337,147842,1,0,0:0:0:0:
241,348,147905,5,10,0:0:0:0:
250,320,147967,1,10,0:0:0:0:
270,298,148030,1,10,0:0:0:0:
297,286,148092,1,10,0:0:0:0:
327,287,148155,5,10,0:0:0:0:
327,277,148217,1,8,0:0:0:0:
327,266,148280,1,8,0:0:0:0:
327,256,148342,1,8,0:0:0:0:
355,227,148405,5,12,0:0:0:0:
198,189,148530,1,8,0:0:0:0:
326,103,148655,2,0,P|318:54|284:15,1,100,0|8,0:0|0:0,0:0:0:0:
174,185,148905,5,0,0:0:0:0:
334,99,149030,1,8,0:0:0:0:
157,5,149155,2,0,P|108:12|69:46,1,100,0|8,0:0|0:0,0:0:0:0:
282,13,149405,5,0,0:0:0:0:
170,189,149530,1,8,0:0:0:0:
157,5,149655,5,0,0:0:0:0:
277,193,149780,1,8,0:0:0:0:
73,49,149905,5,0,0:0:0:0:
346,99,150030,1,8,0:0:0:0:
71,163,150155,2,0,P|78:211|112:250,1,100,0|8,0:0|0:0,0:0:0:0:
195,304,150405,5,12,0:0:0:0:
253,275,150488,1,2,0:0:0:0:
315,294,150571,1,2,0:0:0:0:
357,346,150655,1,12,0:0:0:0:
416,375,150738,1,2,0:0:0:0:
478,356,150821,1,2,0:0:0:0:
506,295,150905,5,12,0:0:0:0:
472,291,150988,2,2,L|473:209,1,66.6666666666667
349,171,151155,5,12,0:0:0:0:
383,167,151238,2,2,L|382:85,1,66.6666666666667
476,25,151405,5,12,0:0:0:0:
444,75,151488,1,2,0:0:0:0:
388,95,151571,1,2,0:0:0:0:
329,81,151655,5,12,0:0:0:0:
285,122,151738,1,2,0:0:0:0:
226,134,151821,1,2,0:0:0:0:
170,110,151905,5,12,0:0:0:0:
165,77,151988,2,2,P|159:130|162:156,1,66.6666666666667
15,56,152155,5,12,0:0:0:0:
20,23,152238,2,2,P|26:76|23:102,1,66.6666666666667
21,215,152405,6,0,B|36:254|52:273|49:310|49:310|99:323|101:324|101:324|115:304|148:295|155:300,1,200.000007629395,12|0,0:0|0:0,0:0:0:0:
260,272,152821,2,0,B|308:298|363:298|409:251,1,150.000005722046,12|0,0:0|0:0,0:0:0:0:
467,153,153155,2,0,L|467:259,1,100.000003814697,12|0,0:0|0:0,0:0:0:0:
326,206,153405,6,0,B|326:368|326:368|228:321|143:368,1,333.333333333333,12|0,0:0|0:0,0:0:0:0:
83,325,153905,2,2,B|159:266|255:275|255:275|255:111,1,333.333333333333,6|2,0:0|0:0,0:0:0:0:
255,35,154405,6,2,P|321:53|356:45,1,100.000003814697,6|2,0:0|0:0,0:0:0:0:
473,75,154655,6,2,L|465:155,1,62.5,10|2,0:0|0:0,0:0:0:0:
340,136,154780,2,2,L|348:216,1,62.5,10|2,0:0|0:0,0:0:0:0:
470,101,154905,6,2,L|462:181,1,62.5,10|2,0:0|0:0,0:0:0:0:
337,162,155030,2,2,L|345:242,1,62.5,10|2,0:0|0:0,0:0:0:0:
469,130,155155,6,2,L|461:210,1,62.5,10|2,0:0|0:0,0:0:0:0:
336,191,155280,2,2,L|344:271,1,62.5,10|2,0:0|0:0,0:0:0:0:
416,355,155405,5,6,0:0:0:0:
370,373,155467,1,0,0:0:0:0:
322,368,155530,1,0,0:0:0:0:
280,341,155592,1,0,0:0:0:0:
230,331,155655,1,0,0:0:0:0:
182,341,155717,1,0,0:0:0:0:
145,374,155780,5,6,0:0:0:0:
145,372,155842,1,0,0:0:0:0:
146,370,155905,1,0,0:0:0:0:
146,368,155967,1,0,0:0:0:0:
146,366,156030,1,0,0:0:0:0:
146,364,156092,1,0,0:0:0:0:
123,332,156155,5,6,0:0:0:0:
123,330,156217,1,0,0:0:0:0:
123,328,156279,1,0,0:0:0:0:
123,326,156342,1,0,0:0:0:0:
152,298,156405,6,0,L|152:207,1,80,6|0,0:0|0:0,0:0:0:0:
34,239,156905,2,0,L|34:148,1,80
264,182,157405,6,0,L|264:91,1,80
142,113,157905,2,0,L|142:22,1,80
370,40,158405,5,0,0:0:0:0:
373,37,158655,1,0,0:0:0:0:
449,152,158905,1,0,0:0:0:0:
449,192,159155,5,0,0:0:0:0:
449,205,159280,1,0,0:0:0:0:
449,218,159405,2,0,L|449:304,1,80
348,275,159905,2,0,L|348:361,1,80
204,151,160405,6,0,L|204:65,1,80
103,94,160905,2,0,L|103:8,1,80
303,211,161405,6,0,B|342:196|342:196|386:196,1,80
189,311,161905,2,0,B|150:326|150:326|106:326,1,80
354,271,162405,5,0,0:0:0:0:
354,271,162655,1,0,0:0:0:0:
134,249,162905,5,0,0:0:0:0:
134,249,163155,1,0,0:0:0:0:
32,364,163405,5,0,0:0:0:0:
32,364,163655,1,0,0:0:0:0:
32,136,163905,5,0,0:0:0:0:
32,136,164155,1,0,0:0:0:0:
270,27,164405,6,0,L|270:118,1,80
152,86,164905,2,0,L|152:177,1,80
382,143,165405,6,0,L|382:234,1,80
260,212,165905,2,0,L|260:303,1,80
152,351,166405,5,0,0:0:0:0:
382,351,166655,1,0,0:0:0:0:
151,349,166905,2,0,P|128:326|28:326,1,137.5
18,341,167655,1,0,0:0:0:0:
115,214,167905,5,0,0:0:0:0:
115,198,168155,1,0,0:0:0:0:
31,61,168405,5,0,0:0:0:0:
31,45,168655,1,0,0:0:0:0:
31,205,168905,6,0,B|32:26|32:26|71:47|129:48|158:26,1,300
168,20,169905,1,0,0:0:0:0:
168,108,170071,1,0,0:0:0:0:
168,196,170238,1,0,0:0:0:0:
180,20,170405,5,6,0:0:0:0:
180,64,170467,1,0,0:0:0:0:
180,109,170530,1,0,0:0:0:0:
180,153,170592,1,0,0:0:0:0:
180,198,170655,1,0,0:0:0:0:
180,242,170717,1,0,0:0:0:0:
180,287,170780,5,6,0:0:0:0:
192,278,170842,1,0,0:0:0:0:
206,274,170905,1,0,0:0:0:0:
220,272,170967,1,0,0:0:0:0:
234,274,171030,1,0,0:0:0:0:
247,279,171092,1,0,0:0:0:0:
257,286,171155,6,0,L|257:217,1,62.5
363,156,171280,2,0,L|363:87,1,62.5
257,24,171405,6,0,L|257:120,1,85.0000016212464,6|0,0:0|0:0,0:0:0:0:
261,32,171905,5,6,0:0:0:0:
261,117,172030,1,6,0:0:0:0:
265,36,172405,5,6,0:0:0:0:
257,54,172467,1,0,0:0:0:0:
251,73,172530,1,0,0:0:0:0:
248,93,172592,1,0,0:0:0:0:
250,113,172655,1,0,0:0:0:0:
255,132,172717,1,0,0:0:0:0:
263,150,172780,1,0,0:0:0:0:
272,168,172842,1,0,0:0:0:0:
282,185,172905,1,0,0:0:0:0:
292,203,172967,1,0,0:0:0:0:
299,221,173030,1,0,0:0:0:0:
304,241,173092,1,0,0:0:0:0:
305,261,173155,1,0,0:0:0:0:
302,280,173217,1,0,0:0:0:0:
297,300,173280,1,0,0:0:0:0:
289,318,173342,1,0,0:0:0:0:
280,336,173405,5,10,0:0:0:0:
277,316,173467,1,0,0:0:0:0:
278,296,173530,1,0,0:0:0:0:
285,278,173592,1,0,0:0:0:0:
295,261,173655,1,0,0:0:0:0:
309,247,173717,1,0,0:0:0:0:
327,236,173780,1,0,0:0:0:0:
346,230,173842,1,0,0:0:0:0:
365,229,173905,1,0,0:0:0:0:
385,233,173967,1,0,0:0:0:0:
403,241,174030,1,0,0:0:0:0:
419,253,174092,1,0,0:0:0:0:
432,268,174155,1,0,0:0:0:0:
441,286,174217,1,0,0:0:0:0:
445,306,174280,1,0,0:0:0:0:
444,325,174342,1,0,0:0:0:0:
439,345,174405,5,2,0:0:0:0:
366,158,174530,1,2,0:0:0:0:
291,343,174655,5,10,0:0:0:0:
281,340,174717,1,10,0:0:0:0:
271,336,174780,2,10,L|267:286,2,50
253,135,175030,5,2,0:0:0:0:
127,290,175155,1,2,0:0:0:0:
289,202,175280,1,2,0:0:0:0:
90,222,175405,1,2,0:0:0:0:
91,202,175530,1,2,0:0:0:0:
91,182,175655,2,0,L|91:80,1,100,10|0,0:0|0:0,0:0:0:0:
256,37,175905,5,0,0:0:0:0:
256,137,176030,1,0,0:0:0:0:
256,237,176155,1,0,0:0:0:0:
256,337,176280,1,0,0:0:0:0:
260,33,176405,5,6,0:0:0:0:
260,53,176467,1,0,0:0:0:0:
260,73,176530,1,0,0:0:0:0:
260,93,176592,1,0,0:0:0:0:
260,113,176655,1,0,0:0:0:0:
260,133,176717,1,0,0:0:0:0:
260,153,176780,1,0,0:0:0:0:
260,173,176842,1,0,0:0:0:0:
260,193,176905,1,0,0:0:0:0:
260,213,176967,1,0,0:0:0:0:
260,233,177030,1,0,0:0:0:0:
260,253,177092,1,0,0:0:0:0:
260,273,177155,1,0,0:0:0:0:
260,293,177217,1,0,0:0:0:0:
260,313,177280,1,0,0:0:0:0:
260,333,177342,1,0,0:0:0:0:
259,353,177405,5,10,0:0:0:0:
277,336,177467,1,0,0:0:0:0:
290,314,177530,1,0,0:0:0:0:
296,290,177592,1,0,0:0:0:0:
295,265,177655,1,0,0:0:0:0:
287,242,177717,1,0,0:0:0:0:
273,221,177780,1,0,0:0:0:0:
253,206,177842,1,0,0:0:0:0:
230,196,177905,1,0,0:0:0:0:
206,194,177967,1,0,0:0:0:0:
181,199,178030,1,0,0:0:0:0:
159,211,178092,1,0,0:0:0:0:
141,228,178155,1,0,0:0:0:0:
129,250,178217,1,0,0:0:0:0:
124,274,178280,1,0,0:0:0:0:
122,299,178342,1,0,0:0:0:0:
131,322,178405,6,0,P|155:351|219:369,1,100
319,168,178655,2,0,P|295:139|231:121,1,100
417,283,178905,6,0,B|437:253|437:253|399:204|437:137,1,125
128,93,179155,2,0,B|108:123|108:123|146:172|108:239,1,125
339,243,179405,5,10,0:0:0:0:
363,45,179530,1,0,0:0:0:0:
313,236,179655,5,0,0:0:0:0:
388,51,179780,1,0,0:0:0:0:
259,134,179905,5,0,0:0:0:0:
457,158,180030,1,0,0:0:0:0:
265,108,180155,5,0,0:0:0:0:
450,183,180280,1,0,0:0:0:0:
276,88,180405,5,6,0:0:0:0:
266,105,180467,1,0,0:0:0:0:
254,121,180530,1,0,0:0:0:0:
239,135,180592,1,0,0:0:0:0:
223,146,180655,1,0,0:0:0:0:
205,155,180717,1,0,0:0:0:0:
186,161,180780,1,0,0:0:0:0:
166,164,180842,1,0,0:0:0:0:
146,165,180905,1,0,0:0:0:0:
127,162,180967,1,0,0:0:0:0:
107,156,181030,1,0,0:0:0:0:
89,148,181092,1,0,0:0:0:0:
73,136,181155,1,0,0:0:0:0:
58,123,181217,1,0,0:0:0:0:
46,107,181280,1,0,0:0:0:0:
36,90,181342,1,0,0:0:0:0:
31,71,181405,5,10,0:0:0:0:
55,72,181467,1,0,0:0:0:0:
79,78,181530,1,0,0:0:0:0:
101,90,181592,1,0,0:0:0:0:
120,107,181655,1,0,0:0:0:0:
135,127,181717,1,0,0:0:0:0:
145,149,181780,1,0,0:0:0:0:
150,174,181842,1,0,0:0:0:0:
150,199,181905,1,0,0:0:0:0:
144,223,181967,1,0,0:0:0:0:
132,245,182030,1,0,0:0:0:0:
116,265,182092,1,0,0:0:0:0:
97,280,182155,1,0,0:0:0:0:
74,290,182217,1,0,0:0:0:0:
50,296,182280,1,0,0:0:0:0:
25,297,182342,1,0,0:0:0:0:
3,284,182405,6,0,B|30:265|30:265|125:265,1,125
202,265,182655,5,2,0:0:0:0:
205,255,182717,1,2,0:0:0:0:
209,245,182780,2,2,L|259:241,2,50
410,227,183030,5,2,0:0:0:0:
255,101,183155,1,2,0:0:0:0:
343,263,183280,1,2,0:0:0:0:
323,64,183405,1,2,0:0:0:0:
343,65,183530,1,2,0:0:0:0:
363,65,183655,2,0,L|465:65,1,100,10|0,0:0|0:0,0:0:0:0:
508,230,183905,5,0,0:0:0:0:
428,230,184030,1,0,0:0:0:0:
348,230,184155,1,0,0:0:0:0:
268,230,184280,1,0,0:0:0:0:
512,234,184405,5,6,0:0:0:0:
492,234,184467,1,0,0:0:0:0:
472,234,184530,1,0,0:0:0:0:
452,234,184592,1,0,0:0:0:0:
432,234,184655,1,0,0:0:0:0:
412,234,184717,1,0,0:0:0:0:
392,234,184780,1,0,0:0:0:0:
372,234,184842,1,0,0:0:0:0:
352,234,184905,1,0,0:0:0:0:
332,234,184967,1,0,0:0:0:0:
312,234,185030,1,0,0:0:0:0:
292,234,185092,1,0,0:0:0:0:
272,234,185155,1,0,0:0:0:0:
252,234,185217,1,0,0:0:0:0:
232,234,185280,1,0,0:0:0:0:
212,234,185342,1,0,0:0:0:0:
192,233,185405,5,10,0:0:0:0:
209,251,185467,1,0,0:0:0:0:
231,264,185530,1,0,0:0:0:0:
255,270,185592,1,0,0:0:0:0:
280,269,185655,1,0,0:0:0:0:
303,261,185717,1,0,0:0:0:0:
324,247,185780,1,0,0:0:0:0:
339,227,185842,1,0,0:0:0:0:
349,204,185905,1,0,0:0:0:0:
351,180,185967,1,0,0:0:0:0:
346,155,186030,1,0,0:0:0:0:
334,133,186092,1,0,0:0:0:0:
317,115,186155,1,0,0:0:0:0:
295,103,186217,1,0,0:0:0:0:
271,98,186280,1,0,0:0:0:0:
246,96,186342,1,0,0:0:0:0:
223,105,186405,6,0,P|194:129|176:193,1,100
306,269,186655,2,0,P|335:245|353:181,1,100
203,118,186905,6,0,P|181:149|180:215,1,100
325,255,187155,2,0,P|347:224|348:158,1,100
440,20,187405,5,8,0:0:0:0:
407,57,187467,1,8,0:0:0:0:
405,107,187530,1,8,0:0:0:0:
428,150,187592,1,8,0:0:0:0:
438,199,187655,5,10,0:0:0:0:
447,200,187717,1,2,0:0:0:0:
457,201,187780,1,2,0:0:0:0:
466,201,187842,1,2,0:0:0:0:
502,218,187905,5,12,0:0:0:0:
502,218,188405,5,6,0:0:0:0:
482,215,188530,1,0,0:0:0:0:
462,214,188655,1,0,0:0:0:0:
442,217,188780,1,0,0:0:0:0:
422,221,188905,1,0,0:0:0:0:
404,229,189030,1,0,0:0:0:0:
386,238,189155,1,0,0:0:0:0:
370,250,189280,1,0,0:0:0:0:
358,266,189405,5,10,0:0:0:0:
358,245,189530,1,0,0:0:0:0:
354,226,189655,1,0,0:0:0:0:
348,207,189780,1,0,0:0:0:0:
338,190,189905,1,0,0:0:0:0:
325,174,190030,1,0,0:0:0:0:
310,162,190155,1,0,0:0:0:0:
293,152,190280,1,0,0:0:0:0:
274,145,190405,6,0,L|243:242,1,100
145,65,190655,2,0,L|176:162,1,100
399,65,190905,6,0,L|368:162,1,100
28,65,191155,2,0,L|59:162,1,100
112,293,191405,5,10,0:0:0:0:
121,288,191467,1,0,0:0:0:0:
131,285,191530,1,0,0:0:0:0:
141,284,191592,1,0,0:0:0:0:
151,284,191655,1,0,0:0:0:0:
161,285,191717,1,0,0:0:0:0:
170,288,191780,1,0,0:0:0:0:
179,293,191842,1,0,0:0:0:0:
187,299,191905,6,0,B|205:273|205:273|159:221|175:161,1,150.000005722046,6|0,0:0|0:0,0:0:0:0:
315,81,192405,5,6,0:0:0:0:
327,108,192530,1,0,0:0:0:0:
331,137,192655,1,0,0:0:0:0:
328,166,192780,1,0,0:0:0:0:
332,269,192905,6,0,P|321:203|330:151,1,100
481,53,193155,2,0,P|492:119|483:171,1,100
324,170,193405,5,10,0:0:0:0:
321,219,193530,1,0,0:0:0:0:
332,269,193655,1,0,0:0:0:0:
367,303,193780,1,0,0:0:0:0:
320,166,193905,5,0,0:0:0:0:
283,199,194030,1,0,0:0:0:0:
256,242,194155,1,0,0:0:0:0:
256,291,194280,1,0,0:0:0:0:
316,170,194405,5,12,0:0:0:0:
277,187,194467,1,2,0:0:0:0:
232,190,194530,1,0,0:0:0:0:
193,168,194592,1,2,0:0:0:0:
165,130,194655,1,0,0:0:0:0:
162,86,194717,1,2,0:0:0:0:
183,47,194780,1,0,0:0:0:0:
222,23,194842,1,2,0:0:0:0:
266,33,194905,5,12,0:0:0:0:
236,33,194967,1,0,0:0:0:0:
206,33,195030,1,0,0:0:0:0:
176,33,195092,1,0,0:0:0:0:
146,33,195155,1,0,0:0:0:0:
116,33,195217,1,0,0:0:0:0:
86,33,195280,1,0,0:0:0:0:
56,33,195342,1,0,0:0:0:0:
26,33,195405,5,12,0:0:0:0:
32,40,195467,1,0,0:0:0:0:
38,48,195530,1,0,0:0:0:0:
43,57,195592,1,0,0:0:0:0:
47,66,195655,1,0,0:0:0:0:
49,76,195717,1,0,0:0:0:0:
50,86,195780,1,0,0:0:0:0:
49,96,195842,1,0,0:0:0:0:
47,106,195905,6,0,L|100:106,3,50,12|0|0|0,0:0|0:0|0:0|0:0,0:0:0:0:
111,246,196155,2,0,L|164:246,3,50,12|0|0|0,0:0|0:0|0:0|0:0,0:0:0:0:
32,326,196405,6,0,B|69:363|69:363|176:363|176:363|162:326|162:326|304:326|304:326|346:363|346:363|279:363,1,450.000017166138,6|0,0:0|0:0,0:0:0:0:
289,366,197405,5,12,0:0:0:0:
300,297,197530,1,0,0:0:0:0:
367,278,197655,1,0,0:0:0:0:
421,321,197780,5,0,0:0:0:0:
370,259,197905,1,0,0:0:0:0:
401,185,198030,1,0,0:0:0:0:
478,165,198155,2,0,L|478:270,1,100
376,73,198405,5,0,0:0:0:0:
376,69,198530,2,0,L|376:148,1,75.0000028610231
249,182,198780,5,0,0:0:0:0:
249,178,198905,2,0,L|249:257,1,75.0000028610231
140,84,199155,6,0,L|140:184,1,100,10|0,0:0|0:0,0:0:0:0:
25,15,199405,2,0,L|25:115,1,100,10|0,0:0|0:0,0:0:0:0:
25,369,199655,2,0,L|25:269,1,100,10|0,0:0|0:0,0:0:0:0:
103,328,199905,5,2,0:0:0:0:
117,329,199967,1,2,0:0:0:0:
132,333,200030,1,2,0:0:0:0:
145,339,200092,1,2,0:0:0:0:
158,348,200155,2,2,P|172:328|176:299,3,50
277,346,200405,5,6,0:0:0:0:
306,288,200488,1,2,0:0:0:0:
287,226,200571,1,2,0:0:0:0:
235,184,200655,5,0,0:0:0:0:
235,217,200738,2,0,P|195:213|157:185,1,66.6666666666667
313,56,200905,5,0,0:0:0:0:
313,89,200988,2,0,P|353:85|391:57,1,66.6666666666667
440,149,201155,5,0,0:0:0:0:
469,201,201238,1,0,0:0:0:0:
454,258,201321,1,0,0:0:0:0:
406,295,201405,5,6,0:0:0:0:
410,329,201488,2,2,L|492:328,1,66.6666666666667
307,218,201655,2,0,L|307:288,1,66.6666666666667
214,321,201821,5,6,0:0:0:0:
214,354,201905,2,0,L|140:355,2,66.6666666666667
33,264,202155,5,6,0:0:0:0:
33,244,202238,1,0,0:0:0:0:
33,224,202321,1,0,0:0:0:0:
33,204,202405,6,0,L|34:85,1,120,6|0,0:0|0:0,0:0:0:0:
34,80,204405,5,12,0:0:0:0:
58,64,204467,1,0,0:0:0:0:
87,54,204530,1,0,0:0:0:0:
117,52,204592,1,0,0:0:0:0:
146,60,204655,2,0,P|177:81|192:100,1,50,12|0,0:0|0:0,0:0:0:0:
236,185,204780,5,12,0:0:0:0:
256,207,204842,1,0,0:0:0:0:
283,221,204905,1,0,0:0:0:0:
312,225,204967,1,0,0:0:0:0:
343,225,205030,1,0,0:0:0:0:
371,217,205092,1,0,0:0:0:0:
391,194,205155,5,12,0:0:0:0:
347,191,205217,1,0,0:0:0:0:
309,215,205280,1,0,0:0:0:0:
290,255,205342,1,0,0:0:0:0:
304,299,205405,5,12,0:0:0:0:
306,295,205467,1,0,0:0:0:0:
307,290,205530,2,0,L|259:259,1,50
139,178,205655,5,12,0:0:0:0:
135,179,205717,1,0,0:0:0:0:
131,181,205780,2,0,L|125:230,1,50
32,362,205905,5,12,0:0:0:0:
10,343,205967,1,0,0:0:0:0:
0,316,206030,1,0,0:0:0:0:
0,287,206092,1,0,0:0:0:0:
28,252,206155,5,12,0:0:0:0:
42,226,206217,1,0,0:0:0:0:
41,196,206280,1,0,0:0:0:0:
31,168,206342,1,0,0:0:0:0:
0,139,206405,5,12,0:0:0:0:
5,146,206467,1,0,0:0:0:0:
12,153,206530,1,0,0:0:0:0:
20,159,206592,1,0,0:0:0:0:
30,162,206655,1,0,0:0:0:0:
39,165,206717,1,0,0:0:0:0:
50,167,206780,1,0,0:0:0:0:
60,166,206842,1,0,0:0:0:0:
69,164,206905,1,0,0:0:0:0:
78,161,206967,1,0,0:0:0:0:
87,155,207030,1,0,0:0:0:0:
94,150,207092,1,0,0:0:0:0:
117,106,207155,6,0,L|129:169,3,50,12|0|0|0,0:0|0:0|0:0|0:0,0:0:0:0:
248,34,207405,5,6,0:0:0:0:
262,31,207467,1,0,0:0:0:0:
277,29,207530,1,0,0:0:0:0:
292,27,207592,1,0,0:0:0:0:
328,54,207655,5,6,0:0:0:0:
343,52,207717,1,0,0:0:0:0:
358,50,207780,1,0,0:0:0:0:
372,48,207842,1,0,0:0:0:0:
404,15,207905,6,0,B|413:59|413:59|408:96|408:96|415:131,1,100,6|0,0:0|0:0,0:0:0:0:
415,216,208155,5,10,0:0:0:0:
416,232,208280,1,10,0:0:0:0:
329,130,208405,6,0,P|302:181|302:243,1,112.500004291535,6|0,0:0|0:0,0:0:0:0:
302,331,208655,5,12,0:0:0:0:
258,334,208717,1,0,0:0:0:0:
220,310,208780,1,0,0:0:0:0:
201,270,208842,1,0,0:0:0:0:
215,226,208905,5,12,0:0:0:0:
217,230,208967,1,0,0:0:0:0:
218,235,209030,2,0,L|144:244,1,50
244,65,209155,5,12,0:0:0:0:
240,64,209217,1,0,0:0:0:0:
236,62,209280,2,0,L|306:57,1,50
33,28,209405,5,10,0:0:0:0:
33,58,209467,1,0,0:0:0:0:
33,88,209530,1,0,0:0:0:0:
33,118,209592,1,0,0:0:0:0:
54,158,209655,6,0,L|54:209,3,50,10|0|0|0,0:0|0:0|0:0|0:0,0:0:0:0:
168,181,209905,5,10,0:0:0:0:
168,211,209967,1,0,0:0:0:0:
168,241,210030,1,0,0:0:0:0:
168,271,210092,1,0,0:0:0:0:
147,311,210155,6,0,L|147:362,3,50,10|0|0|0,0:0|0:0|0:0|0:0,0:0:0:0:
267,344,210405,2,0,L|267:258,1,75,6|0,0:0|0:0,0:0:0:0:
348,220,210655,6,0,L|368:203,1,25,8|0,0:0|0:0,0:0:0:0:
352,224,210780,2,0,L|372:207,1,25,8|0,0:0|0:0,0:0:0:0:
327,95,210905,6,0,L|329:68,1,25,8|0,0:0|0:0,0:0:0:0:
332,95,211030,2,0,L|334:68,1,25,8|0,0:0|0:0,0:0:0:0:
444,120,211155,6,0,L|464:137,1,25,8|0,0:0|0:0,0:0:0:0:
448,116,211280,2,0,L|468:133,1,25,8|0,0:0|0:0,0:0:0:0:
500,220,211405,5,12,0:0:0:0:
500,244,211467,1,0,0:0:0:0:
500,269,211530,1,0,0:0:0:0:
500,293,211592,1,0,0:0:0:0:
500,318,211655,6,0,L|500:369,3,50
378,334,211905,5,12,0:0:0:0:
364,337,211967,1,0,0:0:0:0:
349,339,212030,1,0,0:0:0:0:
334,341,212092,1,0,0:0:0:0:
298,314,212155,5,12,0:0:0:0:
283,316,212217,1,0,0:0:0:0:
268,318,212280,1,0,0:0:0:0:
254,320,212342,1,0,0:0:0:0:
222,353,212405,6,0,B|213:309|213:309|218:272|218:272|211:237,1,100,6|0,0:0|0:0,0:0:0:0:
39,38,212655,5,12,0:0:0:0:
76,70,212717,1,0,0:0:0:0:
91,117,212780,1,0,0:0:0:0:
79,165,212842,1,0,0:0:0:0:
39,197,212905,1,0,0:0:0:0:
16,239,212967,1,0,0:0:0:0:
18,288,213030,1,0,0:0:0:0:
46,330,213092,1,0,0:0:0:0:
91,352,213155,5,6,0:0:0:0:
128,318,213217,1,0,0:0:0:0:
176,303,213280,1,0,0:0:0:0:
225,309,213342,1,0,0:0:0:0:
268,334,213405,5,12,0:0:0:0:
222,353,213467,1,0,0:0:0:0:
173,339,213530,1,0,0:0:0:0:
145,298,213592,1,0,0:0:0:0:
148,248,213655,1,0,0:0:0:0:
178,209,213717,1,0,0:0:0:0:
226,195,213780,1,0,0:0:0:0:
274,205,213842,1,0,0:0:0:0:
307,243,213905,5,12,0:0:0:0:
284,254,213967,1,0,0:0:0:0:
258,252,214030,2,0,P|230:234|214:217,1,50
407,118,214155,5,12,0:0:0:0:
430,107,214217,1,0,0:0:0:0:
456,109,214280,2,0,P|484:127|500:144,1,50
489,356,214405,6,0,P|447:356|413:336,1,75,12|0,0:0|0:0,0:0:0:0:
335,317,214655,5,12,0:0:0:0:
374,287,214717,1,0,0:0:0:0:
384,237,214780,1,0,0:0:0:0:
367,190,214842,1,0,0:0:0:0:
329,156,214905,1,0,0:0:0:0:
320,107,214967,1,0,0:0:0:0:
338,60,215030,1,0,0:0:0:0:
378,30,215092,1,0,0:0:0:0:
427,23,215155,6,0,P|450:32|474:53,3,50,12|0|0|0,0:0|0:0|0:0|0:0,0:0:0:0:
290,23,215405,5,12,0:0:0:0:
260,23,215467,1,0,0:0:0:0:
230,23,215530,1,0,0:0:0:0:
200,23,215592,1,0,0:0:0:0:
157,6,215655,6,0,L|148:60,3,50
125,182,215905,5,6,0:0:0:0:
47,41,216030,1,6,0:0:0:0:
105,282,216155,5,6,0:0:0:0:
27,141,216280,1,6,0:0:0:0:
85,382,216405,6,0,P|115:325|94:264,1,112.500004291535,6|0,0:0|0:0,0:0:0:0:
85,382,216655,5,6,0:0:0:0:
104,359,216780,1,0,0:0:0:0:
114,330,216905,1,0,0:0:0:0:
114,300,217030,1,0,0:0:0:0:
104,271,217155,2,0,P|73:258|12:246,1,75.0000028610231,6|0,0:0|0:0,0:0:0:0:
244,221,217405,5,10,0:0:0:0:
234,182,217530,1,0,0:0:0:0:
245,144,217655,1,0,0:0:0:0:
271,117,217780,1,0,0:0:0:0:
308,112,217905,5,6,0:0:0:0:
299,122,217967,1,0,0:0:0:0:
288,133,218030,1,0,0:0:0:0:
278,143,218092,1,0,0:0:0:0:
267,153,218155,1,6,0:0:0:0:
271,153,218405,5,6,0:0:0:0:
285,160,218467,1,0,0:0:0:0:
300,164,218530,1,0,0:0:0:0:
314,166,218592,1,0,0:0:0:0:
329,165,218655,1,0,0:0:0:0:
344,162,218717,1,0,0:0:0:0:
357,155,218780,5,6,0:0:0:0:
366,168,218842,1,0,0:0:0:0:
378,177,218905,1,0,0:0:0:0:
391,184,218967,1,0,0:0:0:0:
406,187,219030,1,0,0:0:0:0:
421,186,219092,1,0,0:0:0:0:
435,180,219155,5,6,0:0:0:0:
434,195,219217,1,0,0:0:0:0:
437,210,219280,1,0,0:0:0:0:
444,223,219342,1,0,0:0:0:0:
455,234,219405,1,0,0:0:0:0:
468,241,219467,1,0,0:0:0:0:
482,244,219530,6,0,L|490:289,5,37.5000014305115,6|0|0|0|0|0,0:0|0:0|0:0|0:0|0:0|0:0,0:0:0:0:
502,357,219905,5,6,0:0:0:0:
502,361,220155,1,6,0:0:0:0:
502,365,220405,5,6,0:0:0:0:
420,252,220530,1,8,0:0:0:0:
289,299,220655,1,0,0:0:0:0:
419,354,220780,1,8,0:0:0:0:
480,206,220905,2,0,P|435:178|386:187,1,100,0|8,0:0|0:0,0:0:0:0:
264,283,221155,2,0,P|309:311|358:302,1,100,0|8,0:0|0:0,0:0:0:0:
433,178,221405,5,0,0:0:0:0:
433,163,221467,1,0,0:0:0:0:
433,148,221530,1,8,0:0:0:0:
317,115,221655,5,0,0:0:0:0:
317,100,221717,1,0,0:0:0:0:
317,85,221780,1,8,0:0:0:0:
495,63,221905,5,0,0:0:0:0:
495,48,221967,1,0,0:0:0:0:
495,33,222030,1,8,0:0:0:0:
317,127,222155,5,0,0:0:0:0:
317,142,222217,1,0,0:0:0:0:
317,157,222280,1,8,0:0:0:0:
244,198,222405,5,6,0:0:0:0:
244,198,222655,5,12,0:0:0:0:
244,183,222717,1,0,0:0:0:0:
244,168,222780,1,0,0:0:0:0:
244,153,222842,1,0,0:0:0:0:
244,138,222905,5,12,0:0:0:0:
205,168,222967,1,0,0:0:0:0:
195,216,223030,1,0,0:0:0:0:
212,263,223092,1,0,0:0:0:0:
248,298,223155,1,6,0:0:0:0:
249,347,223217,1,0,0:0:0:0:
211,380,223280,2,0,P|185:386|152:377,1,50
63,352,223405,5,12,0:0:0:0:
33,316,223467,1,0,0:0:0:0:
31,267,223530,1,0,0:0:0:0:
57,225,223592,1,0,0:0:0:0:
100,198,223655,1,6,0:0:0:0:
110,150,223717,1,0,0:0:0:0:
78,110,223780,2,0,P|54:100|20:102,1,50
180,28,223905,5,12,0:0:0:0:
180,33,223967,1,10,0:0:0:0:
180,38,224030,1,10,0:0:0:0:
180,43,224092,1,10,0:0:0:0:
180,48,224155,1,10,0:0:0:0:
180,53,224217,1,10,0:0:0:0:
180,58,224280,1,10,0:0:0:0:
180,63,224342,1,10,0:0:0:0:
180,68,224405,5,6,0:0:0:0:
262,181,224530,1,8,0:0:0:0:
394,134,224655,1,0,0:0:0:0:
263,79,224780,1,8,0:0:0:0:
202,228,224905,2,0,P|247:256|296:247,1,100,0|8,0:0|0:0,0:0:0:0:
418,150,225155,2,0,P|373:122|325:131,1,100,0|8,0:0|0:0,0:0:0:0:
124,221,225405,5,0,0:0:0:0:
124,236,225467,1,0,0:0:0:0:
124,251,225530,1,8,0:0:0:0:
244,288,225655,1,0,0:0:0:0:
60,362,225780,1,8,0:0:0:0:
248,284,225905,5,0,0:0:0:0:
259,273,225967,1,0,0:0:0:0:
269,261,226030,1,8,0:0:0:0:
360,193,226155,1,0,0:0:0:0:
406,315,226280,1,8,0:0:0:0:
297,60,226405,6,0,B|265:81|265:81|265:152|265:152|222:171,1,150,6|0,0:0|0:0,0:0:0:0:
426,60,226655,2,0,B|458:81|458:81|458:152|458:152|501:171,1,150,6|0,0:0|0:0,0:0:0:0:
362,129,226905,5,10,0:0:0:0:
361,144,226967,1,0,0:0:0:0:
356,158,227030,1,0,0:0:0:0:
347,170,227092,1,0,0:0:0:0:
335,179,227155,5,8,0:0:0:0:
360,216,227217,1,0,0:0:0:0:
357,260,227280,1,0,0:0:0:0:
326,292,227342,1,0,0:0:0:0:
282,302,227405,5,10,0:0:0:0:
276,289,227467,1,10,0:0:0:0:
270,276,227530,1,10,0:0:0:0:
228,162,227655,1,10,0:0:0:0:
136,363,227780,5,10,0:0:0:0:
144,344,227842,1,10,0:0:0:0:
151,324,227905,1,10,0:0:0:0:
228,158,228030,1,10,0:0:0:0:
34,267,228155,5,10,0:0:0:0:
34,217,228217,1,10,0:0:0:0:
34,167,228280,1,10,0:0:0:0:
34,117,228342,1,10,0:0:0:0:
34,67,228405,2,0,B|59:97|59:97|59:168,1,100,6|8,0:0|0:0,0:0:0:0:
140,222,228655,5,0,0:0:0:0:
293,24,228780,1,8,0:0:0:0:
34,167,228905,1,0,0:0:0:0:
34,138,228967,1,0,0:0:0:0:
34,108,229030,1,8,0:0:0:0:
239,150,229155,5,0,0:0:0:0:
239,121,229217,1,0,0:0:0:0:
239,91,229280,1,8,0:0:0:0:
398,91,229405,6,0,P|404:147|452:203,1,100,0|8,0:0|0:0,0:0:0:0:
318,173,229655,2,0,L|318:295,1,100,0|8,0:0|0:0,0:0:0:0:
239,91,229905,2,0,P|233:147|185:203,1,100,0|8,0:0|0:0,0:0:0:0:
35,122,230155,2,0,P|41:66|89:10,1,100,0|8,0:0|0:0,0:0:0:0:
110,209,230405,6,0,B|126:249|126:249|122:282|122:282|136:316,1,112.500004291535,12|0,0:0|0:0,0:0:0:0:
314,273,230655,5,6,0:0:0:0:
299,273,230717,1,0,0:0:0:0:
284,273,230780,1,8,0:0:0:0:
269,273,230842,1,0,0:0:0:0:
254,273,230905,5,6,0:0:0:0:
284,312,230967,1,0,0:0:0:0:
332,322,231030,1,8,0:0:0:0:
379,305,231092,1,0,0:0:0:0:
414,269,231155,1,0,0:0:0:0:
463,268,231217,1,0,0:0:0:0:
496,306,231280,2,0,P|502:332|493:365,1,50,8|0,0:0|0:0,0:0:0:0:
416,267,231405,5,6,0:0:0:0:
386,231,231467,1,0,0:0:0:0:
384,182,231530,1,8,0:0:0:0:
410,140,231592,1,0,0:0:0:0:
453,113,231655,1,0,0:0:0:0:
463,65,231717,1,0,0:0:0:0:
431,25,231780,2,0,P|407:15|373:17,1,50,8|0,0:0|0:0,0:0:0:0:
212,105,231905,5,12,0:0:0:0:
217,105,231967,1,10,0:0:0:0:
222,105,232030,1,10,0:0:0:0:
227,105,232092,1,10,0:0:0:0:
232,105,232155,1,10,0:0:0:0:
237,105,232217,1,10,0:0:0:0:
242,105,232280,1,10,0:0:0:0:
247,105,232342,1,10,0:0:0:0:
252,105,232405,6,0,L|252:207,1,100,12|0,0:0|0:0,0:0:0:0:
415,173,232655,2,0,L|422:278,1,100
97,173,232905,2,0,L|90:278,1,100
252,368,233155,5,6,0:0:0:0:
252,349,233217,1,0,0:0:0:0:
252,330,233280,1,0,0:0:0:0:
252,311,233342,1,0,0:0:0:0:
252,293,233405,5,6,0:0:0:0:
261,298,233467,1,0,0:0:0:0:
271,302,233530,1,0,0:0:0:0:
281,304,233592,1,0,0:0:0:0:
292,303,233655,2,0,P|316:288|332:274,3,37.5000014305115,6|0|0|0,0:0|0:0|0:0|0:0,0:0:0:0:
412,172,233905,5,6,0:0:0:0:
412,162,233967,1,0,0:0:0:0:
412,152,234030,1,0,0:0:0:0:
412,142,234092,1,0,0:0:0:0:
412,132,234155,1,0,0:0:0:0:
412,122,234217,1,0,0:0:0:0:
412,112,234280,1,0,0:0:0:0:
412,102,234342,1,0,0:0:0:0:
412,92,234405,2,0,B|395:117|395:117|395:193,1,100,6|0,0:0|0:0,0:0:0:0:
412,15,234655,5,0,0:0:0:0:
263,91,234780,1,0,0:0:0:0:
489,172,234905,1,0,0:0:0:0:
92,135,235030,5,10,0:0:0:0:
83,135,235092,1,10,0:0:0:0:
73,135,235155,5,12,0:0:0:0:
73,164,235217,1,0,0:0:0:0:
73,194,235280,1,0,0:0:0:0:
73,223,235342,1,0,0:0:0:0:
73,253,235405,5,12,0:0:0:0:
112,222,235467,1,0,0:0:0:0:
161,214,235530,1,0,0:0:0:0:
209,226,235592,1,0,0:0:0:0:
250,255,235655,2,0,L|267:204,3,50
410,34,235905,5,12,0:0:0:0:
410,84,235967,1,0,0:0:0:0:
410,134,236030,1,0,0:0:0:0:
410,184,236092,1,0,0:0:0:0:
410,234,236155,2,0,L|410:291,3,50
410,359,236405,5,6,0:0:0:0:
410,359,236655,1,6,0:0:0:0:
410,359,236905,2,0,P|355:324|293:332,1,112.500004291535,6|0,0:0|0:0,0:0:0:0:
218,392,237155,5,10,0:0:0:0:
222,363,237217,1,2,0:0:0:0:
207,336,237280,1,8,0:0:0:0:
185,316,237342,1,2,0:0:0:0:
140,306,237405,5,10,0:0:0:0:
96,293,237467,1,2,0:0:0:0:
69,257,237530,1,8,0:0:0:0:
64,212,237592,1,2,0:0:0:0:
76,168,237655,5,12,0:0:0:0:
107,136,237717,1,2,0:0:0:0:
150,123,237780,1,8,0:0:0:0:
194,132,237842,1,2,0:0:0:0:
231,159,237905,1,8,0:0:0:0:
249,199,237967,1,2,0:0:0:0:
241,244,238030,1,8,0:0:0:0:
212,278,238092,1,2,0:0:0:0:
168,284,238155,5,12,0:0:0:0:
150,243,238217,1,0,0:0:0:0:
150,199,238280,1,8,0:0:0:0:
168,157,238342,1,0,0:0:0:0:
200,126,238405,1,8,0:0:0:0:
243,112,238467,1,0,0:0:0:0:
287,115,238530,1,8,0:0:0:0:
326,137,238592,1,0,0:0:0:0:
358,167,238655,6,0,L|358:115,3,50,10|2|8|2,0:0|0:0|0:0|0:0,0:0:0:0:
358,25,238905,5,6,0:0:0:0:
358,23,239155,1,6,0:0:0:0:
358,21,239405,2,0,L|357:179,1,150,6|0,0:0|0:0,0:0:0:0:
369,316,239655,5,10,0:0:0:0:
337,285,239717,1,0,0:0:0:0:
295,267,239780,1,8,0:0:0:0:
251,275,239842,1,0,0:0:0:0:
218,307,239905,1,8,0:0:0:0:
180,333,239967,1,0,0:0:0:0:
134,336,240030,1,8,0:0:0:0:
93,317,240092,1,0,0:0:0:0:
76,274,240155,5,12,0:0:0:0:
119,263,240217,1,0,0:0:0:0:
148,228,240280,1,8,0:0:0:0:
160,185,240342,1,0,0:0:0:0:
149,140,240405,1,8,0:0:0:0:
114,111,240467,1,0,0:0:0:0:
68,106,240530,1,8,0:0:0:0:
27,123,240592,1,0,0:0:0:0:
6,163,240655,5,12,0:0:0:0:
45,163,240717,1,2,0:0:0:0:
85,163,240780,1,8,0:0:0:0:
124,163,240842,1,2,0:0:0:0:
164,163,240905,1,8,0:0:0:0:
203,163,240967,1,2,0:0:0:0:
243,163,241030,1,8,0:0:0:0:
282,163,241092,1,2,0:0:0:0:
322,163,241155,1,8,0:0:0:0:
361,163,241217,1,0,0:0:0:0:
401,163,241280,1,8,0:0:0:0:
440,163,241342,1,0,0:0:0:0:
479,163,241405,6,0,B|465:144|465:144|358:144,1,125,12|0,0:0|0:0,0:0:0:0:
243,144,241655,1,6,0:0:0:0:
363,142,241905,6,0,L|363:27,1,112.500004291535,4|0,0:0|0:0,0:0:0:0:
476,34,242155,5,8,0:0:0:0:
463,49,242217,1,0,0:0:0:0:
454,67,242280,1,8,0:0:0:0:
448,86,242342,1,0,0:0:0:0:
444,106,242405,1,8,0:0:0:0:
444,126,242467,1,0,0:0:0:0:
447,145,242530,1,8,0:0:0:0:
453,164,242592,1,0,0:0:0:0:
467,178,242655,5,12,0:0:0:0:
458,139,242717,1,0,0:0:0:0:
430,111,242780,1,8,0:0:0:0:
392,101,242842,1,0,0:0:0:0:
354,113,242905,1,8,0:0:0:0:
328,143,242967,1,0,0:0:0:0:
322,182,243030,1,8,0:0:0:0:
337,218,243092,1,0,0:0:0:0:
373,237,243155,5,12,0:0:0:0:
344,229,243217,1,0,0:0:0:0:
315,221,243280,1,8,0:0:0:0:
286,214,243342,1,0,0:0:0:0:
258,206,243405,1,8,0:0:0:0:
229,198,243467,1,0,0:0:0:0:
200,190,243530,1,8,0:0:0:0:
171,183,243592,1,0,0:0:0:0:
142,175,243655,5,12,0:0:0:0:
149,170,243717,1,0,0:0:0:0:
157,163,243780,1,8,0:0:0:0:
164,156,243842,1,0,0:0:0:0:
177,117,243905,6,0,L|165:239,1,100,6|8,0:0|0:0,0:0:0:0:
64,45,244155,2,0,L|52:167,1,100,0|8,0:0|0:0,0:0:0:0:
335,117,244405,6,0,L|347:239,1,100,0|8,0:0|0:0,0:0:0:0:
448,45,244655,2,0,L|460:167,1,100,0|8,0:0|0:0,0:0:0:0:
255,33,244905,5,2,0:0:0:0:
255,72,244967,1,2,0:0:0:0:
255,112,245030,1,10,0:0:0:0:
255,192,245155,5,2,0:0:0:0:
255,231,245217,1,2,0:0:0:0:
255,271,245280,1,10,0:0:0:0:
321,358,245405,6,0,B|353:337|353:337|353:266|353:266|396:247,1,150,6|0,0:0|0:0,0:0:0:0:
192,358,245655,2,0,B|160:337|160:337|160:266|160:266|117:247,1,150,6|0,0:0|0:0,0:0:0:0:
256,289,245905,5,6,0:0:0:0:
256,291,246155,5,12,0:0:0:0:
256,269,246217,1,0,0:0:0:0:
256,249,246280,1,8,0:0:0:0:
256,230,246342,1,0,0:0:0:0:
256,210,246405,1,8,0:0:0:0:
255,189,246467,1,0,0:0:0:0:
255,170,246530,1,8,0:0:0:0:
255,150,246592,1,0,0:0:0:0:
255,130,246655,5,12,0:0:0:0:
239,90,246717,1,2,0:0:0:0:
209,56,246780,1,8,0:0:0:0:
166,44,246842,1,2,0:0:0:0:
120,51,246905,1,8,0:0:0:0:
86,80,246967,1,2,0:0:0:0:
74,123,247030,1,8,0:0:0:0:
85,167,247092,1,2,0:0:0:0:
122,192,247155,5,12,0:0:0:0:
148,168,247217,1,0,0:0:0:0:
174,145,247280,1,8,0:0:0:0:
201,122,247342,1,0,0:0:0:0:
227,99,247405,1,8,0:0:0:0:
253,76,247467,1,0,0:0:0:0:
280,53,247530,1,8,0:0:0:0:
306,30,247592,1,0,0:0:0:0:
334,8,247655,6,0,L|350:58,3,50,10|2|8|2,0:0|0:0|0:0|0:0,0:0:0:0:
388,156,247905,5,6,0:0:0:0:
395,174,248155,1,6,0:0:0:0:
403,187,248405,6,0,L|403:293,1,97.4999955368044,4|0,0:0|0:0,0:0:0:0:
487,340,248655,5,8,0:0:0:0:
472,327,248717,1,0,0:0:0:0:
454,318,248780,1,8,0:0:0:0:
435,312,248842,1,0,0:0:0:0:
415,308,248905,1,8,0:0:0:0:
395,308,248967,1,0,0:0:0:0:
376,311,249030,1,8,0:0:0:0:
357,317,249092,1,0,0:0:0:0:
340,327,249155,5,12,0:0:0:0:
323,288,249217,1,2,0:0:0:0:
320,243,249280,1,8,0:0:0:0:
342,204,249342,1,2,0:0:0:0:
380,176,249405,1,8,0:0:0:0:
424,173,249467,1,2,0:0:0:0:
463,194,249530,1,8,0:0:0:0:
487,233,249592,1,2,0:0:0:0:
477,277,249655,5,12,0:0:0:0:
477,247,249717,1,0,0:0:0:0:
477,217,249780,1,8,0:0:0:0:
477,187,249842,1,0,0:0:0:0:
477,157,249905,1,8,0:0:0:0:
477,127,249967,1,0,0:0:0:0:
477,97,250030,1,8,0:0:0:0:
477,67,250092,1,0,0:0:0:0:
477,37,250155,5,12,0:0:0:0:
470,43,250217,1,0,0:0:0:0:
462,49,250280,1,8,0:0:0:0:
453,54,250342,1,0,0:0:0:0:
444,58,250405,1,8,0:0:0:0:
434,60,250467,1,0,0:0:0:0:
424,61,250530,1,8,0:0:0:0:
414,60,250592,1,0,0:0:0:0:
404,58,250655,6,0,L|404:111,3,50,12|0|0|0,0:0|0:0|0:0|0:0,0:0:0:0:
235,107,250905,2,0,L|235:160,3,50,12|0|0|0,0:0|0:0|0:0|0:0,0:0:0:0:
129,13,251155,5,12,0:0:0:0:
92,21,251217,1,0,0:0:0:0:
66,50,251280,1,8,0:0:0:0:
58,89,251342,1,0,0:0:0:0:
70,127,251405,1,8,0:0:0:0:
85,164,251467,1,0,0:0:0:0:
84,203,251530,1,8,0:0:0:0:
64,237,251592,1,0,0:0:0:0:
25,244,251655,5,12,0:0:0:0:
32,197,251717,1,2,0:0:0:0:
64,159,251780,1,8,0:0:0:0:
110,158,251842,1,2,0:0:0:0:
157,176,251905,1,8,0:0:0:0:
178,222,251967,1,2,0:0:0:0:
169,272,252030,1,8,0:0:0:0:
132,307,252092,1,2,0:0:0:0:
83,317,252155,6,0,L|112:358,3,50,12|2|8|2,0:0|0:0|0:0|0:0,0:0:0:0:
244,309,252405,5,10,0:0:0:0:
269,294,252467,1,0,0:0:0:0:
299,290,252530,1,0,0:0:0:0:
328,297,252592,1,0,0:0:0:0:
353,314,252655,5,10,0:0:0:0:
378,328,252717,1,0,0:0:0:0:
408,332,252780,1,0,0:0:0:0:
437,325,252842,1,0,0:0:0:0:
458,303,252905,6,0,L|514:386,1,100,6|8,0:0|0:0,0:0:0:0:
427,144,253155,2,0,L|399:243,1,100,2|8,0:0|0:0,0:0:0:0:
379,34,253405,5,2,0:0:0:0:
369,61,253467,1,0,0:0:0:0:
359,89,253530,1,8,0:0:0:0:
227,114,253655,5,2,0:0:0:0:
239,141,253717,1,0,0:0:0:0:
251,168,253780,1,8,0:0:0:0:
299,277,253905,6,0,L|333:177,1,100,2|8,0:0|0:0,0:0:0:0:
149,158,254155,2,0,L|107:58,1,100,2|8,0:0|0:0,0:0:0:0:
137,355,254405,6,0,P|154:300|141:228,1,112.500004291535,6|0,0:0|0:0,0:0:0:0:
70,280,254655,1,6,0:0:0:0:
70,278,254905,5,6,0:0:0:0:
64,248,254967,1,0,0:0:0:0:
69,218,255030,1,0,0:0:0:0:
83,192,255092,1,0,0:0:0:0:
106,173,255155,1,0,0:0:0:0:
136,165,255217,1,0,0:0:0:0:
166,164,255280,1,0,0:0:0:0:
193,175,255342,1,0,0:0:0:0:
217,192,255405,1,0,0:0:0:0:
244,205,255467,1,0,0:0:0:0:
274,208,255530,1,0,0:0:0:0:
303,201,255592,1,0,0:0:0:0:
327,184,255655,1,6,0:0:0:0:
343,157,255717,1,0,0:0:0:0:
351,128,255780,1,0,0:0:0:0:
348,99,255842,1,0,0:0:0:0:
331,73,255905,5,10,0:0:0:0:
342,116,255967,1,0,0:0:0:0:
377,145,256030,1,0,0:0:0:0:
420,157,256092,1,0,0:0:0:0:
465,146,256155,1,0,0:0:0:0:
494,111,256217,1,0,0:0:0:0:
499,65,256280,1,0,0:0:0:0:
482,24,256342,1,0,0:0:0:0:
442,3,256405,5,0,0:0:0:0:
442,47,256467,1,2,0:0:0:0:
442,92,256530,1,0,0:0:0:0:
442,136,256592,1,2,0:0:0:0:
442,181,256655,1,0,0:0:0:0:
442,225,256717,1,2,0:0:0:0:
442,270,256780,1,0,0:0:0:0:
442,314,256842,1,2,0:0:0:0:
442,359,256905,6,0,B|461:345|461:345|460:213,1,150.000005722046,12|0,0:0|0:0,0:0:0:0:
442,361,257405,5,6,0:0:0:0:
442,338,257467,1,0,0:0:0:0:
442,316,257530,1,0,0:0:0:0:
442,293,257592,1,0,0:0:0:0:
442,271,257655,1,0,0:0:0:0:
442,248,257717,1,0,0:0:0:0:
442,226,257780,1,0,0:0:0:0:
442,203,257842,1,0,0:0:0:0:
442,181,257905,1,0,0:0:0:0:
442,158,257967,1,0,0:0:0:0:
442,135,258030,1,0,0:0:0:0:
442,113,258092,1,0,0:0:0:0:
442,90,258155,5,12,0:0:0:0:
431,133,258217,1,0,0:0:0:0:
396,162,258280,1,0,0:0:0:0:
353,174,258342,1,0,0:0:0:0:
308,163,258405,1,8,0:0:0:0:
279,128,258467,1,0,0:0:0:0:
274,82,258530,1,0,0:0:0:0:
291,41,258592,1,0,0:0:0:0:
331,20,258655,5,0,0:0:0:0:
357,55,258717,1,0,0:0:0:0:
370,98,258780,1,0,0:0:0:0:
365,143,258842,1,0,0:0:0:0:
345,183,258905,1,0,0:0:0:0:
312,213,258967,1,0,0:0:0:0:
271,229,259030,1,0,0:0:0:0:
226,229,259092,1,0,0:0:0:0:
184,213,259155,1,0,0:0:0:0:
151,183,259217,1,0,0:0:0:0:
131,143,259280,1,0,0:0:0:0:
128,99,259342,1,0,0:0:0:0:
147,58,259405,6,0,P|181:85|192:197,1,150.000005722046,6|0,0:0|0:0,0:0:0:0:
147,58,259905,5,6,0:0:0:0:
171,75,260030,1,0,0:0:0:0:
190,98,260155,1,0,0:0:0:0:
201,126,260280,1,0,0:0:0:0:
203,155,260405,1,0,0:0:0:0:
197,185,260530,1,0,0:0:0:0:
97,252,260655,5,0,0:0:0:0:
114,276,260780,1,0,0:0:0:0:
137,295,260905,1,10,0:0:0:0:
165,306,261030,1,0,0:0:0:0:
281,277,261155,5,0,0:0:0:0:
310,272,261280,1,0,0:0:0:0:
340,275,261405,1,0,0:0:0:0:
367,287,261530,1,0,0:0:0:0:
391,303,261655,2,0,P|419:260|419:197,1,100
357,111,261905,5,6,0:0:0:0:
322,348,262155,1,6,0:0:0:0:
357,111,262405,5,6,0:0:0:0:
333,129,262530,1,0,0:0:0:0:
306,141,262655,1,0,0:0:0:0:
276,145,262780,1,0,0:0:0:0:
247,139,262905,1,0,0:0:0:0:
220,126,263030,1,0,0:0:0:0:
182,12,263155,5,0,0:0:0:0:
154,22,263280,1,0,0:0:0:0:
130,40,263405,1,10,0:0:0:0:
112,64,263530,1,0,0:0:0:0:
110,183,263655,5,0,0:0:0:0:
108,213,263780,1,0,0:0:0:0:
97,241,263905,1,0,0:0:0:0:
78,264,264030,1,0,0:0:0:0:
57,283,264155,2,0,P|91:321|152:337,1,100
309,357,264405,5,6,0:0:0:0:
30,198,264655,1,6,0:0:0:0:
442,106,264905,5,6,0:0:0:0:
448,136,264967,1,0,0:0:0:0:
443,166,265030,1,0,0:0:0:0:
429,192,265092,1,0,0:0:0:0:
406,211,265155,1,0,0:0:0:0:
376,219,265217,1,0,0:0:0:0:
346,220,265280,1,0,0:0:0:0:
319,209,265342,1,0,0:0:0:0:
295,192,265405,1,0,0:0:0:0:
268,179,265467,1,0,0:0:0:0:
238,176,265530,1,0,0:0:0:0:
209,183,265592,1,0,0:0:0:0:
185,200,265655,1,6,0:0:0:0:
169,227,265717,1,0,0:0:0:0:
161,256,265780,1,0,0:0:0:0:
164,285,265842,1,0,0:0:0:0:
181,311,265905,5,10,0:0:0:0:
170,268,265967,1,0,0:0:0:0:
135,239,266030,1,0,0:0:0:0:
92,227,266092,1,0,0:0:0:0:
47,238,266155,1,0,0:0:0:0:
18,273,266217,1,0,0:0:0:0:
13,319,266280,1,0,0:0:0:0:
30,360,266342,1,0,0:0:0:0:
70,381,266405,5,0,0:0:0:0:
70,337,266467,1,2,0:0:0:0:
70,292,266530,1,0,0:0:0:0:
70,248,266592,1,2,0:0:0:0:
70,203,266655,1,0,0:0:0:0:
70,159,266717,1,2,0:0:0:0:
70,114,266780,1,0,0:0:0:0:
70,70,266842,1,2,0:0:0:0:
70,25,266905,6,0,B|51:39|51:39|52:171,1,150.000005722046,6|0,0:0|0:0,0:0:0:0:
70,23,267405,5,6,0:0:0:0:
70,46,267467,1,0,0:0:0:0:
70,68,267530,1,0,0:0:0:0:
70,91,267592,1,0,0:0:0:0:
70,113,267655,1,0,0:0:0:0:
70,136,267717,1,0,0:0:0:0:
70,158,267780,1,0,0:0:0:0:
70,181,267842,1,0,0:0:0:0:
70,203,267905,1,0,0:0:0:0:
70,226,267967,1,0,0:0:0:0:
70,249,268030,1,0,0:0:0:0:
70,271,268092,1,0,0:0:0:0:
70,294,268155,5,12,0:0:0:0:
81,251,268217,1,0,0:0:0:0:
116,222,268280,1,0,0:0:0:0:
159,210,268342,1,0,0:0:0:0:
204,221,268405,1,8,0:0:0:0:
233,256,268467,1,0,0:0:0:0:
238,302,268530,1,0,0:0:0:0:
221,343,268592,1,0,0:0:0:0:
181,364,268655,5,0,0:0:0:0:
154,328,268717,1,0,0:0:0:0:
141,285,268780,1,0,0:0:0:0:
146,240,268842,1,0,0:0:0:0:
166,200,268905,1,0,0:0:0:0:
199,170,268967,1,0,0:0:0:0:
240,154,269030,1,0,0:0:0:0:
285,154,269092,1,0,0:0:0:0:
327,170,269155,1,0,0:0:0:0:
360,200,269217,1,0,0:0:0:0:
380,240,269280,1,0,0:0:0:0:
384,285,269342,1,0,0:0:0:0:
365,326,269405,6,0,P|331:299|320:187,1,150.000005722046,6|0,0:0|0:0,0:0:0:0:
365,326,269905,5,6,0:0:0:0:
340,308,270030,1,0,0:0:0:0:
321,285,270155,1,0,0:0:0:0:
310,257,270280,1,0,0:0:0:0:
308,228,270405,1,0,0:0:0:0:
314,198,270530,1,0,0:0:0:0:
415,132,270655,5,0,0:0:0:0:
398,108,270780,1,0,0:0:0:0:
375,89,270905,1,10,0:0:0:0:
347,78,271030,1,0,0:0:0:0:
231,107,271155,5,0,0:0:0:0:
202,112,271280,1,0,0:0:0:0:
172,109,271405,1,0,0:0:0:0:
145,97,271530,1,0,0:0:0:0:
121,81,271655,6,0,P|93:124|94:195,1,112.500004291535,6|0,0:0|0:0,0:0:0:0:
155,273,271905,1,6,0:0:0:0:
190,36,272155,1,6,0:0:0:0:
155,273,272405,5,6,0:0:0:0:
179,255,272530,1,0,0:0:0:0:
206,243,272655,1,0,0:0:0:0:
236,239,272780,1,0,0:0:0:0:
265,245,272905,1,0,0:0:0:0:
292,258,273030,1,0,0:0:0:0:
330,372,273155,5,0,0:0:0:0:
358,362,273280,1,0,0:0:0:0:
382,344,273405,1,10,0:0:0:0:
400,320,273530,1,0,0:0:0:0:
402,201,273655,5,0,0:0:0:0:
404,171,273780,1,0,0:0:0:0:
415,143,273905,1,0,0:0:0:0:
434,120,274030,1,0,0:0:0:0:
455,101,274155,6,0,P|420:62|364:46,1,112.500004291535,6|0,0:0|0:0,0:0:0:0:
271,47,274405,1,6,0:0:0:0:
482,186,274655,1,6,0:0:0:0:
442,23,274905,5,6,0:0:0:0:
442,46,274967,1,0,0:0:0:0:
442,68,275030,1,0,0:0:0:0:
442,91,275092,1,0,0:0:0:0:
442,113,275155,1,0,0:0:0:0:
442,136,275217,1,0,0:0:0:0:
442,158,275280,1,0,0:0:0:0:
442,181,275342,1,0,0:0:0:0:
442,203,275405,1,0,0:0:0:0:
442,226,275467,1,0,0:0:0:0:
442,249,275530,1,0,0:0:0:0:
442,271,275592,1,0,0:0:0:0:
442,294,275655,5,6,0:0:0:0:
431,251,275717,1,0,0:0:0:0:
396,222,275780,1,0,0:0:0:0:
353,210,275842,1,0,0:0:0:0:
308,221,275905,1,10,0:0:0:0:
279,256,275967,1,0,0:0:0:0:
274,302,276030,1,0,0:0:0:0:
291,343,276092,1,0,0:0:0:0:
331,364,276155,5,0,0:0:0:0:
358,328,276217,1,0,0:0:0:0:
371,285,276280,1,0,0:0:0:0:
366,240,276342,1,0,0:0:0:0:
346,200,276405,1,0,0:0:0:0:
313,170,276467,1,0,0:0:0:0:
272,154,276530,1,0,0:0:0:0:
227,154,276592,1,0,0:0:0:0:
185,170,276655,1,0,0:0:0:0:
152,200,276717,1,0,0:0:0:0:
132,240,276780,1,0,0:0:0:0:
128,285,276842,1,0,0:0:0:0:
147,326,276905,6,2,P|181:299|192:187,1,150.000005722046,6|2,0:0|0:0,0:0:0:0:
147,326,277405,5,6,0:0:0:0:
175,305,277467,1,0,0:0:0:0:
194,276,277530,1,0,0:0:0:0:
203,243,277592,1,0,0:0:0:0:
200,208,277655,1,0,0:0:0:0:
186,176,277717,1,0,0:0:0:0:
162,151,277780,1,0,0:0:0:0:
131,136,277842,1,0,0:0:0:0:
96,131,277905,1,0,0:0:0:0:
62,139,277967,1,0,0:0:0:0:
33,157,278030,1,0,0:0:0:0:
11,185,278092,1,0,0:0:0:0:
0,218,278155,1,0,0:0:0:0:
1,253,278217,1,0,0:0:0:0:
13,285,278280,1,0,0:0:0:0:
35,312,278342,1,0,0:0:0:0:
67,326,278405,5,10,0:0:0:0:
66,286,278467,1,0,0:0:0:0:
66,246,278530,1,0,0:0:0:0:
66,206,278592,1,0,0:0:0:0:
66,166,278655,1,0,0:0:0:0:
66,126,278717,1,0,0:0:0:0:
66,86,278780,1,0,0:0:0:0:
66,46,278842,1,0,0:0:0:0:
66,5,278905,5,6,0:0:0:0:
91,47,278967,1,0,0:0:0:0:
127,81,279030,1,0,0:0:0:0:
172,104,279092,1,0,0:0:0:0:
221,114,279155,1,0,0:0:0:0:
270,109,279217,1,0,0:0:0:0:
317,91,279280,1,0,0:0:0:0:
357,61,279342,1,0,0:0:0:0:
386,21,279405,6,0,B|366:51|366:51|391:116|338:153,1,150.000005722046,6|0,0:0|0:0,0:0:0:0:
386,19,279905,5,6,0:0:0:0:
384,49,279967,1,0,0:0:0:0:
371,77,280030,1,0,0:0:0:0:
351,98,280092,1,0,0:0:0:0:
324,111,280155,1,0,0:0:0:0:
293,111,280217,1,0,0:0:0:0:
263,104,280280,1,0,0:0:0:0:
240,86,280342,1,0,0:0:0:0:
221,64,280405,1,0,0:0:0:0:
199,44,280467,1,0,0:0:0:0:
170,33,280530,1,0,0:0:0:0:
141,33,280592,1,0,0:0:0:0:
113,43,280655,1,6,0:0:0:0:
90,65,280717,1,0,0:0:0:0:
75,91,280780,1,0,0:0:0:0:
71,119,280842,1,0,0:0:0:0:
82,148,280905,5,10,0:0:0:0:
103,110,280967,1,0,0:0:0:0:
145,91,281030,1,0,0:0:0:0:
189,90,281092,1,0,0:0:0:0:
230,112,281155,1,0,0:0:0:0:
249,154,281217,1,0,0:0:0:0:
242,199,281280,1,0,0:0:0:0:
215,235,281342,1,0,0:0:0:0:
171,246,281405,5,6,0:0:0:0:
184,203,281467,1,0,0:0:0:0:
216,172,281530,1,0,0:0:0:0:
259,161,281592,1,0,0:0:0:0:
302,173,281655,1,0,0:0:0:0:
334,204,281717,1,0,0:0:0:0:
347,246,281780,1,0,0:0:0:0:
337,290,281842,1,0,0:0:0:0:
313,328,281905,2,0,P|240:359|163:347,1,150.000005722046,6|0,0:0|0:0,0:0:0:0:
174,352,282405,5,6,0:0:0:0:
141,348,282467,1,0,0:0:0:0:
113,334,282530,1,0,0:0:0:0:
93,313,282592,1,0,0:0:0:0:
82,285,282655,1,0,0:0:0:0:
83,255,282717,1,0,0:0:0:0:
92,225,282780,1,0,0:0:0:0:
110,203,282842,1,0,0:0:0:0:
133,184,282905,1,0,0:0:0:0:
153,162,282967,1,0,0:0:0:0:
164,135,283030,1,0,0:0:0:0:
167,105,283092,1,0,0:0:0:0:
157,76,283155,1,0,0:0:0:0:
136,54,283217,1,0,0:0:0:0:
111,37,283280,1,0,0:0:0:0:
82,32,283342,1,0,0:0:0:0:
52,40,283405,5,10,0:0:0:0:
51,84,283467,1,0,0:0:0:0:
77,121,283530,1,0,0:0:0:0:
116,144,283592,1,0,0:0:0:0:
162,145,283655,1,0,0:0:0:0:
199,118,283717,1,0,0:0:0:0:
216,75,283780,1,0,0:0:0:0:
210,32,283842,1,0,0:0:0:0:
171,7,283905,5,2,0:0:0:0:
171,51,283967,1,2,0:0:0:0:
171,96,284030,1,0,0:0:0:0:
171,140,284092,1,2,0:0:0:0:
171,185,284155,1,0,0:0:0:0:
171,229,284217,1,2,0:0:0:0:
171,274,284280,1,0,0:0:0:0:
171,318,284342,1,2,0:0:0:0:
171,363,284405,6,0,B|190:349|190:349|189:217,1,150.000005722046,6|0,0:0|0:0,0:0:0:0:
173,361,284905,5,6,0:0:0:0:
173,331,284967,1,0,0:0:0:0:
173,301,285030,1,0,0:0:0:0:
173,271,285092,1,0,0:0:0:0:
173,241,285155,1,0,0:0:0:0:
173,211,285217,1,0,0:0:0:0:
173,180,285280,1,0,0:0:0:0:
173,150,285342,1,0,0:0:0:0:
173,121,285405,1,0,0:0:0:0:
173,91,285467,1,0,0:0:0:0:
173,61,285530,1,0,0:0:0:0:
173,31,285592,1,0,0:0:0:0:
173,1,285655,5,6,0:0:0:0:
194,22,285717,1,0,0:0:0:0:
218,38,285780,1,0,0:0:0:0:
246,49,285842,1,0,0:0:0:0:
276,55,285905,1,10,0:0:0:0:
306,53,285967,1,0,0:0:0:0:
335,46,286030,1,0,0:0:0:0:
362,33,286092,1,0,0:0:0:0:
380,9,286155,5,2,0:0:0:0:
348,13,286217,1,0,0:0:0:0:
319,27,286280,1,0,0:0:0:0:
299,48,286342,1,0,0:0:0:0:
289,76,286405,1,0,0:0:0:0:
290,106,286467,1,0,0:0:0:0:
299,136,286530,1,0,0:0:0:0:
317,158,286592,1,0,0:0:0:0:
339,177,286655,1,0,0:0:0:0:
359,199,286717,1,0,0:0:0:0:
371,226,286780,1,0,0:0:0:0:
374,256,286842,1,0,0:0:0:0:
361,283,286905,6,0,B|341:253|341:253|366:188|313:151,1,150.000005722046,6|0,0:0|0:0,0:0:0:0:
361,283,287405,5,6,0:0:0:0:
367,253,287467,1,0,0:0:0:0:
362,223,287530,1,0,0:0:0:0:
348,197,287592,1,0,0:0:0:0:
325,178,287655,1,0,0:0:0:0:
295,170,287717,1,0,0:0:0:0:
265,169,287780,1,0,0:0:0:0:
238,180,287842,1,0,0:0:0:0:
214,197,287905,1,0,0:0:0:0:
187,210,287967,1,0,0:0:0:0:
157,213,288030,1,0,0:0:0:0:
128,206,288092,1,0,0:0:0:0:
104,189,288155,1,6,0:0:0:0:
88,162,288217,1,0,0:0:0:0:
80,133,288280,1,0,0:0:0:0:
83,104,288342,1,0,0:0:0:0:
101,79,288405,5,10,0:0:0:0:
112,122,288467,1,0,0:0:0:0:
147,151,288530,1,0,0:0:0:0:
190,163,288592,1,0,0:0:0:0:
235,152,288655,1,0,0:0:0:0:
264,117,288717,1,0,0:0:0:0:
269,71,288780,1,0,0:0:0:0:
252,30,288842,1,0,0:0:0:0:
220,0,288905,5,2,0:0:0:0:
220,38,288967,1,2,0:0:0:0:
220,83,289030,1,0,0:0:0:0:
220,127,289092,1,2,0:0:0:0:
220,172,289155,1,0,0:0:0:0:
220,216,289217,1,2,0:0:0:0:
220,261,289280,1,0,0:0:0:0:
220,305,289342,1,2,0:0:0:0:
220,350,289405,6,0,B|239:336|239:336|238:204,1,150.000005722046,12|0,0:0|0:0,0:0:0:0:
220,352,289905,5,6,0:0:0:0:
220,329,289967,1,0,0:0:0:0:
220,307,290030,1,0,0:0:0:0:
220,284,290092,1,0,0:0:0:0:
220,262,290155,1,0,0:0:0:0:
220,239,290217,1,0,0:0:0:0:
220,217,290280,1,0,0:0:0:0:
220,194,290342,1,0,0:0:0:0:
220,172,290405,1,0,0:0:0:0:
220,149,290467,1,0,0:0:0:0:
220,126,290530,1,0,0:0:0:0:
220,104,290592,1,0,0:0:0:0:
220,83,290655,5,6,0:0:0:0:
231,126,290717,1,0,0:0:0:0:
266,155,290780,1,0,0:0:0:0:
309,167,290842,1,0,0:0:0:0:
354,156,290905,5,10,0:0:0:0:
318,128,290967,1,0,0:0:0:0:
274,122,291030,1,0,0:0:0:0:
233,139,291092,1,0,0:0:0:0:
206,174,291155,1,0,0:0:0:0:
199,218,291217,1,0,0:0:0:0:
216,259,291280,1,0,0:0:0:0:
251,287,291342,1,0,0:0:0:0:
296,294,291405,5,0,0:0:0:0:
278,252,291467,1,0,0:0:0:0:
247,219,291530,1,0,0:0:0:0:
208,198,291592,1,0,0:0:0:0:
164,191,291655,1,0,0:0:0:0:
120,198,291717,1,0,0:0:0:0:
80,220,291780,1,0,0:0:0:0:
50,253,291842,1,0,0:0:0:0:
41,297,291905,6,0,B|61:267|61:267|36:202|89:165,1,150.000005722046,6|0,0:0|0:0,0:0:0:0:
29,308,292405,5,6,0:0:0:0:
0,254,292467,1,0,0:0:0:0:
0,192,292530,1,0,0:0:0:0:
27,141,292592,1,0,0:0:0:0:
75,106,292655,1,0,0:0:0:0:
137,99,292717,1,0,0:0:0:0:
192,119,292780,1,0,0:0:0:0:
233,161,292842,1,0,0:0:0:0:
257,216,292905,1,0,0:0:0:0:
260,276,292967,1,0,0:0:0:0:
290,328,293030,1,0,0:0:0:0:
339,358,293092,1,0,0:0:0:0:
398,365,293155,1,0,0:0:0:0:
455,342,293217,1,0,0:0:0:0:
494,297,293280,1,0,0:0:0:0:
507,239,293342,1,0,0:0:0:0:
487,182,293405,5,10,0:0:0:0:
471,206,293467,1,0,0:0:0:0:
455,231,293530,1,0,0:0:0:0:
439,255,293592,1,0,0:0:0:0:
423,281,293655,6,0,L|366:373,1,100
368,66,293905,6,0,L|338:109,3,50
274,194,294155,1,2,0:0:0:0:
273,191,294405,5,0,0:0:0:0:
273,181,294467,1,0,0:0:0:0:
273,171,294530,1,0,0:0:0:0:
273,161,294592,1,0,0:0:0:0:
246,130,294655,5,0,0:0:0:0:
246,120,294717,1,0,0:0:0:0:
246,110,294780,1,0,0:0:0:0:
246,100,294842,1,0,0:0:0:0:
269,66,294905,6,0,P|319:87|377:66,1,100
125,104,295155,2,0,P|75:125|17:104,1,100
371,173,295405,2,0,P|421:194|479:173,1,100
127,218,295655,2,0,P|77:239|19:218,1,100
224,285,295905,5,10,0:0:0:0:
252,290,296030,1,0,0:0:0:0:
282,288,296155,2,0,P|293:337|288:386,1,100
371,173,296405,5,0,0:0:0:0:
399,168,296530,1,0,0:0:0:0:
429,170,296655,2,0,P|440:121|435:72,1,100
300,22,296905,5,0,0:0:0:0:
300,32,296967,1,0,0:0:0:0:
300,42,297030,1,0,0:0:0:0:
300,52,297092,1,0,0:0:0:0:
327,83,297155,5,0,0:0:0:0:
327,93,297217,1,0,0:0:0:0:
327,103,297280,1,0,0:0:0:0:
327,113,297342,1,0,0:0:0:0:
308,149,297405,6,0,L|308:224,1,75.0000028610231
396,284,297655,5,0,0:0:0:0:
379,308,297780,1,0,0:0:0:0:
356,327,297905,1,0,0:0:0:0:
328,338,298030,1,0,0:0:0:0:
299,340,298155,1,0,0:0:0:0:
269,334,298280,1,0,0:0:0:0:
202,234,298405,5,10,0:0:0:0:
178,251,298530,1,0,0:0:0:0:
159,274,298655,2,0,P|148:313|148:360,1,75.0000028610231
95,156,298905,5,0,0:0:0:0:
71,139,299030,1,0,0:0:0:0:
52,116,299155,2,0,P|41:77|41:30,1,75.0000028610231
169,49,299405,6,0,P|224:34|280:49,1,112.500004291535,6|0,0:0|0:0,0:0:0:0:
359,112,299655,1,6,0:0:0:0:
361,114,299905,5,6,0:0:0:0:
373,145,299967,1,0,0:0:0:0:
375,175,300030,1,0,0:0:0:0:
367,203,300092,1,0,0:0:0:0:
348,227,300155,1,0,0:0:0:0:
321,241,300217,1,0,0:0:0:0:
291,248,300280,1,0,0:0:0:0:
262,244,300342,1,0,0:0:0:0:
235,233,300405,1,0,0:0:0:0:
206,227,300467,1,0,0:0:0:0:
177,231,300530,1,0,0:0:0:0:
150,243,300592,1,0,0:0:0:0:
129,267,300655,1,0,0:0:0:0:
121,296,300717,1,0,0:0:0:0:
118,326,300780,1,0,0:0:0:0:
128,354,300842,1,0,0:0:0:0:
151,375,300905,6,0,P|185:380|212:377,3,50,10|0|0|0,0:0|0:0|0:0|0:0,0:0:0:0:
271,244,301155,2,0,P|305:239|332:242,3,50,10|0|0|0,0:0|0:0|0:0|0:0,0:0:0:0:
432,366,301405,5,10,0:0:0:0:
432,336,301467,1,0,0:0:0:0:
432,306,301530,1,0,0:0:0:0:
432,276,301592,1,0,0:0:0:0:
432,246,301655,1,0,0:0:0:0:
432,216,301717,1,0,0:0:0:0:
432,186,301780,1,0,0:0:0:0:
432,156,301842,1,0,0:0:0:0:
432,126,301905,5,6,0:0:0:0:
398,155,301967,1,0,0:0:0:0:
355,166,302030,1,0,0:0:0:0:
312,156,302092,1,0,0:0:0:0:
275,130,302155,1,0,0:0:0:0:
236,108,302217,1,0,0:0:0:0:
190,110,302280,2,0,P|163:118|135:140,1,50
34,354,302405,5,6,0:0:0:0:
34,304,302467,1,0,0:0:0:0:
34,254,302530,1,0,0:0:0:0:
34,204,302592,1,0,0:0:0:0:
34,154,302655,1,0,0:0:0:0:
34,104,302717,1,0,0:0:0:0:
34,53,302780,2,0,L|34:-2,1,50
148,35,302905,5,6,0:0:0:0:
148,349,303155,1,4,0:0:0:0:
255,191,303405,5,4,0:0:0:0:
265,191,303467,1,0,0:0:0:0:
275,191,303530,1,0,0:0:0:0:
285,191,303592,1,0,0:0:0:0:
316,164,303655,5,0,0:0:0:0:
326,164,303717,1,0,0:0:0:0:
336,164,303780,1,0,0:0:0:0:
346,164,303842,1,0,0:0:0:0:
380,187,303905,6,0,P|380:234|380:267,1,75.0000028610231,4|0,0:0|0:0,0:0:0:0:
289,306,304155,5,0,0:0:0:0:
306,330,304280,1,0,0:0:0:0:
329,349,304405,1,0,0:0:0:0:
357,360,304530,1,0,0:0:0:0:
386,362,304655,1,0,0:0:0:0:
416,356,304780,1,0,0:0:0:0:
477,235,304905,5,10,0:0:0:0:
481,206,305030,1,0,0:0:0:0:
479,176,305155,2,0,P|459:140|425:107,1,75.0000028610231
328,81,305405,5,0,0:0:0:0:
300,85,305530,1,0,0:0:0:0:
270,83,305655,2,0,P|234:63|201:29,1,75.0000028610231
116,120,305905,5,0,0:0:0:0:
116,130,305967,1,0,0:0:0:0:
116,140,306030,1,0,0:0:0:0:
116,150,306092,1,0,0:0:0:0:
89,181,306155,5,0,0:0:0:0:
89,191,306217,1,0,0:0:0:0:
89,201,306280,1,0,0:0:0:0:
89,211,306342,1,0,0:0:0:0:
108,247,306405,6,0,L|108:322,1,75.0000028610231
116,100,306655,5,0,0:0:0:0:
133,76,306780,1,0,0:0:0:0:
156,57,306905,1,0,0:0:0:0:
184,46,307030,1,0,0:0:0:0:
213,44,307155,1,0,0:0:0:0:
243,50,307280,1,0,0:0:0:0:
310,150,307405,5,10,0:0:0:0:
334,133,307530,1,0,0:0:0:0:
353,110,307655,2,0,P|364:71|364:24,1,75.0000028610231
417,228,307905,5,0,0:0:0:0:
441,245,308030,1,0,0:0:0:0:
460,268,308155,2,0,P|471:307|471:354,1,75.0000028610231
343,335,308405,6,0,P|288:350|232:335,1,112.500004291535,6|0,0:0|0:0,0:0:0:0:
153,272,308655,1,6,0:0:0:0:
151,270,308905,5,6,0:0:0:0:
139,239,308967,1,0,0:0:0:0:
137,209,309030,1,0,0:0:0:0:
145,181,309092,1,0,0:0:0:0:
164,157,309155,1,0,0:0:0:0:
191,143,309217,1,0,0:0:0:0:
221,136,309280,1,0,0:0:0:0:
250,140,309342,1,0,0:0:0:0:
277,151,309405,1,0,0:0:0:0:
306,157,309467,1,0,0:0:0:0:
335,153,309530,1,0,0:0:0:0:
362,141,309592,1,0,0:0:0:0:
383,117,309655,1,0,0:0:0:0:
391,88,309717,1,0,0:0:0:0:
394,58,309780,1,0,0:0:0:0:
384,30,309842,1,0,0:0:0:0:
361,9,309905,6,0,P|327:4|300:7,3,50,10|0|0|0,0:0|0:0|0:0|0:0,0:0:0:0:
241,140,310155,2,0,P|207:145|180:142,3,50,10|0|0|0,0:0|0:0|0:0|0:0,0:0:0:0:
80,18,310405,5,10,0:0:0:0:
80,48,310467,1,0,0:0:0:0:
80,78,310530,1,0,0:0:0:0:
80,108,310592,1,0,0:0:0:0:
80,138,310655,1,0,0:0:0:0:
80,168,310717,1,0,0:0:0:0:
80,198,310780,1,0,0:0:0:0:
80,228,310842,1,0,0:0:0:0:
80,258,310905,5,12,0:0:0:0:
113,228,310967,1,0,0:0:0:0:
156,217,311030,1,0,0:0:0:0:
199,227,311092,1,0,0:0:0:0:
237,254,311155,1,0,0:0:0:0:
276,276,311217,1,0,0:0:0:0:
322,274,311280,2,0,P|349:266|377:244,1,50
478,30,311405,5,12,0:0:0:0:
478,80,311467,1,0,0:0:0:0:
478,130,311530,1,0,0:0:0:0:
478,180,311592,1,0,0:0:0:0:
478,230,311655,1,0,0:0:0:0:
478,280,311717,1,0,0:0:0:0:
478,331,311780,2,0,L|478:386,1,50
364,349,311905,5,6,0:0:0:0:
364,35,312155,1,6,0:0:0:0:
