osu file format v14

[General]
AudioFilename: audio.mp3
AudioLeadIn: 0
PreviewTime: 40632
Countdown: 1
SampleSet: None
StackLeniency: 0.7
Mode: 1
LetterboxInBreaks: 0
WidescreenStoryboard: 1

[Editor]
DistanceSpacing: 1.7
BeatDivisor: 4
GridSize: 32
TimelineZoom: 1.5

[Metadata]
Title:Cuando Nadie Ve
TitleUnicode:Cuando Nadie Ve
Artist:Morat
ArtistUnicode:Morat
Creator:Gero
Version:Oni
Source:
Tags:
BeatmapID:1973971
BeatmapSetID:945259

[Difficulty]
HPDrainRate:8
CircleSize:4
OverallDifficulty:8
ApproachRate:9
SliderMultiplier:1.8
SliderTickRate:2

[Events]
//Background and Video events
Video,0,"video.mp4"
0,0,"bg.jpg",0,0
//Break Periods
//Storyboard Layer 0 (Background)
//Storyboard Layer 1 (Fail)
//Storyboard Layer 2 (Pass)
//Storyboard Layer 3 (Foreground)
//Storyboard Sound Samples

[TimingPoints]
2976,625,4,1,0,100,1,0
2976,-100,4,1,0,100,0,0
22976,-100,4,1,0,100,0,0
42194,-100,4,1,0,100,0,0
42976,-100,4,1,0,100,0,1
52819,-100,4,1,0,100,0,0
52976,-100,4,1,0,100,0,1
62976,-100,4,1,0,100,0,0
64226,-100,4,1,0,100,0,0
65476,-100,4,1,0,100,0,0
66726,-100,4,1,0,100,0,0
67976,-100,4,1,0,100,0,1
72976,-100,4,1,0,100,0,0
74226,-100,4,1,0,100,0,0
75476,-100,4,1,0,100,0,0
76726,-100,4,1,0,100,0,0
77976,-100,4,1,0,100,0,1
82976,-100,4,1,0,100,0,0
85476,-100,4,1,0,100,0,0
86101,-100,4,1,0,100,0,0
87194,-100,4,1,0,100,0,0
87976,-100,4,1,0,100,0,0
97976,-100,4,1,0,100,0,0

[Colours]
Combo1 : 167,182,61
Combo2 : 134,105,98
Combo3 : 232,102,70

[HitObjects]
256,192,2976,5,0,0:0:0:0:
256,192,3444,1,8,0:0:0:0:
256,192,3913,1,8,0:0:0:0:
256,192,4226,1,0,0:0:0:0:
256,192,4694,1,8,0:0:0:0:
256,192,5163,1,8,0:0:0:0:
256,192,5476,1,0,0:0:0:0:
256,192,5944,1,8,0:0:0:0:
256,192,6413,1,8,0:0:0:0:
256,192,6726,1,0,0:0:0:0:
256,192,7194,1,8,0:0:0:0:
256,192,7663,1,8,0:0:0:0:
256,192,7976,1,0,0:0:0:0:
256,192,8444,1,8,0:0:0:0:
256,192,8913,1,8,0:0:0:0:
256,192,9226,1,0,0:0:0:0:
256,192,9694,1,8,0:0:0:0:
256,192,10163,1,8,0:0:0:0:
256,192,10476,1,0,0:0:0:0:
256,192,10944,1,8,0:0:0:0:
256,192,11413,1,8,0:0:0:0:
256,192,12351,1,8,0:0:0:0:
256,192,12976,1,4,0:0:0:0:
256,192,13444,1,0,0:0:0:0:
256,192,13601,1,8,0:0:0:0:
256,192,13913,1,0,0:0:0:0:
256,192,14226,1,0,0:0:0:0:
256,192,14694,1,0,0:0:0:0:
256,192,14851,1,8,0:0:0:0:
256,192,15163,1,0,0:0:0:0:
256,192,15476,1,0,0:0:0:0:
256,192,15944,1,0,0:0:0:0:
256,192,16101,1,8,0:0:0:0:
256,192,16413,1,0,0:0:0:0:
256,192,16726,1,0,0:0:0:0:
256,192,17194,1,0,0:0:0:0:
256,192,17351,1,8,0:0:0:0:
256,192,17663,1,0,0:0:0:0:
256,192,17976,1,0,0:0:0:0:
256,192,18444,1,0,0:0:0:0:
256,192,18601,1,8,0:0:0:0:
256,192,18913,1,0,0:0:0:0:
256,192,19226,1,0,0:0:0:0:
256,192,19694,1,0,0:0:0:0:
256,192,19851,1,8,0:0:0:0:
256,192,20163,1,0,0:0:0:0:
256,192,20476,1,0,0:0:0:0:
256,192,20944,1,0,0:0:0:0:
256,192,21101,1,8,0:0:0:0:
256,192,21413,1,0,0:0:0:0:
256,192,22351,1,8,0:0:0:0:
256,192,22976,1,4,0:0:0:0:
256,192,23444,1,8,0:0:0:0:
256,192,23601,1,0,0:0:0:0:
256,192,23913,1,8,0:0:0:0:
256,192,24226,1,0,0:0:0:0:
256,192,24538,1,0,0:0:0:0:
256,192,24694,1,8,0:0:0:0:
256,192,24851,1,0,0:0:0:0:
256,192,25007,1,0,0:0:0:0:
256,192,25163,1,8,0:0:0:0:
256,192,25476,1,0,0:0:0:0:
256,192,25788,1,0,0:0:0:0:
256,192,25944,1,8,0:0:0:0:
256,192,26413,1,8,0:0:0:0:
256,192,26726,1,0,0:0:0:0:
256,192,27038,1,0,0:0:0:0:
256,192,27194,1,8,0:0:0:0:
256,192,27351,1,0,0:0:0:0:
256,192,27663,1,8,0:0:0:0:
256,192,27976,1,0,0:0:0:0:
256,192,28444,1,8,0:0:0:0:
256,192,28601,1,0,0:0:0:0:
256,192,28913,1,8,0:0:0:0:
256,192,29226,1,0,0:0:0:0:
256,192,29538,1,0,0:0:0:0:
256,192,29694,1,8,0:0:0:0:
256,192,29851,1,0,0:0:0:0:
256,192,30007,1,0,0:0:0:0:
256,192,30163,1,8,0:0:0:0:
256,192,30476,1,0,0:0:0:0:
256,192,30788,1,0,0:0:0:0:
256,192,30944,1,8,0:0:0:0:
256,192,31413,1,8,0:0:0:0:
256,192,32351,1,8,0:0:0:0:
256,192,32976,1,4,0:0:0:0:
256,192,33288,1,0,0:0:0:0:
256,192,33444,1,8,0:0:0:0:
256,192,33601,1,0,0:0:0:0:
256,192,33913,1,8,0:0:0:0:
256,192,34226,1,0,0:0:0:0:
256,192,34382,1,0,0:0:0:0:
256,192,34538,1,0,0:0:0:0:
256,192,34694,1,8,0:0:0:0:
256,192,34851,1,0,0:0:0:0:
256,192,35163,1,8,0:0:0:0:
256,192,35476,1,0,0:0:0:0:
256,192,35788,1,0,0:0:0:0:
256,192,35944,1,8,0:0:0:0:
256,192,36101,1,0,0:0:0:0:
256,192,36413,1,8,0:0:0:0:
256,192,36726,1,0,0:0:0:0:
256,192,36882,1,0,0:0:0:0:
256,192,37038,1,0,0:0:0:0:
256,192,37194,1,8,0:0:0:0:
256,192,37351,1,0,0:0:0:0:
256,192,37663,1,8,0:0:0:0:
256,192,37976,1,0,0:0:0:0:
256,192,38288,1,0,0:0:0:0:
256,192,38444,1,8,0:0:0:0:
256,192,38601,1,0,0:0:0:0:
256,192,38913,1,8,0:0:0:0:
256,192,39226,1,0,0:0:0:0:
256,192,39382,1,0,0:0:0:0:
256,192,39538,1,0,0:0:0:0:
256,192,39694,1,8,0:0:0:0:
256,192,39851,1,0,0:0:0:0:
256,192,40163,1,8,0:0:0:0:
256,192,42194,1,0,0:0:0:0:
256,192,42272,1,0,0:0:0:0:
256,192,42351,1,0,0:0:0:0:
256,192,42507,1,0,0:0:0:0:
256,192,42663,1,0,0:0:0:0:
256,192,42976,1,4,0:0:0:0:
256,192,43288,1,0,0:0:0:0:
256,192,43444,1,8,0:0:0:0:
256,192,43601,1,0,0:0:0:0:
256,192,43913,1,8,0:0:0:0:
256,192,44226,1,0,0:0:0:0:
256,192,44538,1,0,0:0:0:0:
256,192,44694,1,8,0:0:0:0:
256,192,44851,1,0,0:0:0:0:
256,192,45059,1,8,0:0:0:0:
256,192,45267,1,0,0:0:0:0:
256,192,45476,1,8,0:0:0:0:
256,192,45684,1,8,0:0:0:0:
256,192,45892,1,0,0:0:0:0:
256,192,46101,1,8,0:0:0:0:
256,192,46309,1,8,0:0:0:0:
256,192,46517,1,0,0:0:0:0:
256,192,46726,1,8,0:0:0:0:
256,192,46934,1,0,0:0:0:0:
256,192,47142,1,0,0:0:0:0:
256,192,47351,1,8,0:0:0:0:
256,192,47559,1,0,0:0:0:0:
256,192,47767,1,8,0:0:0:0:
256,192,47976,1,0,0:0:0:0:
256,192,48444,1,8,0:0:0:0:
256,192,48601,1,0,0:0:0:0:
256,192,48913,1,8,0:0:0:0:
256,192,49226,1,0,0:0:0:0:
256,192,49538,1,0,0:0:0:0:
256,192,49694,1,8,0:0:0:0:
256,192,49851,1,0,0:0:0:0:
256,192,50163,1,8,0:0:0:0:
256,192,50476,1,0,0:0:0:0:
256,192,50788,1,0,0:0:0:0:
256,192,50944,1,8,0:0:0:0:
256,192,51101,1,0,0:0:0:0:
256,192,51413,1,8,0:0:0:0:
256,192,51726,1,0,0:0:0:0:
256,192,52038,1,0,0:0:0:0:
256,192,52194,1,8,0:0:0:0:
256,192,52272,1,8,0:0:0:0:
256,192,52351,1,0,0:0:0:0:
256,192,52507,1,0,0:0:0:0:
256,192,52663,1,8,0:0:0:0:
256,192,52976,1,4,0:0:0:0:
