osu file format v14

[General]
AudioFilename: audio.mp3
AudioLeadIn: 0
PreviewTime: 131237
Countdown: 1
SampleSet: Normal
StackLeniency: 0.7
Mode: 0
LetterboxInBreaks: 0
WidescreenStoryboard: 0

[Editor]
Bookmarks: 21838,39696,40146,79446,164837
DistanceSpacing: 0.1
BeatDivisor: 4
GridSize: 8
TimelineZoom: 2.200001

[Metadata]
Title:Burning Sunlight Everlasting
TitleUnicode:Burning Sunlight Everlasting
Artist:Moonlight Eternal
ArtistUnicode:Moonlight Eternal
Creator:Rostisha
Version:Power beneath Ancient Lands
Source:
Tags:
BeatmapID:2150558
BeatmapSetID:1028506

[Difficulty]
HPDrainRate:2
CircleSize:4
OverallDifficulty:9
ApproachRate:9.5
SliderMultiplier:1.4
SliderTickRate:1

[Events]
//Background and Video events
0,0,"maxresdefault.jpg",0,0
//Break Periods
//Storyboard Layer 0 (Background)
//Storyboard Layer 1 (Fail)
//Storyboard Layer 2 (Pass)
//Storyboard Layer 3 (Foreground)
//Storyboard Layer 4 (Overlay)
//Storyboard Sound Samples

[TimingPoints]
2038,300,4,1,1,40,1,0
2038,-200,4,1,1,40,0,0
4138,-200,4,1,1,5,0,0
4438,-200,4,1,1,40,0,0
5938,-200,4,1,1,5,0,0
6238,-200,4,1,1,40,0,0
8638,-66.6666666666667,4,1,1,40,0,0
9238,-66.6666666666667,4,1,1,30,0,0
9538,-66.6666666666667,4,1,1,35,0,0
9838,-66.6666666666667,4,1,1,40,0,0
10138,-66.6666666666667,4,1,1,45,0,0
10438,-66.6666666666667,4,1,1,50,0,0
10738,-66.6666666666667,4,1,1,55,0,0
11038,-66.6666666666667,4,1,1,60,0,0
11338,-66.6666666666667,4,1,1,65,0,0
11638,-66.6666666666667,4,1,1,70,0,0
20938,-57.1428571428571,4,1,1,70,0,0
21238,-50,4,1,1,70,0,0
21538,-66.6666666666667,4,1,1,70,0,0
30838,-50,4,1,1,70,0,0
31288,-66.6666666666667,4,1,1,70,0,0
35638,-50,4,1,1,70,0,0
35938,-66.6666666666667,4,1,1,70,0,0
39838,-50,4,1,1,70,0,0
40738,-66.6666666666667,4,1,1,70,0,0
42538,-66.6666666666667,4,1,5,70,0,0
42988,-66.6666666666667,4,1,1,70,0,0
50038,-50,4,1,1,70,0,0
51238,-66.6666666666667,4,1,1,70,0,0
54838,-50,4,1,1,70,0,0
54988,-66.6666666666667,4,1,1,70,0,0
59638,-50,4,1,1,70,0,1
78838,-100,4,1,1,70,0,0
79738,-66.6666666666667,4,1,1,70,0,0
81238,-50,4,1,1,70,0,0
81538,-66.6666666666667,4,1,1,70,0,0
90538,-57.1428571428571,4,1,1,70,0,0
90838,-50,4,1,1,70,0,0
91138,-66.6666666666667,4,1,1,70,0,0
93538,-66.6666666666667,4,1,5,60,0,0
95638,-66.6666666666667,4,1,5,60,0,1
99238,-50,4,1,5,60,0,1
100438,-66.6666666666667,4,1,5,60,0,1
104038,-50,4,1,5,60,0,1
108838,-66.6666666666667,4,1,5,60,0,1
110038,333.333333333333,4,1,6,70,1,0
110038,-114.942528735632,4,1,6,70,0,0
112038,-114.942528735632,4,1,6,30,0,0
112704,-114.942528735632,4,1,6,70,0,0
114704,-114.942528735632,4,1,6,30,0,0
115371,-114.942528735632,4,1,6,70,0,0
117371,-114.942528735632,4,1,6,30,0,0
118037,-114.942528735632,4,1,6,70,0,0
118704,-114.942528735632,4,1,6,70,0,0
119371,-114.942528735632,4,1,6,70,0,0
120037,-114.942528735632,4,1,6,70,0,0
120704,-114.942528735632,4,1,6,70,0,0
122704,-114.942528735632,4,1,6,30,0,0
123371,-114.942528735632,4,1,6,70,0,0
125371,-114.942528735632,4,1,6,30,0,0
126037,-114.942528735632,4,1,6,70,0,0
128037,-114.942528735632,4,1,6,30,0,0
128704,-114.942528735632,4,1,6,70,0,0
130037,300,4,1,1,70,1,0
130037,-50,4,1,1,70,0,1
164837,-50,4,1,5,70,0,1
165362,-50,4,1,5,5,0,1
165437,-50,4,1,5,70,0,1
165887,-50,4,1,5,5,0,1
166037,-50,4,1,5,70,0,1
167162,-50,4,1,5,5,0,1
167237,-50,4,1,1,70,0,1
168437,-66.6666666666667,4,1,1,70,0,1
169537,-66.6666666666667,4,1,1,70,0,0
169637,-66.6666666666667,4,1,1,70,0,1
169937,-66.6666666666667,4,1,1,70,0,0
170237,-66.6666666666667,4,1,1,70,0,1
170537,-66.6666666666667,4,1,1,70,0,0
170837,-66.6666666666667,4,1,1,70,0,1
171437,-66.6666666666667,4,1,6,70,0,0

[HitObjects]
63,139,2038,6,0,B|113:111|155:140|155:140|144:84|202:27|274:71|280:112|270:150|270:150|311:182|369:155|336:154|386:126|432:149,1,490,8|0,0:0|0:0,0:0:0:0:
430,238,4438,2,0,B|390:209|335:240|326:301|379:335|412:326|412:326|401:345|401:345|371:330|331:345|364:348|316:365|273:340,1,350,8|0,0:0|0:0,0:0:0:0:
203,279,6238,1,8,0:0:0:0:
186,272,6313,1,0,0:0:0:0:
168,269,6388,1,0,0:0:0:0:
151,268,6463,1,0,0:0:0:0:
133,270,6538,1,0,0:0:0:0:
116,272,6613,1,0,0:0:0:0:
100,278,6688,1,0,0:0:0:0:
84,286,6763,1,0,0:0:0:0:
70,296,6838,6,0,B|16:260|20:204|27:169|57:131|57:131|66:159|66:159|98:113|152:105|194:121,1,350,0|8,0:0|0:0,0:0:0:0:
251,265,8488,1,0,0:0:0:0:
199,101,8638,1,8,0:0:0:0:
199,101,8788,1,0,0:0:0:0:
64,310,9238,5,8,0:0:0:0:
87,330,9313,1,0,0:0:0:0:
117,338,9388,1,0,0:0:0:0:
148,332,9463,1,0,0:0:0:0:
170,310,9538,1,8,0:0:0:0:
193,289,9613,1,0,0:0:0:0:
223,281,9688,1,0,0:0:0:0:
254,287,9763,1,0,0:0:0:0:
276,309,9838,1,8,0:0:0:0:
299,330,9913,1,0,0:0:0:0:
329,338,9988,1,0,0:0:0:0:
360,332,10063,1,0,0:0:0:0:
386,314,10138,1,8,0:0:0:0:
417,320,10213,1,0,0:0:0:0:
447,312,10288,1,0,0:0:0:0:
470,291,10363,1,0,0:0:0:0:
487,258,10438,5,8,0:0:0:0:
484,206,10513,1,0,0:0:0:0:
450,168,10588,1,0,0:0:0:0:
399,160,10663,1,0,0:0:0:0:
351,188,10738,1,8,0:0:0:0:
355,167,10813,1,0,0:0:0:0:
357,150,10888,1,0,0:0:0:0:
360,132,10963,1,0,0:0:0:0:
379,124,11038,1,8,0:0:0:0:
381,106,11113,1,0,0:0:0:0:
383,89,11188,1,0,0:0:0:0:
386,71,11263,1,0,0:0:0:0:
367,60,11338,1,8,0:0:0:0:
369,42,11413,1,0,0:0:0:0:
371,25,11488,1,0,0:0:0:0:
374,7,11563,1,0,0:0:0:0:
354,14,11638,6,0,B|335:32|335:32|242:26,1,105.000004005432,8|0,0:0|0:0,0:0:0:0:
114,69,11938,1,0,0:0:0:0:
114,69,12013,1,0,0:0:0:0:
114,69,12088,1,0,0:0:0:0:
183,175,12238,2,0,P|136:197|84:194,1,105.000004005432,8|0,0:0|0:0,0:0:0:0:
0,122,12538,1,8,0:0:0:0:
8,280,12688,6,0,B|70:277|70:277|115:314|115:314|209:311,1,210.000008010865,8|0,0:0|0:0,0:0:0:0:
295,364,13138,1,8,0:0:0:0:
295,364,13213,1,0,0:0:0:0:
295,364,13288,1,0,0:0:0:0:
285,149,13438,2,0,B|270:179|270:179|280:258,1,105.000004005432,8|0,0:0|0:0,0:0:0:0:
294,139,13738,1,8,0:0:0:0:
374,324,13888,1,0,0:0:0:0:
490,193,14038,6,0,P|440:175|389:182,1,105.000004005432,2|0,0:0|0:0,0:0:0:0:
278,249,14338,1,8,0:0:0:0:
278,249,14413,1,0,0:0:0:0:
278,249,14488,1,0,0:0:0:0:
379,175,14638,2,0,B|396:147|396:147|390:67,1,105.000004005432,8|0,0:0|0:0,0:0:0:0:
266,141,14938,1,8,0:0:0:0:
396,210,15088,6,0,B|427:158|427:158|416:9,1,210.000008010865,8|0,0:0|0:0,0:0:0:0:
321,55,15538,1,8,0:0:0:0:
321,55,15613,1,0,0:0:0:0:
321,55,15688,1,0,0:0:0:0:
222,17,15838,2,0,B|213:121,1,105.000004005432,8|0,0:0|0:0,0:0:0:0:
241,3,16138,1,8,0:0:0:0:
223,212,16288,1,0,0:0:0:0:
133,73,16438,6,0,P|81:66|32:84,1,105.000004005432,2|0,0:0|0:0,0:0:0:0:
99,195,16738,1,8,0:0:0:0:
99,195,16813,1,0,0:0:0:0:
99,195,16888,1,0,0:0:0:0:
7,72,17038,2,0,B|-6:102|-6:102|3:179,1,105.000004005432,8|0,0:0|0:3,0:3:0:0:
24,329,17338,1,8,0:0:0:0:
136,263,17488,6,0,B|199:231|266:264|217:263|290:298|344:264,1,210.000008010865,8|0,0:0|0:0,0:0:0:0:
296,170,17938,1,8,0:0:0:0:
296,170,18013,1,0,0:0:0:0:
296,170,18088,1,0,0:0:0:0:
375,279,18238,2,0,B|388:249|388:249|379:172,1,105.000004005432,8|0,0:0|0:3,0:3:0:0:
391,298,18538,1,8,0:0:0:0:
366,72,18688,1,0,0:0:0:0:
475,140,18838,6,0,P|494:91|490:40,1,105.000004005432,2|0,0:0|0:0,0:0:0:0:
374,164,19138,1,8,0:0:0:0:
374,164,19213,1,0,0:0:0:0:
374,164,19288,1,0,0:0:0:0:
341,20,19438,2,0,B|237:11,1,105.000004005432,8|0,0:0|0:0,0:0:0:0:
274,141,19738,1,8,0:0:0:0:
215,22,19888,6,0,P|138:108|40:93,1,210.000008010865,8|0,0:0|0:0,0:0:0:0:
111,6,20338,1,8,0:0:0:0:
111,6,20413,1,0,0:0:0:0:
111,6,20488,1,0,0:0:0:0:
35,217,20638,6,0,B|44:113,1,105.000004005432,8|0,0:0|0:0,0:0:0:0:
51,228,20938,2,0,B|63:83,1,122.500001168251,8|0,0:0|0:0,0:0:0:0:
67,239,21238,2,0,B|79:94,1,140,8|0,0:0|0:0,0:0:0:0:
172,193,21538,5,8,0:0:0:0:
172,193,21613,1,0,0:0:0:0:
172,193,21688,1,0,0:0:0:0:
64,334,21838,2,0,L|23:367,1,52.5000020027161,8|0,0:0|0:0,0:0:0:0:
83,250,21988,2,0,L|74:198,1,52.5000020027161,8|0,0:0|0:0,0:0:0:0:
147,308,22138,2,0,L|196:326,1,52.5000020027161,8|0,0:0|0:0,0:0:0:0:
294,309,22288,2,0,B|347:279|430:312|371:312|433:347|508:308,1,210.000008010865,8|0,0:0|0:0,0:0:0:0:
446,234,22738,1,8,0:0:0:0:
443,207,22813,1,0,0:0:0:0:
443,181,22888,1,0,0:0:0:0:
488,23,23038,2,0,B|503:53|503:53|493:132,1,105.000004005432,8|0,0:0|0:0,0:0:0:0:
495,6,23338,2,0,B|510:36|510:36|500:115,1,105.000004005432,8|8,0:0|0:0,0:0:0:0:
305,216,23638,5,2,0:0:0:0:
130,143,23788,1,0,0:0:0:0:
156,142,23863,1,0,0:0:0:0:
182,141,23938,1,8,0:0:0:0:
208,140,24013,1,0,0:0:0:0:
235,140,24088,1,0,0:0:0:0:
388,242,24238,2,0,P|407:263|428:275,1,52.5000020027161,8|0,0:0|0:0,0:0:0:0:
368,158,24388,2,0,P|376:131|377:105,1,52.5000020027161,8|0,0:0|0:0,0:0:0:0:
305,216,24538,2,0,P|277:221|255:234,1,52.5000020027161,8|0,0:0|0:0,0:0:0:0:
326,356,24688,2,0,B|368:329|368:329|309:322|309:322|283:332|283:332|209:325,1,210.000008010865,8|0,0:0|0:0,0:0:0:0:
118,367,25138,1,8,0:0:0:0:
91,365,25213,1,0,0:0:0:0:
65,363,25288,1,0,0:0:0:0:
38,193,25438,2,0,P|45:247|26:296,1,105.000004005432,8|0,0:0|0:0,0:0:0:0:
49,177,25738,2,0,P|56:231|37:280,1,105.000004005432,8|8,0:0|0:0,0:0:0:0:
128,72,26038,5,2,0:0:0:0:
212,272,26188,1,0,0:0:0:0:
212,245,26263,1,0,0:0:0:0:
211,219,26338,1,8,0:0:0:0:
210,193,26413,1,0,0:0:0:0:
209,167,26488,1,0,0:0:0:0:
343,61,26638,2,0,B|352:34|352:34|352:8,1,52.5000020027161,8|0,0:0|0:0,0:0:0:0:
280,119,26788,2,0,B|252:124|252:124|230:137,1,52.5000020027161,8|0,0:0|0:0,0:0:0:0:
363,145,26938,2,0,B|381:166|381:166|403:179,1,52.5000020027161,8|0,0:0|0:0,0:0:0:0:
300,207,27088,2,0,B|281:254|281:254|352:247|352:247|454:269,1,210.000008010865,8|0,0:0|0:0,0:0:0:0:
483,358,27538,1,8,0:0:0:0:
483,358,27613,1,0,0:0:0:0:
483,358,27688,1,0,0:0:0:0:
453,163,27838,2,0,L|443:270,1,105.000004005432,8|0,0:0|0:0,0:0:0:0:
468,153,28138,2,0,L|458:260,1,105.000004005432,8|8,0:0|0:0,0:0:0:0:
308,370,28438,5,2,0:0:0:0:
222,309,28588,1,0,0:0:0:0:
196,310,28663,1,0,0:0:0:0:
170,311,28738,1,8,0:0:0:0:
144,312,28813,1,0,0:0:0:0:
117,312,28888,1,0,0:0:0:0:
33,210,29038,2,0,B|29:222|29:222|34:265,1,52.5000020027161,8|0,0:0|0:0,0:0:0:0:
145,170,29188,2,0,B|149:182|149:182|144:225,1,52.5000020027161,8|0,0:0|0:0,0:0:0:0:
32,132,29338,2,0,P|36:160|32:184,1,52.5000020027161,8|0,0:0|0:0,0:0:0:0:
144,92,29488,2,0,P|139:118|142:147,1,52.5000020027161,8|0,0:0|0:0,0:0:0:0:
153,237,29638,5,8,0:0:0:0:
186,215,29713,1,0,0:0:0:0:
224,208,29788,1,0,0:0:0:0:
262,214,29863,1,0,0:0:0:0:
296,233,29938,1,8,0:0:0:0:
297,251,30013,1,0,0:0:0:0:
290,275,30088,1,0,0:0:0:0:
291,293,30163,1,0,0:0:0:0:
308,313,30238,5,8,0:0:0:0:
357,327,30313,1,0,0:0:0:0:
403,304,30388,1,0,0:0:0:0:
422,257,30463,1,0,0:0:0:0:
405,209,30538,1,8,0:0:0:0:
388,161,30613,1,0,0:0:0:0:
407,114,30688,1,0,0:0:0:0:
453,91,30763,1,0,0:0:0:0:
503,106,30838,6,0,B|437:177|343:127|395:127|309:75|235:116,1,280,8|0,0:0|0:0,0:0:0:0:
170,243,31288,1,8,0:0:0:0:
170,243,31363,1,0,0:0:0:0:
170,243,31438,2,0,P|221:244|266:218,1,105.000004005432,8|0,0:0|0:0,0:0:0:0:
102,171,31738,2,0,P|75:215|75:267,1,105.000004005432,8|0,0:0|0:0,0:0:0:0:
142,349,32038,6,0,L|246:338,1,105.000004005432,8|0,0:0|0:0,0:0:0:0:
297,220,32338,1,8,0:0:0:0:
297,220,32413,1,0,0:0:0:0:
297,220,32488,2,0,L|401:230,1,105.000004005432,0|8,0:0|0:0,0:0:0:0:
481,367,32788,1,0,0:0:0:0:
494,242,32938,1,8,0:0:0:0:
494,242,33013,1,0,0:0:0:0:
494,242,33088,1,0,0:0:0:0:
323,316,33238,6,0,P|296:272|296:220,1,105.000004005432,8|0,0:0|0:0,0:0:0:0:
403,138,33538,1,0,0:0:0:0:
403,138,33613,1,0,0:0:0:0:
403,138,33688,2,8,P|430:94|430:42,1,105.000004005432
320,66,33988,2,0,L|216:55,1,105.000004005432,0|8,0:0|0:0,0:0:0:0:
43,163,34288,1,0,0:0:0:0:
43,163,34363,1,0,0:0:0:0:
43,163,34438,5,8,0:0:0:0:
65,160,34513,1,0,0:0:0:0:
87,157,34588,1,0,0:0:0:0:
110,155,34663,1,0,0:0:0:0:
112,175,34738,5,8,0:0:0:0:
138,171,34813,1,0,0:0:0:0:
165,168,34888,1,0,0:0:0:0:
192,165,34963,1,0,0:0:0:0:
189,191,35038,5,8,0:0:0:0:
224,186,35113,1,0,0:0:0:0:
259,182,35188,1,0,0:0:0:0:
295,178,35263,1,0,0:0:0:0:
290,209,35338,5,8,0:0:0:0:
336,202,35413,1,0,0:0:0:0:
383,196,35488,1,0,0:0:0:0:
431,191,35563,1,0,0:0:0:0:
479,186,35638,6,0,B|455:223|455:223|357:235|357:235|333:227|333:227|218:241,1,280,8|0,0:0|0:0,0:0:0:0:
221,240,36013,1,0,0:0:0:0:
221,240,36088,1,8,0:0:0:0:
127,322,36238,2,0,P|100:278|100:226,1,105.000004005432,8|0,0:0|0:0,0:0:0:0:
232,374,36538,1,8,0:0:0:0:
232,374,36613,1,0,0:0:0:0:
232,374,36688,2,0,P|283:374|328:347,1,105.000004005432,0|8,0:0|0:0,0:0:0:0:
353,205,36988,1,0,0:0:0:0:
450,322,37138,1,8,0:0:0:0:
450,322,37213,1,0,0:0:0:0:
450,322,37288,2,0,L|460:218,1,105.000004005432,0|8,0:0|0:0,0:0:0:0:
363,100,37588,1,0,0:0:0:0:
470,112,37738,1,8,0:0:0:0:
470,112,37813,1,0,0:0:0:0:
470,112,37888,1,0,0:0:0:0:
353,205,38038,6,0,P|302:218|253:203,1,105.000004005432,8|0,0:0|0:0,0:0:0:0:
166,111,38338,1,0,0:0:0:0:
166,111,38413,1,0,0:0:0:0:
166,111,38488,2,0,P|116:96|66:109,1,105.000004005432,8|8,0:0|0:0,0:0:0:0:
13,235,38788,2,0,L|23:339,1,105.000004005432,0|8,0:0|0:0,0:0:0:0:
114,190,39088,1,0,0:0:0:0:
108,328,39238,6,0,B|175:379|238:328|188:328|256:271|320:329|272:329|337:383|404:328,1,315.000012016297,8|0,0:0|0:0,0:0:0:0:
364,130,39838,2,0,B|343:152|343:152|347:267,1,140,8|0,0:0|0:0,0:0:0:0:
148,130,40138,2,0,B|168:152|168:152|164:267,1,140,8|0,0:0|0:0,0:0:0:0:
75,56,40438,2,0,P|146:34|217:53,1,140,8|0,0:0|0:0,0:0:0:0:
303,48,40738,5,8,0:0:0:0:
336,36,40813,1,0,0:0:0:0:
371,34,40888,1,0,0:0:0:0:
405,40,40963,1,0,0:0:0:0:
436,55,41038,2,0,L|439:110,1,52.5000020027161,8|0,0:0|0:0,0:0:0:0:
447,199,41188,1,0,0:0:0:0:
448,225,41263,1,0,0:0:0:0:
449,251,41338,1,8,0:0:0:0:
450,277,41413,1,0,0:0:0:0:
465,304,41488,1,0,0:0:0:0:
465,331,41563,1,0,0:0:0:0:
462,360,41638,6,0,P|417:333|365:332,1,105.000004005432,8|0,0:0|0:0,0:0:0:0:
232,366,41938,1,8,0:0:0:0:
232,366,42013,1,0,0:0:0:0:
232,366,42088,2,0,P|180:365|135:338,1,105.000004005432,0|8,0:0|0:0,0:0:0:0:
217,229,42388,1,0,0:0:0:0:
132,333,42538,2,2,B|127:277|123:228|123:228|116:218|116:218|107:114,1,210.000008010865,8|8,0:0|0:0,0:0:0:0:
217,229,42988,5,0,0:0:0:0:
293,133,43138,1,0,0:0:0:0:
293,133,43213,1,0,0:0:0:0:
293,133,43288,2,0,L|397:123,1,105.000004005432,8|8,0:0|0:0,0:0:0:0:
362,229,43588,1,0,0:0:0:0:
232,61,43738,1,8,0:0:0:0:
232,61,43813,1,0,0:0:0:0:
232,61,43888,2,0,P|205:105|205:157,1,105.000004005432,0|8,0:0|0:0,0:0:0:0:
315,38,44188,6,0,L|419:28,1,105.000004005432,0|8,0:0|0:0,0:0:0:0:
419,27,44413,1,0,0:0:0:0:
419,27,44488,1,0,0:0:0:0:
431,214,44638,2,0,L|327:204,1,105.000004005432,8|0,0:0|0:0,0:0:0:0:
280,126,44938,1,8,0:0:0:0:
280,126,45013,1,0,0:0:0:0:
280,126,45088,1,0,0:0:0:0:
486,150,45238,6,0,P|513:194|513:246,1,105.000004005432,8|0,0:0|0:0,0:0:0:0:
436,356,45538,1,0,0:0:0:0:
436,356,45613,1,0,0:0:0:0:
436,356,45688,2,0,L|332:346,1,105.000004005432,8|8,0:0|0:0,0:0:0:0:
235,232,45988,1,0,0:0:0:0:
222,333,46138,1,8,0:0:0:0:
222,333,46213,1,0,0:0:0:0:
222,333,46288,1,0,0:0:0:0:
344,244,46438,6,0,P|344:192|317:147,1,105.000004005432,8|0,0:0|0:0,0:0:0:0:
151,227,46738,1,0,0:0:0:0:
151,227,46813,1,0,0:0:0:0:
151,227,46888,2,0,L|255:217,1,105.000004005432,8|8,0:0|0:0,0:0:0:0:
315,140,47188,2,0,L|211:130,1,105.000004005432,0|8,0:0|0:0,0:0:0:0:
210,129,47413,1,0,0:0:0:0:
210,129,47488,1,0,0:0:0:0:
86,284,47638,6,0,P|53:229|53:167,1,105.000004005432,8|0,0:0|0:0,0:0:0:0:
192,302,47938,1,0,0:0:0:0:
192,302,48013,1,0,0:0:0:0:
192,302,48088,2,0,P|160:356|106:387,1,105.000004005432,8|8,0:0|0:0,0:0:0:0:
155,199,48388,2,0,P|217:199|271:230,1,105.000004005432,0|8,0:0|0:0,0:0:0:0:
255,216,48613,1,0,0:0:0:0:
255,216,48688,1,0,0:0:0:0:
443,105,48838,5,8,0:0:0:0:
408,98,48913,1,0,0:0:0:0:
374,104,48988,1,0,0:0:0:0:
343,120,49063,1,0,0:0:0:0:
345,90,49138,5,8,0:0:0:0:
309,108,49213,1,0,0:0:0:0:
285,137,49288,1,0,0:0:0:0:
271,172,49363,1,0,0:0:0:0:
250,151,49438,5,8,0:0:0:0:
232,191,49513,1,0,0:0:0:0:
232,233,49588,1,0,0:0:0:0:
245,272,49663,1,0,0:0:0:0:
211,267,49738,5,8,0:0:0:0:
224,313,49813,1,0,0:0:0:0:
253,348,49888,1,0,0:0:0:0:
292,372,49963,1,0,0:0:0:0:
339,373,50038,5,8,0:0:0:0:
375,182,50188,1,0,0:0:0:0:
442,375,50338,2,0,B|455:348|455:348|443:238,1,140,8|0,0:0|0:0,0:0:0:0:
458,384,50638,2,0,B|471:357|471:357|459:247,1,140,8|0,0:0|0:0,0:0:0:0:
433,77,50938,1,8,0:0:0:0:
433,77,51013,1,0,0:0:0:0:
433,77,51088,1,0,0:0:0:0:
369,173,51238,6,0,L|265:163,1,105.000004005432,8|0,0:0|0:0,0:0:0:0:
176,55,51538,1,0,0:0:0:0:
176,55,51613,1,0,0:0:0:0:
176,55,51688,2,0,L|280:45,1,105.000004005432,8|8,0:0|0:0,0:0:0:0:
94,239,51988,2,0,P|92:174|123:121,1,105.000004005432,0|8,0:0|0:0,0:0:0:0:
110,139,52213,1,0,0:0:0:0:
110,139,52288,1,0,0:0:0:0:
189,311,52438,6,0,P|254:313|307:282,1,105.000004005432,8|0,0:0|0:0,0:0:0:0:
339,180,52738,1,0,0:0:0:0:
339,180,52813,1,0,0:0:0:0:
339,180,52888,2,0,L|329:76,1,105.000004005432,8|8,0:0|0:0,0:0:0:0:
210,117,53188,2,0,L|200:221,1,105.000004005432,0|8,0:0|0:0,0:0:0:0:
199,221,53413,1,0,0:0:0:0:
199,221,53488,1,0,0:0:0:0:
297,294,53638,6,0,P|345:275|397:279,1,105.000004005432,8|0,0:0|0:0,0:0:0:0:
478,374,53938,1,0,0:0:0:0:
478,374,54013,1,0,0:0:0:0:
478,374,54088,2,0,L|374:384,1,105.000004005432,8|8,0:0|0:0,0:0:0:0:
477,215,54388,1,0,0:0:0:0:
397,288,54538,1,8,0:0:0:0:
376,264,54613,1,0,0:0:0:0:
364,235,54688,1,0,0:0:0:0:
362,203,54763,1,0,0:0:0:0:
369,173,54838,6,0,P|392:103|371:42,1,140,8|0,0:0|0:0,0:0:0:0:
201,116,55138,1,0,0:0:0:0:
201,116,55213,1,0,0:0:0:0:
201,116,55288,2,0,L|305:106,1,105.000004005432,8|8,0:0|0:0,0:0:0:0:
244,13,55588,1,0,0:0:0:0:
124,181,55738,2,0,P|105:132|109:80,1,105.000004005432,8|0,0:0|0:0,0:0:0:0:
260,226,56038,6,0,P|264:277|245:326,1,105.000004005432,8|0,0:0|0:0,0:0:0:0:
76,261,56338,1,0,0:0:0:0:
76,261,56413,1,0,0:0:0:0:
76,261,56488,2,0,L|180:271,1,105.000004005432,8|8,0:0|0:0,0:0:0:0:
374,341,56788,2,0,L|270:351,1,105.000004005432,0|8,0:0|0:0,0:0:0:0:
269,351,57013,1,0,0:0:0:0:
269,351,57088,1,0,0:0:0:0:
305,209,57238,5,8,0:0:0:0:
331,211,57313,1,0,0:0:0:0:
356,213,57388,1,0,0:0:0:0:
383,216,57463,1,0,0:0:0:0:
398,243,57538,5,8,0:0:0:0:
430,245,57613,1,0,0:0:0:0:
463,249,57688,1,0,0:0:0:0:
495,251,57763,1,0,0:0:0:0:
512,224,57838,5,8,0:0:0:0:
480,200,57913,1,0,0:0:0:0:
461,167,57988,1,0,0:0:0:0:
457,128,58063,1,0,0:0:0:0:
430,144,58138,5,8,0:0:0:0:
427,105,58213,1,0,0:0:0:0:
441,68,58288,1,0,0:0:0:0:
468,40,58363,1,0,0:0:0:0:
490,17,58438,5,8,0:0:0:0:
467,30,58513,1,0,0:0:0:0:
442,35,58588,1,0,0:0:0:0:
416,32,58663,1,0,0:0:0:0:
392,21,58738,1,8,0:0:0:0:
369,7,58813,1,0,0:0:0:0:
344,2,58888,1,0,0:0:0:0:
318,5,58963,1,0,0:0:0:0:
294,16,59038,2,0,L|287:87,3,52.5000020027161,8|0|0|0,0:0|0:0|0:0|0:0,0:0:0:0:
201,89,59338,2,0,L|206:141,3,52.5000020027161,8|0|0|0,0:0|0:0|0:0|0:0,0:0:0:0:
283,246,59638,6,0,B|314:262|321:306|303:337|303:337|290:337|290:337|262:362|226:352|226:352|216:357|216:357|192:344|181:312|187:285,1,280,8|8,0:0|0:0,0:0:0:0:
184,291,60013,1,0,0:0:0:0:
182,297,60088,1,0,0:0:0:0:
104,358,60238,2,0,P|84:284|124:216,1,140,8|0,0:0|0:0,0:0:0:0:
332,175,60538,1,8,0:0:0:0:
332,175,60613,1,0,0:0:0:0:
332,175,60688,1,0,0:0:0:0:
182,297,60838,6,0,B|189:203|189:203|207:171|207:171|213:70|213:70|189:129,1,280,8|8,0:0|0:0,0:0:0:0:
194,121,61213,1,0,0:0:0:0:
192,127,61288,1,0,0:0:0:0:
85,189,61438,2,0,P|111:125|90:60,1,140,8|0,0:0|0:0,0:0:0:0:
3,236,61738,1,8,0:0:0:0:
3,236,61813,1,0,0:0:0:0:
3,236,61888,1,0,0:0:0:0:
132,338,62038,6,0,P|162:225|249:304,1,280,0|8,0:0|0:0,0:0:0:0:
249,303,62413,1,0,0:0:0:0:
249,303,62488,1,0,0:0:0:0:
326,242,62638,2,0,P|352:306|331:371,1,140,8|0,0:0|0:0,0:0:0:0:
244,171,62938,1,8,0:0:0:0:
251,179,63013,1,0,0:0:0:0:
251,179,63088,1,0,0:0:0:0:
384,309,63238,6,0,B|379:227|379:227|387:210|387:210|382:129|382:129|390:112|390:112|385:30,1,280,8|8,0:0|0:0,0:0:0:0:
385,32,63613,1,0,0:0:0:0:
385,32,63688,1,0,0:0:0:0:
296,138,63838,2,0,P|230:158|167:132,1,140,8|0,0:0|0:0,0:0:0:0:
298,56,64138,1,8,0:0:0:0:
298,56,64213,1,0,0:0:0:0:
298,56,64288,1,0,0:0:0:0:
166,123,64438,6,0,B|129:89|118:51|118:51|121:100|111:139|111:139|121:192|121:192|115:242,1,280,8|8,0:0|0:0,0:0:0:0:
115,241,64813,1,0,0:0:0:0:
115,241,64888,1,0,0:0:0:0:
20,135,65038,2,0,B|38:202|38:202|28:272,1,140,8|0,0:0|0:0,0:0:0:0:
1,382,65338,1,8,0:0:0:0:
1,382,65413,1,0,0:0:0:0:
1,382,65488,1,0,0:0:0:0:
116,337,65638,6,0,B|220:330|220:330|249:347|249:347|259:348|259:348|292:370|292:370|394:364,1,280,8|8,0:0|0:0,0:0:0:0:
391,365,66013,1,0,0:0:0:0:
397,365,66088,1,0,0:0:0:0:
437,224,66238,2,0,P|385:270|317:272,1,140,8|0,0:0|0:0,0:0:0:0:
335,135,66538,1,8,0:0:0:0:
335,135,66613,1,0,0:0:0:0:
335,135,66688,1,0,0:0:0:0:
311,279,66838,6,0,B|240:311|170:248|175:170|175:170|191:220|247:227,1,280,8|8,0:0|0:0,0:0:0:0:
219,220,67213,1,0,0:0:0:0:
219,220,67288,1,0,0:0:0:0:
334,140,67438,2,0,B|344:29|344:29|319:65,1,140,8|0,0:0|0:0,0:0:0:0:
246,139,67738,1,8,0:0:0:0:
246,139,67813,1,0,0:0:0:0:
246,139,67888,1,0,0:0:0:0:
195,38,68038,6,0,B|117:18|83:58|117:65|66:117|1:77|1:77|33:94|67:64,1,280,8|8,0:0|0:0,0:0:0:0:
61,68,68413,1,0,0:0:0:0:
61,68,68488,1,0,0:0:0:0:
91,215,68638,2,0,P|144:187|161:113,1,140,8|0,0:0|0:0,0:0:0:0:
0,187,68938,2,0,P|-2:246|53:298,1,140,8|0,0:0|0:0,0:0:0:0:
154,279,69238,6,0,B|221:233|314:285|260:284|343:335|424:279,1,280,8|8,0:0|0:0,0:0:0:0:
418,289,69613,1,0,0:0:0:0:
415,296,69688,1,0,0:0:0:0:
345,384,69838,1,8,0:0:0:0:
346,218,69988,2,0,P|409:187|482:212,1,140,0|8,0:0|0:0,0:0:0:0:
473,204,70213,1,0,0:0:0:0:
473,204,70288,1,0,0:0:0:0:
424,77,70438,6,0,B|320:69|320:69|304:95|304:95|303:105|303:105|283:133|283:133|172:139,1,280,8|8,0:0|0:0,0:0:0:0:
177,143,70813,1,0,0:0:0:0:
171,147,70888,1,0,0:0:0:0:
214,21,71038,1,8,0:0:0:0:
82,154,71188,2,0,B|64:123|64:123|74:15,1,140,0|8,0:0|0:0,0:0:0:0:
73,17,71413,1,0,0:0:0:0:
73,17,71488,1,0,0:0:0:0:
88,270,71638,6,0,B|170:265|170:265|187:273|187:273|268:268|268:268|285:276|285:276|367:271,1,280,8|8,0:0|0:0,0:0:0:0:
364,278,72013,1,0,0:0:0:0:
364,284,72088,1,0,0:0:0:0:
253,366,72238,1,8,0:0:0:0:
224,195,72388,2,0,B|375:185,1,140,0|8,0:0|0:0,0:0:0:0:
363,186,72613,1,0,0:0:0:0:
363,186,72688,1,0,0:0:0:0:
170,273,72838,6,0,B|135:216|135:216|162:-12,1,280,8|8,0:0|0:0,0:0:0:0:
160,4,73213,1,0,0:0:0:0:
160,4,73288,1,0,0:0:0:0:
235,131,73438,1,8,0:0:0:0:
316,13,73588,6,0,B|333:41|333:41|320:155,1,140,0|8,0:0|0:0,0:0:0:0:
324,153,73813,1,0,0:0:0:0:
327,159,73888,1,0,0:0:0:0:
512,65,74038,6,0,B|487:17|487:17|495:124|495:124|505:143|505:143|511:241,1,280,8|8,0:0|0:0,0:0:0:0:
508,246,74413,1,0,0:0:0:0:
501,248,74488,1,0,0:0:0:0:
417,136,74638,1,8,0:0:0:0:
370,244,74788,2,0,B|340:260|340:260|219:255,1,140,0|8,0:0|0:0,0:0:0:0:
234,255,75013,1,0,0:0:0:0:
234,255,75088,1,0,0:0:0:0:
285,53,75238,6,0,P|255:166|168:87,1,280,8|8,0:0|0:0,0:0:0:0:
174,84,75613,1,0,0:0:0:0:
180,82,75688,1,0,0:0:0:0:
116,190,75838,1,8,0:0:0:0:
30,12,75988,2,0,P|50:77|24:140,1,140,0|8,0:0|0:0,0:0:0:0:
24,140,76213,1,0,0:0:0:0:
24,140,76288,1,0,0:0:0:0:
68,277,76438,6,0,B|132:318|194:282|194:282|207:289|207:289|272:255|342:297,1,280,8|8,0:0|0:0,0:0:0:0:
336,298,76813,1,0,0:0:0:0:
338,304,76888,1,0,0:0:0:0:
444,256,77038,2,0,P|470:192|451:125,1,140,8|0,0:0|0:0,0:0:0:0:
263,115,77338,2,0,P|305:169|372:186,1,140,8|0,0:0|0:0,0:0:0:0:
475,28,77638,5,8,0:0:0:0:
440,27,77713,1,0,0:0:0:0:
406,37,77788,1,0,0:0:0:0:
378,57,77863,1,0,0:0:0:0:
358,86,77938,1,8,0:0:0:0:
354,63,78013,1,0,0:0:0:0:
350,40,78088,1,0,0:0:0:0:
317,51,78163,1,0,0:0:0:0:
282,53,78238,1,8,0:0:0:0:
248,46,78313,1,0,0:0:0:0:
217,30,78388,1,0,0:0:0:0:
245,80,78463,1,0,0:0:0:0:
235,136,78538,1,8,0:0:0:0:
191,174,78613,1,0,0:0:0:0:
134,176,78688,1,0,0:0:0:0:
88,141,78763,1,0,0:0:0:0:
74,86,78838,6,0,L|108:88,3,35,8|0|0|0,0:0|0:0|0:0|0:0,0:0:0:0:
220,237,79138,2,0,L|205:205,3,35,8|0|0|0,0:0|0:0|0:0|0:0,0:0:0:0:
277,35,79438,2,0,L|257:63,3,35,8|0|0|0,0:0|0:0|0:0|0:0,0:0:0:0:
66,70,79738,6,0,L|119:74,3,52.5000020027161,8|0|0|0,0:0|0:0|0:0|0:0,0:0:0:0:
212,256,80038,2,0,L|189:207,3,52.5000020027161,8|0|0|0,0:0|0:0|0:0|0:0,0:0:0:0:
292,38,80338,2,0,L|261:81,3,52.5000020027161,8|0|0|0,0:0|0:0|0:0|0:0,0:0:0:0:
58,83,80638,5,8,0:0:0:0:
68,106,80713,1,0,0:0:0:0:
71,135,80788,1,0,0:0:0:0:
65,166,80863,1,0,0:0:0:0:
48,195,80938,1,8,0:0:0:0:
30,227,81013,1,0,0:0:0:0:
25,272,81088,1,0,0:0:0:0:
31,315,81163,1,0,0:0:0:0:
53,351,81238,6,0,B|76:364|76:364|203:353,1,140,8|0,0:0|0:0,0:0:0:0:
314,256,81538,1,0,0:0:0:0:
314,256,81613,1,0,0:0:0:0:
314,256,81688,1,0,0:0:0:0:
434,353,81838,2,0,P|458:307|456:255,1,105.000004005432,8|8,0:0|0:0,0:0:0:0:
331,363,82138,1,8,0:0:0:0:
436,235,82288,6,0,B|430:149|430:149|449:105|449:105|443:28,1,210.000008010865,8|0,0:0|0:0,0:0:0:0:
356,89,82738,1,8,0:0:0:0:
356,89,82813,1,0,0:0:0:0:
356,89,82888,1,0,0:0:0:0:
244,36,83038,2,0,B|253:140,1,105.000004005432,8|0,0:0|0:0,0:0:0:0:
225,22,83338,1,8,0:0:0:0:
243,231,83488,1,0,0:0:0:0:
108,75,83638,6,0,B|86:102|86:102|80:185,1,105.000004005432,2|0,0:0|0:0,0:0:0:0:
125,328,83938,1,8,0:0:0:0:
125,328,84013,1,0,0:0:0:0:
125,328,84088,1,0,0:0:0:0:
22,253,84238,2,0,P|-2:299|0:351,1,105.000004005432,8|8,0:0|0:0,0:0:0:0:
145,208,84538,1,8,0:0:0:0:
133,338,84688,6,0,B|182:363|232:340|232:340|235:348|235:348|291:326|343:351,1,210.000008010865,8|0,0:0|0:0,0:0:0:0:
430,381,85138,1,8,0:0:0:0:
430,381,85213,1,0,0:0:0:0:
430,381,85288,1,0,0:0:0:0:
449,171,85438,2,0,P|473:217|471:269,1,105.000004005432,8|0,0:0|0:0,0:0:0:0:
456,154,85738,1,8,0:0:0:0:
431,368,85888,1,0,0:0:0:0:
361,234,86038,6,0,B|257:224,1,105.000004005432,2|0,0:0|0:0,0:0:0:0:
111,287,86338,1,8,0:0:0:0:
111,287,86413,1,0,0:0:0:0:
111,287,86488,1,0,0:0:0:0:
39,200,86638,2,0,P|85:176|137:178,1,105.000004005432,8|8,0:0|0:0,0:0:0:0:
199,322,86938,1,8,0:0:0:0:
288,122,87088,6,0,B|284:183|284:183|290:196|290:196|286:257|286:257|292:270|292:270|288:329,1,210.000008010865,8|0,0:0|0:0,0:0:0:0:
387,302,87538,1,8,0:0:0:0:
387,302,87613,1,0,0:0:0:0:
387,302,87688,1,0,0:0:0:0:
473,344,87838,2,0,B|464:240,1,105.000004005432,8|0,0:0|0:0,0:0:0:0:
492,358,88138,1,8,0:0:0:0:
474,149,88288,1,0,0:0:0:0:
356,224,88438,6,0,P|332:178|334:126,1,105.000004005432,2|0,0:0|0:0,0:0:0:0:
414,7,88738,1,8,0:0:0:0:
414,7,88813,1,0,0:0:0:0:
414,7,88888,1,0,0:0:0:0:
328,136,89038,2,0,B|297:153|297:153|214:146,1,105.000004005432,8|8,0:0|0:0,0:0:0:0:
276,36,89338,1,8,0:0:0:0:
356,142,89488,6,0,B|300:174|300:174|146:161,1,210.000008010865,8|0,0:0|0:0,0:0:0:0:
90,78,89938,1,8,0:0:0:0:
90,78,90013,1,0,0:0:0:0:
90,78,90088,1,0,0:0:0:0:
172,173,90238,6,0,P|173:224|149:270,1,105.000004005432,8|0,0:0|0:0,0:0:0:0:
189,167,90538,2,0,P|191:230|162:286,1,122.500001168251,8|0,0:0|0:0,0:0:0:0:
206,161,90838,2,0,P|208:232|175:295,1,140,8|0,0:0|0:0,0:0:0:0:
27,339,91138,1,8,0:0:0:0:
37,337,91213,1,0,0:0:0:0:
47,338,91288,1,0,0:0:0:0:
223,316,91438,6,0,L|275:328,1,52.5000020027161,8|0,0:0|0:0,0:0:0:0:
163,252,91588,2,0,L|147:200,1,52.5000020027161,8|0,0:0|0:0,0:0:0:0:
137,335,91738,2,0,L|100:374,1,52.5000020027161,8|0,0:0|0:0,0:0:0:0:
294,308,91888,2,0,B|383:313|383:313|415:353|415:353|496:364,1,210.000008010865,8|0,0:0|0:0,0:0:0:0:
507,242,92338,1,8,0:0:0:0:
484,228,92413,1,0,0:0:0:0:
459,224,92488,1,0,0:0:0:0:
282,289,92638,2,0,B|297:259|297:259|287:180,1,105.000004005432,8|0,0:0|0:0,0:0:0:0:
294,307,92938,2,0,B|309:277|309:277|299:198,1,105.000004005432,8|0,0:0|0:0,0:0:0:0:
107,295,93238,5,8,0:0:0:0:
110,268,93313,1,0,0:0:0:0:
113,242,93388,1,0,0:0:0:0:
212,376,93538,6,0,L|266:372,1,52.5000020027161,8|0,0:0|0:0,0:0:0:0:
128,380,93688,1,0,0:0:0:0:
254,287,93838,2,0,L|316:282,1,52.5000020027161,8|0,0:0|0:0,0:0:0:0:
93,302,93988,2,0,L|28:306,1,52.5000020027161,8|0,0:0|0:0,0:0:0:0:
245,273,94138,6,0,B|309:268|309:268|352:308|352:308|444:300,1,210.000008010865,8|8,0:0|0:0,0:0:0:0:
391,186,94588,1,0,0:0:0:0:
458,309,94738,2,0,L|460:247,1,52.5000020027161,8|0,0:0|0:0,0:0:0:0:
463,123,94888,1,0,0:0:0:0:
503,55,95038,6,0,L|501:117,1,52.5000020027161,8|0,0:0|0:0,0:0:0:0:
486,233,95188,2,0,L|484:285,1,52.5000020027161,8|0,0:0|0:0,0:0:0:0:
512,42,95338,2,0,L|510:104,1,52.5000020027161,8|0,0:0|0:0,0:0:0:0:
495,220,95488,2,0,L|493:272,1,52.5000020027161,8|0,0:0|0:0,0:0:0:0:
379,101,95638,5,8,0:0:0:0:
354,82,95713,1,0,0:0:0:0:
326,76,95788,1,0,0:0:0:0:
297,79,95863,1,0,0:0:0:0:
272,94,95938,2,0,L|264:161,3,52.5000020027161,8|0|0|0,0:0|0:0|0:0|0:0,0:0:0:0:
210,257,96238,5,8,0:0:0:0:
178,275,96313,1,0,0:0:0:0:
142,278,96388,1,0,0:0:0:0:
107,266,96463,1,0,0:0:0:0:
81,240,96538,2,0,L|84:181,3,52.5000020027161,8|0|0|0,0:0|0:0|0:0|0:0,0:0:0:0:
24,347,96838,5,8,0:0:0:0:
65,347,96913,1,0,0:0:0:0:
107,348,96988,1,0,0:0:0:0:
149,349,97063,1,0,0:0:0:0:
179,378,97138,5,8,0:0:0:0:
225,378,97213,1,0,0:0:0:0:
272,379,97288,1,0,0:0:0:0:
319,380,97363,1,0,0:0:0:0:
360,378,97438,5,8,0:0:0:0:
333,322,97513,1,0,0:0:0:0:
352,264,97588,1,0,0:0:0:0:
407,236,97663,1,0,0:0:0:0:
460,238,97738,2,0,L|527:244,1,52.5000020027161,8|0,0:0|0:0,0:0:0:0:
512,78,97888,2,0,L|445:84,1,52.5000020027161,8|0,0:0|0:0,0:0:0:0:
229,129,98038,5,8,0:0:0:0:
246,80,98113,1,0,0:0:0:0:
292,59,98188,1,0,0:0:0:0:
340,76,98263,1,0,0:0:0:0:
356,122,98338,2,0,P|357:145|351:175,1,52.5000020027161,8|0,0:0|0:0,0:0:0:0:
201,148,98488,2,0,P|200:125|206:95,1,52.5000020027161,8|0,0:0|0:0,0:0:0:0:
287,244,98638,5,8,0:0:0:0:
234,240,98713,1,0,0:0:0:0:
182,236,98788,1,0,0:0:0:0:
129,232,98863,1,0,0:0:0:0:
77,228,98938,2,0,L|9:222,1,52.5000020027161,8|0,0:0|0:0,0:0:0:0:
42,360,99088,2,0,L|110:354,1,52.5000020027161,8|0,0:0|0:0,0:0:0:0:
196,316,99238,6,0,L|335:326,1,140,10|2,0:0|0:0,0:0:0:0:
425,355,99463,2,0,L|494:348,1,70,0|8,0:0|0:0,0:0:0:0:
501,341,99613,1,0,0:0:0:0:
507,335,99688,2,0,P|482:246|502:182,1,140,2|8,0:0|0:0,0:0:0:0:
483,73,99913,2,2,B|431:91|368:59|368:59|319:36|268:60|268:60|200:89|144:61,1,350,2|0,0:0|0:0,0:0:0:0:
40,25,100438,5,8,0:0:0:0:
23,35,100513,1,0,0:0:0:0:
12,51,100588,1,0,0:0:0:0:
6,70,100663,1,0,0:0:0:0:
7,89,100738,1,8,0:0:0:0:
14,108,100813,1,0,0:0:0:0:
27,124,100888,2,0,L|81:129,1,52.5000020027161
232,264,101038,5,8,0:0:0:0:
229,238,101113,1,0,0:0:0:0:
219,214,101188,1,0,0:0:0:0:
202,196,101263,1,0,0:0:0:0:
180,184,101338,1,8,0:0:0:0:
154,180,101413,1,0,0:0:0:0:
126,188,101488,2,0,L|117:253,1,52.5000020027161
65,352,101638,5,8,0:0:0:0:
89,342,101713,1,0,0:0:0:0:
115,339,101788,1,0,0:0:0:0:
141,341,101863,1,0,0:0:0:0:
166,350,101938,2,0,L|236:347,1,52.5000020027161,8|0,0:0|0:0,0:0:0:0:
309,278,102088,2,0,L|361:280,1,52.5000020027161
491,369,102238,1,8,0:0:0:0:
462,334,102313,1,0,0:0:0:0:
447,292,102388,1,0,0:0:0:0:
446,248,102463,1,0,0:0:0:0:
458,206,102538,1,8,0:0:0:0:
468,182,102613,1,0,0:0:0:0:
471,155,102688,1,0,0:0:0:0:
464,129,102763,1,0,0:0:0:0:
446,109,102838,5,8,0:0:0:0:
457,69,102913,1,0,0:0:0:0:
440,31,102988,1,0,0:0:0:0:
403,13,103063,1,0,0:0:0:0:
363,22,103138,1,8,0:0:0:0:
338,55,103213,1,0,0:0:0:0:
349,95,103288,1,0,0:0:0:0:
332,132,103363,1,0,0:0:0:0:
295,151,103438,1,8,0:0:0:0:
255,141,103513,1,0,0:0:0:0:
231,109,103588,2,0,L|230:77,2,26.2500010013581
200,89,103738,1,8,0:0:0:0:
148,93,103813,1,0,0:0:0:0:
112,130,103888,1,0,0:0:0:0:
110,182,103963,1,0,0:0:0:0:
143,212,104038,6,0,P|179:224|217:211,3,70,8|0|0|0,0:0|0:0|0:0|0:0,0:0:0:0:
312,263,104338,2,0,P|283:288|275:327,3,70,8|0|0|0,0:0|0:0|0:0|0:0,0:0:0:0:
183,383,104638,2,0,P|175:345|145:319,3,70,8|0|0|0,0:0|0:0|0:0|0:0,0:0:0:0:
39,360,104938,5,8,0:0:0:0:
38,318,105013,1,0,0:0:0:0:
37,276,105088,1,8,0:0:0:0:
36,234,105163,1,0,0:0:0:0:
35,192,105238,6,0,L|110:191,1,70,8|0,0:0|0:0,0:0:0:0:
188,259,105388,2,0,L|263:258,1,70,8|0,0:0|0:0,0:0:0:0:
25,186,105538,2,0,L|115:184,1,70,8|0,0:0|0:0,0:0:0:0:
208,266,105688,2,0,L|298:264,1,70,8|0,0:0|0:0,0:0:0:0:
193,144,105838,2,0,P|201:105|192:74,1,70,8|0,0:0|0:0,0:0:0:0:
103,277,105988,2,0,P|95:316|103:346,1,70,8|0,0:0|0:0,0:0:0:0:
201,130,106138,2,0,P|209:91|200:60,1,70,8|0,0:0|0:0,0:0:0:0:
94,290,106288,2,0,P|86:329|94:359,1,70,8|0,0:0|0:0,0:0:0:0:
271,262,106438,5,8,0:0:0:0:
311,255,106513,1,0,0:0:0:0:
353,264,106588,1,8,0:0:0:0:
388,286,106663,1,0,0:0:0:0:
414,318,106738,5,8,0:0:0:0:
416,290,106813,1,0,0:0:0:0:
419,262,106888,1,8,0:0:0:0:
422,234,106963,1,0,0:0:0:0:
457,238,107038,1,8,0:0:0:0:
455,210,107113,1,0,0:0:0:0:
452,182,107188,1,8,0:0:0:0:
449,154,107263,1,0,0:0:0:0:
485,155,107338,1,8,0:0:0:0:
477,120,107413,1,0,0:0:0:0:
467,86,107488,1,8,0:0:0:0:
458,52,107563,1,0,0:0:0:0:
437,78,107638,5,8,0:0:0:0:
414,104,107713,1,0,0:0:0:0:
382,117,107788,1,0,0:0:0:0:
347,116,107863,1,0,0:0:0:0:
317,99,107938,1,8,0:0:0:0:
298,70,108013,1,0,0:0:0:0:
293,36,108088,2,0,P|261:16|216:14,1,70
177,88,108238,5,8,0:0:0:0:
160,115,108313,1,0,0:0:0:0:
134,131,108388,1,0,0:0:0:0:
104,135,108463,1,0,0:0:0:0:
75,125,108538,1,8,0:0:0:0:
53,102,108613,1,0,0:0:0:0:
43,73,108688,2,0,L|116:67,1,70
45,298,108838,6,0,L|52:216,3,52.5000020027161,8|0|0|0,0:0|0:0|0:0|0:0,0:0:0:0:
146,350,109138,2,0,L|139:268,3,52.5000020027161,8|0|0|0,0:0|0:0|0:0|0:0,0:0:0:0:
233,293,109438,2,0,L|240:211,3,52.5000020027161,8|0|0|0,0:0|0:0|0:0|0:0,0:0:0:0:
334,345,109738,2,0,L|327:263,3,52.5000020027161,8|0|0|0,0:0|0:0|0:0|0:0,0:0:0:0:
276,195,110038,6,0,B|358:193|382:115|354:115|373:46|487:32|487:32|441:68|430:119|430:119|450:98|450:98|453:130|431:180|431:180|459:164|459:164|444:231|403:238|429:206|362:235|328:293,1,730.800006133118,4|2,0:0|0:0,0:0:0:0:
31,363,112704,6,0,B|61:290|43:205|34:249|4:180|40:84|40:84|26:139|58:178|102:186|145:180|179:136|170:95|149:65|149:65|203:109|206:196|189:167|184:218|209:255,1,730.800006133118,4|2,0:0|0:0,0:0:0:0:
422,375,115371,6,0,B|426:296|426:296|492:248|492:248|416:217|416:217|394:144|394:144|341:203|341:203|262:202|262:202|305:272|305:272|278:346|278:346|357:328|357:328|386:349,1,730.800006133118,4|2,0:0|0:0,0:0:0:0:
103,333,118037,6,4,P|71:301|118:128,1,243.600002044373
379,170,119371,2,0,B|346:227|346:227|169:234,1,243.600002044373,4|4,0:0|0:0,0:0:0:0:
306,76,120704,6,0,B|295:116|269:142|201:146|168:120|149:69|136:2|214:-50|298:-23|308:51|308:51|348:26|348:26|383:41|383:41|437:20|437:20|419:103|419:103|442:143|442:143|408:134|377:144,1,730.800006133118,4|2,0:0|0:0,0:0:0:0:
224,382,123371,6,0,B|243:340|290:337|277:357|313:329|354:281|320:224|291:213|250:212|228:224|228:224|213:207|179:184|140:197|109:228|110:267|121:316|127:301|168:332|175:366|175:366|116:337|75:356|109:359|42:373|0:350|0:350|22:354|40:346,1,730.800006133118,4|2,0:0|0:0,0:0:0:0:
425,365,126037,6,0,B|419:284|419:284|404:268|404:268|399:197|399:197|436:148|436:148|433:89|433:89|440:77|440:77|437:18|437:18|409:42|409:42|412:89|386:120|337:138|279:114|273:53|273:53|240:42|240:42|235:73|239:108|263:132,1,730.800006133118,4|2,0:0|0:0,0:0:0:0:
306,345,128704,6,0,B|49:355,1,243.600002044373,4|4,0:0|0:0,0:0:0:0:
29,52,130037,5,8,0:0:0:0:
62,56,130112,1,0,0:0:0:0:
92,69,130187,1,0,0:0:0:0:
117,92,130262,1,0,0:0:0:0:
133,121,130337,1,0,0:0:0:0:
139,154,130412,1,0,0:0:0:0:
134,187,130487,1,0,0:0:0:0:
119,217,130562,1,0,0:0:0:0:
96,240,130637,5,8,0:0:0:0:
136,238,130712,1,0,0:0:0:0:
177,236,130787,1,0,0:0:0:0:
217,235,130862,1,0,0:0:0:0:
245,258,130937,5,8,0:0:0:0:
285,256,131012,1,0,0:0:0:0:
326,254,131087,1,0,0:0:0:0:
366,253,131162,1,0,0:0:0:0:
400,277,131237,6,0,B|407:304|405:333|405:333|414:263|437:220|437:220|407:165|410:106,1,280,8|8,0:0|0:0,0:0:0:0:
409,120,131612,1,0,0:0:0:0:
409,120,131687,1,0,0:0:0:0:
321,189,131837,2,0,P|301:115|341:47,1,140,8|0,0:0|0:0,0:0:0:0:
512,170,132137,1,8,0:0:0:0:
512,170,132212,1,0,0:0:0:0:
512,170,132287,1,0,0:0:0:0:
304,208,132437,6,0,B|256:144|266:66|321:19|321:19|304:62|315:100,1,280,8|8,0:0|0:0,0:0:0:0:
312,87,132812,1,0,0:0:0:0:
312,87,132887,1,0,0:0:0:0:
210,223,133037,2,0,B|175:251|175:251|59:246,1,140,8|0,0:0|0:0,0:0:0:0:
149,65,133337,1,8,0:0:0:0:
158,86,133412,1,0,0:0:0:0:
160,109,133487,1,0,0:0:0:0:
36,36,133637,6,0,B|31:118|31:118|39:135|39:135|34:216|34:216|42:233|42:233|37:315,1,280,8|8,0:0|0:0,0:0:0:0:
37,311,134012,1,0,0:0:0:0:
37,311,134087,1,0,0:0:0:0:
204,327,134237,2,0,B|200:219|200:219|181:260,1,140,8|0,0:0|0:0,0:0:0:0:
114,352,134537,1,8,0:0:0:0:
123,362,134612,1,0,0:0:0:0:
136,367,134687,1,0,0:0:0:0:
279,361,134837,6,0,B|275:252|275:252|293:212|293:212|288:80,1,280,8|8,0:0|0:0,0:0:0:0:
302,86,135212,1,0,0:0:0:0:
315,86,135287,1,0,0:0:0:0:
423,185,135437,1,8,0:0:0:0:
449,45,135587,2,0,B|431:75|431:75|435:183,1,140,0|8,0:0|0:0,0:0:0:0:
435,187,135812,1,0,0:0:0:0:
435,194,135887,1,0,0:0:0:0:
441,16,136037,6,0,B|404:76|404:76|412:296,1,280,8|8,0:0|0:0,0:0:0:0:
415,299,136412,1,0,0:0:0:0:
416,312,136487,1,0,0:0:0:0:
309,136,136637,2,0,B|329:164|329:164|332:272,1,140,8|0,0:0|0:0,0:0:0:0:
336,365,136937,1,8,0:0:0:0:
336,365,137012,1,0,0:0:0:0:
336,365,137087,1,0,0:0:0:0:
203,301,137237,6,0,B|208:204|208:204|218:185|218:185|226:78|226:78|201:126,1,280,8|8,0:0|0:0,0:0:0:0:
201,133,137612,1,0,0:0:0:0:
200,139,137687,1,0,0:0:0:0:
67,204,137837,2,0,B|69:98|69:98|89:70,1,140,8|0,0:0|0:0,0:0:0:0:
130,278,138137,1,8,0:0:0:0:
128,270,138212,1,0,0:0:0:0:
127,262,138287,1,0,0:0:0:0:
32,365,138437,6,0,B|10:359|-13:373|-13:373|23:312|111:362|81:367|154:392|205:348,1,280,8|8,0:0|0:0,0:0:0:0:
207,346,138812,1,0,0:0:0:0:
212,342,138887,1,0,0:0:0:0:
290,293,139037,2,0,B|313:312|313:312|432:301,1,140,8|0,0:0|0:0,0:0:0:0:
412,177,139337,1,8,0:0:0:0:
381,192,139412,1,0,0:0:0:0:
373,225,139487,1,0,0:0:0:0:
499,284,139637,6,0,B|494:202|494:202|502:185|502:185|497:104|497:104|505:87|505:87|500:5,1,280,8|8,0:0|0:0,0:0:0:0:
486,9,140012,1,0,0:0:0:0:
471,9,140087,1,0,0:0:0:0:
381,87,140237,2,0,B|353:104|353:104|241:90,1,140,8|0,0:0|0:0,0:0:0:0:
137,179,140537,2,0,B|165:162|165:162|276:175,1,140,8|0,0:0|0:0,0:0:0:0:
69,74,140837,6,0,B|34:131|34:131|61:359,1,280,8|8,0:0|0:0,0:0:0:0:
62,356,141212,1,0,0:0:0:0:
64,369,141287,1,0,0:0:0:0:
123,241,141437,2,0,B|135:348|135:348|153:309,1,140,8|0,0:0|0:0,0:0:0:0:
238,225,141737,1,8,0:0:0:0:
267,243,141812,1,0,0:0:0:0:
281,274,141887,1,0,0:0:0:0:
385,384,142037,6,0,B|426:320|390:258|390:258|397:245|397:245|363:180|405:110,1,280,8|8,0:0|0:0,0:0:0:0:
399,118,142412,1,0,0:0:0:0:
405,122,142487,1,0,0:0:0:0:
496,184,142637,2,0,B|503:68|503:68|492:44,1,140,8|0,0:0|0:0,0:0:0:0:
281,12,142937,1,8,0:0:0:0:
283,46,143012,1,0,0:0:0:0:
285,81,143087,1,0,0:0:0:0:
155,179,143237,6,0,P|182:100|272:202,1,280,8|8,0:0|0:0,0:0:0:0:
271,209,143612,1,0,0:0:0:0:
270,222,143687,1,0,0:0:0:0:
144,327,143837,2,0,B|134:222|134:222|143:187,1,140,8|0,0:0|0:0,0:0:0:0:
237,366,144137,1,8,0:0:0:0:
237,366,144212,1,0,0:0:0:0:
237,366,144287,1,0,0:0:0:0:
220,157,144437,6,0,B|336:163|336:163|372:198|372:198|489:206,1,280,8|8,0:0|0:0,0:0:0:0:
487,212,144812,1,0,0:0:0:0:
489,218,144887,1,0,0:0:0:0:
413,282,145037,1,8,0:0:0:0:
505,105,145187,2,0,L|363:95,1,140,0|8,0:0|0:0,0:0:0:0:
374,105,145412,1,0,0:0:0:0:
381,113,145487,1,0,0:0:0:0:
487,230,145637,6,0,B|405:225|405:225|388:233|388:233|307:228|307:228|290:236|290:236|208:231,1,280,8|8,0:0|0:0,0:0:0:0:
200,221,146012,1,0,0:0:0:0:
190,211,146087,1,0,0:0:0:0:
134,88,146237,2,0,B|240:96|240:96|189:114,1,140,8|0,0:0|0:0,0:0:0:0:
35,163,146537,1,8,0:0:0:0:
34,145,146612,1,0,0:0:0:0:
35,128,146687,1,0,0:0:0:0:
31,272,146837,6,0,B|160:264|160:264|187:276|187:276|314:268,1,280,8|8,0:0|0:0,0:0:0:0:
307,269,147212,1,0,0:0:0:0:
307,269,147287,1,0,0:0:0:0:
353,384,147437,2,0,B|241:377|241:377|281:364,1,140,8|0,0:0|0:0,0:0:0:0:
456,310,147737,1,8,0:0:0:0:
457,328,147812,1,0,0:0:0:0:
456,345,147887,1,0,0:0:0:0:
483,186,148037,5,8,0:0:0:0:
445,211,148112,1,0,0:0:0:0:
399,215,148187,1,0,0:0:0:0:
357,195,148262,1,0,0:0:0:0:
331,156,148337,1,8,0:0:0:0:
304,117,148412,1,0,0:0:0:0:
262,96,148487,1,0,0:0:0:0:
216,99,148562,1,0,0:0:0:0:
178,126,148637,2,0,P|143:141|97:137,3,70,8|0|0|0,0:0|0:0|0:0|0:0,0:0:0:0:
60,49,148937,5,8,0:0:0:0:
21,74,149012,1,0,0:0:0:0:
1,116,149087,1,0,0:0:0:0:
4,162,149162,1,0,0:0:0:0:
30,200,149237,1,8,0:0:0:0:
73,253,149312,1,0,0:0:0:0:
75,322,149387,1,8,0:0:0:0:
37,379,149462,5,0,0:0:0:0:
20,340,149537,1,8,0:0:0:0:
20,298,149612,1,0,0:0:0:0:
39,261,149687,1,0,0:0:0:0:
72,236,149762,1,0,0:0:0:0:
117,229,149837,1,8,0:0:0:0:
156,256,149912,1,0,0:0:0:0:
204,265,149987,1,0,0:0:0:0:
251,253,150062,1,0,0:0:0:0:
290,223,150137,1,8,0:0:0:0:
329,195,150212,1,0,0:0:0:0:
377,186,150287,1,0,0:0:0:0:
424,198,150362,1,0,0:0:0:0:
463,228,150437,6,0,B|440:266|440:266|449:158|449:158|441:140|441:140|450:28|450:28,1,280,8|8,0:0|0:0,0:0:0:0:
442,34,150812,1,0,0:0:0:0:
434,35,150887,1,0,0:0:0:0:
377,186,151037,2,0,B|357:146|357:146|368:42,1,140,8|0,0:0|0:0,0:0:0:0:
468,233,151337,1,8,0:0:0:0:
468,233,151412,1,0,0:0:0:0:
468,233,151487,1,0,0:0:0:0:
345,24,151637,6,0,B|334:152|334:152|337:160|337:160|327:284|327:284|317:254,1,280,8|8,0:0|0:0,0:0:0:0:
320,259,152012,1,0,0:0:0:0:
314,236,152087,1,0,0:0:0:0:
368,352,152237,2,0,B|328:372|328:372|224:361,1,140,8|0,0:0|0:0,0:0:0:0:
94,344,152537,1,8,0:0:0:0:
94,344,152612,1,0,0:0:0:0:
94,344,152687,1,0,0:0:0:0:
187,236,152837,6,0,P|89:222|178:121,1,280,8|8,0:0|0:0,0:0:0:0:
165,128,153212,1,0,0:0:0:0:
167,141,153287,1,0,0:0:0:0:
50,243,153437,2,0,P|32:179|60:115,1,140,8|0,0:0|0:0,0:0:0:0:
242,39,153737,1,8,0:0:0:0:
240,66,153812,1,0,0:0:0:0:
238,93,153887,1,0,0:0:0:0:
406,190,154037,6,0,B|332:134|253:193|317:187|226:243|142:179,1,280,8|8,0:0|0:0,0:0:0:0:
139,185,154412,1,0,0:0:0:0:
136,191,154487,1,0,0:0:0:0:
48,68,154637,2,0,P|112:46|174:76,1,140,8|0,0:0|0:0,0:0:0:0:
42,231,154937,1,8,0:0:0:0:
35,218,155012,1,0,0:0:0:0:
35,204,155087,1,0,0:0:0:0:
119,322,155237,6,0,B|201:327|201:327|218:319|218:319|299:324|299:324|316:316|316:316|398:321,1,280,8|8,0:0|0:0,0:0:0:0:
400,325,155612,1,0,0:0:0:0:
405,329,155687,1,0,0:0:0:0:
489,177,155837,2,0,B|485:285|485:285|466:244,1,140,8|0,0:0|0:0,0:0:0:0:
352,121,156137,1,8,0:0:0:0:
353,155,156212,1,0,0:0:0:0:
354,190,156287,1,0,0:0:0:0:
498,12,156437,6,0,B|438:49|438:49|218:41,1,280,8|8,0:0|0:0,0:0:0:0:
222,44,156812,1,0,0:0:0:0:
214,46,156887,1,0,0:0:0:0:
116,141,157037,2,0,B|146:122|146:122|257:126,1,140,8|0,0:0|0:0,0:0:0:0:
387,132,157337,1,8,0:0:0:0:
387,132,157412,1,0,0:0:0:0:
387,132,157487,1,0,0:0:0:0:
457,268,157637,6,0,B|398:227|331:263|331:263|318:256|318:256|253:290|193:249,1,280,8|8,0:0|0:0,0:0:0:0:
190,242,158012,1,0,0:0:0:0:
187,235,158087,1,0,0:0:0:0:
108,335,158237,2,0,B|82:302|82:302|78:193,1,140,8|0,0:0|0:0,0:0:0:0:
75,61,158537,1,8,0:0:0:0:
75,61,158612,1,0,0:0:0:0:
75,61,158687,1,0,0:0:0:0:
261,86,158837,6,0,B|286:122|286:122|277:230|277:230|285:248|285:248|276:360|276:360,1,280,8|8,0:0|0:0,0:0:0:0:
269,353,159212,1,0,0:0:0:0:
261,350,159287,1,0,0:0:0:0:
348,205,159437,2,0,B|363:240|363:240|355:342,1,140,8|0,0:0|0:0,0:0:0:0:
476,163,159737,2,0,B|455:194|455:194|445:296,1,140,8|0,0:0|0:0,0:0:0:0:
447,59,160037,6,0,B|393:91|328:67|373:60|305:33|241:63|241:63|286:55|323:84,1,280,8|8,0:0|0:0,0:0:0:0:
307,78,160412,1,0,0:0:0:0:
311,83,160487,1,0,0:0:0:0:
173,136,160637,2,0,P|144:73|168:9,1,140,8|0,0:0|0:0,0:0:0:0:
270,185,160937,1,8,0:0:0:0:
259,205,161012,1,0,0:0:0:0:
243,221,161087,1,0,0:0:0:0:
79,303,161237,6,0,B|161:308|161:308|178:300|178:300|259:305|259:305|276:297|276:297|358:302,1,280,8|8,0:0|0:0,0:0:0:0:
361,303,161612,1,0,0:0:0:0:
361,303,161687,1,0,0:0:0:0:
469,185,161837,2,0,B|452:217|452:217|455:328,1,140,8|0,0:0|0:0,0:0:0:0:
351,210,162137,2,0,B|368:178|368:178|365:74,1,140,8|0,0:0|0:0,0:0:0:0:
144,234,162437,6,0,P|158:136|259:225,1,280,8|8,0:0|0:0,0:0:0:0:
252,212,162812,1,0,0:0:0:0:
239,214,162887,1,0,0:0:0:0:
137,97,163037,2,0,P|200:79|265:107,1,140,8|0,0:0|0:0,0:0:0:0:
153,244,163337,1,8,0:0:0:0:
153,244,163412,1,0,0:0:0:0:
153,244,163487,1,0,0:0:0:0:
72,32,163637,6,0,B|37:89|37:89|64:317,1,280,8|8,0:0|0:0,0:0:0:0:
64,314,164012,1,0,0:0:0:0:
65,327,164087,1,0,0:0:0:0:
188,195,164237,2,0,B|205:223|205:223|192:337,1,140,8|0,0:0|0:0,0:0:0:0:
306,223,164537,1,8,0:0:0:0:
310,258,164612,1,0,0:0:0:0:
316,293,164687,1,0,0:0:0:0:
489,82,164837,6,2,B|491:81|475:19|397:-21|315:78|349:160|431:175|467:145|467:145|432:205|454:257|462:222|480:277|457:341,1,490,10|2,0:0|0:0,0:0:0:0:
457,346,165437,2,2,B|431:312|431:312|426:298|426:298|406:273|406:273|368:274|368:274|358:268|358:268|316:269|316:269|305:277|305:277|265:277|265:277|254:282|254:282|205:284|205:284|193:279|193:279|144:281|144:281|135:286|135:286|83:288,1,420,10|2,0:0|0:0,0:0:0:0:
0,368,166037,2,2,B|52:405|130:393|189:372|220:295|218:245|214:205|187:172|145:120|92:119|73:119|73:119|90:150|93:179|93:179|157:138|248:169|196:168|280:205|347:164|347:164|362:114|362:114|356:189|356:189|371:228|371:228|365:303,1,1050,10|0,0:0|0:0,0:0:0:0:
363,316,167237,5,8,0:0:0:0:
392,347,167312,1,0,0:0:0:0:
434,358,167387,1,8,0:0:0:0:
475,346,167462,1,0,0:0:0:0:
504,314,167537,1,8,0:0:0:0:
512,271,167612,1,0,0:0:0:0:
497,231,167687,1,8,0:0:0:0:
463,204,167762,1,0,0:0:0:0:
420,200,167837,1,8,0:0:0:0:
377,196,167912,1,0,0:0:0:0:
343,169,167987,1,8,0:0:0:0:
328,129,168062,1,0,0:0:0:0:
336,86,168137,1,8,0:0:0:0:
365,54,168212,1,0,0:0:0:0:
406,42,168287,1,8,0:0:0:0:
448,53,168362,1,0,0:0:0:0:
476,84,168437,6,0,B|481:97|481:97|478:151,3,52.5000020027161,8|0|8|0,0:0|0:0|0:0|0:0,0:0:0:0:
340,220,168737,2,0,B|338:182|338:182|343:169,3,52.5000020027161,8|0|8|0,0:0|0:0|0:0|0:0,0:0:0:0:
171,220,169037,2,0,B|174:182|174:182|169:169,3,52.5000020027161,8|0|8|0,0:0|0:0|0:0|0:0,0:0:0:0:
36,84,169337,2,0,B|31:97|31:97|34:151,3,52.5000020027161,8|0|8|0,0:0|0:0|0:0|0:0,0:0:0:0:
106,380,169637,5,8,0:0:0:0:
115,328,169737,1,0,0:0:0:0:
124,279,169837,1,0,0:0:0:0:
97,235,169937,1,8,0:0:0:0:
406,380,170237,5,8,0:0:0:0:
397,328,170337,1,0,0:0:0:0:
388,279,170437,1,0,0:0:0:0:
415,235,170537,1,8,0:0:0:0:
248,12,170837,5,8,0:0:0:0:
236,73,170937,1,0,0:0:0:0:
225,136,171037,1,0,0:0:0:0:
256,191,171137,1,8,0:0:0:0:
286,245,171237,1,0,0:0:0:0:
274,306,171337,1,0,0:0:0:0:
263,369,171437,1,12,0:0:0:0:
