osu file format v14

[General]
AudioFilename: audio.mp3
AudioLeadIn: 0
PreviewTime: 62992
Countdown: 0
SampleSet: Normal
StackLeniency: 0.7
Mode: 1
LetterboxInBreaks: 0
WidescreenStoryboard: 1

[Editor]
Bookmarks: 34342
DistanceSpacing: 1
BeatDivisor: 4
GridSize: 32
TimelineZoom: 3.499999

[Metadata]
Title:Burning Sunlight Everlasting
TitleUnicode:Burning Sunlight Everlasting
Artist:Moonlight Eternal
ArtistUnicode:Moonlight Eternal
Creator:-PH
Version:Tatsujin
Source:
Tags:stevie t terreberry steve power metal dragonforce babymetal galneryus through the fire and flames touhou project
BeatmapID:2035592
BeatmapSetID:969365

[Difficulty]
HPDrainRate:4
CircleSize:2
OverallDifficulty:7
ApproachRate:9.9
SliderMultiplier:1.7
SliderTickRate:2

[Events]
//Background and Video events
0,0,"CwJlN9qVIAAaFRE.jpg",0,0
//Break Periods
//Storyboard Layer 0 (Background)
//Storyboard Layer 1 (Fail)
//Storyboard Layer 2 (Pass)
//Storyboard Layer 3 (Foreground)
//Storyboard Sound Samples

[TimingPoints]
2842,300,4,1,0,57,1,0
3067,-25,4,1,0,57,0,0
5542,300,4,1,0,57,1,0
5542,-100,4,1,0,57,0,0
15142,300,4,1,0,57,1,0
113542,333.333333333333,4,1,0,57,1,0
133542,300,4,1,0,57,1,0
134742,300,4,1,0,57,1,0

[HitObjects]
256,192,3142,12,0,5392,0:0:0:0:
256,192,5542,5,4,0:0:0:0:
256,192,7942,5,12,0:0:0:0:
256,192,9742,1,8,0:0:0:0:
256,192,9817,1,8,0:0:0:0:
256,192,9892,1,0,0:0:0:0:
256,192,9967,1,0,0:0:0:0:
256,192,10042,1,8,0:0:0:0:
256,192,10117,1,8,0:0:0:0:
256,192,10192,1,0,0:0:0:0:
256,192,10267,1,0,0:0:0:0:
256,192,10342,1,4,0:0:0:0:
256,192,11992,1,0,0:0:0:0:
256,192,12142,1,8,0:0:0:0:
256,192,12292,1,0,0:0:0:0:
256,192,12742,1,8,0:0:0:0:
256,192,12817,1,8,0:0:0:0:
256,192,12892,1,8,0:0:0:0:
256,192,12967,1,8,0:0:0:0:
256,192,13042,1,0,0:0:0:0:
256,192,13117,1,0,0:0:0:0:
256,192,13192,1,8,0:0:0:0:
256,192,13267,1,8,0:0:0:0:
256,192,13342,1,8,0:0:0:0:
256,192,13417,1,8,0:0:0:0:
256,192,13492,1,0,0:0:0:0:
256,192,13567,1,0,0:0:0:0:
256,192,13642,1,8,0:0:0:0:
256,192,13717,1,8,0:0:0:0:
256,192,13792,1,0,0:0:0:0:
256,192,13867,1,0,0:0:0:0:
256,192,13942,1,8,0:0:0:0:
256,192,14017,1,8,0:0:0:0:
256,192,14092,1,8,0:0:0:0:
256,192,14167,1,8,0:0:0:0:
256,192,14242,1,0,0:0:0:0:
256,192,14317,1,0,0:0:0:0:
256,192,14392,1,0,0:0:0:0:
256,192,14467,1,0,0:0:0:0:
256,192,14542,1,8,0:0:0:0:
256,192,14617,1,8,0:0:0:0:
256,192,14692,1,8,0:0:0:0:
256,192,14767,1,8,0:0:0:0:
256,192,14842,1,0,0:0:0:0:
256,192,14917,1,0,0:0:0:0:
256,192,14992,1,0,0:0:0:0:
256,192,15067,1,0,0:0:0:0:
256,192,15142,1,8,0:0:0:0:
256,192,15292,1,0,0:0:0:0:
256,192,15442,1,8,0:0:0:0:
256,192,15592,1,0,0:0:0:0:
256,192,15742,1,8,0:0:0:0:
256,192,15892,1,8,0:0:0:0:
256,192,16042,1,8,0:0:0:0:
256,192,16117,1,0,0:0:0:0:
256,192,16192,1,8,0:0:0:0:
256,192,16342,1,0,0:0:0:0:
256,192,16492,1,0,0:0:0:0:
256,192,16642,1,8,0:0:0:0:
256,192,16792,1,0,0:0:0:0:
256,192,16942,1,8,0:0:0:0:
256,192,17092,1,8,0:0:0:0:
256,192,17242,1,8,0:0:0:0:
256,192,17317,1,0,0:0:0:0:
256,192,17392,1,8,0:0:0:0:
256,192,17542,5,0,0:0:0:0:
256,192,17692,1,0,0:0:0:0:
256,192,17842,1,8,0:0:0:0:
256,192,17992,1,0,0:0:0:0:
256,192,18142,1,8,0:0:0:0:
256,192,18292,1,8,0:0:0:0:
256,192,18442,1,8,0:0:0:0:
256,192,18517,1,0,0:0:0:0:
256,192,18592,1,8,0:0:0:0:
256,192,18742,1,0,0:0:0:0:
256,192,18892,1,0,0:0:0:0:
256,192,19042,1,8,0:0:0:0:
256,192,19192,1,0,0:0:0:0:
256,192,19342,1,8,0:0:0:0:
256,192,19492,1,8,0:0:0:0:
256,192,19642,1,8,0:0:0:0:
256,192,19717,1,0,0:0:0:0:
256,192,19792,1,8,0:0:0:0:
256,192,19942,1,0,0:0:0:0:
256,192,20092,1,0,0:0:0:0:
256,192,20242,1,8,0:0:0:0:
256,192,20392,1,0,0:0:0:0:
256,192,20542,1,8,0:0:0:0:
256,192,20692,1,8,0:0:0:0:
256,192,20842,1,8,0:0:0:0:
256,192,20917,1,0,0:0:0:0:
256,192,20992,1,8,0:0:0:0:
256,192,21142,1,0,0:0:0:0:
256,192,21292,1,0,0:0:0:0:
256,192,21442,1,8,0:0:0:0:
256,192,21592,1,0,0:0:0:0:
256,192,21742,1,8,0:0:0:0:
256,192,21892,1,8,0:0:0:0:
256,192,22042,1,8,0:0:0:0:
256,192,22117,1,0,0:0:0:0:
256,192,22192,1,8,0:0:0:0:
256,192,22342,5,0,0:0:0:0:
256,192,22492,1,0,0:0:0:0:
256,192,22642,1,8,0:0:0:0:
256,192,22792,1,0,0:0:0:0:
256,192,22942,1,8,0:0:0:0:
256,192,23092,1,8,0:0:0:0:
256,192,23242,1,8,0:0:0:0:
256,192,23317,1,0,0:0:0:0:
256,192,23392,1,8,0:0:0:0:
256,192,23467,1,8,0:0:0:0:
256,192,23542,1,8,0:0:0:0:
256,192,23617,1,8,0:0:0:0:
256,192,23692,1,0,0:0:0:0:
256,192,23842,1,8,0:0:0:0:
256,192,23992,1,0,0:0:0:0:
256,192,24142,1,8,0:0:0:0:
256,192,24292,1,8,0:0:0:0:
256,192,24442,1,8,0:0:0:0:
256,192,24517,1,0,0:0:0:0:
256,192,24592,1,8,0:0:0:0:
256,192,24667,1,0,0:0:0:0:
256,192,24742,1,4,0:0:0:0:
256,192,24892,1,0,0:0:0:0:
192,64,25042,1,8,0:0:0:0:
256,192,25092,1,0,0:0:0:0:
256,192,25192,1,0,0:0:0:0:
96,128,25342,1,8,0:0:0:0:
256,192,25392,1,0,0:0:0:0:
96,128,25492,1,8,0:0:0:0:
256,192,25542,1,0,0:0:0:0:
256,192,25642,1,8,0:0:0:0:
160,32,25692,1,0,0:0:0:0:
192,96,25792,1,8,0:0:0:0:
256,192,25842,1,0,0:0:0:0:
256,192,25942,1,0,0:0:0:0:
256,192,26092,1,0,0:0:0:0:
256,192,26242,1,8,0:0:0:0:
96,128,26292,1,0,0:0:0:0:
256,192,26392,1,0,0:0:0:0:
256,192,26542,1,8,0:0:0:0:
96,256,26592,1,0,0:0:0:0:
256,192,26692,1,8,0:0:0:0:
96,256,26742,1,0,0:0:0:0:
160,32,26842,1,8,0:0:0:0:
256,192,26892,1,0,0:0:0:0:
288,32,26992,1,8,0:0:0:0:
256,192,27042,1,0,0:0:0:0:
256,192,27142,5,0,0:0:0:0:
256,192,27292,1,0,0:0:0:0:
256,192,27442,1,8,0:0:0:0:
160,64,27492,1,0,0:0:0:0:
256,192,27592,1,0,0:0:0:0:
32,64,27742,1,8,0:0:0:0:
256,192,27792,1,0,0:0:0:0:
32,64,27892,1,8,0:0:0:0:
256,192,27942,1,0,0:0:0:0:
32,64,28042,1,8,0:0:0:0:
256,192,28092,1,0,0:0:0:0:
256,192,28192,1,8,0:0:0:0:
256,192,28342,1,0,0:0:0:0:
256,192,28492,1,0,0:0:0:0:
256,192,28642,1,8,0:0:0:0:
256,32,28692,1,0,0:0:0:0:
256,192,28792,1,0,0:0:0:0:
256,192,28942,1,8,0:0:0:0:
256,32,28992,1,0,0:0:0:0:
256,192,29092,1,8,0:0:0:0:
256,32,29142,1,0,0:0:0:0:
256,192,29242,1,8,0:0:0:0:
256,32,29292,1,0,0:0:0:0:
256,192,29392,1,8,0:0:0:0:
256,32,29442,1,0,0:0:0:0:
256,192,29542,1,0,0:0:0:0:
256,192,29692,1,0,0:0:0:0:
256,192,29842,1,8,0:0:0:0:
256,32,29892,1,0,0:0:0:0:
256,192,29992,1,0,0:0:0:0:
256,192,30142,1,8,0:0:0:0:
256,32,30192,1,0,0:0:0:0:
256,192,30292,1,8,0:0:0:0:
256,32,30342,1,0,0:0:0:0:
256,192,30442,1,8,0:0:0:0:
256,32,30492,1,0,0:0:0:0:
256,192,30592,1,8,0:0:0:0:
256,32,30642,1,0,0:0:0:0:
256,192,30742,1,0,0:0:0:0:
256,192,30892,1,0,0:0:0:0:
256,192,31042,1,8,0:0:0:0:
256,32,31092,1,0,0:0:0:0:
256,192,31192,1,0,0:0:0:0:
256,192,31342,1,8,0:0:0:0:
256,32,31392,1,0,0:0:0:0:
256,192,31492,1,8,0:0:0:0:
256,32,31542,1,0,0:0:0:0:
256,192,31642,1,8,0:0:0:0:
256,32,31692,1,0,0:0:0:0:
256,192,31792,1,8,0:0:0:0:
256,32,31842,1,0,0:0:0:0:
256,192,31942,5,0,0:0:0:0:
256,192,32092,1,0,0:0:0:0:
256,192,32242,1,8,0:0:0:0:
256,32,32292,1,0,0:0:0:0:
256,192,32392,1,0,0:0:0:0:
256,192,32542,1,8,0:0:0:0:
256,32,32592,1,0,0:0:0:0:
256,192,32692,1,8,0:0:0:0:
256,32,32742,1,0,0:0:0:0:
256,192,32842,1,8,0:0:0:0:
256,32,32892,1,0,0:0:0:0:
256,192,32992,1,8,0:0:0:0:
256,32,33042,1,0,0:0:0:0:
160,96,33092,1,0,0:0:0:0:
256,192,33142,1,8,0:0:0:0:
64,96,33192,5,0,0:0:0:0:
128,192,33242,1,0,0:0:0:0:
192,160,33292,1,8,0:0:0:0:
288,128,33342,1,0,0:0:0:0:
320,96,33392,1,0,0:0:0:0:
256,192,33442,1,8,0:0:0:0:
256,192,33592,1,0,0:0:0:0:
256,192,33667,1,0,0:0:0:0:
256,192,33742,1,8,0:0:0:0:
256,192,33817,1,8,0:0:0:0:
256,192,33892,1,8,0:0:0:0:
256,192,33967,1,8,0:0:0:0:
192,32,34042,1,8,0:0:0:0:
256,192,34117,1,0,0:0:0:0:
288,96,34192,1,8,0:0:0:0:
160,128,34242,1,8,0:0:0:0:
192,224,34292,1,8,0:0:0:0:
96,224,34342,1,12,0:0:0:0:
96,64,34492,1,0,0:0:0:0:
256,96,34642,1,0,0:0:0:0:
224,192,34717,1,0,0:0:0:0:
128,160,34792,1,0,0:0:0:0:
288,288,34942,1,8,0:0:0:0:
96,288,35092,1,0,0:0:0:0:
32,160,35242,1,8,0:0:0:0:
96,160,35317,1,0,0:0:0:0:
160,160,35392,1,0,0:0:0:0:
96,224,35542,1,12,0:0:0:0:
96,64,35692,1,0,0:0:0:0:
256,96,35842,1,8,0:0:0:0:
224,192,35917,1,0,0:0:0:0:
128,160,35992,1,8,0:0:0:0:
288,288,36142,1,0,0:0:0:0:
96,288,36292,1,0,0:0:0:0:
32,160,36442,1,8,0:0:0:0:
96,160,36517,1,0,0:0:0:0:
160,160,36592,1,0,0:0:0:0:
160,64,36742,1,8,0:0:0:0:
160,64,36817,1,0,0:0:0:0:
160,64,36892,1,8,0:0:0:0:
160,64,36967,1,8,0:0:0:0:
160,64,37042,1,0,0:0:0:0:
160,64,37117,1,0,0:0:0:0:
160,64,37192,1,8,0:0:0:0:
160,64,37267,1,8,0:0:0:0:
160,64,37342,1,0,0:0:0:0:
160,64,37417,1,0,0:0:0:0:
160,64,37492,1,8,0:0:0:0:
160,64,37567,1,0,0:0:0:0:
160,64,37642,1,0,0:0:0:0:
160,64,37717,1,0,0:0:0:0:
160,64,37792,1,8,0:0:0:0:
160,64,37867,1,8,0:0:0:0:
160,64,37942,1,8,0:0:0:0:
160,64,37992,1,8,0:0:0:0:
160,64,38042,1,8,0:0:0:0:
160,64,38092,1,0,0:0:0:0:
160,64,38142,1,0,0:0:0:0:
160,64,38192,1,0,0:0:0:0:
160,64,38242,1,8,0:0:0:0:
160,64,38292,1,8,0:0:0:0:
160,64,38342,1,8,0:0:0:0:
160,64,38392,1,0,0:0:0:0:
160,64,38442,1,0,0:0:0:0:
160,64,38492,1,0,0:0:0:0:
160,64,38542,1,8,0:0:0:0:
160,64,38592,1,8,0:0:0:0:
160,64,38642,1,8,0:0:0:0:
160,64,38692,1,0,0:0:0:0:
160,64,38742,1,0,0:0:0:0:
160,64,38792,1,0,0:0:0:0:
160,64,38842,1,8,0:0:0:0:
160,64,38892,1,8,0:0:0:0:
160,64,38942,1,8,0:0:0:0:
160,64,38992,1,0,0:0:0:0:
160,64,39042,1,0,0:0:0:0:
160,64,39092,1,0,0:0:0:0:
96,224,39142,1,12,0:0:0:0:
96,64,39292,1,0,0:0:0:0:
256,96,39442,1,8,0:0:0:0:
224,192,39517,1,0,0:0:0:0:
128,160,39592,1,0,0:0:0:0:
288,288,39742,1,8,0:0:0:0:
96,288,39892,1,0,0:0:0:0:
32,160,40042,1,8,0:0:0:0:
96,160,40117,1,0,0:0:0:0:
160,160,40192,1,0,0:0:0:0:
96,224,40342,1,12,0:0:0:0:
96,64,40492,1,0,0:0:0:0:
256,96,40642,1,8,0:0:0:0:
224,192,40717,1,0,0:0:0:0:
128,160,40792,1,8,0:0:0:0:
288,288,40942,1,0,0:0:0:0:
96,288,41092,1,0,0:0:0:0:
32,160,41242,1,8,0:0:0:0:
96,160,41317,1,0,0:0:0:0:
160,160,41392,1,0,0:0:0:0:
160,64,41542,1,8,0:0:0:0:
160,64,41617,1,0,0:0:0:0:
160,64,41692,1,0,0:0:0:0:
160,64,41767,1,0,0:0:0:0:
160,64,41842,1,8,0:0:0:0:
160,64,41917,1,0,0:0:0:0:
160,64,41992,1,8,0:0:0:0:
160,64,42067,1,0,0:0:0:0:
160,64,42142,1,0,0:0:0:0:
160,64,42217,1,0,0:0:0:0:
160,64,42292,1,8,0:0:0:0:
160,64,42367,1,0,0:0:0:0:
160,64,42442,1,0,0:0:0:0:
160,64,42517,1,0,0:0:0:0:
160,64,42592,1,8,0:0:0:0:
160,64,42667,1,0,0:0:0:0:
160,64,42742,1,8,0:0:0:0:
160,64,42817,1,8,0:0:0:0:
160,64,42892,1,8,0:0:0:0:
160,64,42967,1,8,0:0:0:0:
160,64,43042,1,8,0:0:0:0:
160,64,43117,1,8,0:0:0:0:
160,64,43192,1,8,0:0:0:0:
160,64,43267,1,0,0:0:0:0:
160,64,43342,1,8,0:0:0:0:
160,64,43417,1,8,0:0:0:0:
160,64,43492,1,8,0:0:0:0:
160,64,43567,1,8,0:0:0:0:
160,64,43642,1,8,0:0:0:0:
160,64,43717,1,8,0:0:0:0:
160,64,43792,1,8,0:0:0:0:
160,64,43867,1,8,0:0:0:0:
96,224,43942,1,12,0:0:0:0:
96,64,44092,1,0,0:0:0:0:
256,96,44242,1,8,0:0:0:0:
224,192,44317,1,0,0:0:0:0:
128,160,44392,1,8,0:0:0:0:
288,288,44542,1,8,0:0:0:0:
96,288,44692,1,0,0:0:0:0:
32,160,44842,1,8,0:0:0:0:
96,160,44917,1,0,0:0:0:0:
160,160,44992,1,0,0:0:0:0:
96,224,45142,1,12,0:0:0:0:
96,64,45292,1,0,0:0:0:0:
256,96,45442,1,8,0:0:0:0:
224,192,45517,1,0,0:0:0:0:
128,160,45592,1,8,0:0:0:0:
288,288,45742,1,0,0:0:0:0:
96,288,45892,1,8,0:0:0:0:
32,160,46042,1,8,0:0:0:0:
96,160,46117,1,8,0:0:0:0:
160,160,46192,1,8,0:0:0:0:
160,64,46342,1,8,0:0:0:0:
160,64,46417,1,8,0:0:0:0:
160,64,46492,1,0,0:0:0:0:
160,64,46567,1,0,0:0:0:0:
160,64,46642,1,8,0:0:0:0:
160,64,46717,1,0,0:0:0:0:
160,64,46792,1,8,0:0:0:0:
160,64,46867,1,8,0:0:0:0:
160,64,46942,1,8,0:0:0:0:
160,64,47017,1,0,0:0:0:0:
160,64,47092,1,8,0:0:0:0:
160,64,47167,1,8,0:0:0:0:
160,64,47242,1,8,0:0:0:0:
160,64,47317,1,0,0:0:0:0:
160,64,47392,1,8,0:0:0:0:
160,64,47467,1,0,0:0:0:0:
160,64,47542,1,8,0:0:0:0:
160,64,47617,1,8,0:0:0:0:
160,64,47692,1,8,0:0:0:0:
160,64,47767,1,8,0:0:0:0:
160,64,47842,1,8,0:0:0:0:
160,64,47917,1,8,0:0:0:0:
160,64,47992,1,8,0:0:0:0:
160,64,48067,1,8,0:0:0:0:
160,64,48142,1,8,0:0:0:0:
160,64,48217,1,8,0:0:0:0:
160,64,48292,1,8,0:0:0:0:
160,64,48367,1,8,0:0:0:0:
160,64,48442,1,8,0:0:0:0:
160,64,48517,1,0,0:0:0:0:
160,64,48592,1,0,0:0:0:0:
160,64,48667,1,0,0:0:0:0:
96,224,48742,1,12,0:0:0:0:
96,64,48892,1,0,0:0:0:0:
256,96,49042,1,8,0:0:0:0:
224,192,49117,1,0,0:0:0:0:
128,160,49192,1,0,0:0:0:0:
288,288,49342,1,8,0:0:0:0:
96,288,49492,1,0,0:0:0:0:
32,160,49642,1,8,0:0:0:0:
96,160,49717,1,0,0:0:0:0:
160,160,49792,1,0,0:0:0:0:
96,224,49942,1,12,0:0:0:0:
96,64,50092,1,0,0:0:0:0:
256,96,50242,1,8,0:0:0:0:
224,192,50317,1,0,0:0:0:0:
128,160,50392,1,8,0:0:0:0:
288,288,50542,1,0,0:0:0:0:
96,288,50692,1,8,0:0:0:0:
32,160,50842,1,8,0:0:0:0:
96,160,50917,1,8,0:0:0:0:
160,160,50992,1,0,0:0:0:0:
160,64,51142,1,8,0:0:0:0:
160,64,51217,1,8,0:0:0:0:
160,64,51292,1,8,0:0:0:0:
160,64,51367,1,0,0:0:0:0:
160,64,51442,1,8,0:0:0:0:
160,64,51517,1,0,0:0:0:0:
160,64,51592,1,8,0:0:0:0:
160,64,51667,1,8,0:0:0:0:
160,64,51742,1,0,0:0:0:0:
160,64,51817,1,0,0:0:0:0:
160,64,51892,1,8,0:0:0:0:
160,64,51967,1,0,0:0:0:0:
160,64,52042,1,0,0:0:0:0:
160,64,52117,1,0,0:0:0:0:
160,64,52192,1,8,0:0:0:0:
160,64,52267,1,8,0:0:0:0:
160,64,52342,1,8,0:0:0:0:
160,64,52392,1,8,0:0:0:0:
160,64,52442,1,8,0:0:0:0:
160,64,52492,1,8,0:0:0:0:
160,64,52567,1,0,0:0:0:0:
160,64,52642,1,0,0:0:0:0:
160,64,52692,1,8,0:0:0:0:
160,64,52742,1,8,0:0:0:0:
160,64,52792,1,8,0:0:0:0:
160,64,52867,1,0,0:0:0:0:
160,64,52942,1,8,0:0:0:0:
160,64,52992,1,8,0:0:0:0:
160,64,53042,1,8,0:0:0:0:
160,64,53092,1,8,0:0:0:0:
160,64,53167,1,8,0:0:0:0:
160,64,53242,1,0,0:0:0:0:
160,64,53292,1,0,0:0:0:0:
160,64,53342,1,8,0:0:0:0:
160,64,53392,1,8,0:0:0:0:
160,64,53467,1,8,0:0:0:0:
96,224,53542,1,12,0:0:0:0:
96,64,53692,1,0,0:0:0:0:
256,96,53842,1,8,0:0:0:0:
224,192,53917,1,0,0:0:0:0:
128,160,53992,1,0,0:0:0:0:
288,288,54142,1,8,0:0:0:0:
96,288,54292,1,0,0:0:0:0:
32,160,54442,1,0,0:0:0:0:
96,160,54517,1,0,0:0:0:0:
160,160,54592,1,0,0:0:0:0:
96,224,54742,1,12,0:0:0:0:
96,64,54892,1,8,0:0:0:0:
256,96,55042,1,0,0:0:0:0:
224,192,55117,1,0,0:0:0:0:
128,160,55192,1,8,0:0:0:0:
288,288,55342,1,0,0:0:0:0:
96,288,55492,1,8,0:0:0:0:
32,160,55642,1,0,0:0:0:0:
96,160,55717,1,0,0:0:0:0:
160,160,55792,1,0,0:0:0:0:
160,64,55942,1,8,0:0:0:0:
160,64,56017,1,8,0:0:0:0:
160,64,56092,1,8,0:0:0:0:
160,64,56167,1,8,0:0:0:0:
160,64,56242,1,8,0:0:0:0:
160,64,56317,1,8,0:0:0:0:
160,64,56392,1,0,0:0:0:0:
160,64,56467,1,0,0:0:0:0:
160,64,56542,1,8,0:0:0:0:
160,64,56617,1,8,0:0:0:0:
160,64,56692,1,8,0:0:0:0:
160,64,56767,1,8,0:0:0:0:
160,64,56842,1,8,0:0:0:0:
160,64,56917,1,8,0:0:0:0:
160,64,56992,1,8,0:0:0:0:
160,64,57067,1,8,0:0:0:0:
160,64,57142,1,8,0:0:0:0:
160,64,57217,1,8,0:0:0:0:
160,64,57292,1,8,0:0:0:0:
160,64,57367,1,8,0:0:0:0:
160,64,57442,1,8,0:0:0:0:
160,64,57517,1,8,0:0:0:0:
160,64,57592,1,8,0:0:0:0:
160,64,57667,1,0,0:0:0:0:
160,64,57742,1,0,0:0:0:0:
160,64,57817,1,0,0:0:0:0:
160,64,57892,1,0,0:0:0:0:
160,64,57967,1,0,0:0:0:0:
160,64,58042,1,8,0:0:0:0:
160,64,58092,1,8,0:0:0:0:
160,64,58142,1,8,0:0:0:0:
160,64,58192,1,0,0:0:0:0:
160,64,58242,1,0,0:0:0:0:
160,64,58292,1,0,0:0:0:0:
96,224,58342,1,12,0:0:0:0:
96,64,58492,1,0,0:0:0:0:
256,96,58642,1,0,0:0:0:0:
224,192,58717,1,0,0:0:0:0:
128,160,58792,1,8,0:0:0:0:
288,288,58942,1,0,0:0:0:0:
96,288,59092,1,0,0:0:0:0:
32,160,59242,1,8,0:0:0:0:
96,160,59317,1,0,0:0:0:0:
160,160,59392,1,0,0:0:0:0:
96,224,59542,1,12,0:0:0:0:
96,64,59692,1,0,0:0:0:0:
256,96,59842,1,0,0:0:0:0:
224,192,59917,1,0,0:0:0:0:
128,160,59992,1,8,0:0:0:0:
288,288,60142,1,0,0:0:0:0:
96,288,60292,1,0,0:0:0:0:
32,160,60442,1,8,0:0:0:0:
96,160,60517,1,0,0:0:0:0:
160,160,60592,1,0,0:0:0:0:
160,64,60742,1,8,0:0:0:0:
160,64,60817,1,8,0:0:0:0:
160,64,60892,1,8,0:0:0:0:
160,64,60967,1,8,0:0:0:0:
160,64,61042,1,8,0:0:0:0:
160,64,61117,1,8,0:0:0:0:
160,64,61192,1,8,0:0:0:0:
160,64,61267,1,8,0:0:0:0:
160,64,61342,1,8,0:0:0:0:
160,64,61417,1,8,0:0:0:0:
160,64,61492,1,8,0:0:0:0:
160,64,61567,1,8,0:0:0:0:
160,64,61642,1,8,0:0:0:0:
160,64,61717,1,8,0:0:0:0:
160,64,61792,1,8,0:0:0:0:
160,64,61867,1,0,0:0:0:0:
160,64,61942,1,8,0:0:0:0:
160,64,62017,1,8,0:0:0:0:
160,64,62092,1,8,0:0:0:0:
160,64,62167,1,8,0:0:0:0:
160,64,62242,1,8,0:0:0:0:
160,64,62317,1,0,0:0:0:0:
160,64,62392,1,0,0:0:0:0:
160,64,62467,1,0,0:0:0:0:
160,64,62542,1,8,0:0:0:0:
160,64,62592,1,8,0:0:0:0:
160,64,62642,1,8,0:0:0:0:
160,64,62692,1,0,0:0:0:0:
160,64,62742,1,0,0:0:0:0:
160,64,62792,1,0,0:0:0:0:
160,64,62842,1,8,0:0:0:0:
160,64,62879,1,8,0:0:0:0:
160,64,62917,1,8,0:0:0:0:
160,64,62954,1,8,0:0:0:0:
160,64,62992,1,8,0:0:0:0:
160,64,63017,1,8,0:0:0:0:
160,64,63042,1,8,0:0:0:0:
160,64,63067,1,8,0:0:0:0:
160,64,63092,1,8,0:0:0:0:
160,64,63117,1,8,0:0:0:0:
160,64,63142,1,8,0:0:0:0:
