osu file format v14

[General]
AudioFilename: audio.mp3
AudioLeadIn: 0
PreviewTime: 162258
Countdown: 0
SampleSet: Soft
StackLeniency: 0.7
Mode: 0
LetterboxInBreaks: 0
EpilepsyWarning: 1
WidescreenStoryboard: 1

[Editor]
DistanceSpacing: 1.2
BeatDivisor: 6
GridSize: 32
TimelineZoom: 1.399999

[Metadata]
Title:High Tide
TitleUnicode:High Tide
Artist:Moona Hoshinova
ArtistUnicode:Moona Hoshinova
Creator:SMOKELIND
Version:frozz's Hard
Source:
Tags:ホロライブ ムーナ・ホシノヴァ hololive ID Indonesia Pop Electronic English Virtual Youtuber YT Vtuber iceluin frozz -keqing reform kujinn
BeatmapID:3636066
BeatmapSetID:1761111

[Difficulty]
HPDrainRate:4.5
CircleSize:3.7
OverallDifficulty:6
ApproachRate:8
SliderMultiplier:1.4
SliderTickRate:1

[Events]
//Background and Video events
0,0,"BG.jpg",0,0
Video,0,"vid.mp4"
//Break Periods
2,157605,161942
//Storyboard Layer 0 (Background)
//Storyboard Layer 1 (Fail)
//Storyboard Layer 2 (Pass)
//Storyboard Layer 3 (Foreground)
//Storyboard Layer 4 (Overlay)
//Storyboard Sound Samples

[TimingPoints]
15,361.44578313253,4,2,77,27,1,0
10858,-125,4,2,77,27,0,0
11581,-125,4,2,77,57,0,0
12303,-125,4,2,77,47,0,0
14472,-125,4,2,77,57,0,0
14833,-125,4,2,77,47,0,0
17364,-125,4,2,77,57,0,0
17906,-125,4,2,77,47,0,0
20255,-125,4,2,77,57,0,0
20616,-125,4,2,77,47,0,0
21701,-125,4,2,77,57,0,0
21881,-125,4,2,77,47,0,0
22243,-125,4,2,77,57,0,0
22604,-125,4,2,77,47,0,0
23147,-125,4,2,77,57,0,0
23508,-111.111111111111,4,2,77,57,0,0
34713,-99.9999999999999,4,2,77,57,0,0
40496,-99.9999999999999,4,2,77,47,0,0
41581,-99.9999999999999,4,2,77,57,0,0
42665,-99.9999999999999,4,2,77,67,0,0
43388,-99.9999999999999,4,2,77,77,0,0
43749,-90.9090909090909,4,2,77,77,0,0
44111,-83.3333333333333,4,2,77,77,0,0
44472,-76.9230769230769,4,2,77,77,0,0
46280,-83.3333333333333,4,2,77,87,0,0
48990,-83.3333333333333,4,2,77,57,0,0
49533,-83.3333333333333,4,2,77,87,0,0
54773,-83.3333333333333,4,2,77,57,0,0
55316,-83.3333333333333,4,2,77,87,0,0
57846,-71.4285714285714,4,2,77,87,0,0
60557,-71.4285714285714,4,2,77,47,0,0
61099,-71.4285714285714,4,2,77,87,0,0
66340,-71.4285714285714,4,2,77,47,0,0
66882,-71.4285714285714,4,2,77,87,0,0
69412,-71.4285714285714,4,2,77,87,0,1
74653,-83.3333333333333,4,2,77,87,0,1
75195,-83.3333333333333,4,2,77,5,0,0
76099,-83.3333333333333,4,2,77,47,0,0
76280,-125,4,2,77,47,0,0
76641,-125,4,2,77,57,0,0
77364,-111.111111111111,4,2,77,57,0,0
99774,-100,4,2,77,57,0,0
105557,-100,4,2,77,47,0,0
106641,-100,4,2,77,57,0,0
107725,-100,4,2,77,67,0,0
108448,-100,4,2,77,77,0,0
108810,-90.9090909090909,4,2,77,77,0,0
109171,-83.3333333333333,4,2,77,77,0,0
109533,-76.9230769230769,4,2,77,77,0,0
111340,-83.3333333333333,4,2,77,87,0,0
114050,-83.3333333333333,4,2,77,57,0,0
114593,-83.3333333333333,4,2,77,87,0,0
119833,-83.3333333333333,4,2,77,57,0,0
120376,-83.3333333333333,4,2,77,87,0,0
122906,-71.4285714285714,4,2,77,87,0,0
125617,-71.4285714285714,4,2,77,47,0,0
126159,-71.4285714285714,4,2,77,87,0,0
131400,-71.4285714285714,4,2,77,47,0,0
131942,-71.4285714285714,4,2,77,87,0,0
134472,-71.4285714285714,4,2,77,87,0,1
145496,-83.3333333333333,4,2,77,87,0,1
146039,-83.3333333333333,4,2,77,27,0,0
147484,-166.666666666667,4,2,77,27,0,0
163388,-83.3333333333334,4,2,77,87,0,0
166098,-83.3333333333334,4,2,77,57,0,0
166641,-83.3333333333334,4,2,77,87,0,0
171882,-83.3333333333334,4,2,77,57,0,0
172424,-83.3333333333334,4,2,77,87,0,0
174954,-71.4285714285714,4,2,77,87,0,0
177665,-71.4285714285714,4,2,77,47,0,0
178207,-71.4285714285714,4,2,77,87,0,0
183448,-71.4285714285714,4,2,77,47,0,0
183990,-71.4285714285714,4,2,77,87,0,0
186521,-71.4285714285714,4,2,77,87,0,1
197182,-71.4285714285714,4,2,77,67,0,1
197544,-71.4285714285714,4,2,77,47,0,1
197906,-71.4285714285714,4,2,77,47,0,0

[Colours]
Combo1 : 97,37,254
Combo2 : 163,70,255

[HitObjects]
375,222,10858,6,0,P|381:186|385:157,1,55.9999999999999,0|0,2:0|2:0,2:0:0:0:
459,183,11219,2,0,P|453:219|449:248,1,55.9999999999999,0|0,2:0|2:0,2:0:0:0:
488,318,11581,2,0,P|421:259|271:254,1,224,12|2,1:0|2:0,2:0:0:0:
119,352,12665,1,2,2:0:0:0:
119,352,12846,2,0,P|103:280|88:236,1,112,2|2,2:0|2:0,2:0:0:0:
245,181,13569,2,0,P|261:109|276:65,1,112,2|2,2:0|2:0,2:0:0:0:
80,57,14292,5,2,2:0:0:0:
80,57,14472,2,0,P|118:115|155:194,1,112,12|2,1:0|2:0,2:0:0:0:
248,351,15918,1,2,2:0:0:0:
248,351,16099,2,0,P|289:341|329:334,1,55.9999999999999,2|2,2:0|2:0,2:0:0:0:
383,363,16460,2,0,P|339:313|395:215,1,168,2|0,2:0|2:0,2:0:0:0:
453,212,17183,1,0,1:0:0:0:
453,212,17364,1,12,1:0:0:0:
236,98,17906,5,2,2:0:0:0:
236,98,18087,2,0,P|253:163|268:234,1,112,2|2,2:0|2:0,2:0:0:0:
281,289,18629,2,0,P|214:261|140:250,1,112,2|2,2:0|2:0,2:0:0:0:
48,133,19352,2,0,P|115:105|189:94,1,112,2|2,2:0|2:0,2:0:0:0:
354,152,20075,5,2,2:0:0:0:
354,152,20255,2,0,P|367:92|393:32,1,112,12|0,1:0|2:0,2:0:0:0:
486,274,21521,1,2,2:0:0:0:
486,274,21701,2,0,P|438:283|402:296,1,55.9999999999999,14|2,1:0|2:0,2:0:0:0:
345,262,22063,1,2,2:0:0:0:
345,262,22243,2,0,P|317:268|222:280,1,112,14|0,1:0|1:0,2:0:0:0:
177,351,22786,2,0,L|129:363,3,28,0|0|0|0,2:0|2:0|2:0|2:0,2:0:0:0:
125,366,23147,1,0,1:0:0:0:
46,311,23328,5,2,2:0:0:0:
46,311,23508,2,0,P|58:262|68:214,1,62.9999980773926,2|2,2:0|2:0,2:0:0:0:
9,179,23870,2,0,P|71:177|114:100,1,125.999996154785,10|2,2:0|2:0,2:0:0:0:
200,112,24412,2,0,L|173:253,1,125.999996154785,2|2,1:0|1:0,2:0:0:0:
245,296,24954,2,0,P|286:276|348:276,1,62.9999980773926,2|2,1:0|2:0,2:0:0:0:
378,317,25316,1,10,2:0:0:0:
378,317,25496,1,8,2:0:0:0:
441,257,25677,2,0,P|433:219|423:176,1,62.9999980773926,2|0,2:0|2:0,2:0:0:0:
477,120,26039,1,0,1:0:0:0:
367,12,26400,5,2,2:0:0:0:
367,12,26581,1,2,2:0:0:0:
273,0,26761,2,0,P|222:46|204:108,1,125.999996154785,10|2,2:0|2:0,2:0:0:0:
119,125,27304,2,0,L|174:259,1,125.999996154785,10|10,1:0|2:0,2:0:0:0:
106,309,27846,2,0,P|82:351|32:382,1,62.9999980773926,2|2,1:0|2:0,2:0:0:0:
71,360,28117,1,0,2:0:0:0:
71,360,28207,1,10,2:0:0:0:
0,306,28388,1,0,1:0:0:0:
31,220,28569,2,0,L|56:78,1,125.999996154785,2|2,2:0|2:0,2:0:0:0:
31,93,29653,6,0,L|52:217,1,125.999996154785,10|2,2:0|2:0,2:0:0:0:
0,289,30195,2,0,P|48:305|96:372,1,125.999996154785,2|2,1:0|1:0,2:0:0:0:
174,324,30737,2,0,P|222:315|254:313,1,62.9999980773926,0|2,1:0|2:0,2:0:0:0:
319,341,31099,1,8,2:0:0:0:
319,341,31280,2,0,P|333:299|352:256,1,62.9999980773926,10|0,2:0|2:0,2:0:0:0:
292,204,31641,1,2,1:0:0:0:
292,204,31822,6,0,P|344:185|382:113,1,125.999996154785,0|0,1:0|2:0,2:0:0:0:
363,43,32364,2,0,L|359:6,3,20.9999993591309,0|0|0|8,1:0|2:0|2:0|2:0,2:0:0:0:
444,66,32725,2,0,P|488:77|519:91,1,62.9999980773926,0|0,2:0|2:0,2:0:0:0:
512,172,33087,1,10,1:0:0:0:
441,227,33268,1,2,2:0:0:0:
441,227,33448,2,0,P|452:274|457:305,1,62.9999980773926,10|2,1:0|1:0,2:0:0:0:
437,380,33810,1,2,2:0:0:0:
437,380,33990,2,0,P|399:361|352:350,1,62.9999980773926,8|8,2:0|2:0,2:0:0:0:
298,317,34352,2,0,L|295:274,2,31.4999990386963,2|0|0,3:0|3:0|3:0,2:0:0:0:
212,359,34713,6,0,P|161:337|85:263,3,140,14|8|8|8,1:0|1:0|1:0|1:0,2:0:0:0:
312,293,36159,2,0,P|378:272|435:232,3,140,8|8|8|8,1:0|1:0|1:0|1:0,2:0:0:0:
205,174,37605,2,0,P|171:129|143:27,3,140,8|8|8|8,1:0|1:0|1:0|1:0,2:0:0:0:
424,145,39051,5,10,1:0:0:0:
423,145,39231,2,0,P|448:121|470:93,1,70,2|8,2:0|1:0,2:0:0:0:
403,40,39593,2,0,P|377:63|355:91,2,70,2|8|0,2:0|1:0|2:0,2:0:0:0:
486,6,40135,1,10,1:0:0:0:
237,0,40496,6,0,P|253:52|264:103,1,70,8|8,1:0|1:0,2:0:0:0:
210,146,40858,2,0,P|158:162|107:173,1,70,8|8,1:0|1:0,2:0:0:0:
53,219,41219,2,0,P|86:227|120:238,1,70,8|8,1:0|1:0,2:0:0:0:
166,317,41581,2,0,P|157:350|146:384,1,70,8|8,1:0|1:0,2:0:0:0:
238,372,41942,5,8,1:0:0:0:
299,313,42123,1,8,1:0:0:0:
377,352,42304,2,0,P|428:364|487:384,1,70,8|8,1:0|1:0,2:0:0:0:
463,284,42665,2,0,P|475:233|495:174,1,70,8|8,1:0|1:0,2:0:0:0:
392,203,43027,2,0,P|341:191|282:171,1,70,8|0,1:0|1:0,2:0:0:0:
315,176,43298,1,0,1:0:0:0:
305,166,43388,6,0,L|245:173,3,35,8|0|0|0,1:0|1:0|1:0|1:0,2:0:0:0:
238,156,43749,2,0,L|178:163,3,38.5000011749268,8|0|0|0,1:0|1:0|1:0|1:0,2:0:0:0:
164,144,44111,2,0,L|104:151,3,41.9999987182618,8|0|0|0,1:2|1:2|1:2|1:2,2:0:0:0:
83,137,44472,2,0,L|23:144,3,45.4999979171754,0|0|0|0,1:0|1:0|1:0|1:0,2:0:0:0:
3,119,44834,1,8,1:2:0:0:
3,119,46280,6,0,B|-10:52|30:-18|120:-31|160:12|143:85,1,251.999992309571,6|2,1:0|1:0,2:0:0:0:
209,123,47002,2,0,P|168:133|128:146,1,83.9999974365235,10|0,2:0|2:0,2:0:0:0:
63,214,47364,1,2,1:0:0:0:
124,288,47545,2,0,B|218:304|218:304|257:297|261:247,1,167.999994873047,2|0,2:0|1:0,2:0:0:0:
312,181,48087,2,0,B|356:184|363:223|363:223|346:317,1,167.999994873047,0|10,1:0|2:0,2:0:0:0:
419,368,48629,1,2,1:0:0:0:
487,311,48810,2,0,L|465:193,1,111.999996582031,2|2,2:0|2:0,2:0:0:0:
496,35,49533,6,0,L|461:228,1,167.999994873047,0|8,1:0|2:0,2:0:0:0:
418,303,50075,2,0,B|375:326|339:293|351:287|315:245|252:276,1,167.999994873047,2|2,1:0|2:0,2:0:0:0:
257,277,50527,1,0,2:0:0:0:
250,284,50617,1,0,1:0:0:0:
181,384,50798,2,0,P|168:313|134:202,1,167.999994873047,2|0,2:0|1:0,2:0:0:0:
132,214,51249,1,0,2:0:0:0:
124,208,51340,1,10,2:0:0:0:
136,109,51521,2,0,P|211:133|242:148,1,83.9999974365235,2|2,1:0|2:0,2:0:0:0:
307,108,51882,5,2,1:0:0:0:
299,84,51972,1,0,1:0:0:0:
291,60,52063,2,0,B|200:39|131:7|131:7|89:9|59:67,1,251.999992309571,4|0,1:0|1:0,2:0:0:0:
0,126,52786,2,0,P|17:183|34:241,1,83.9999974365235,10|0,2:0|2:0,2:0:0:0:
14,307,53147,1,2,1:0:0:0:
111,305,53328,2,0,P|173:326|276:405,1,167.999994873047,2|0,2:0|1:0,2:0:0:0:
337,341,53870,2,0,P|415:311|479:263,1,83.9999974365235,0|0,1:0|2:0,2:0:0:0:
422,306,54141,1,0,2:0:0:0:
428,300,54231,1,10,2:0:0:0:
479,384,54412,2,0,P|489:324|517:199,1,167.999994873047,2|2,1:0|2:0,2:0:0:0:
512,40,55316,6,0,P|443:31|325:-11,1,167.999994873047,0|10,1:0|2:0,2:0:0:0:
293,70,55858,2,0,P|224:78|106:121,1,167.999994873047,0|0,1:0|2:0,2:0:0:0:
210,176,56400,2,0,P|273:190|318:204,2,83.9999974365235,2|2|2,1:0|2:0|2:0,2:0:0:0:
177,268,56942,1,2,1:0:0:0:
177,268,57033,1,0,2:0:0:0:
177,268,57123,2,0,L|213:309,2,41.9999987182618,10|8|2,2:0|2:0|1:0,2:0:0:0:
77,261,57484,1,2,2:0:0:0:
98,159,57665,5,0,1:0:0:0:
114,134,57755,1,0,1:0:0:0:
130,109,57846,2,0,P|207:104|313:81,1,146.999995513916,6|0,1:0|2:0,2:0:0:0:
287,86,58207,1,8,2:0:0:0:
366,31,58388,1,0,1:0:0:0:
445,88,58569,2,0,P|421:161|411:202,1,97.9999970092774,8|0,2:0|2:0,2:0:0:0:
495,244,58930,5,10,1:0:0:0:
495,244,59111,2,0,P|419:254|385:340,1,146.999995513916,2|0,2:0|2:0,2:0:0:0:
392,327,59472,2,0,P|332:309|277:302,1,97.9999970092774,2|8,1:0|1:0,2:0:0:0:
250,226,59834,2,0,L|281:101,1,97.9999970092774,2|8,2:0|2:0,2:0:0:0:
196,84,60195,2,0,L|165:209,1,97.9999970092774,2|8,1:0|2:0,2:0:0:0:
97,230,60557,2,0,P|48:221|2:206,1,97.9999970092774,10|0,2:3|2:0,2:0:0:0:
2,206,61099,6,0,L|194:176,1,146.999995513916,8|0,1:0|2:0,2:0:0:0:
172,179,61460,1,8,2:0:0:0:
224,96,61641,2,0,P|282:115|335:144,2,97.9999970092774,0|10|2,1:0|2:0|2:0,2:0:0:0:
139,36,62183,5,8,1:0:0:0:
139,36,62364,2,0,P|210:16|267:-11,1,97.9999970092774,2|8,2:0|2:0,2:0:0:0:
322,53,62725,2,0,L|330:109,2,48.9999985046387,2|0|8,1:0|1:0|2:0,2:0:0:0:
411,23,63087,2,0,P|482:43|539:70,1,97.9999970092774,2|8,1:0|2:0,2:0:0:0:
469,147,63448,5,2,1:0:0:0:
477,170,63539,1,0,1:0:0:0:
485,193,63629,2,0,P|411:206|327:256,1,146.999995513916,4|0,1:0|2:0,2:0:0:0:
347,251,63990,1,10,2:0:0:0:
275,180,64171,2,0,P|201:167|117:117,1,146.999995513916,2|0,1:0|2:0,2:0:0:0:
137,122,64532,1,2,2:0:0:0:
99,23,64713,6,0,B|129:91|67:139|70:103|12:152|57:230,1,195.999994018555,10|8,1:0|2:0,2:0:0:0:
131,241,65255,1,0,1:0:0:0:
131,241,65436,2,0,P|64:262|60:356,1,146.999995513916,8|0,1:0|2:0,2:0:0:0:
58,343,65798,1,10,2:0:0:0:
148,372,65978,2,0,P|210:354|263:345,1,97.9999970092774,2|8,1:0|2:0,2:0:0:0:
326,379,66340,2,0,P|344:322|373:267,1,97.9999970092774,10|0,2:3|2:0,2:0:0:0:
360,287,66882,6,0,P|335:230|298:188,1,97.9999970092774,8|2,1:0|2:0,2:0:0:0:
305,198,67153,1,0,2:0:0:0:
296,193,67243,1,10,2:0:0:0:
215,143,67424,1,0,1:0:0:0:
283,70,67605,2,0,P|332:58|381:33,2,65.3333313395183,8|8|8,2:0|2:3|2:3,2:0:0:0:
222,29,67966,6,0,P|160:12|103:5,1,97.9999970092774,2|2,1:0|2:0,2:0:0:0:
118,7,68237,1,0,2:0:0:0:
110,8,68328,1,10,2:0:0:0:
93,94,68508,1,2,1:0:0:0:
0,80,68689,2,0,P|27:137|45:199,1,97.9999970092774,10|2,2:0|2:0,2:0:0:0:
123,240,69051,2,0,P|142:182|199:88,1,146.999995513916,2|0,2:0|2:0,2:0:0:0:
203,88,69412,6,0,B|234:60|278:65|278:65|226:141|265:217|331:207|349:155,1,293.999991027832,14|2,1:0|1:0,2:0:0:0:
425,92,70135,1,10,2:0:0:0:
439,182,70316,1,0,2:0:0:0:
453,272,70496,2,0,P|377:285|261:348,1,195.999994018555,6|0,1:0|2:0,2:0:0:0:
236,252,71039,1,0,1:0:0:0:
236,252,71219,2,0,P|160:239|44:176,1,195.999994018555,4|8,1:0|2:0,2:0:0:0:
118,118,71761,1,0,1:0:0:0:
118,118,71942,2,0,B|148:52|148:52|61:12,1,146.999995513916,2|0,2:0|2:0,2:0:0:0:
80,20,72304,6,0,P|135:17|209:3,1,97.9999970092774,14|2,1:0|2:0,2:0:0:0:
292,175,72846,1,0,1:0:0:0:
292,175,73027,2,0,P|340:167|389:165,1,97.9999970092774,8|0,2:0|2:0,2:0:0:0:
488,190,73388,2,0,P|397:157|381:51,1,195.999994018555,4|0,1:0|2:0,2:0:0:0:
296,0,73930,1,0,1:0:0:0:
296,0,74111,2,0,L|279:125,2,97.9999970092774,4|0|8,1:0|2:0|2:0,2:0:0:0:
208,55,74653,2,0,B|169:125|226:180|251:154|302:211|258:274,1,251.999992309571,0|0,1:0|2:0,2:0:0:0:
258,274,76099,5,0,2:0:0:0:
180,304,76280,2,0,L|174:335,2,28,0|0|0,2:0|2:0|2:0,2:0:0:0:
119,247,76641,1,4,1:0:0:0:
119,247,77364,6,0,P|163:230|238:166,1,125.999996154785,10|2,2:0|2:0,2:0:0:0:
313,164,77906,2,0,L|297:234,1,62.9999980773926,2|0,1:0|2:0,2:0:0:0:
373,268,78268,1,2,1:0:0:0:
373,268,78448,2,0,L|389:198,1,62.9999980773926,0|2,1:0|2:0,2:0:0:0:
470,183,78810,1,8,2:0:0:0:
470,183,78990,2,0,P|450:136|432:51,1,125.999996154785,10|2,2:0|2:0,2:0:0:0:
358,26,79533,6,0,B|285:-4|229:67|271:71|207:141|131:103,1,251.999992309571,0|8,1:0|2:0,2:0:0:0:
26,321,80798,1,8,1:0:0:0:
113,302,80978,1,2,2:0:0:0:
113,302,81159,2,0,P|157:310|193:320,2,62.9999980773926,10|2|2,2:0|1:0|2:0,2:0:0:0:
35,237,81701,1,10,2:0:0:0:
35,237,81882,2,0,P|82:221|167:183,1,125.999996154785,2|2,1:0|2:0,2:0:0:0:
195,119,82424,1,0,1:0:0:0:
195,119,83147,6,0,P|246:144|327:148,1,125.999996154785,10|2,2:0|2:0,2:0:0:0:
391,199,83689,2,0,L|327:244,1,62.9999980773926,2|0,1:0|2:0,2:0:0:0:
386,309,84051,1,2,1:0:0:0:
386,309,84231,2,0,L|437:272,1,62.9999980773926,2|2,1:0|2:0,2:0:0:0:
498,327,84593,1,8,2:0:0:0:
498,327,84774,2,0,P|504:280|528:187,1,125.999996154785,10|2,2:0|1:0,2:0:0:0:
512,193,85225,1,0,1:0:0:0:
501,182,85316,6,0,P|433:158|365:115,1,125.999996154785,12|2,1:0|2:0,2:0:0:0:
323,63,85858,1,12,1:0:0:0:
323,63,86039,2,0,P|334:13|338:-14,1,62.9999980773926,8|0,2:0|1:0,2:0:0:0:
249,14,86400,2,0,P|238:64|234:91,1,62.9999980773926,2|2,2:0|1:0,2:0:0:0:
165,130,86761,1,2,2:0:0:0:
165,130,86942,2,0,P|116:150|86:170,1,62.9999980773926,10|2,2:0|1:0,2:0:0:0:
24,139,87304,1,2,2:0:0:0:
25,137,87484,2,0,P|9:175|-7:207,1,62.9999980773926,8|0,2:0|1:0,2:0:0:0:
57,269,87846,2,0,L|45:326,3,31.4999990386963,0|0|0|0,2:0|2:0|2:0|2:0,2:0:0:0:
46,324,88207,1,8,1:0:0:0:
232,314,88569,6,0,P|284:320|319:330,1,62.9999980773926,10|2,2:0|2:0,2:0:0:0:
371,366,88930,2,0,P|342:313|360:234,1,125.999996154785,10|10,2:0|2:0,2:0:0:0:
432,210,89472,2,0,L|459:66,1,125.999996154785,2|2,1:0|1:0,2:0:0:0:
384,30,90014,2,0,P|346:50|300:63,1,62.9999980773926,10|2,1:0|2:0,2:0:0:0:
249,11,90376,1,10,2:0:0:0:
249,11,90557,1,8,2:0:0:0:
177,54,90737,2,0,P|193:96|203:136,1,62.9999980773926,10|0,2:0|2:0,2:0:0:0:
282,147,91099,1,8,1:0:0:0:
75,262,91460,5,10,2:0:0:0:
75,262,91641,1,2,2:0:0:0:
143,319,91822,2,0,P|186:286|265:290,1,125.999996154785,10|10,2:0|2:0,2:0:0:0:
312,351,92364,2,0,L|337:201,1,125.999996154785,10|10,1:0|2:0,2:0:0:0:
368,150,92906,2,0,P|410:132|436:108,1,62.9999980773926,10|2,1:0|2:0,2:0:0:0:
423,121,93177,1,0,2:0:0:0:
423,121,93268,1,10,2:0:0:0:
512,178,93448,1,0,1:0:0:0:
452,246,93629,2,0,L|469:382,1,125.999996154785,2|2,2:0|2:0,2:0:0:0:
497,380,94533,5,0,1:0:0:0:
497,380,94623,1,0,2:0:0:0:
497,380,94713,2,0,L|361:363,1,125.999996154785,10|10,2:0|2:0,2:0:0:0:
282,375,95255,2,0,P|269:322|271:285,1,62.9999980773926,2|8,1:0|2:0,2:0:0:0:
338,248,95617,1,2,1:0:0:0:
338,248,95798,2,0,P|351:195|349:158,1,62.9999980773926,8|2,1:0|2:0,2:0:0:0:
284,132,96159,2,0,L|244:141,2,31.4999990386963,8|0|10,1:0|2:0|2:0,2:0:0:0:
346,69,96521,2,0,L|386:78,2,31.4999990386963,8|0|2,1:0|2:0|2:0,2:0:0:0:
279,17,96882,6,0,P|234:33|134:53,1,125.999996154785,8|10,1:0|2:0,2:0:0:0:
70,36,97424,2,0,L|33:25,3,20.9999993591309,0|0|0|8,1:0|2:0|2:0|2:0,2:0:0:0:
61,125,97786,2,0,P|45:160|35:199,1,62.9999980773926,0|8,2:0|1:0,2:0:0:0:
77,262,98147,1,8,2:0:0:0:
35,340,98328,5,10,2:0:0:0:
35,340,98508,2,0,P|90:355|118:369,1,62.9999980773926,2|10,3:0|1:0,2:0:0:0:
182,321,98870,1,2,2:0:0:0:
182,321,99050,2,0,P|197:266|211:238,1,62.9999980773926,8|0,2:0|1:0,2:0:0:0:
148,184,99412,2,0,L|135:78,1,94.499997116089,2|0,2:0|1:0,2:0:0:0:
144,70,99774,6,0,P|183:53|292:37,3,140,14|8|8|8,1:0|1:0|1:0|1:0,2:0:0:0:
423,187,101219,2,0,P|381:153|282:125,3,140,8|8|8|8,1:0|1:0|1:0|1:0,2:0:0:0:
100,312,102665,2,0,P|133:269|217:214,3,140,8|8|8|8,1:0|1:0|1:0|1:0,2:0:0:0:
411,322,104111,5,10,1:0:0:0:
411,322,104292,2,0,P|381:287|349:267,1,70,2|8,2:0|1:0,2:0:0:0:
301,327,104653,2,0,P|331:362|363:382,2,70,2|8|0,2:0|1:0|2:0,2:0:0:0:
280,245,105195,1,10,1:0:0:0:
476,235,105557,6,0,P|491:178|503:149,1,70,10|8,1:0|1:0,2:0:0:0:
436,95,105918,2,0,P|379:80|350:68,1,70,8|8,1:0|1:0,2:0:0:0:
271,50,106280,2,0,P|286:107|298:136,1,70,8|8,1:0|1:0,2:0:0:0:
231,190,106641,2,0,P|174:205|145:217,1,70,8|8,1:0|1:0,2:0:0:0:
107,280,107002,5,8,1:0:0:0:
16,266,107183,1,8,1:0:0:0:
68,186,107364,2,0,P|59:147|43:105,1,70,8|8,1:0|1:0,2:0:0:0:
95,36,107725,2,0,P|134:27|176:11,1,70,8|8,1:0|1:0,2:0:0:0:
239,63,108087,2,0,P|248:102|264:144,1,70,8|0,1:0|1:0,2:0:0:0:
268,138,108358,1,0,1:0:0:0:
278,145,108448,6,0,L|328:151,3,35,8|0|0|0,1:0|1:0|1:0|1:0,2:0:0:0:
334,174,108810,2,0,L|384:180,3,38.5000011749268,8|0|0|0,1:0|1:0|1:0|1:0,2:0:0:0:
385,208,109171,2,0,L|435:214,3,41.9999987182618,8|0|0|0,1:2|1:2|1:2|1:2,2:0:0:0:
445,241,109533,2,0,L|495:247,3,45.4999979171754,0|0|0|0,1:0|1:0|1:0|1:0,2:0:0:0:
512,277,109894,1,8,1:2:0:0:
512,277,111340,6,0,B|467:203|392:245|392:245|394:317|324:348,1,251.999992309571,6|2,1:0|1:0,2:0:0:0:
248,358,112063,2,0,P|181:347|131:342,1,83.9999974365235,10|0,2:0|2:0,2:0:0:0:
72,373,112424,1,2,1:0:0:0:
20,299,112605,2,0,P|36:241|45:193,1,83.9999974365235,2|0,2:0|2:0,2:0:0:0:
14,131,112966,1,0,1:0:0:0:
83,76,113147,2,0,P|139:68|184:52,1,83.9999974365235,0|0,1:0|2:0,2:0:0:0:
172,51,113418,1,0,2:0:0:0:
178,42,113508,1,10,2:0:0:0:
272,12,113689,1,2,1:0:0:0:
347,70,113870,2,0,L|325:185,1,111.999996582031,2|2,2:0|2:0,2:0:0:0:
440,275,114593,6,0,P|416:214|290:192,1,167.999994873047,0|8,1:0|2:0,2:0:0:0:
241,163,115135,2,0,L|272:337,1,167.999994873047,2|2,1:0|2:0,2:0:0:0:
269,338,115587,1,0,2:0:0:0:
268,348,115677,1,0,1:0:0:0:
354,384,115858,2,0,P|435:364|526:289,1,167.999994873047,2|0,2:0|1:0,2:0:0:0:
503,301,116310,1,0,2:0:0:0:
503,286,116400,1,10,2:0:0:0:
449,209,116581,2,0,P|382:196|334:180,1,83.9999974365235,2|2,1:0|2:0,2:0:0:0:
266,169,116942,5,2,1:0:0:0:
274,152,117033,1,0,1:0:0:0:
280,139,117123,2,0,B|367:128|442:79|442:79|435:37|393:4,1,251.999992309571,4|0,1:0|1:0,2:0:0:0:
315,28,117846,2,0,P|261:19|217:7,1,83.9999974365235,10|0,2:0|2:0,2:0:0:0:
154,60,118207,1,2,1:0:0:0:
64,36,118388,2,0,P|55:90|43:134,1,83.9999974365235,2|0,2:0|2:0,2:0:0:0:
117,190,118749,1,0,1:0:0:0:
43,248,118930,2,0,P|58:300|68:342,1,83.9999974365235,0|0,1:0|2:0,2:0:0:0:
66,340,119201,1,0,2:0:0:0:
67,351,119292,1,10,2:0:0:0:
158,337,119472,2,0,P|229:350|347:383,1,167.999994873047,2|2,1:0|2:0,2:0:0:0:
117,190,120376,6,0,P|188:177|285:112,1,167.999994873047,0|10,1:0|2:0,2:0:0:0:
293,39,120918,2,0,P|364:52|461:117,1,167.999994873047,0|0,1:0|2:0,2:0:0:0:
433,205,121460,2,0,P|492:222|537:243,2,83.9999974365235,2|2|2,1:0|2:0|2:0,2:0:0:0:
391,292,122002,1,2,1:0:0:0:
391,292,122093,1,0,2:0:0:0:
391,292,122183,2,0,L|423:340,2,41.9999987182618,10|8|2,2:0|2:0|1:0,2:0:0:0:
305,321,122545,1,2,2:0:0:0:
221,287,122725,5,0,1:0:0:0:
215,263,122816,1,0,1:0:0:0:
209,239,122906,2,0,P|134:217|32:214,1,146.999995513916,6|0,1:0|2:0,2:0:0:0:
53,216,123268,1,8,2:0:0:0:
0,142,123448,1,0,1:0:0:0:
62,72,123629,2,0,P|125:58|178:41,1,97.9999970092774,8|0,2:0|2:0,2:0:0:0:
237,92,123990,5,10,1:0:0:0:
311,33,124171,2,0,P|378:46|417:128,1,146.999995513916,2|0,2:0|2:0,2:0:0:0:
419,129,124533,2,0,P|337:143|290:145,1,97.9999970092774,2|8,1:0|1:0,2:0:0:0:
270,225,124894,2,0,P|284:307|286:354,1,97.9999970092774,2|8,2:0|2:0,2:0:0:0:
197,356,125255,2,0,P|183:274|181:227,1,97.9999970092774,2|8,1:0|2:0,2:0:0:0:
100,212,125617,2,0,P|51:217|3:227,1,97.9999970092774,10|0,2:3|2:0,2:0:0:0:
3,227,126159,6,0,P|58:200|96:112,1,146.999995513916,8|0,1:0|2:0,2:0:0:0:
90,111,126521,1,8,2:0:0:0:
96,19,126701,2,0,P|33:31|-12:52,2,97.9999970092774,0|10|2,1:0|2:0|2:0,2:0:0:0:
188,69,127243,5,8,1:0:0:0:
188,69,127424,2,0,P|261:51|300:33,1,97.9999970092774,2|8,2:0|2:0,2:0:0:0:
346,111,127786,2,0,L|313:168,2,48.9999985046387,2|0|8,1:0|1:0|2:0,2:0:0:0:
440,134,128147,2,0,P|419:206|415:248,1,97.9999970092774,2|8,1:0|2:0,2:0:0:0:
490,289,128508,5,2,1:0:0:0:
483,311,128599,1,0,1:0:0:0:
476,333,128689,2,0,P|400:348|297:389,1,146.999995513916,4|0,1:0|2:0,2:0:0:0:
324,363,129051,1,10,2:0:0:0:
254,298,129231,2,0,P|178:283|75:242,1,146.999995513916,2|0,1:0|2:0,2:0:0:0:
102,268,129593,1,2,2:0:0:0:
31,333,129774,6,0,B|2:273|67:232|60:264|114:214|86:158,1,195.999994018555,10|8,1:0|2:0,2:0:0:0:
8,110,130316,1,0,1:0:0:0:
8,110,130496,2,0,P|74:89|170:51,1,146.999995513916,8|0,1:0|2:0,2:0:0:0:
159,50,130858,1,10,2:0:0:0:
263,51,131039,2,0,P|236:135|226:179,1,97.9999970092774,2|8,1:0|2:0,2:0:0:0:
261,234,131400,2,0,P|213:247|167:263,1,97.9999970092774,10|0,2:3|2:0,2:0:0:0:
167,263,131942,6,0,P|219:304|264:348,1,97.9999970092774,8|2,1:0|2:0,2:0:0:0:
251,337,132213,1,0,2:0:0:0:
259,348,132304,1,10,2:0:0:0:
349,308,132484,1,0,1:0:0:0:
438,340,132665,2,0,P|472:373|507:387,2,65.3333313395183,8|8|8,2:0|2:3|2:3,2:0:0:0:
456,263,133027,6,0,L|471:154,1,97.9999970092774,2|2,1:0|2:0,2:0:0:0:
472,153,133298,1,0,2:0:0:0:
475,141,133388,1,10,2:0:0:0:
389,100,133569,1,2,1:0:0:0:
456,32,133749,2,0,P|398:20|345:0,1,97.9999970092774,10|2,2:0|2:0,2:0:0:0:
263,32,134111,2,0,P|281:88|296:185,1,146.999995513916,2|0,2:0|2:0,2:0:0:0:
288,186,134472,6,0,B|271:247|209:231|209:231|116:206|116:206|55:189|38:251,1,293.999991027832,14|2,1:0|1:0,2:0:0:0:
87,333,135195,1,10,2:0:0:0:
174,356,135376,1,0,2:0:0:0:
262,380,135557,2,0,B|354:355|354:355|416:338|399:276,1,195.999994018555,6|0,1:0|2:0,2:0:0:0:
367,189,136099,1,0,1:0:0:0:
367,189,136280,2,0,B|342:97|342:97|326:34|267:50,1,195.999994018555,4|8,1:0|2:0,2:0:0:0:
189,90,136822,1,0,1:0:0:0:
189,90,137002,2,0,P|171:143|241:187,1,146.999995513916,2|0,2:0|2:0,2:0:0:0:
237,188,137364,6,0,P|218:241|203:311,1,97.9999970092774,14|2,1:0|2:0,2:0:0:0:
67,384,137906,1,0,1:0:0:0:
67,384,138087,2,0,P|55:336|38:290,1,97.9999970092774,8|0,2:0|2:0,2:0:0:0:
64,200,138448,2,0,P|47:153|35:106,1,97.9999970092774,4|0,1:0|2:0,2:0:0:0:
94,26,138810,2,0,L|-29:-7,2,97.9999970092774,2|2|6,2:0|1:0|1:0,2:0:0:0:
166,85,139352,1,2,2:0:0:0:
250,34,139533,2,0,P|310:21|359:0,1,97.9999970092774,10|2,2:0|1:0,2:0:0:0:
428,60,139894,2,0,P|409:118|404:208,1,146.999995513916,2|0,2:0|2:0,2:0:0:0:
412,216,140255,6,0,B|456:236|455:318|348:331|313:237|313:237|290:280|239:300,1,293.999991027832,14|2,1:0|1:0,2:0:0:0:
174,322,140978,1,10,2:0:0:0:
158,237,141159,1,0,2:0:0:0:
142,152,141340,2,0,P|136:110|276:38,1,195.999994018555,6|0,1:0|2:0,2:0:0:0:
342,46,141882,1,0,1:0:0:0:
342,46,142063,2,0,P|381:61|373:219,1,195.999994018555,4|8,1:0|2:0,2:0:0:0:
308,232,142605,1,0,1:0:0:0:
308,232,142786,2,0,P|258:258|280:343,1,146.999995513916,2|0,2:0|2:0,2:0:0:0:
270,337,143147,6,0,P|337:328|389:322,1,97.9999970092774,14|2,1:0|2:0,2:0:0:0:
503,185,143689,1,0,1:0:0:0:
503,185,143870,2,0,P|436:177|390:166,1,97.9999970092774,8|0,2:0|2:0,2:0:0:0:
353,95,144231,2,0,P|328:179|214:199,1,195.999994018555,4|0,1:0|2:0,2:0:0:0:
148,239,144774,1,0,1:0:0:0:
148,239,144954,2,0,P|102:163|76:123,1,97.9999970092774,4|0,1:0|2:0,2:0:0:0:
155,89,145316,1,10,2:0:0:0:
155,89,145496,2,0,B|193:168|122:211|126:174|58:239|100:312,1,251.999992309571,0|2,1:0|2:0,2:0:0:0:
412,365,147123,5,2,2:0:0:0:
347,305,147484,2,0,B|285:292|259:334|281:343|247:382|193:368,1,167.999994873047,2|2,2:0|2:0,2:0:0:0:
76,203,148930,6,0,B|18:231|18:231|43:342,1,167.999994873047,2|0,2:0|2:0,2:0:0:0:
195,229,150014,1,2,2:0:0:0:
195,229,150195,2,0,B|249:213|266:158|266:158|304:207|375:202,1,209.999993591309,2|2,2:0|2:0,2:0:0:0:
483,96,152183,5,2,2:0:0:0:
397,119,152545,2,0,P|350:106|302:86,1,83.9999974365235,2|2,2:0|2:0,2:0:0:0:
272,11,153268,1,2,2:0:0:0:
93,160,153990,1,2,2:0:0:0:
317,93,154713,2,0,B|347:121|391:126|391:126|408:203|325:249|339:214|258:237|275:325,1,335.999989746094,2|0,2:0|2:0,2:0:0:0:
438,41,163388,6,0,B|476:105|415:167|411:123|344:187|387:266,1,251.999992309571,6|2,1:0|1:0,2:0:0:0:
318,324,164111,2,0,P|253:298|214:292,1,83.9999974365235,10|0,2:0|2:0,2:0:0:0:
152,332,164472,1,2,1:0:0:0:
127,244,164653,2,0,B|99:207|69:188|69:188|82:146|79:97,1,167.999994873047,2|0,2:0|1:0,2:0:0:0:
156,57,165195,2,0,B|192:84|211:114|211:114|253:101|303:105,1,167.999994873047,0|10,1:0|2:0,2:0:0:0:
366,41,165737,1,2,1:0:0:0:
440,88,165918,2,0,L|421:185,1,83.9999974365235,2|2,2:0|2:0,2:0:0:0:
440,337,166641,6,0,L|420:142,1,167.999994873047,0|8,1:0|2:0,2:0:0:0:
440,88,167183,2,0,B|397:65|361:98|373:104|337:146|274:115,1,167.999994873047,2|2,1:0|2:0,2:0:0:0:
278,126,167635,1,0,2:0:0:0:
269,132,167725,1,0,1:0:0:0:
232,223,167906,2,0,P|210:133|172:33,1,167.999994873047,2|8,2:0|2:0,2:0:0:0:
176,54,168358,1,0,2:0:0:0:
167,45,168448,1,10,2:0:0:0:
104,129,168629,2,0,P|121:174|133:227,1,83.9999974365235,2|2,1:0|2:0,2:0:0:0:
90,293,168990,5,2,1:0:0:0:
105,304,169081,1,0,1:0:0:0:
120,315,169171,2,0,B|190:298|265:257|265:257|327:266|325:328,1,251.999992309571,4|0,1:0|1:0,2:0:0:0:
408,352,169894,2,0,P|422:295|441:237,1,83.9999974365235,10|0,2:0|2:0,2:0:0:0:
510,213,170255,1,2,1:0:0:0:
458,134,170436,2,0,P|406:123|285:54,1,167.999994873047,2|0,2:0|1:0,2:0:0:0:
220,44,170978,2,0,L|232:150,1,83.9999974365235,0|0,1:0|2:0,2:0:0:0:
224,137,171249,1,0,2:0:0:0:
219,147,171340,1,10,2:0:0:0:
172,231,171521,2,0,P|120:242|-1:311,1,167.999994873047,2|2,1:0|2:0,2:0:0:0:
223,375,172424,6,0,P|327:354|396:314,1,167.999994873047,0|10,1:0|2:0,2:0:0:0:
443,260,172966,2,0,P|367:223|285:210,1,167.999994873047,0|0,1:0|2:0,2:0:0:0:
206,169,173508,2,0,P|161:183|119:197,2,83.9999974365235,2|2|2,1:0|2:0|2:0,2:0:0:0:
177,88,174051,1,2,1:0:0:0:
177,88,174141,1,0,2:0:0:0:
177,88,174231,2,0,L|122:82,2,41.9999987182618,10|8|10,2:0|2:0|1:0,2:0:0:0:
221,15,174593,1,2,2:0:0:0:
296,67,174774,5,0,1:0:0:0:
304,82,174864,1,0,1:0:0:0:
312,94,174954,2,0,P|384:78|455:48,1,146.999995513916,6|0,1:0|2:0,2:0:0:0:
461,53,175316,1,8,2:0:0:0:
512,135,175496,1,0,1:0:0:0:
468,218,175677,2,0,P|420:229|373:244,1,97.9999970092774,8|0,2:0|2:0,2:0:0:0:
282,230,176039,5,10,1:0:0:0:
275,324,176219,2,0,P|246:360|145:342,1,146.999995513916,2|0,2:0|2:0,2:0:0:0:
146,338,176581,2,0,P|164:277|184:223,1,97.9999970092774,2|8,1:0|1:0,2:0:0:0:
101,191,176942,2,0,P|40:172|-13:152,1,97.9999970092774,2|8,2:0|2:0,2:0:0:0:
34,75,177304,2,0,P|94:93|148:113,1,97.9999970092774,2|8,1:0|2:0,2:0:0:0:
217,110,177665,2,0,P|233:63|246:16,1,97.9999970092774,2|0,2:0|2:0,2:0:0:0:
246,16,178207,6,0,P|267:69|367:98,1,146.999995513916,6|0,1:0|2:0,2:0:0:0:
356,94,178569,1,8,2:0:0:0:
433,151,178749,2,0,P|458:101|495:48,2,97.9999970092774,2|8|2,1:0|2:0|2:0,2:0:0:0:
403,232,179292,5,8,1:0:0:0:
403,232,179472,2,0,P|344:202|301:168,1,97.9999970092774,2|8,2:0|2:0,2:0:0:0:
258,253,179834,2,0,L|285:308,2,48.9999985046387,2|0|8,1:0|1:0|1:0,2:0:0:0:
166,258,180195,2,0,P|169:323|161:377,1,97.9999970092774,2|8,1:0|2:0,2:0:0:0:
74,384,180557,5,2,1:0:0:0:
61,379,180647,1,0,1:0:0:0:
49,375,180737,2,0,P|59:303|89:218,1,146.999995513916,4|0,1:0|2:0,2:0:0:0:
79,218,181099,1,10,2:0:0:0:
152,171,181280,2,0,P|142:99|112:14,1,146.999995513916,2|0,1:0|2:0,2:0:0:0:
122,14,181642,1,2,2:0:0:0:
218,37,181822,6,0,B|278:8|319:73|287:66|337:120|393:92,1,195.999994018555,10|8,1:0|2:0,2:0:0:0:
462,35,182364,1,0,1:0:0:0:
462,35,182545,2,0,P|439:98|412:197,1,146.999995513916,8|0,1:0|2:0,2:0:0:0:
421,185,182906,1,10,2:0:0:0:
335,221,183087,2,0,P|359:289|375:347,1,97.9999970092774,2|8,1:0|2:0,2:0:0:0:
286,374,183448,2,0,P|218:350|160:334,1,97.9999970092774,2|0,2:0|2:0,2:0:0:0:
193,342,183990,6,0,P|171:274|153:231,1,97.9999970092774,8|2,1:0|2:0,2:0:0:0:
155,244,184261,1,0,2:0:0:0:
149,239,184352,1,10,2:0:0:0:
184,151,184533,1,0,1:0:0:0:
108,92,184713,2,0,P|70:110|9:117,2,65.3333313395183,8|8|8,2:0|2:3|2:3,2:0:0:0:
163,38,185075,6,0,L|267:59,1,97.9999970092774,2|2,1:0|2:0,2:0:0:0:
270,61,185346,1,0,2:0:0:0:
281,65,185436,1,10,2:0:0:0:
363,26,185617,1,2,1:0:0:0:
423,96,185798,2,0,P|398:161|385:219,1,97.9999970092774,14|0,2:0|2:0,2:0:0:0:
299,220,186159,2,0,P|254:164|183:150,1,146.999995513916,2|0,2:0|2:0,2:0:0:0:
169,159,186521,6,0,B|164:134|164:134|119:194|46:196|46:196|-9:269|83:323,1,293.999991027832,14|2,1:0|1:0,2:0:0:0:
138,356,187243,5,10,2:0:0:0:
222,367,187424,1,2,2:0:0:0:
306,376,187605,2,0,P|293:303|282:264,1,97.9999970092774,6|0,1:0|2:0,2:0:0:0:
219,213,187966,5,2,2:0:0:0:
135,224,188147,1,2,1:0:0:0:
51,233,188328,2,0,P|64:160|75:121,1,97.9999970092774,6|0,1:0|2:0,2:0:0:0:
143,85,188689,5,10,2:0:0:0:
227,96,188870,1,2,1:0:0:0:
311,105,189051,2,0,P|298:32|287:-7,1,97.9999970092774,2|2,2:0|2:0,2:0:0:0:
387,0,189412,6,0,P|400:73|411:112,1,97.9999970092774,14|2,1:0|2:0,2:0:0:0:
495,256,189954,1,0,1:0:0:0:
420,317,190135,5,10,2:0:0:0:
336,310,190316,1,2,2:0:0:0:
248,303,190496,2,0,P|167:329|121:354,1,97.9999970092774,6|0,1:0|2:0,2:0:0:0:
63,381,190858,6,0,P|37:300|12:254,1,97.9999970092774,2|2,2:0|1:0,2:0:0:0:
53,199,191219,2,0,P|79:118|104:72,1,97.9999970092774,2|2,1:0|2:0,2:0:0:0:
152,42,191581,5,10,2:0:0:0:
236,49,191762,1,2,1:0:0:0:
324,56,191942,2,0,P|405:30|450:75,1,146.999995513916,2|0,2:0|2:0,2:0:0:0:
467,109,192304,6,0,B|348:150|254:186|254:186|210:179|197:114,1,293.999991027832,14|2,1:0|1:0,2:0:0:0:
135,77,193027,5,10,2:0:0:0:
71,138,193207,1,2,2:0:0:0:
107,217,193388,2,0,P|122:284|129:333,1,97.9999970092774,6|0,1:0|2:0,2:0:0:0:
217,355,193749,5,2,2:0:0:0:
281,294,193929,1,2,1:0:0:0:
245,215,194110,2,0,P|230:148|223:99,1,97.9999970092774,6|0,1:0|2:0,2:0:0:0:
295,51,194472,5,10,2:0:0:0:
378,79,194652,1,2,1:0:0:0:
379,166,194833,2,0,P|393:233|408:280,1,97.9999970092774,2|2,2:0|2:0,2:0:0:0:
490,243,195195,6,0,P|480:195|467:147,1,97.9999970092774,14|2,1:0|2:0,2:0:0:0:
342,345,195737,5,0,1:0:0:0:
260,303,195918,2,0,P|203:286|146:271,1,97.9999970092774,10|0,2:0|2:0,2:0:0:0:
140,364,196280,6,0,B|169:304|104:263|111:295|57:245|85:189,1,195.999994018555,4|0,1:0|2:0,2:0:0:0:
37,113,196822,5,2,1:0:0:0:
118,76,197002,6,0,P|181:61|251:42,1,97.9999970092774,2|2,1:0|2:0,2:0:0:0:
289,107,197364,6,0,P|274:170|255:240,1,97.9999970092774,10|2,2:0|1:0,2:0:0:0:
333,263,197725,6,0,P|396:248|466:229,1,97.9999970092774,2|2,2:0|2:0,2:0:0:0:
