osu file format v14

[General]
AudioFilename: audio.mp3
AudioLeadIn: 0
PreviewTime: 162258
Countdown: 0
SampleSet: Soft
StackLeniency: 0.7
Mode: 0
LetterboxInBreaks: 0
EpilepsyWarning: 1
WidescreenStoryboard: 1

[Editor]
DistanceSpacing: 0.4
BeatDivisor: 6
GridSize: 32
TimelineZoom: 1.699999

[Metadata]
Title:High Tide
TitleUnicode:High Tide
Artist:Moona Hoshinova
ArtistUnicode:Moona Hoshinova
Creator:SMOKELIND
Version:Kujinn's Insane
Source:
Tags:ホロライブ ムーナ・ホシノヴァ hololive ID Indonesia Pop Electronic English Virtual Youtuber YT Vtuber iceluin frozz -keqing reform kujinn
BeatmapID:3669710
BeatmapSetID:1761111

[Difficulty]
HPDrainRate:5
CircleSize:4
OverallDifficulty:8
ApproachRate:9
SliderMultiplier:1.84000000000001
SliderTickRate:1

[Events]
//Background and Video events
0,0,"BG.jpg",0,0
Video,0,"vid.mp4"
//Break Periods
2,146238,156930
//Storyboard Layer 0 (Background)
//Storyboard Layer 1 (Fail)
//Storyboard Layer 2 (Pass)
//Storyboard Layer 3 (Foreground)
//Storyboard Layer 4 (Overlay)
//Storyboard Sound Samples

[TimingPoints]
15,361.44578313253,4,2,77,27,1,0
11581,-133.333333333333,4,2,77,57,0,0
12304,-133.333333333333,4,2,77,47,0,0
14472,-133.333333333333,4,2,77,57,0,0
14833,-133.333333333333,4,2,77,47,0,0
17364,-133.333333333333,4,2,77,57,0,0
17906,-133.333333333333,4,2,77,47,0,0
20255,-133.333333333333,4,2,77,57,0,0
20797,-133.333333333333,4,2,77,47,0,0
21701,-133.333333333333,4,2,77,57,0,0
21881,-133.333333333333,4,2,77,47,0,0
22243,-133.333333333333,4,2,77,57,0,0
22604,-133.333333333333,4,2,77,47,0,0
23147,-285.714285714284,4,2,77,57,0,0
23870,-117.647058823529,4,2,77,57,0,0
34713,-105.263157894737,4,2,77,57,0,0
40496,-105.263157894737,4,2,77,47,0,0
41581,-105.263157894737,4,2,77,57,0,0
42665,-105.263157894737,4,2,77,67,0,0
43388,-105.263157894737,4,2,77,77,0,0
45918,-400.000000000003,4,2,77,47,0,0
46280,-86.9565217391304,4,2,77,87,0,0
48990,-86.9565217391304,4,2,77,5,0,0
49051,-86.9565217391304,4,2,77,57,0,0
49533,-86.9565217391304,4,2,77,87,0,0
54773,-86.9565217391304,4,2,77,57,0,0
55316,-86.9565217391304,4,2,77,87,0,0
60557,-285.714285714287,4,2,77,47,0,0
61099,-86.9565217391306,4,2,77,87,0,0
66340,-86.9565217391306,4,2,77,47,0,0
66882,-86.9565217391306,4,2,77,87,0,0
68689,-153.846153846154,4,2,77,87,0,0
69412,-74.0740740740741,4,2,77,87,0,0
70135,-133.333333333333,4,2,77,87,0,0
70496,-74.074074074074,4,2,77,87,0,0
71761,-117.647058823529,4,2,77,87,0,0
72304,-74.0740740740741,4,2,77,87,0,0
73027,-133.333333333333,4,2,77,87,0,0
73388,-74.074074074074,4,2,77,87,0,0
76099,-74.074074074074,4,2,77,47,0,0
76280,-117.647058823529,4,2,77,47,0,0
76641,-117.647058823529,4,2,77,57,0,0
85316,-95.238095238095,4,2,77,57,0,0
86400,-117.647058823529,4,2,77,57,0,0
88207,-285.714285714284,4,2,77,57,0,0
88930,-105.263157894737,4,2,77,57,0,0
93990,-666.666666666653,4,2,77,57,0,0
94713,-117.647058823529,4,2,77,57,0,0
99774,-105.263157894737,4,2,77,57,0,0
105557,-105.263157894737,4,2,77,47,0,0
106641,-105.263157894737,4,2,77,57,0,0
107725,-105.263157894737,4,2,77,67,0,0
108448,-105.263157894737,4,2,77,77,0,0
110978,-400.000000000003,4,2,77,47,0,0
111340,-86.9565217391304,4,2,77,87,0,0
114051,-86.9565217391304,4,2,77,5,0,0
114111,-86.9565217391304,4,2,77,87,0,0
114593,-86.9565217391304,4,2,77,87,0,0
119833,-86.9565217391304,4,2,77,57,0,0
120376,-86.9565217391304,4,2,77,87,0,0
125617,-285.714285714287,4,2,77,47,0,0
126159,-86.9565217391306,4,2,77,87,0,0
131400,-86.9565217391306,4,2,77,47,0,0
131942,-86.9565217391306,4,2,77,87,0,0
133749,-153.846153846154,4,2,77,87,0,0
134472,-74.0740740740741,4,2,77,87,0,0
135195,-133.333333333333,4,2,77,87,0,0
135557,-74.074074074074,4,2,77,87,0,0
136822,-117.647058823529,4,2,77,87,0,0
137364,-74.0740740740741,4,2,77,87,0,0
138087,-133.333333333333,4,2,77,87,0,0
138448,-74.074074074074,4,2,77,87,0,0
139894,-181.818181818181,4,2,77,87,0,0
140255,-74.0740740740741,4,2,77,87,0,0
140978,-133.333333333333,4,2,77,87,0,0
141340,-74.074074074074,4,2,77,87,0,0
142605,-117.647058823529,4,2,77,87,0,0
143147,-74.0740740740741,4,2,77,87,0,0
143870,-133.333333333333,4,2,77,87,0,0
144231,-74.074074074074,4,2,77,87,0,0
145496,-117.647058823529,4,2,77,87,0,0
146038,-117.647058823529,4,2,77,27,0,0
157605,-250,4,2,77,27,0,0
163027,-400.000000000003,4,2,77,47,0,0
163388,-86.9565217391304,4,2,77,87,0,0
166098,-86.9565217391304,4,2,77,57,0,0
166641,-86.9565217391304,4,2,77,87,0,0
171882,-86.9565217391304,4,2,77,57,0,0
172424,-86.9565217391304,4,2,77,87,0,0
177665,-86.9565217391304,4,2,77,47,0,0
177846,-285.714285714287,4,2,77,47,0,0
178207,-86.9565217391306,4,2,77,87,0,0
183448,-86.9565217391306,4,2,77,47,0,0
183990,-86.9565217391306,4,2,77,87,0,0
185798,-153.846153846154,4,2,77,87,0,0
186521,-74.0740740740741,4,2,77,87,0,0
187243,-133.333333333333,4,2,77,87,0,0
187605,-74.074074074074,4,2,77,87,0,0
188870,-117.647058823529,4,2,77,87,0,0
189412,-74.0740740740741,4,2,77,87,0,0
190135,-133.333333333333,4,2,77,87,0,0
190496,-74.074074074074,4,2,77,87,0,0
191942,-181.818181818181,4,2,77,87,0,0
192304,-74.0740740740741,4,2,77,87,0,0
193027,-133.333333333333,4,2,77,87,0,0
193388,-74.074074074074,4,2,77,87,0,0
194653,-117.647058823529,4,2,77,87,0,0
195195,-74.0740740740741,4,2,77,87,0,0
195918,-133.333333333333,4,2,77,87,0,0
196280,-74.074074074074,4,2,77,87,0,0
197182,-74.074074074074,4,2,77,67,0,0
197545,-74.074074074074,4,2,77,47,0,0
197725,-117.647058823529,4,2,77,47,0,0

[Colours]
Combo1 : 97,37,254
Combo2 : 163,70,255

[HitObjects]
98,215,10858,6,0,P|90:172|71:115,3,92.0000000000005,0|0|0|0,2:0|2:0|2:0|2:0,2:0:0:0:
131,73,11581,6,0,P|96:166|65:283,1,207.000007896425,12|0,1:0|2:0,2:0:0:0:
0,304,12304,6,0,P|66:299|107:350,1,138.000005264283,2|2,2:0|2:0,2:0:0:0:
107,350,12846,2,0,P|147:335|181:328,1,69.0000026321416,2|0,2:0|2:0,2:0:0:0:
229,264,13207,2,0,P|269:279|303:286,1,69.0000026321416,2|0,2:0|2:0,2:0:0:0:
389,364,13569,2,0,P|381:321|370:279,1,69.0000026321416,2|0,2:0|2:0,2:0:0:0:
446,240,13930,2,0,P|454:197|465:155,1,69.0000026321416,2|0,2:0|2:0,2:0:0:0:
460,172,14292,1,2,2:0:0:0:
391,29,14472,6,0,P|327:16|278:83,1,138.000005264283,12|2,1:0|2:0,2:0:0:0:
226,0,15014,2,0,P|245:89|273:229,1,207.000007896425,0|0,2:0|2:0,2:0:0:0:
4,334,15918,5,2,2:0:0:0:
24,323,16099,1,2,2:0:0:0:
38,308,16280,1,2,2:0:0:0:
58,290,16460,2,0,P|147:288|223:395,1,207.000007896425,2|0,2:0|2:0,2:0:0:0:
219,371,17183,1,0,1:0:0:0:
512,250,17364,6,0,P|423:252|347:145,1,207.000007896425,12|2,1:0|2:0,2:0:0:0:
327,82,18087,2,0,P|312:160|297:244,1,138.000005264283,2|2,2:0|2:0,2:0:0:0:
219,297,18629,6,0,P|178:306|146:329,1,69.0000026321416,2|0,2:0|2:0,2:0:0:0:
59,249,18990,2,0,P|100:240|132:217,1,69.0000026321416,2|0,2:0|2:0,2:0:0:0:
223,179,19352,6,0,P|187:156|148:150,1,69.0000026321416,2|0,2:0|2:0,2:0:0:0:
143,31,19713,2,0,P|178:53|217:59,1,69.0000026321416,2|0,2:0|2:0,2:0:0:0:
204,59,20075,1,2,2:0:0:0:
330,10,20255,6,0,P|311:76|277:223,1,207.000007896425,12|0,1:0|2:0,2:0:0:0:
202,237,20978,2,0,P|246:226|302:307,1,138.000005264283,0|0,2:0|2:0,2:0:0:0:
488,361,21701,6,0,P|477:313|471:278,1,69.0000026321416,14|2,1:0|2:0,2:0:0:0:
504,224,22063,1,2,2:0:0:0:
386,285,22243,2,0,P|395:216|410:149,1,138.000005264283,14|0,1:0|1:0,2:0:0:0:
493,47,22786,5,0,2:0:0:0:
416,22,22966,1,0,2:0:0:0:
408,24,23057,1,0,2:0:0:0:
400,25,23147,2,0,P|371:17|298:-2,1,96.5999970520026,0|2,1:0|2:0,2:0:0:0:
169,32,23870,6,0,P|128:30|110:132,1,156.400002983094,10|2,2:0|2:0,2:0:0:0:
189,174,24412,2,0,P|128:198|58:250,1,117.300002237321,2|0,1:0|2:0,2:0:0:0:
77,223,24774,1,2,1:0:0:0:
211,344,24954,2,0,P|170:326|123:313,1,78.2000014915471,2|2,1:0|2:0,2:0:0:0:
342,103,25316,5,10,2:0:0:0:
345,96,25496,1,8,2:0:0:0:
325,178,25677,2,0,P|311:232|292:315,1,117.300002237321,2|0,2:0|2:0,2:0:0:0:
306,295,26039,6,0,P|327:341|425:336,1,156.400002983094,0|2,1:0|2:0,2:0:0:0:
512,291,26581,1,2,2:0:0:0:
512,291,26671,1,0,2:0:0:0:
512,291,26761,2,0,P|469:277|432:257,1,78.2000014915471,10|0,2:0|2:0,2:0:0:0:
374,224,27123,1,2,2:0:0:0:
443,86,27304,6,0,P|400:100|282:154,1,156.400002983094,10|10,1:0|2:0,2:0:0:0:
82,129,27846,5,2,1:0:0:0:
208,218,28027,1,2,2:0:0:0:
212,223,28087,1,0,2:0:0:0:
216,228,28147,1,0,2:0:0:0:
220,233,28207,1,10,2:0:0:0:
148,65,28388,2,0,P|133:125|101:242,1,156.400002983094,0|0,1:0|2:0,2:0:0:0:
70,324,28930,5,2,2:0:0:0:
70,324,29653,6,0,P|86:277|193:276,1,156.400002983094,10|2,2:0|2:0,2:0:0:0:
338,368,30195,2,0,P|302:364|272:311,1,78.2000014915471,2|0,1:0|2:0,2:0:0:0:
276,217,30557,1,2,1:0:0:0:
227,384,30737,2,0,P|240:335|253:289,1,78.2000014915471,0|2,1:0|2:0,2:0:0:0:
231,75,31099,5,8,2:0:0:0:
133,193,31280,2,0,P|121:139|84:19,1,156.400002983094,10|2,2:0|1:0,2:0:0:0:
0,0,31822,6,0,B|17:66|136:49|68:3|173:-16|202:47,1,234.600004474641,0|0,1:0|1:0,2:0:0:0:
251,43,32424,1,0,2:0:0:0:
256,46,32484,1,0,2:0:0:0:
262,50,32545,2,0,P|201:76|114:136,1,156.400002983094,8|0,2:0|2:0,2:0:0:0:
75,283,33087,6,0,P|59:229|45:191,1,78.2000014915471,10|2,1:0|2:0,2:0:0:0:
134,133,33448,1,10,1:0:0:0:
134,133,33539,1,0,1:0:0:0:
134,133,33629,2,0,P|144:170|157:207,1,78.2000014915471,2|2,1:0|2:0,2:0:0:0:
266,258,33990,5,8,2:0:0:0:
333,221,34171,1,8,2:0:0:0:
389,272,34352,2,0,L|419:256,2,19.5500003728868,2|0|0,3:0|3:0|3:0,2:0:0:0:
376,344,34533,2,0,L|404:363,2,19.5500003728868,0|0|0,3:0|3:0|3:0,2:0:0:0:
296,352,34713,6,0,P|315:275|343:164,2,174.799995332337,14|8|8,1:0|1:0|1:0,2:0:0:0:
9,200,35798,6,0,P|57:208|91:165,1,87.3999976661687,8|0,1:0|2:0,2:0:0:0:
129,122,36159,1,8,1:0:0:0:
139,113,36521,1,8,1:0:0:0:
149,105,36882,1,8,1:0:0:0:
327,6,37243,6,0,P|315:51|304:109,1,87.3999976661687,8|0,1:0|2:0,2:0:0:0:
352,172,37605,6,0,P|402:165|451:274,2,174.799995332337,8|8|8,1:0|1:0|1:0,2:0:0:0:
146,351,38689,5,8,1:0:0:0:
146,351,38870,1,0,2:0:0:0:
78,293,39051,2,0,P|34:300|-16:320,2,87.3999976661687,10|2|8,1:0|2:0|1:0,2:0:0:0:
196,267,39593,2,0,P|149:281|93:182,1,174.799995332337,2|0,2:0|2:0,2:0:0:0:
154,145,40135,2,0,P|162:96|171:54,1,87.3999976661687,10|0,1:0|2:0,2:0:0:0:
95,38,40496,5,8,1:0:0:0:
247,65,40677,1,8,1:0:0:0:
94,48,40858,5,8,1:0:0:0:
246,75,41039,1,8,1:0:0:0:
71,167,41219,5,8,1:0:0:0:
223,194,41400,1,8,1:0:0:0:
70,177,41581,5,8,1:0:0:0:
222,204,41762,1,8,1:0:0:0:
132,104,41942,5,8,1:0:0:0:
93,303,42123,1,8,1:0:0:0:
216,120,42304,5,8,1:0:0:0:
182,320,42485,1,8,1:0:0:0:
305,135,42665,5,8,1:0:0:0:
274,335,42846,1,8,1:0:0:0:
389,151,43027,1,8,1:0:0:0:
440,284,43207,5,0,1:0:0:0:
440,284,43298,1,0,1:0:0:0:
440,284,43388,2,0,L|455:218,3,43.6999988330844,8|0|0|0,1:0|1:0|1:0|1:0,2:0:0:0:
342,331,43749,2,0,L|327:397,3,43.6999988330844,8|0|0|0,1:0|1:0|1:0|1:0,2:0:0:0:
236,207,44111,5,8,1:2:0:0:
236,207,44201,1,0,1:2:0:0:
236,207,44292,2,0,L|246:270,1,43.6999988330844,0|0,1:2|1:2,2:0:0:0:
168,352,44472,1,0,1:0:0:0:
165,330,44563,1,0,1:0:0:0:
162,308,44653,1,0,1:0:0:0:
158,286,44743,1,0,1:0:0:0:
155,264,44834,5,8,1:2:0:0:
337,77,45918,6,0,P|343:99|347:117,1,34.5000000000002,0|0,2:0|2:0,2:0:0:0:
390,6,46280,6,0,P|368:84|339:220,1,211.600004035951,6|0,1:0|2:0,2:0:0:0:
512,330,46822,5,2,1:0:0:0:
454,283,47002,2,0,B|412:254|357:296|412:297|341:347|295:305,1,158.700003026963,10|0,2:0|2:0,2:0:0:0:
299,324,47364,1,2,1:0:0:0:
190,384,47545,6,0,P|176:292|148:172,1,211.600004035951,2|0,2:0|1:0,2:0:0:0:
79,5,48087,1,0,1:0:0:0:
13,148,48268,1,0,2:0:0:0:
13,148,48358,1,0,2:0:0:0:
13,148,48448,1,10,2:0:0:0:
188,43,48629,2,0,P|247:63|386:131,1,211.600004035951,2|0,1:0|2:0,2:0:0:0:
398,122,49051,1,2,2:0:0:0:
440,238,49533,6,0,B|425:304|333:304|381:263|291:262|274:328,1,211.600004035951,0|8,1:0|2:0,2:0:0:0:
393,364,50075,2,0,P|369:287|326:194,1,158.700003026963,2|0,1:0|2:0,2:0:0:0:
343,205,50436,1,2,2:0:0:0:
460,156,50617,6,0,B|417:123|425:62|425:62|400:122|346:123,1,211.600004035951,0|0,1:0|2:0,2:0:0:0:
274,42,51159,5,0,1:0:0:0:
267,35,51249,1,0,2:0:0:0:
260,28,51340,1,10,2:0:0:0:
111,66,51521,1,2,1:0:0:0:
272,145,51701,1,2,2:0:0:0:
130,203,51882,1,2,1:0:0:0:
130,203,51972,1,0,1:0:0:0:
130,203,52063,6,0,P|191:226|350:334,1,211.600004035951,4|0,1:0|2:0,2:0:0:0:
315,302,52605,1,0,1:0:0:0:
382,160,52786,2,0,P|329:141|273:221,1,158.700003026963,10|0,2:0|2:0,2:0:0:0:
283,220,53147,1,2,1:0:0:0:
26,261,53328,6,0,P|87:231|146:344,1,211.600004035951,2|0,2:0|1:0,2:0:0:0:
196,165,53870,2,0,P|184:94|167:20,1,105.800002017975,0|0,1:0|2:0,2:0:0:0:
176,60,54141,1,0,2:0:0:0:
176,60,54231,1,10,2:0:0:0:
306,14,54412,6,0,B|321:79|413:80|364:39|455:35|473:101,1,211.600004035951,2|2,1:0|2:0,2:0:0:0:
0,356,55316,6,0,P|35:365|68:255,1,158.700003026963,0|0,1:0|2:0,2:0:0:0:
76,273,55677,1,10,2:0:0:0:
0,215,55858,2,0,P|104:253|215:294,1,211.600004035951,0|0,1:0|2:0,2:0:0:0:
483,353,56400,6,0,P|470:294|457:238,2,105.800002017975,2|2|2,1:0|2:0|2:0,2:0:0:0:
501,182,56942,5,2,1:0:0:0:
506,187,57033,1,0,2:0:0:0:
512,193,57123,1,10,2:0:0:0:
374,288,57304,2,0,P|410:300|433:314,1,52.9000010089877,2|0,1:0|2:0,2:0:0:0:
483,353,57484,1,2,2:0:0:0:
259,265,57665,5,0,1:0:0:0:
259,265,57755,1,0,1:0:0:0:
259,265,57846,2,0,P|335:272|340:139,1,211.600004035951,6|8,1:0|2:0,2:0:0:0:
363,160,58388,1,0,1:0:0:0:
268,66,58569,6,0,P|328:56|374:38,1,105.800002017975,8|0,2:0|2:0,2:0:0:0:
442,69,58930,1,10,1:0:0:0:
207,195,59111,6,0,P|147:205|101:223,1,105.800002017975,2|8,2:0|2:0,2:0:0:0:
30,355,59472,1,2,1:0:0:0:
33,362,59563,1,0,2:0:0:0:
36,371,59653,2,0,P|71:364|96:288,1,105.800002017975,8|2,1:0|2:0,2:0:0:0:
182,291,60014,5,8,2:0:0:0:
0,149,60195,2,0,P|21:209|39:265,1,105.800002017975,2|8,1:0|2:0,2:0:0:0:
148,74,60557,6,0,P|112:64|69:53,1,80.4999975433355,10|0,2:3|2:0,2:0:0:0:
16,104,61099,6,0,B|75:134|135:64|72:75|127:3|189:31,1,211.600004035951,8|8,1:0|2:0,2:0:0:0:
251,139,61641,6,0,P|238:193|227:263,1,105.800002017975,0|10,1:0|2:0,2:0:0:0:
162,289,62002,1,2,2:0:0:0:
437,365,62183,6,0,P|375:374|334:251,1,211.600004035951,8|8,1:0|2:0,2:0:0:0:
470,204,62725,1,2,1:0:0:0:
475,206,62816,1,0,1:0:0:0:
480,208,62906,1,8,2:0:0:0:
364,103,63087,2,0,P|381:159|393:217,1,105.800002017975,2|8,1:0|2:0,2:0:0:0:
502,83,63448,5,2,1:0:0:0:
502,83,63539,1,0,1:0:0:0:
502,83,63629,2,0,P|418:66|270:26,1,211.600004035951,4|10,1:0|2:0,2:0:0:0:
153,2,64171,2,0,P|108:12|97:82,1,105.800002017975,2|8,1:0|2:0,2:0:0:0:
172,138,64533,1,2,2:0:0:0:
0,42,64713,2,0,P|31:127|53:215,1,158.700003026963,10|0,1:0|2:0,2:0:0:0:
25,273,65075,5,8,2:0:0:0:
18,269,65255,1,0,1:0:0:0:
108,337,65436,2,0,P|53:351|-5:384,1,105.800002017975,8|0,1:0|2:0,2:0:0:0:
9,373,65707,1,0,2:0:0:0:
9,373,65798,1,10,2:0:0:0:
127,241,65978,2,0,P|177:236|213:293,1,105.800002017975,2|8,1:0|2:0,2:0:0:0:
273,376,66340,5,10,2:3:0:0:
273,376,66882,5,8,1:0:0:0:
286,358,66972,1,0,2:0:0:0:
305,347,67063,1,2,2:0:0:0:
328,343,67153,1,0,2:0:0:0:
353,316,67243,5,10,2:0:0:0:
376,312,67333,1,0,2:0:0:0:
395,301,67424,1,0,1:0:0:0:
408,283,67514,1,0,2:0:0:0:
429,249,67605,6,0,P|462:270|515:252,2,70.5333346786503,8|8|8,2:0|2:3|2:3,2:0:0:0:
482,99,67966,5,2,1:0:0:0:
364,181,68147,1,2,2:0:0:0:
364,181,68237,1,0,2:0:0:0:
364,181,68328,1,10,2:0:0:0:
239,257,68508,1,2,1:0:0:0:
47,115,68689,6,0,P|61:72|71:21,1,89.6999958938605,10|0,2:0|2:0,2:0:0:0:
63,25,69051,2,0,P|53:68|40:111,1,89.6999958938605,2|0,2:0|2:0,2:0:0:0:
58,189,69412,6,0,B|37:155|-7:155|-7:155|64:90|176:133|166:246,1,310.500001184465,14|0,1:0|2:0,2:0:0:0:
158,227,69954,1,2,1:0:0:0:
37,332,70135,2,0,P|71:310|112:306,1,69.0000026321416,10|0,2:0|2:0,2:0:0:0:
203,362,70496,6,0,B|180:333|180:333|215:163|215:163|259:135,1,248.400000947572,6|0,1:0|2:0,2:0:0:0:
299,0,71039,6,0,P|308:33|315:66,1,62.100000236893,0|0,1:0|2:0,2:0:0:0:
512,154,71219,6,0,P|469:165|419:51,1,186.300000710679,4|0,1:0|2:0,2:0:0:0:
427,54,71581,1,8,2:0:0:0:
512,74,71761,6,0,P|444:94|321:158,1,195.500003728868,0|0,1:0|2:0,2:0:0:0:
372,294,72304,6,0,B|416:229|374:163|282:146|339:200|258:187|214:112|271:57,1,310.500001184465,14|0,1:0|2:0,2:0:0:0:
259,49,72846,1,0,1:0:0:0:
105,120,73027,2,0,P|146:133|181:165,1,69.0000026321416,8|0,2:0|2:0,2:0:0:0:
370,0,73388,6,0,B|350:7|340:25|340:25|257:0|189:67|189:67|164:52|133:52,1,248.400000947572,4|0,1:0|2:0,2:0:0:0:
293,158,73930,2,0,P|316:136|310:81,1,62.100000236893,0|0,1:0|2:0,2:0:0:0:
201,145,74111,6,0,P|226:218|250:299,1,124.200000473786,4|0,1:0|2:0,2:0:0:0:
247,270,74352,1,0,2:0:0:0:
253,276,74412,1,0,2:0:0:0:
260,282,74472,1,8,2:0:0:0:
195,366,74653,1,0,1:0:0:0:
34,354,76099,5,0,2:0:0:0:
45,349,76280,2,0,L|37:321,2,19.5500003728868,0|0|0,2:0|2:0|2:0,2:0:0:0:
55,346,76460,2,0,L|47:318,2,19.5500003728868,0|0|0,2:0|2:0|2:0,2:0:0:0:
175,345,76641,6,0,B|147:350|138:378|138:378|70:351|52:274|109:226,1,234.600004474641,4|0,1:0|2:0,2:0:0:0:
40,189,77364,6,0,P|131:207|185:250,1,156.400002983094,10|2,2:0|2:0,2:0:0:0:
316,116,77906,2,0,P|266:108|222:162,1,117.300002237321,2|0,1:0|2:0,2:0:0:0:
230,163,78268,1,2,1:0:0:0:
211,254,78448,6,0,P|189:175|155:88,1,156.400002983094,0|8,1:0|2:0,2:0:0:0:
209,40,78990,1,10,2:0:0:0:
12,30,79352,5,2,2:0:0:0:
17,25,79442,1,0,2:0:0:0:
22,19,79533,2,0,P|77:36|79:209,1,234.600004474641,0|0,1:0|2:0,2:0:0:0:
0,269,80255,2,0,P|-12:212|136:124,1,234.600004474641,8|8,2:0|1:0,2:0:0:0:
196,169,80978,5,2,2:0:0:0:
208,155,81159,1,10,2:0:0:0:
222,147,81340,1,2,1:0:0:0:
291,73,81521,5,2,2:0:0:0:
287,67,81611,1,0,2:0:0:0:
284,61,81701,1,10,2:0:0:0:
301,166,81882,2,0,P|286:247|266:329,1,156.400002983094,2|2,1:0|2:0,2:0:0:0:
268,318,82424,1,0,1:0:0:0:
450,335,82786,6,0,P|486:344|515:381,1,78.2000014915471,2|0,2:0|2:0,2:0:0:0:
489,249,83147,2,0,P|468:306|360:297,1,156.400002983094,10|2,2:0|2:0,2:0:0:0:
322,250,83689,2,0,P|337:186|361:109,1,117.300002237321,2|0,1:0|2:0,2:0:0:0:
343,128,84051,1,2,1:0:0:0:
205,18,84231,2,0,P|217:61|254:77,1,78.2000014915471,2|2,1:0|2:0,2:0:0:0:
409,30,84593,1,8,2:0:0:0:
409,30,84774,2,0,P|367:41|324:61,1,78.2000014915471,10|0,2:0|2:0,2:0:0:0:
91,192,85135,5,2,1:0:0:0:
91,192,85225,1,0,1:0:0:0:
91,192,85316,2,0,P|141:176|165:300,1,193.199994104005,12|2,1:0|2:0,2:0:0:0:
322,250,85858,2,0,P|272:234|248:358,1,193.199994104005,12|0,1:0|1:0,2:0:0:0:
305,354,86400,6,0,P|350:360|382:375,1,78.2000014915471,2|2,2:0|1:0,2:0:0:0:
476,338,86761,2,0,P|466:289|454:239,1,78.2000014915471,2|10,2:0|2:0,2:0:0:0:
437,234,87033,1,0,2:0:0:0:
437,234,87123,2,0,P|447:185|459:135,1,78.2000014915471,2|2,1:0|2:0,2:0:0:0:
404,0,87484,5,8,2:0:0:0:
370,80,87665,1,0,1:0:0:0:
278,84,87846,1,0,2:0:0:0:
214,30,88027,1,0,2:0:0:0:
214,30,88117,1,0,2:0:0:0:
214,30,88207,6,0,P|207:60|199:98,1,64.3999980346684,8|10,1:0|2:0,2:0:0:0:
18,186,88930,6,0,B|61:161|122:213|63:216|120:272|172:244,1,174.799995332337,10|10,2:0|2:0,2:0:0:0:
319,144,89472,2,0,P|265:139|257:222,1,131.099996499253,2|0,1:0|2:0,2:0:0:0:
252,212,89834,1,2,1:0:0:0:
346,275,90014,2,0,P|301:291|258:321,1,87.3999976661687,10|2,1:0|2:0,2:0:0:0:
499,348,90376,5,10,2:0:0:0:
509,350,90557,1,8,2:0:0:0:
419,333,90737,2,0,P|385:286|445:224,1,131.099996499253,10|0,2:0|2:0,2:0:0:0:
446,225,91099,6,0,P|383:202|269:143,1,174.799995332337,8|10,1:0|2:0,2:0:0:0:
179,21,91641,5,2,2:0:0:0:
179,21,91731,1,0,2:0:0:0:
179,21,91822,2,0,P|218:31|230:87,1,87.3999976661687,10|0,2:0|2:0,2:0:0:0:
174,158,92183,1,10,2:0:0:0:
315,80,92364,2,0,P|294:141|257:269,1,174.799995332337,10|10,1:0|2:0,2:0:0:0:
108,274,92906,5,10,1:0:0:0:
209,333,93087,1,2,2:0:0:0:
215,328,93177,1,0,2:0:0:0:
221,324,93268,1,10,2:0:0:0:
179,215,93448,5,0,1:0:0:0:
35,330,93629,1,2,2:0:0:0:
79,186,93810,5,0,2:0:0:0:
135,375,93990,2,0,L|128:349,1,27.599999157715,2|0,2:0|2:0,2:0:0:0:
26,98,94533,5,0,1:0:0:0:
28,104,94593,1,0,1:0:0:0:
30,110,94653,1,0,1:0:0:0:
33,117,94713,2,0,P|82:108|164:183,1,156.400002983094,10|10,2:0|2:0,2:0:0:0:
54,264,95255,2,0,P|66:222|81:186,1,78.2000014915471,2|8,1:0|2:0,2:0:0:0:
167,55,95617,1,2,1:0:0:0:
11,48,95798,2,0,P|44:81|87:81,1,78.2000014915471,8|2,1:0|2:0,2:0:0:0:
285,10,96159,5,8,1:0:0:0:
285,10,96249,1,0,2:0:0:0:
285,10,96340,1,10,2:0:0:0:
240,164,96521,2,0,P|251:206|255:226,2,39.1000007457735,8|0|2,1:0|2:0|2:0,2:0:0:0:
436,27,96882,6,0,B|419:93|300:76|368:30|263:11|234:74,1,234.600004474641,8|0,1:0|1:0,2:0:0:0:
185,54,97484,1,0,2:0:0:0:
179,59,97545,1,0,2:0:0:0:
174,64,97605,2,0,P|235:90|322:150,1,156.400002983094,8|8,2:0|1:0,2:0:0:0:
458,264,98147,6,0,P|418:279|377:304,1,78.2000014915471,8|10,2:0|2:0,2:0:0:0:
185,314,98508,1,2,3:0:0:0:
185,314,98599,1,0,2:0:0:0:
185,314,98689,2,0,P|225:329|266:354,1,78.2000014915471,10|2,1:0|2:0,2:0:0:0:
318,253,99051,5,8,2:0:0:0:
311,250,99231,1,0,1:0:0:0:
341,377,99412,5,2,2:0:0:0:
334,374,99592,1,0,1:0:0:0:
234,218,99774,6,0,P|249:144|277:22,2,174.799995332337,14|8|8,1:0|1:0|1:0,2:0:0:0:
10,341,100858,6,0,P|42:302|89:303,1,87.3999976661687,8|0,1:0|2:0,2:0:0:0:
170,329,101219,1,8,1:0:0:0:
165,320,101581,1,8,1:0:0:0:
162,311,101942,1,8,1:0:0:0:
289,138,102304,6,0,P|280:78|265:25,1,87.3999976661687,8|0,1:0|2:0,2:0:0:0:
200,23,102665,6,0,P|171:60|45:26,2,174.799995332337,8|8|8,1:0|1:0|1:0,2:0:0:0:
0,192,103749,6,0,P|16:237|28:292,1,87.3999976661687,8|0,1:0|2:0,2:0:0:0:
25,275,104111,1,10,1:0:0:0:
86,341,104292,2,0,P|148:334|177:312,1,87.3999976661687,2|8,2:0|1:0,2:0:0:0:
232,249,104653,2,0,P|288:252|389:336,1,174.799995332337,2|0,2:0|2:0,2:0:0:0:
459,369,105195,2,0,P|469:326|484:285,1,87.3999976661687,10|0,1:0|2:0,2:0:0:0:
485,156,105557,5,10,1:0:0:0:
461,178,105737,1,8,1:0:0:0:
482,198,105918,1,8,1:0:0:0:
505,176,106099,1,8,1:0:0:0:
334,118,106280,5,8,1:0:0:0:
321,204,106460,1,8,1:0:0:0:
403,211,106641,1,8,1:0:0:0:
413,125,106822,1,8,1:0:0:0:
161,126,107002,5,8,1:0:0:0:
223,216,107182,1,8,1:0:0:0:
304,154,107363,1,8,1:0:0:0:
252,72,107544,1,8,1:0:0:0:
0,188,107725,5,8,1:0:0:0:
157,210,107905,1,8,1:0:0:0:
179,50,108086,1,8,1:0:0:0:
22,31,108267,1,0,1:0:0:0:
22,31,108357,1,0,1:0:0:0:
22,31,108448,2,0,L|30:-25,3,43.6999988330844,8|0|0|0,1:0|1:0|1:0|1:0,2:0:0:0:
7,156,108810,1,8,1:0:0:0:
7,156,108900,1,0,1:0:0:0:
7,156,108990,2,0,L|-1:205,1,43.6999988330844,0|0,1:0|1:0,2:0:0:0:
61,267,109171,5,8,1:2:0:0:
61,267,109261,1,0,1:2:0:0:
61,267,109352,2,0,L|112:257,1,43.6999988330844,0|0,1:2|1:2,2:0:0:0:
163,190,109533,1,0,1:0:0:0:
183,197,109623,1,0,1:0:0:0:
204,202,109713,1,0,1:0:0:0:
225,207,109804,1,0,1:0:0:0:
243,211,109894,5,8,1:2:0:0:
417,286,110978,6,0,L|409:325,1,34.5000000000002,0|0,2:0|2:0,2:0:0:0:
508,316,111340,6,0,B|473:269|375:284|443:330|338:349|309:286,1,211.600004035951,6|0,1:0|2:0,2:0:0:0:
156,146,111882,5,2,1:0:0:0:
169,53,112063,2,0,P|189:110|206:217,1,158.700003026963,10|0,2:0|2:0,2:0:0:0:
195,238,112424,1,2,1:0:0:0:
5,285,112605,6,0,P|84:273|161:385,1,211.600004035951,2|0,2:0|1:0,2:0:0:0:
16,176,113147,1,0,1:0:0:0:
67,363,113328,1,0,2:0:0:0:
67,363,113418,1,0,2:0:0:0:
67,363,113508,1,10,2:0:0:0:
161,257,113689,2,0,P|181:189|249:59,1,211.600004035951,2|0,1:0|2:0,2:0:0:0:
239,56,114111,1,2,2:0:0:0:
281,263,114593,6,0,B|296:329|388:329|340:288|430:287|447:353,1,211.600004035951,0|8,1:0|2:0,2:0:0:0:
451,248,115135,2,0,P|375:280|246:358,1,211.600004035951,2|2,1:0|2:0,2:0:0:0:
322,195,115677,6,0,B|286:151|313:83|389:80|419:150|383:204,1,211.600004035951,0|0,1:0|2:0,2:0:0:0:
376,288,116219,5,0,1:0:0:0:
370,283,116310,1,0,2:0:0:0:
364,278,116400,1,10,2:0:0:0:
297,139,116581,1,2,1:0:0:0:
232,345,116761,1,2,2:0:0:0:
174,209,116942,1,2,1:0:0:0:
174,209,117033,1,0,1:0:0:0:
174,209,117123,6,0,P|107:199|84:340,1,211.600004035951,4|0,1:0|2:0,2:0:0:0:
60,313,117665,1,0,1:0:0:0:
199,280,117846,2,0,P|181:191|152:87,1,158.700003026963,10|0,2:0|2:0,2:0:0:0:
154,120,118207,1,2,1:0:0:0:
258,19,118388,6,0,P|325:9|348:150,1,211.600004035951,2|0,2:0|1:0,2:0:0:0:
301,200,118930,2,0,P|352:214|417:243,1,105.800002017975,0|0,1:0|2:0,2:0:0:0:
400,234,119201,1,0,2:0:0:0:
400,234,119292,1,10,2:0:0:0:
286,282,119472,6,0,B|271:347|179:348|228:307|137:303|119:369,1,211.600004035951,2|2,1:0|2:0,2:0:0:0:
50,82,120376,6,0,B|28:51|1:48|1:48|93:-29|143:75,1,211.600004035951,0|10,1:0|2:0,2:0:0:0:
205,78,120918,2,0,P|150:74|4:164,1,211.600004035951,0|0,1:0|2:0,2:0:0:0:
1,277,121460,6,0,P|17:334|28:384,2,105.800002017975,2|2|2,1:0|2:0|2:0,2:0:0:0:
70,212,122002,1,2,1:0:0:0:
76,217,122093,1,0,2:0:0:0:
82,222,122183,1,10,2:0:0:0:
211,334,122364,2,0,P|215:307|221:282,1,52.9000010089877,2|0,1:0|2:0,2:0:0:0:
293,243,122545,1,2,2:0:0:0:
194,45,122725,5,0,1:0:0:0:
194,45,122816,1,0,1:0:0:0:
194,45,122906,2,0,P|251:12|320:125,1,211.600004035951,6|8,1:0|2:0,2:0:0:0:
327,107,123448,1,0,1:0:0:0:
486,188,123629,6,0,P|446:188|416:253,1,105.800002017975,8|0,2:0|2:0,2:0:0:0:
468,302,123990,1,10,1:0:0:0:
337,365,124171,6,0,P|327:306|311:253,1,105.800002017975,2|8,2:0|2:0,2:0:0:0:
247,222,124533,1,2,1:0:0:0:
432,15,124713,6,0,P|417:65|409:118,1,105.800002017975,8|2,1:0|2:0,2:0:0:0:
413,126,124984,1,0,2:0:0:0:
419,133,125075,5,8,2:0:0:0:
305,36,125255,1,2,1:0:0:0:
181,146,125436,1,8,2:0:0:0:
68,108,125617,6,0,P|58:75|44:42,1,64.3999980346684,10|0,2:3|2:0,2:0:0:0:
101,0,126159,6,0,B|131:59|61:119|72:56|0:111|28:173,1,211.600004035951,8|8,1:0|2:0,2:0:0:0:
163,255,126701,2,0,P|106:278|55:306,1,105.800002017975,0|10,1:0|2:0,2:0:0:0:
20,363,127063,1,2,2:0:0:0:
275,268,127243,6,0,P|205:273|165:148,1,211.600004035951,8|8,1:0|2:0,2:0:0:0:
323,68,127786,1,2,1:0:0:0:
323,68,127876,1,0,1:0:0:0:
323,68,127966,1,8,2:0:0:0:
243,191,128147,2,0,P|232:129|218:78,1,105.800002017975,2|8,1:0|2:0,2:0:0:0:
382,345,128508,5,2,1:0:0:0:
382,345,128599,1,0,1:0:0:0:
382,345,128689,2,0,P|452:350|492:225,1,211.600004035951,4|10,1:0|2:0,2:0:0:0:
395,159,129231,2,0,P|334:174|281:200,1,105.800002017975,2|8,1:0|2:0,2:0:0:0:
231,254,129593,1,2,2:0:0:0:
59,170,129774,2,0,P|113:168|143:221,1,105.800002017975,10|0,1:0|2:0,2:0:0:0:
126,345,130135,6,0,P|145:268|193:134,1,211.600004035951,8|8,2:0|1:0,2:0:0:0:
90,6,130677,1,0,2:0:0:0:
90,6,130768,1,0,2:0:0:0:
90,6,130858,1,10,2:0:0:0:
211,69,131039,2,0,P|167:67|115:124,1,105.800002017975,2|8,1:0|2:0,2:0:0:0:
65,178,131400,1,10,2:3:0:0:
402,318,131942,5,8,1:0:0:0:
389,305,132033,1,0,2:0:0:0:
376,297,132123,1,2,2:0:0:0:
359,289,132213,1,0,2:0:0:0:
332,259,132304,5,10,2:0:0:0:
313,257,132395,1,0,2:0:0:0:
298,259,132485,1,0,1:0:0:0:
280,264,132575,1,0,2:0:0:0:
248,291,132665,6,0,P|254:325|259:360,2,70.5333346786503,8|8|8,2:0|2:3|2:3,2:0:0:0:
165,234,133027,5,2,1:0:0:0:
325,128,133207,1,2,2:0:0:0:
325,128,133297,1,0,2:0:0:0:
325,128,133388,1,10,2:0:0:0:
144,11,133569,1,2,1:0:0:0:
230,37,133749,6,0,P|218:77|208:126,1,89.6999958938605,10|0,2:0|2:0,2:0:0:0:
199,122,134111,2,0,P|207:78|220:35,1,89.6999958938605,2|0,2:0|2:0,2:0:0:0:
121,80,134472,6,0,B|67:84|39:135|39:135|174:109|223:221,1,310.500001184465,14|0,1:0|2:0,2:0:0:0:
206,222,135014,1,2,1:0:0:0:
323,312,135195,2,0,P|281:325|248:356,1,69.0000026321416,10|0,2:0|2:0,2:0:0:0:
489,330,135557,6,0,B|426:326|398:255|398:255|423:327|379:371,1,248.400000947572,6|0,1:0|2:0,2:0:0:0:
323,312,136099,1,0,1:0:0:0:
498,228,136280,6,0,P|430:238|395:126,1,186.300000710679,4|0,1:0|2:0,2:0:0:0:
375,140,136641,1,8,2:0:0:0:
465,83,136822,6,0,P|402:101|298:139,1,156.400002983094,0|2,1:0|2:0,2:0:0:0:
232,47,137364,6,0,B|237:125|311:151|394:108|315:100|387:61|468:93|457:171,1,310.500001184465,14|0,1:0|2:0,2:0:0:0:
469,166,137906,1,0,1:0:0:0:
354,293,138087,6,0,P|341:249|325:214,1,69.0000026321416,8|0,2:0|2:0,2:0:0:0:
386,169,138448,6,0,P|351:233|308:383,1,186.300000710679,4|0,1:0|2:0,2:0:0:0:
317,363,138810,5,2,2:0:0:0:
196,294,138990,1,2,1:0:0:0:
46,208,139171,5,6,1:0:0:0:
192,121,139352,1,2,2:0:0:0:
195,127,139412,1,0,2:0:0:0:
198,133,139472,1,0,2:0:0:0:
201,139,139533,1,10,2:0:0:0:
59,229,139713,1,2,1:0:0:0:
31,25,139894,6,0,P|53:67|65:100,1,75.9000023162847,2|0,2:0|2:0,2:0:0:0:
134,88,140255,6,0,B|155:54|199:54|199:54|128:-11|16:32|26:145,1,310.500001184465,14|0,1:0|2:0,2:0:0:0:
15,122,140798,1,2,1:0:0:0:
82,270,140978,2,0,P|93:229|109:196,1,69.0000026321416,10|0,2:0|2:0,2:0:0:0:
0,278,141340,6,0,B|27:312|27:312|153:272|222:386,1,248.400000947572,6|0,1:0|2:0,2:0:0:0:
415,140,141882,6,0,P|385:143|353:172,1,62.100000236893,0|0,1:0|2:0,2:0:0:0:
351,275,142063,2,0,P|329:173|299:71,1,186.300000710679,4|0,1:0|2:0,2:0:0:0:
289,84,142424,1,8,2:0:0:0:
480,35,142605,2,0,P|422:57|356:-24,1,156.400002983094,0|2,1:0|2:0,2:0:0:0:
62,93,143147,6,0,B|46:62|12:58|12:58|88:22|158:78|88:113|169:171|232:128,1,310.500001184465,14|0,1:0|2:0,2:0:0:0:
228,148,143689,1,0,1:0:0:0:
252,35,143870,6,0,P|223:38|186:87,1,69.0000026321416,8|0,2:0|2:0,2:0:0:0:
79,195,144231,2,0,P|94:107|130:-30,1,186.300000710679,4|0,1:0|2:0,2:0:0:0:
108,6,144593,1,0,2:0:0:0:
9,169,144774,5,0,1:0:0:0:
9,169,144954,2,0,P|83:169|148:269,1,186.300000710679,4|0,1:0|2:0,2:0:0:0:
156,255,145316,1,10,2:0:0:0:
50,325,145496,6,0,P|151:285|286:266,1,234.600004474641,0|2,1:0|2:0,2:0:0:0:
106,108,157605,6,0,B|148:161|210:132|230:75|193:109|220:47|281:35|320:83,1,257.600000000001,2|0,2:0|2:0,2:0:0:0:
365,23,159051,6,0,P|335:107|299:271,1,257.600000000001,2|0,2:0|2:0,2:0:0:0:
379,242,160496,6,0,B|451:189|517:304|413:362|315:331|293:257,1,294.400000000002,2|0,2:0|2:0,2:0:0:0:
143,64,163027,6,0,P|127:71|112:80,1,34.5000000000002,0|0,2:0|2:0,2:0:0:0:
38,50,163388,6,0,B|53:116|145:116|97:75|184:71|204:140,1,211.600004035951,6|0,1:0|2:0,2:0:0:0:
318,209,163930,5,2,1:0:0:0:
306,110,164111,2,0,P|284:182|261:280,1,158.700003026963,10|0,2:0|2:0,2:0:0:0:
252,266,164472,1,2,1:0:0:0:
29,339,164653,6,0,P|90:357|127:277,1,158.700003026963,2|0,2:0|2:0,2:0:0:0:
139,279,165014,1,0,1:0:0:0:
345,212,165195,1,0,1:0:0:0:
192,144,165376,1,0,2:0:0:0:
192,144,165466,1,0,2:0:0:0:
192,144,165557,1,10,2:0:0:0:
249,366,165737,2,0,P|236:306|219:252,2,105.800002017975,2|2|2,1:0|2:0|2:0,2:0:0:0:
224,363,166641,6,0,P|239:281|282:137,1,211.600004035951,0|8,1:0|2:0,2:0:0:0:
108,108,167183,2,0,B|169:118|187:175|187:175|172:117|227:73,1,211.600004035951,2|2,1:0|2:0,2:0:0:0:
274,157,167725,2,0,B|335:147|353:90|353:90|338:148|393:192,1,211.600004035951,0|0,1:0|2:0,2:0:0:0:
457,298,168268,5,8,2:0:0:0:
460,291,168358,1,0,2:0:0:0:
462,285,168448,1,10,2:0:0:0:
321,223,168629,1,2,1:0:0:0:
412,382,168810,1,2,2:0:0:0:
257,308,168990,1,2,1:0:0:0:
254,315,169080,1,0,1:0:0:0:
251,323,169171,6,0,P|205:245|78:270,1,211.600004035951,4|0,1:0|2:0,2:0:0:0:
95,252,169713,1,0,1:0:0:0:
38,187,169894,2,0,P|63:264|86:364,1,158.700003026963,10|0,2:0|2:0,2:0:0:0:
72,352,170255,1,2,1:0:0:0:
258,63,170436,6,0,P|212:141|85:116,1,211.600004035951,2|0,2:0|1:0,2:0:0:0:
68,21,170978,2,0,P|124:41|183:69,1,105.800002017975,0|0,1:0|2:0,2:0:0:0:
166,60,171249,1,0,2:0:0:0:
166,60,171340,1,10,2:0:0:0:
281,213,171521,6,0,B|296:148|388:147|339:188|430:192|448:126,1,211.600004035951,2|2,1:0|2:0,2:0:0:0:
362,38,172424,6,0,P|383:103|410:247,1,211.600004035951,0|10,1:0|2:0,2:0:0:0:
494,200,172966,2,0,P|498:127|363:126,1,211.600004035951,0|0,1:0|2:0,2:0:0:0:
271,172,173508,5,2,1:0:0:0:
162,127,173689,1,2,2:0:0:0:
53,82,173870,1,2,2:0:0:0:
109,264,174051,5,2,1:0:0:0:
118,258,174141,1,0,2:0:0:0:
126,253,174231,1,10,2:0:0:0:
220,32,174412,2,0,P|231:79|237:104,1,52.9000010089877,10|0,1:0|2:0,2:0:0:0:
289,289,174593,1,2,2:0:0:0:
389,124,174774,5,0,1:0:0:0:
380,118,174864,1,0,1:0:0:0:
371,112,174954,2,0,B|313:84|260:164|319:141|277:236|200:198,1,211.600004035951,6|8,1:0|2:0,2:0:0:0:
210,202,175496,1,0,1:0:0:0:
48,251,175677,2,0,P|113:261|205:321,1,158.700003026963,8|0,2:0|2:0,2:0:0:0:
207,333,176039,1,10,1:0:0:0:
413,222,176219,6,0,P|356:235|336:305,1,105.800002017975,2|8,2:0|2:0,2:0:0:0:
420,339,176581,1,2,1:0:0:0:
230,153,176761,2,0,P|247:212|259:273,1,105.800002017975,8|2,1:0|2:0,2:0:0:0:
255,52,177123,5,8,2:0:0:0:
117,176,177304,1,2,1:0:0:0:
185,10,177484,5,8,2:0:0:0:
328,155,177665,1,2,2:0:0:0:
55,95,177846,6,0,P|62:62|67:38,1,48.2999985260013,0|0,2:0|2:0,2:0:0:0:
0,15,178207,6,0,B|3:70|54:88|112:58|57:52|117:31|164:48|171:104,1,211.600004035951,6|8,1:0|2:0,2:0:0:0:
57,173,178749,2,0,P|119:196|178:244,1,105.800002017975,2|8,1:0|2:0,2:0:0:0:
15,274,179111,1,2,2:0:0:0:
304,115,179292,6,0,P|273:182|234:342,1,211.600004035951,8|8,1:0|2:0,2:0:0:0:
180,136,179834,1,2,1:0:0:0:
180,136,179924,1,0,1:0:0:0:
180,136,180014,1,8,1:0:0:0:
327,333,180195,2,0,P|362:291|341:221,1,105.800002017975,2|8,1:0|2:0,2:0:0:0:
144,249,180557,5,2,1:0:0:0:
144,249,180647,1,0,1:0:0:0:
144,249,180737,2,0,P|205:207|385:162,1,211.600004035951,4|10,1:0|2:0,2:0:0:0:
462,20,181280,2,0,P|428:23|399:97,1,105.800002017975,2|8,1:0|2:0,2:0:0:0:
512,171,181641,1,2,2:0:0:0:
357,242,181822,2,0,P|410:256|467:291,1,105.800002017975,10|0,1:0|2:0,2:0:0:0:
283,152,182183,5,8,2:0:0:0:
233,328,182364,1,0,1:0:0:0:
287,140,182545,2,0,P|277:80|261:16,1,105.800002017975,8|0,1:0|2:0,2:0:0:0:
266,36,182816,1,0,2:0:0:0:
266,36,182907,1,10,2:0:0:0:
63,258,183087,2,0,P|117:263|161:217,1,105.800002017975,2|8,1:0|2:0,2:0:0:0:
205,170,183448,1,2,2:0:0:0:
346,343,183990,5,8,1:0:0:0:
350,321,184081,1,0,2:0:0:0:
353,300,184171,1,2,2:0:0:0:
356,279,184261,1,0,2:0:0:0:
340,258,184352,5,10,2:0:0:0:
344,236,184443,1,0,2:0:0:0:
347,215,184533,1,0,1:0:0:0:
350,194,184623,1,0,2:0:0:0:
367,173,184713,6,0,P|375:128|385:67,2,70.5333346786503,8|8|8,2:0|2:3|2:3,2:0:0:0:
433,272,185075,5,2,1:0:0:0:
295,75,185255,1,2,2:0:0:0:
296,66,185346,1,0,2:0:0:0:
299,56,185436,1,10,2:0:0:0:
446,274,185617,1,2,1:0:0:0:
195,181,185798,6,0,P|156:187|113:224,1,89.6999958938605,14|0,2:0|2:0,2:0:0:0:
112,211,186159,2,0,P|146:182|189:174,1,89.6999958938605,2|0,2:0|2:0,2:0:0:0:
216,321,186521,6,0,B|265:271|220:197|139:185|197:239|105:223|62:158|104:93,1,310.500001184465,14|0,1:0|2:0,2:0:0:0:
90,78,187063,1,2,1:0:0:0:
244,53,187243,6,0,P|221:87|207:124,1,69.0000026321416,10|2,2:0|2:0,2:0:0:0:
62,218,187605,6,0,P|118:178|335:147,1,248.400000947572,6|2,1:0|2:0,2:0:0:0:
359,181,188147,2,0,P|365:178|355:189,1,62.100000236893,2|0,1:0|2:0,2:0:0:0:
77,132,188328,6,0,P|181:155|256:206,1,186.300000710679,6|0,1:0|2:0,2:0:0:0:
250,214,188689,1,10,2:0:0:0:
91,373,188870,6,0,P|47:383|2:297,1,156.400002983094,2|2,1:0|2:0,2:0:0:0:
190,80,189412,6,0,B|244:84|272:135|272:135|137:109|88:221,1,310.500001184465,14|0,1:0|2:0,2:0:0:0:
76,209,189954,1,0,1:0:0:0:
203,332,190135,6,0,P|193:298|185:265,1,69.0000026321416,10|2,2:0|2:0,2:0:0:0:
7,23,190496,6,0,P|67:20|50:120,1,186.300000710679,6|0,1:0|2:0,2:0:0:0:
31,119,190858,5,2,2:0:0:0:
141,190,191039,1,2,1:0:0:0:
254,297,191219,5,2,1:0:0:0:
367,231,191400,1,2,2:0:0:0:
368,237,191460,1,0,2:0:0:0:
369,243,191521,1,0,2:0:0:0:
370,249,191581,1,10,2:0:0:0:
227,163,191761,1,2,1:0:0:0:
420,14,191942,6,0,P|432:48|471:65,1,75.9000023162847,2|0,2:0|2:0,2:0:0:0:
512,9,192304,6,0,B|521:86|454:126|364:100|439:77|361:52|288:99|314:174,1,310.500001184465,14|0,1:0|2:0,2:0:0:0:
327,177,192846,1,2,1:0:0:0:
414,290,193027,6,0,P|422:248|443:210,1,69.0000026321416,10|2,2:0|2:0,2:0:0:0:
512,343,193388,6,0,B|496:339|471:354|471:354|403:287|320:312|320:312|310:294|290:287,1,248.400000947572,6|2,1:0|2:0,2:0:0:0:
117,342,193930,6,0,P|158:331|173:302,1,62.100000236893,2|0,1:0|2:0,2:0:0:0:
229,366,194111,2,0,P|215:277|184:174,1,186.300000710679,6|0,1:0|2:0,2:0:0:0:
167,177,194472,1,10,2:0:0:0:
30,48,194653,6,0,B|73:45|88:1|88:1|78:47|111:71,1,156.400002983094,2|2,1:0|2:0,2:0:0:0:
209,109,195195,6,0,B|230:75|274:75|274:75|203:10|91:53|101:166,1,310.500001184465,14|0,1:0|2:0,2:0:0:0:
80,144,195737,1,0,1:0:0:0:
209,279,195918,6,0,P|247:288|296:340,1,103.500003948212,10|0,2:0|2:0,2:0:0:0:
342,240,196280,6,0,P|282:306|93:297,1,248.400000947572,4|0,1:0|2:0,2:0:0:0:
111,168,196822,6,0,P|110:143|79:113,1,62.100000236893,2|0,1:0|2:0,2:0:0:0:
0,69,197002,2,0,P|22:117|106:88,1,124.200000473786,2|2,1:0|2:0,2:0:0:0:
191,46,197364,5,10,2:0:0:0:
293,121,197545,5,2,1:0:0:0:
422,42,197725,6,0,L|409:102,1,39.1000007457735,2|0,2:0|2:0,2:0:0:0:
