osu file format v14

[General]
AudioFilename: audio.mp3
AudioLeadIn: 0
PreviewTime: 131188
Countdown: 0
SampleSet: Soft
StackLeniency: 0.7
Mode: 0
LetterboxInBreaks: 0
WidescreenStoryboard: 1

[Editor]
Bookmarks: 22222,41533,66360,88429,93947,226360
DistanceSpacing: 0.5
BeatDivisor: 4
GridSize: 4
TimelineZoom: 2.900002

[Metadata]
Title:Rays Of Dawn
TitleUnicode:Rays Of Dawn
Artist:MoonShard
ArtistUnicode:MoonShard
Creator:Luel Roseline
Version:Insane If ver
Source:
Tags:dnb drum and bass lr lroseline
BeatmapID:1956980
BeatmapSetID:893976

[Difficulty]
HPDrainRate:6
CircleSize:4
OverallDifficulty:7
ApproachRate:9
SliderMultiplier:1.8
SliderTickRate:1

[Events]
//Background and Video events
0,0,"anime_scan_landscape_sky_cloud_beautiful_light_color_1920x1080.jpg",0,0
//Break Periods
2,73457,93002
2,94147,98519
2,99664,104381
2,110698,129209
//Storyboard Layer 0 (Background)
//Storyboard Layer 1 (Fail)
//Storyboard Layer 2 (Pass)
//Storyboard Layer 3 (Foreground)
//Storyboard Sound Samples

[TimingPoints]
154,344.827586206897,4,2,0,70,1,0
27050,-133.333333333333,4,2,0,70,0,0
27740,-100,4,2,0,70,0,0
32567,-133.333333333333,4,2,0,70,0,0
33257,-100,4,2,0,70,0,0
38085,-133.333333333333,4,2,0,70,0,0
38774,-100,4,2,0,70,0,0
41533,-200,4,2,0,30,0,0
42912,-200,4,2,0,50,0,0
43602,-100,4,2,0,50,0,0
44291,-80,4,2,0,70,0,0
93602,-200,4,2,0,70,0,0
99119,-133.333333333333,4,2,0,70,0,0
99464,-200,4,2,0,70,0,0
104981,-133.333333333333,4,3,0,50,0,0
110498,-200,4,2,0,70,0,0
129809,-133.333333333333,4,3,0,70,0,0
131188,-100,4,3,0,70,0,0
132567,-80,4,2,0,70,0,1
151878,-79.9999999999999,4,2,0,70,0,0
153257,-100,4,2,0,70,0,0
154636,-80,4,2,0,70,0,1
176705,-100,4,2,0,70,0,0
226360,-100,4,3,0,70,0,0
226705,-80,4,2,0,70,0,1
264981,-100,4,2,0,70,0,0

[HitObjects]
172,220,22222,5,4,0:0:0:0:
217,143,22395,1,0,0:0:0:0:
172,220,22567,2,0,L|127:142,1,90,8|0,0:0|0:0,0:0:0:0:
262,220,22912,2,0,L|217:297,1,90
217,143,23257,2,0,L|306:143,1,90,8|0,0:0|0:0,0:0:0:0:
306,298,23602,5,0,0:0:0:0:
216,297,23774,1,0,0:0:0:0:
350,220,23947,2,0,L|394:297,1,90,8|0,0:0|0:0,0:0:0:0:
262,220,24291,2,0,L|172:219,1,90
306,143,24636,2,0,L|351:65,1,90,8|0,0:0|0:0,0:0:0:0:
306,298,24981,5,0,0:0:0:0:
350,220,25154,1,0,0:0:0:0:
262,220,25326,2,0,P|224:176|220:132,1,90,8|0,0:0|0:0,0:0:0:0:
176,220,25671,2,0,P|180:162|208:128,1,90
115,159,26016,2,0,P|159:121|203:116,1,90,8|0,0:0|0:0,0:0:0:0:
306,298,26360,5,0,0:0:0:0:
216,297,26533,1,0,0:0:0:0:
350,220,26705,2,0,P|388:176|392:132,1,90,8|0,0:0|0:0,0:0:0:0:
306,298,27050,6,0,P|388:300|436:244,1,135.000005149842,0|8,0:0|0:0,0:0:0:0:
350,220,27567,1,0,0:0:0:0:
216,297,27740,5,0,0:0:0:0:
172,219,27912,1,0,0:0:0:0:
216,297,28085,2,0,P|176:308|116:288,1,90,8|0,0:0|0:0,0:0:0:0:
128,144,28429,2,0,P|157:173|170:235,1,90
39,296,28774,2,0,P|49:255|96:213,1,90,8|0,0:0|0:0,0:0:0:0:
262,220,29119,5,0,0:0:0:0:
263,128,29291,1,0,0:0:0:0:
341,84,29464,2,0,P|353:135|334:184,1,90,8|0,0:0|0:0,0:0:0:0:
184,171,29809,2,0,P|172:120|191:71,1,90
262,220,30154,2,0,L|262:312,1,90,8|0,0:0|0:0,0:0:0:0:
342,260,30498,5,0,0:0:0:0:
262,220,30671,1,0,0:0:0:0:
181,350,30843,2,0,L|261:310,1,90,8|0,0:0|0:0,0:0:0:0:
262,220,31188,2,0,L|342:180,1,90
343,90,31533,2,0,L|423:50,1,90,8|0,0:0|0:0,0:0:0:0:
412,219,31878,6,0,L|406:308,1,90
261,309,32222,2,0,L|262:220,1,90,8|0,0:0|0:0,0:0:0:0:
343,90,32567,6,0,B|298:141|298:141|257:123|221:144,1,135.000005149842,0|8,0:0|0:0,0:0:0:0:
262,219,33085,1,0,0:0:0:0:
173,203,33257,5,4,0:0:0:0:
232,138,33429,1,0,0:0:0:0:
204,289,33602,2,0,P|243:309|288:305,1,90,8|0,0:0|0:0,0:0:0:0:
318,154,33947,2,0,P|280:178|261:218,1,90
377,320,34291,2,0,P|374:275|349:238,1,90,8|0,0:0|0:0,0:0:0:0:
115,273,34636,5,0,0:0:0:0:
173,203,34809,1,0,0:0:0:0:
83,188,34981,2,0,L|114:273,1,90,8|0,0:0|0:0,0:0:0:0:
141,118,35326,2,0,L|51:102,1,90
173,203,35671,2,0,L|231:133,1,90,8|0,0:0|0:0,0:0:0:0:
349,238,36016,5,0,0:0:0:0:
349,238,36188,1,0,0:0:0:0:
318,154,36360,2,0,P|288:172|261:224,1,90,8|0,0:0|0:0,0:0:0:0:
437,253,36705,2,0,P|436:218|404:168,1,90
290,307,37050,2,0,P|320:323|379:321,1,90,8|0,0:0|0:0,0:0:0:0:
377,84,37395,5,0,0:0:0:0:
318,154,37567,1,0,0:0:0:0:
349,238,37740,2,0,L|318:154,1,90,8|0,0:0|0:0,0:0:0:0:
290,307,38085,6,0,P|354:329|426:286,1,135.000005149842,0|8,0:0|0:0,0:0:0:0:
349,238,38602,1,0,0:0:0:0:
201,286,38774,5,0,0:0:0:0:
261,219,38947,1,0,0:0:0:0:
317,153,39119,2,0,P|268:132|216:145,1,90,8|0,0:0|0:0,0:0:0:0:
288,71,39464,2,0,P|238:90|210:136,1,90
209,33,39809,2,0,P|187:82|201:134,1,90,8|0,0:0|0:0,0:0:0:0:
349,238,40154,5,0,0:0:0:0:
261,219,40326,1,0,0:0:0:0:
173,200,40498,2,0,P|176:250|212:295,1,90,8|0,0:0|0:0,0:0:0:0:
113,262,40843,2,0,P|150:295|207:301,1,90
114,348,41188,2,0,P|164:344|209:308,1,90,8|0,0:0|0:0,0:0:0:0:
261,219,41533,6,0,L|261:175,1,45,4|0,0:0|0:0,0:0:0:0:
349,238,41878,2,0,L|349:282,1,45
261,207,42222,6,0,L|261:163,1,45
349,250,42567,2,0,L|349:294,1,45
163,295,42912,5,4,0:0:0:0:
377,141,43085,2,0,L|399:147,1,22.5,0|0,3:0|3:0,3:0:0:0:
355,135,43257,1,0,3:0:0:0:
333,129,43343,1,0,3:0:0:0:
312,123,43429,1,0,3:0:0:0:
290,117,43516,1,0,3:0:0:0:
267,111,43602,6,0,L|223:99,3,45,0|0|0|0,3:0|3:0|3:0|3:0,3:0:0:0:
290,199,43947,2,0,L|257:231,3,45,8|8|8|8,3:0|3:0|3:0|3:0,3:0:0:0:
290,199,44291,6,0,P|304:256|288:312,1,112.5,4|0,1:0|0:0,0:0:0:0:
194,141,44636,1,8,1:0:0:0:
95,194,44809,1,0,0:0:0:0:
141,42,44981,1,0,0:0:0:0:
141,42,45067,1,0,0:0:0:0:
141,42,45154,1,0,1:0:0:0:
95,194,45326,2,0,P|81:251|97:307,1,112.5,8|0,1:0|0:0,0:0:0:0:
193,250,45671,5,0,1:0:0:0:
290,306,45843,1,0,0:0:0:0:
193,250,46016,1,8,1:0:0:0:
387,137,46188,1,0,0:0:0:0:
444,234,46360,1,0,0:0:0:0:
444,234,46447,1,0,0:0:0:0:
444,234,46533,1,0,1:0:0:0:
274,137,46705,2,0,L|302:28,1,112.5,8|0,1:0|0:0,0:0:0:0:
331,235,47050,6,0,L|302:343,1,112.5,0|0,1:0|0:0,0:0:0:0:
176,195,47395,1,8,1:0:0:0:
274,137,47567,1,0,0:0:0:0:
176,307,47740,1,0,0:0:0:0:
176,307,47826,1,0,0:0:0:0:
176,307,47912,1,0,1:0:0:0:
78,138,48085,1,8,1:0:0:0:
274,252,48257,1,0,0:0:0:0:
330,154,48429,6,0,L|427:98,1,112.5,0|0,1:0|0:0,0:0:0:0:
387,252,48774,1,8,1:0:0:0:
274,252,48947,6,0,B|216:253|216:253|188:300,1,112.5,2|0,0:1|0:0,0:0:0:0:
146,129,49291,2,0,B|175:177|175:177|230:178,1,112.5,2|8,1:0|1:0,0:0:0:0:
105,302,49636,1,2,0:1:0:0:
105,302,49722,1,2,0:1:0:0:
105,302,49809,6,0,B|132:251|132:251|105:203,1,112.5,0|0,1:0|0:0,0:0:0:0:
102,56,50154,1,8,1:0:0:0:
213,52,50326,1,0,0:0:0:0:
228,52,50412,1,0,0:0:0:0:
242,52,50498,1,0,0:0:0:0:
256,52,50585,1,0,0:0:0:0:
270,51,50671,1,0,1:0:0:0:
408,175,50843,2,0,L|372:281,1,112.5,8|0,1:0|0:0,0:0:0:0:
231,178,51188,5,0,1:0:0:0:
247,289,51360,1,0,0:0:0:0:
120,194,51533,1,8,1:0:0:0:
136,304,51705,1,0,0:0:0:0:
301,224,51878,1,0,0:0:0:0:
301,224,51964,1,0,0:0:0:0:
301,224,52050,1,0,1:0:0:0:
166,123,52222,2,0,L|149:11,1,112.5,8|0,1:0|0:0,0:0:0:0:
330,154,52567,6,0,L|442:171,1,112.5,0|0,1:0|0:0,0:0:0:0:
272,294,52912,1,8,1:0:0:0:
252,184,53085,1,0,0:0:0:0:
245,156,53171,1,0,0:0:0:0:
248,128,53257,1,0,0:0:0:0:
261,104,53343,1,0,0:0:0:0:
281,84,53429,1,0,1:0:0:0:
383,277,53602,2,0,L|271:294,1,112.5,8|0,1:0|0:0,0:0:0:0:
134,173,53947,6,0,L|246:156,1,112.5,0|0,1:0|0:0,0:0:0:0:
160,310,54291,1,8,1:0:0:0:
314,217,54464,6,0,P|366:225|383:277,1,112.5,2|0,0:1|0:0,0:0:0:0:
418,96,54809,2,0,P|383:137|331:125,1,112.5,2|8,1:0|1:0,0:0:0:0:
469,246,55154,1,2,0:1:0:0:
469,246,55240,1,2,0:1:0:0:
469,246,55326,6,0,P|450:195|486:156,1,112.5,4|0,1:0|0:0,0:0:0:0:
349,35,55671,1,8,1:0:0:0:
242,70,55843,1,0,0:0:0:0:
314,217,56016,1,0,0:0:0:0:
314,217,56102,1,0,0:0:0:0:
314,217,56188,1,0,1:0:0:0:
165,149,56360,2,0,P|196:102|241:69,1,112.5,8|0,1:0|0:0,0:0:0:0:
314,217,56705,6,0,P|282:263|237:296,1,112.5,0|0,1:0|0:0,0:0:0:0:
165,149,57050,1,8,1:0:0:0:
165,149,57136,1,0,0:0:0:0:
165,149,57222,2,0,L|53:149,2,112.5,0|0|0,0:0|0:0|1:0,0:0:0:0:
314,217,57740,2,0,P|340:260|336:344,1,112.5,8|0,1:0|0:0,0:0:0:0:
235,139,58085,6,0,P|278:113|362:117,1,112.5,0|0,1:0|0:0,0:0:0:0:
207,247,58429,1,8,1:0:0:0:
235,139,58602,2,0,L|235:27,1,112.5
130,109,58947,1,0,1:0:0:0:
207,247,59119,2,0,L|315:216,1,112.5,8|0,1:0|0:0,0:0:0:0:
343,321,59464,6,0,L|235:352,1,112.5,0|0,1:0|0:0,0:0:0:0:
421,244,59809,1,8,1:0:0:0:
315,215,59981,6,0,L|284:107,1,112.5,2|0,0:1|0:0,0:0:0:0:
175,138,60326,2,0,L|206:246,1,112.5,2|8,1:0|1:0,0:0:0:0:
423,183,60671,1,2,0:1:0:0:
423,183,60757,1,2,0:1:0:0:
423,183,60843,6,0,L|392:75,1,112.5,0|0,1:0|0:0,0:0:0:0:
315,215,61188,1,8,1:0:0:0:
206,246,61360,1,0,0:0:0:0:
178,239,61447,1,0,0:0:0:0:
151,231,61533,1,0,0:0:0:0:
124,223,61619,1,0,0:0:0:0:
97,215,61705,1,0,1:0:0:0:
283,106,61878,2,0,L|391:75,1,112.5,8|0,1:0|0:0,0:0:0:0:
385,253,62222,5,0,1:0:0:0:
332,351,62395,1,0,0:0:0:0:
287,200,62567,1,8,1:0:0:0:
234,298,62740,1,0,0:0:0:0:
413,331,62912,1,0,0:0:0:0:
413,331,62998,1,0,0:0:0:0:
413,331,63085,1,0,1:0:0:0:
234,298,63257,2,0,L|180:199,1,112.5,8|0,1:0|0:0,0:0:0:0:
287,200,63602,6,0,L|340:101,1,112.5,0|0,1:0|0:0,0:0:0:0:
181,92,63947,1,8,1:0:0:0:
86,144,64119,1,0,0:0:0:0:
75,169,64205,1,0,0:0:0:0:
71,197,64291,1,0,0:0:0:0:
74,225,64378,1,0,0:0:0:0:
84,251,64464,1,0,1:0:0:0:
234,146,64636,1,8,1:0:0:0:
235,39,64809,1,0,0:0:0:0:
327,93,64981,5,0,1:0:0:0:
326,200,65154,1,0,0:0:0:0:
419,39,65326,1,8,1:0:0:0:
418,146,65498,1,0,0:0:0:0:
234,146,65671,1,0,0:0:0:0:
234,146,65757,1,0,0:0:0:0:
234,146,65843,1,0,1:0:0:0:
418,146,66016,2,0,L|474:243,1,112.5,8|0,1:0|0:0,0:0:0:0:
326,305,66360,6,0,B|268:272|220:304|220:304|164:336|92:300,1,225,4|8,1:0|1:0,0:0:0:0:
232,154,66878,1,0,0:0:0:0:
164,208,67050,2,0,P|148:156|164:100,1,112.5,0|0,0:0|1:0,0:0:0:0:
300,100,67395,2,0,P|316:152|300:208,1,112.5,8|0,1:0|0:0,0:0:0:0:
232,154,67740,6,0,P|216:102|232:46,1,112.5,0|0,1:0|0:0,0:0:0:0:
368,46,68085,2,0,P|384:98|368:154,1,112.5,8|0,1:0|0:0,0:0:0:0:
232,260,68429,1,0,0:0:0:0:
232,260,68516,1,0,0:0:0:0:
232,260,68602,1,0,1:0:0:0:
413,255,68774,2,0,L|368:151,1,112.5,8|0,1:0|0:0,0:0:0:0:
231,47,69119,6,0,P|152:101|232:154,1,225,0|8,1:0|1:0,0:0:0:0:
368,151,69636,1,0,0:0:0:0:
413,255,69809,1,0,0:0:0:0:
413,255,69895,1,0,0:0:0:0:
413,255,69981,1,0,1:0:0:0:
232,260,70154,2,0,L|187:364,1,112.5,8|0,1:0|0:0,0:0:0:0:
140,208,70498,5,0,1:0:0:0:
140,208,70671,1,0,0:0:0:0:
320,167,70843,2,0,L|413:255,1,112.5,8|0,1:0|0:0,0:0:0:0:
232,260,71188,5,0,0:0:0:0:
232,260,71360,1,0,1:0:0:0:
191,80,71533,2,0,L|103:173,1,112.5,8|0,1:0|0:0,0:0:0:0:
320,167,71878,6,0,L|408:74,1,112.5,0|0,1:0|0:0,0:0:0:0:
401,244,72222,1,8,1:0:0:0:
396,246,72309,1,0,0:0:0:0:
390,245,72395,1,0,0:0:0:0:
386,241,72481,1,0,0:0:0:0:
386,235,72567,1,0,0:0:0:0:
390,231,72654,1,0,0:0:0:0:
396,230,72740,1,0,1:0:0:0:
401,233,72826,1,0,0:0:0:0:
402,238,72912,1,8,1:0:0:0:
320,167,73257,5,0,1:0:0:0:
142,357,93602,6,0,L|153:313,1,45
222,227,93947,1,0,0:0:0:0:
370,27,99119,6,0,L|353:93,1,67.5000025749208
290,157,99464,1,0,0:0:0:0:
304,120,104981,6,0,P|367:111|411:162,1,135.000005149842,0|8,0:0|0:0,0:0:0:0:
344,176,105498,2,0,L|310:183,2,33.7500012874604
476,141,105843,1,8,0:0:0:0:
440,272,106016,1,0,0:0:0:0:
440,272,106102,1,0,0:0:0:0:
440,272,106188,1,0,0:0:0:0:
440,272,106274,1,0,0:0:0:0:
440,272,106360,6,0,L|308:306,1,135.000005149842,0|8,0:0|0:0,0:0:0:0:
222,254,106878,1,0,0:0:0:0:
134,304,107050,1,0,0:0:0:0:
134,304,107136,1,0,0:0:0:0:
134,304,107222,1,8,0:0:0:0:
83,216,107395,6,0,L|131:229,1,33.7500012874604,0|0,3:0|3:0,3:0:0:0:
222,254,107567,2,0,L|246:294,1,33.7500012874604,0|0,3:0|3:0,3:0:0:0:
171,166,107740,6,0,L|102:45,1,135.000005149842,4|8,0:2|0:0,0:0:0:0:
288,99,108257,1,0,0:0:0:0:
288,99,108343,1,0,0:0:0:0:
288,98,108429,2,0,L|287:168,1,67.5000025749208,0|8,0:0|0:0,0:0:0:0:
387,225,108774,1,0,0:0:0:0:
387,225,108860,1,0,0:0:0:0:
387,225,108947,1,0,0:0:0:0:
387,225,109033,1,0,0:0:0:0:
387,225,109119,5,4,0:0:0:0:
387,225,109464,2,0,L|422:167,1,67.5000025749208,12|0,0:0|0:0,0:0:0:0:
287,166,109809,1,0,0:0:0:0:
287,166,109895,1,0,0:0:0:0:
287,166,109981,1,0,0:0:0:0:
285,282,110154,1,0,1:0:0:0:
285,282,110240,1,0,1:0:0:0:
285,282,110326,1,0,1:0:0:0:
285,282,110412,1,0,1:0:0:0:
285,282,110498,5,4,1:0:0:0:
156,279,129809,6,0,B|156:245|156:245|184:228|184:228|184:159,1,135.000005149842,0|8,0:0|0:0,0:0:0:0:
256,88,130326,1,0,0:0:0:0:
327,159,130498,1,0,0:0:0:0:
327,159,130585,1,0,0:0:0:0:
327,159,130671,1,8,0:0:0:0:
255,297,130843,2,0,L|255:229,1,67.5000025749208,0|0,0:0|0:0,0:0:0:0:
256,88,131188,5,4,0:2:0:0:
