osu file format v14

[General]
AudioFilename: audio.mp3
AudioLeadIn: 0
PreviewTime: 66686
Countdown: 0
SampleSet: Soft
StackLeniency: 0.5
Mode: 0
LetterboxInBreaks: 0
WidescreenStoryboard: 0

[Editor]
Bookmarks: 7186,15186,21586,29586,42386,51986,58386,67986,74386,80786,91986,98386,104786,117586,123986,130386,139986,147986
DistanceSpacing: 0.2
BeatDivisor: 4
GridSize: 16
TimelineZoom: 3.199999

[Metadata]
Title:Purgatorium
TitleUnicode:Purgatorium
Artist:Moon Symphony
ArtistUnicode:お月さま交響曲
Creator:Skorpiik
Version:Purged from Existence
Source:Arcaea
Tags:rhytm video game metal
BeatmapID:2048394
BeatmapSetID:978833

[Difficulty]
HPDrainRate:6
CircleSize:4
OverallDifficulty:8
ApproachRate:8.4
SliderMultiplier:2
SliderTickRate:1

[Events]
//Background and Video events
0,0,"vtX3TI.jpg",0,0
//Break Periods
2,15386,17096
2,18586,19896
2,92186,96096
//Storyboard Layer 0 (Background)
//Storyboard Layer 1 (Fail)
//Storyboard Layer 2 (Pass)
//Storyboard Layer 3 (Foreground)
//Storyboard Layer 4 (Overlay)
//Storyboard Sound Samples

[TimingPoints]
786,400,4,2,2,60,1,0
7186,-100,4,2,2,45,0,0
7986,-222.222222222222,4,2,2,45,0,0
11986,-166.666666666667,4,2,2,45,0,0
12386,-166.666666666667,4,2,2,49,0,0
12786,-166.666666666667,4,2,2,53,0,0
13186,-166.666666666667,4,2,2,57,0,0
13586,-125,4,2,2,50,0,0
14786,-100,4,2,2,50,0,0
17786,-125,4,2,1,50,0,0
18086,-100,4,2,1,50,0,0
21586,-100,4,2,1,57,0,0
29586,-100,4,2,1,50,0,0
32786,-133.333333333333,4,2,1,50,0,0
37586,-125,4,2,1,50,0,0
38386,-142.857142857143,4,2,1,50,0,0
39186,-117.647058823529,4,2,1,50,0,0
40786,-100,4,2,1,50,0,0
42386,-111.111111111111,4,2,1,60,0,0
50386,-100,4,2,1,60,0,0
51986,-111.111111111111,4,2,1,60,0,0
56786,-100,4,2,1,60,0,0
60786,-90.9090909090909,4,2,1,60,0,0
61186,-86.9565217391304,4,2,1,60,0,0
61586,-117.647058823529,4,2,1,60,0,0
63986,-83.3333333333333,4,2,1,60,0,0
64286,-76.9230769230769,4,2,1,60,0,0
64586,-71.4285714285714,4,2,1,60,0,0
65586,-66.6666666666667,4,2,1,60,0,0
67186,-100,4,2,1,60,0,0
67986,-100,4,2,1,75,0,1
74386,-133.333333333333,4,2,1,75,0,1
77586,-111.111111111111,4,2,1,75,0,1
79186,-83.3333333333333,4,2,1,75,0,1
79986,-76.9230769230769,4,2,1,75,0,1
80786,-100,4,2,1,75,0,1
87186,-125,4,2,1,75,0,1
88786,-100,4,2,1,75,0,1
89586,-83.3333333333333,4,2,1,75,0,1
91986,-100,4,2,1,75,0,0
98386,-142.857142857143,4,2,1,45,0,0
101586,-142.857142857143,4,2,1,49,0,0
101986,-142.857142857143,4,2,1,53,0,0
102386,-111.111111111111,4,2,1,57,0,0
102786,-111.111111111111,4,2,1,61,0,0
103186,-100,4,2,1,61,0,0
104786,-111.111111111111,4,2,1,70,0,0
107186,-90.9090909090909,4,2,1,70,0,0
107586,-83.3333333333333,4,2,1,70,0,0
107986,-76.9230769230769,4,2,1,70,0,0
108386,-111.111111111111,4,2,1,70,0,0
110386,-83.3333333333333,4,2,1,70,0,0
111186,-111.111111111111,4,2,1,70,0,0
113786,-90.9090909090909,4,2,1,70,0,0
114386,-80,4,2,1,70,0,0
117586,-100,4,2,1,50,0,0
123986,-100,4,2,1,55,0,0
127186,-80,4,2,1,65,0,0
127486,-83.3333333333333,4,2,1,65,0,0
127786,-80,4,2,1,65,0,0
127986,-74.0740740740741,4,2,1,65,0,0
128286,-66.6666666666667,4,2,1,65,0,0
128586,-71.4285714285714,4,2,1,65,0,0
129186,-111.111111111111,4,2,1,65,0,0
130386,-100,4,2,1,75,0,1
136786,-125,4,2,1,75,0,1
138386,-100,4,2,1,75,0,1
139186,-83.3333333333333,4,2,1,75,0,1
139986,-100,4,2,1,66,0,0
141586,-100,4,2,1,57,0,0
144786,-111.111111111111,4,2,1,57,0,0
146386,-100,4,2,1,65,0,0
147586,-111.111111111111,4,2,1,72,0,0

[Colours]
Combo1 : 181,11,104
Combo2 : 187,33,11
Combo3 : 248,200,7

[HitObjects]
140,347,7586,5,8,0:0:0:0:
114,238,7986,2,0,L|192:251,2,67.4999979400635,8|8|8,0:0|0:0|0:0,0:0:0:0:
178,44,9186,5,8,0:0:0:0:
204,153,9586,2,0,L|126:140,2,67.4999979400635,8|8|8,0:0|0:0|0:0,0:0:0:0:
436,58,10786,5,8,0:0:0:0:
327,84,11186,2,0,L|340:6,2,67.4999979400635,8|8|8,0:0|0:0|0:0,0:0:0:0:
423,203,11986,6,0,L|374:222,3,29.9999990844727,2|2|2|2,0:0|0:0|0:0|0:0,0:0:0:0:
456,288,12386,2,0,L|483:298,3,29.9999990844727,10|2|2|2,0:0|0:0|0:0|0:0,0:0:0:0:
378,343,12786,5,10,0:0:0:0:
348,343,12886,1,2,0:0:0:0:
319,335,12986,1,2,0:0:0:0:
294,318,13086,1,10,0:0:0:0:
276,294,13186,1,2,0:0:0:0:
257,270,13286,1,2,0:0:0:0:
233,253,13386,1,10,0:0:0:0:
204,244,13486,1,2,0:0:0:0:
174,245,13586,6,0,P|137:250|105:265,2,53.3333333333333,6|0|0,0:0|0:0|0:0,0:0:0:0:
43,131,13986,2,0,P|56:96|60:61,2,53.3333333333333,0|0|0,0:0|0:0|0:0,0:0:0:0:
207,74,14386,2,0,P|230:102|253:120,1,40,0|0,0:0|0:0,0:0:0:0:
143,161,14586,2,0,L|136:127,2,26.6666666666667,2|2|2,0:0|0:0|0:0,0:0:0:0:
162,234,14786,6,0,P|258:221|302:162,1,150,2|0,0:0|0:0,0:0:0:0:
308,106,15186,1,6,0:0:0:0:
278,169,17786,6,0,L|275:196,2,26.6666666666667,2|2|2,0:0|0:0|0:0,0:0:0:0:
255,96,17986,1,10,0:0:0:0:
255,96,18086,2,0,P|191:71|135:86,1,100,6|0,0:0|0:0,0:0:0:0:
106,132,18386,1,6,0:0:0:0:
298,147,20586,5,8,0:0:0:0:
298,147,20686,1,8,0:0:0:0:
298,147,20786,2,0,L|342:141,5,33.3333333333333,6|0|0|2|0|0,0:0|0:0|0:0|0:0|0:0|0:0,0:0:0:0:
406,149,21186,2,0,P|444:190|416:289,1,150,6|0,0:0|0:0,0:0:0:0:
343,295,21586,6,0,P|288:279|235:286,1,100,6|0,0:0|0:0,0:0:0:0:
147,366,21986,2,0,P|202:382|255:375,1,100,2|0,0:0|0:0,0:0:0:0:
352,288,22386,2,0,P|297:272|244:279,1,100,2|0,0:0|0:0,0:0:0:0:
156,359,22786,2,0,P|211:375|264:368,1,100,2|0,0:0|0:0,0:0:0:0:
104,171,23186,6,0,P|94:223|108:273,1,100,2|0,0:0|0:0,0:0:0:0:
237,175,23586,2,0,P|247:123|233:73,1,100,2|0,0:0|0:0,0:0:0:0:
94,177,23986,2,0,P|84:229|98:279,1,100,2|0,0:0|0:0,0:0:0:0:
227,181,24386,1,2,0:0:0:0:
227,181,24486,2,0,P|279:178|332:202,1,100,0|0,0:0|0:0,0:0:0:0:
353,298,24786,6,0,P|408:314|461:307,1,100,6|0,0:0|0:0,0:0:0:0:
502,192,25186,2,0,P|454:176|404:179,1,100,2|0,0:0|0:0,0:0:0:0:
346,306,25586,2,0,P|401:322|454:315,1,100,2|0,0:0|0:0,0:0:0:0:
509,184,25986,2,0,P|461:168|411:171,1,100,2|0,0:0|0:0,0:0:0:0:
260,349,26386,6,0,P|205:365|152:358,1,100,2|0,0:0|0:0,0:0:0:0:
164,362,26786,1,6,0:0:0:0:
157,236,26986,1,8,0:0:0:0:
157,236,27086,1,8,0:0:0:0:
157,236,27186,2,0,L|314:216,1,150,6|0,0:0|0:0,0:0:0:0:
330,214,27586,2,0,P|336:177|329:155,1,50,6|0,0:0|0:0,0:0:0:0:
262,49,27786,1,8,0:0:0:0:
262,49,27886,1,8,0:0:0:0:
262,49,27986,5,8,0:0:0:0:
225,66,28086,1,0,0:0:0:0:
185,64,28186,1,8,0:0:0:0:
178,83,28286,1,8,0:0:0:0:
172,102,28386,1,2,0:0:0:0:
165,121,28486,1,2,0:0:0:0:
159,140,28586,1,2,0:0:0:0:
122,157,28686,1,2,0:0:0:0:
82,155,28786,5,12,0:0:0:0:
47,190,28886,1,8,0:0:0:0:
39,238,28986,1,8,0:0:0:0:
58,284,29086,1,8,0:0:0:0:
99,311,29186,1,8,0:0:0:0:
149,310,29286,1,8,0:0:0:0:
189,282,29386,1,8,0:0:0:0:
238,281,29486,1,8,0:0:0:0:
280,308,29586,5,12,0:0:0:0:
354,112,29986,1,2,0:0:0:0:
468,290,30386,1,2,0:0:0:0:
354,112,30786,1,2,0:0:0:0:
280,308,31186,5,2,0:0:0:0:
226,238,31386,1,0,0:0:0:0:
237,151,31586,1,2,0:0:0:0:
237,151,31786,1,0,0:0:0:0:
118,85,31986,5,2,0:0:0:0:
64,155,32186,1,0,0:0:0:0:
75,242,32386,1,2,0:0:0:0:
144,295,32586,1,0,0:0:0:0:
144,295,32786,6,0,P|196:287|282:318,2,112.500004291535,2|0|0,0:0|0:0|0:0,0:0:0:0:
75,242,33586,2,0,B|78:189|121:157|178:165|178:165|201:214|261:212|261:212|296:143|373:122|441:170,1,450.000017166138,2|2,0:0|0:0,0:0:0:0:
400,336,35186,5,2,0:0:0:0:
431,163,35586,1,2,0:0:0:0:
289,40,35986,6,0,P|276:100|318:164,2,112.500004291535,6|0|0,0:0|0:0|0:0,0:0:0:0:
283,261,36786,2,0,P|237:219|161:224,2,112.500004291535,2|0|0,0:0|0:0|0:0,0:0:0:0:
94,145,37586,6,0,P|152:126|186:57,2,120,2|0|0,0:0|0:0|0:0,0:0:0:0:
379,120,38386,2,0,P|324:137|291:190,2,104.999996795654,2|0|0,0:0|0:0|0:0,0:0:0:0:
406,268,39186,6,0,B|402:362|285:408|208:314|208:314|148:387|18:348|50:224,1,510.000009727478,2|2,0:0|0:0,0:0:0:0:
49,230,40486,1,2,0:0:0:0:
52,213,40586,1,2,0:0:0:0:
55,196,40686,1,2,0:0:0:0:
58,179,40786,6,0,L|187:158,1,100,2|0,0:0|0:0,0:0:0:0:
260,146,41086,2,0,L|213:268,1,100,0|0,0:0|0:0,0:0:0:0:
171,317,41386,2,0,L|187:337,2,25,2|2|2,0:0|0:0|0:0,0:0:0:0:
258,371,41586,6,0,P|325:362|373:324,1,100,6|2,0:0|0:0,0:0:0:0:
364,329,41886,1,2,0:0:0:0:
371,310,41986,1,8,0:0:0:0:
346,266,42086,1,8,0:0:0:0:
337,216,42186,1,8,0:0:0:0:
344,166,42286,1,8,0:0:0:0:
378,130,42386,5,6,0:0:0:0:
176,20,42786,2,0,P|161:74|172:127,1,89.9999972534181,8|0,0:0|0:0,0:0:0:0:
183,281,43186,2,0,P|198:227|187:174,1,89.9999972534181,2|0,0:0|0:0,0:0:0:0:
72,63,43586,2,0,P|69:107|83:150,1,89.9999972534181,8|0,0:0|0:0,0:0:0:0:
283,244,43986,5,2,0:0:0:0:
347,159,44186,1,0,0:0:0:0:
334,55,44386,1,8,0:0:0:0:
334,55,44586,1,0,0:0:0:0:
172,18,44786,5,2,0:0:0:0:
138,117,44986,1,0,0:0:0:0:
184,211,45186,1,8,0:0:0:0:
283,244,45386,1,0,0:0:0:0:
409,196,45586,6,0,P|471:217|512:270,2,134.999995880127,2|0|0,0:0|0:0|0:0,0:0:0:0:
283,336,46386,6,0,P|220:332|159:358,1,89.9999972534181,2|0,0:0|0:0,0:0:0:0:
63,268,46786,2,0,P|126:272|187:246,1,89.9999972534181,8|0,0:0|0:0,0:0:0:0:
290,348,47186,2,0,P|227:344|166:370,1,89.9999972534181,2|0,0:0|0:0,0:0:0:0:
70,280,47586,2,0,P|133:284|194:258,1,89.9999972534181,8|0,0:0|0:0,0:0:0:0:
303,176,47986,6,0,P|308:104|242:54,1,134.999995880127,2|0,0:0|0:0,0:0:0:0:
163,91,48386,2,0,P|157:162|223:212,1,134.999995880127,8|0,0:0|0:0,0:0:0:0:
235,134,48786,5,6,0:0:0:0:
300,336,49086,1,0,0:0:0:0:
405,115,49386,1,0,0:0:0:0:
316,94,49586,5,2,0:0:0:0:
381,296,49886,1,0,0:0:0:0:
486,75,50186,1,8,0:0:0:0:
486,75,50286,1,8,0:0:0:0:
486,75,50386,6,0,P|490:151|418:205,1,150,6|0,0:0|0:0,0:0:0:0:
371,280,50786,2,0,P|370:222|319:181,1,100,6|2,0:0|0:0,0:0:0:0:
324,188,51086,1,2,0:0:0:0:
304,185,51186,6,0,P|240:226|157:191,1,150,6|2,0:0|0:0,0:0:0:0:
100,150,51586,1,8,0:0:0:0:
51,146,51686,1,8,0:0:0:0:
11,175,51786,1,8,0:0:0:0:
0,223,51886,1,8,0:0:0:0:
22,267,51986,5,6,0:0:0:0:
139,287,52186,1,0,0:0:0:0:
229,210,52386,1,0,0:0:0:0:
228,91,52586,1,2,0:0:0:0:
379,58,52786,5,8,0:0:0:0:
340,169,52986,1,0,0:0:0:0:
229,210,53186,1,0,0:0:0:0:
127,151,53386,1,2,0:0:0:0:
11,262,53586,6,0,L|28:365,1,89.9999972534181,2|0,0:0|0:0,0:0:0:0:
107,370,53886,2,0,L|93:282,1,89.9999972534181,2|0,0:0|0:0,0:0:0:0:
175,302,54186,1,2,0:0:0:0:
289,361,54386,2,0,P|364:365|433:202,1,269.999991760254,8|2,0:0|0:0,0:0:0:0:
354,98,55186,5,6,0:0:0:0:
256,163,55386,1,0,0:0:0:0:
142,131,55586,1,0,0:0:0:0:
94,24,55786,1,2,0:0:0:0:
248,45,55986,5,8,0:0:0:0:
256,163,56186,1,0,0:0:0:0:
150,249,56386,1,0,0:0:0:0:
142,131,56586,1,2,0:0:0:0:
264,281,56786,6,0,P|334:283|385:238,1,100,2|0,0:0|0:0,0:0:0:0:
470,210,57086,2,0,P|433:269|446:336,1,100,2|0,0:0|0:0,0:0:0:0:
372,348,57386,1,2,0:0:0:0:
378,195,57586,6,0,L|365:124,1,50,12|0,0:0|0:0,0:0:0:0:
311,75,57786,1,8,0:0:0:0:
291,69,57886,1,8,0:0:0:0:
271,64,57986,2,0,L|222:48,5,33.3333333333333,8|2|2|2|2|2,0:0|0:0|0:0|0:0|0:0|0:0,0:0:0:0:
167,82,58386,6,0,L|138:192,1,100,6|0,0:0|0:0,0:0:0:0:
37,304,58786,2,0,P|16:250|32:191,1,100,8|0,0:0|0:0,0:0:0:0:
222,266,59186,2,0,P|200:310|159:338,1,100,2|0,0:0|0:0,0:0:0:0:
141,178,59586,1,8,0:0:0:0:
303,215,59786,1,0,0:0:0:0:
312,253,59886,1,0,0:0:0:0:
321,291,59986,6,0,P|357:293|384:284,1,50,2|0,0:0|0:0,0:0:0:0:
382,191,60186,2,0,P|406:164|417:138,1,50
296,132,60386,2,0,P|291:96|278:71,1,50,8|0,0:0|0:0,0:0:0:0:
209,199,60586,1,0,0:0:0:0:
200,237,60686,1,0,0:0:0:0:
191,275,60786,6,0,P|155:277|128:268,1,55.0000016784668,2|0,0:0|0:0,0:0:0:0:
45,198,60986,1,0,0:0:0:0:
35,148,61086,1,0,0:0:0:0:
26,98,61186,2,0,P|69:45|136:49,1,115.000002193451,8|8,0:0|0:0,0:0:0:0:
134,46,61486,1,8,0:0:0:0:
156,51,61586,6,0,P|223:65|300:32,1,127.50000243187,6|0,0:0|0:0,0:0:0:0:
361,39,61986,2,0,P|384:87|373:140,1,85.0000016212464,0|0,0:0|0:0,0:0:0:0:
323,278,62386,5,12,0:0:0:0:
299,124,62686,1,8,0:0:0:0:
444,180,62986,1,8,0:0:0:0:
291,205,63186,5,12,0:0:0:0:
244,183,63319,5,8,0:0:0:0:
219,138,63452,5,8,0:0:0:0:
224,87,63586,5,8,0:0:0:0:
199,42,63719,5,8,0:0:0:0:
152,20,63852,5,8,0:0:0:0:
101,28,63986,6,0,P|61:74|81:175,1,119.999996337891,12|0,0:0|0:0,0:0:0:0:
104,290,64286,2,0,P|113:229|207:189,1,129.999994049073,12|0,0:0|0:0,0:0:0:0:
185,355,64586,2,0,P|227:368|260:358,1,69.9999978637696,12|0,0:0|0:0,0:0:0:0:
314,237,64786,5,2,0:0:0:0:
352,71,64986,1,2,0:0:0:0:
381,31,65086,1,2,0:0:0:0:
429,23,65186,1,6,0:0:0:0:
470,49,65286,1,8,0:0:0:0:
482,96,65386,1,8,0:0:0:0:
459,139,65486,1,8,0:0:0:0:
413,155,65586,6,0,L|222:146,1,150.000005722046,8|0,0:0|0:0,0:0:0:0:
161,63,65886,2,0,L|352:72,1,150.000005722046,8|0,0:0|0:0,0:0:0:0:
324,228,66186,2,0,L|373:230,2,50.0000019073487,8|2|2,0:0|0:0|0:0,0:0:0:0:
425,320,66386,1,12,0:0:0:0:
275,322,67186,6,0,B|327:319|327:319|355:339|355:339|419:335,2,150,0|0|0,0:0|0:0|0:0,0:0:0:0:
134,269,67986,5,6,0:0:0:0:
134,269,68086,1,2,0:0:0:0:
134,269,68186,1,8,0:0:0:0:
104,122,68386,1,2,0:0:0:0:
104,122,68486,1,2,0:0:0:0:
104,122,68586,1,8,0:0:0:0:
217,38,68786,1,2,0:0:0:0:
256,44,68886,1,2,0:0:0:0:
295,50,68986,1,8,0:0:0:0:
334,56,69086,2,0,L|438:33,1,100,2|2,0:0|0:0,0:0:0:0:
470,40,69386,1,8,0:0:0:0:
478,199,69586,5,2,0:0:0:0:
478,199,69686,1,2,0:0:0:0:
478,199,69786,1,8,0:0:0:0:
349,277,69986,1,2,0:0:0:0:
349,277,70086,1,2,0:0:0:0:
349,277,70186,1,8,0:0:0:0:
307,136,70386,1,2,0:0:0:0:
268,130,70486,1,2,0:0:0:0:
229,124,70586,1,8,0:0:0:0:
190,118,70686,2,0,L|86:141,1,100,2|2,0:0|0:0,0:0:0:0:
54,134,70986,1,8,0:0:0:0:
15,311,71186,5,2,0:0:0:0:
15,311,71286,1,2,0:0:0:0:
15,311,71386,1,8,0:0:0:0:
134,25,71586,1,2,0:0:0:0:
134,25,71686,1,2,0:0:0:0:
134,25,71786,2,0,L|190:13,1,50,8|0,0:0|0:0,0:0:0:0:
367,115,71986,1,2,0:0:0:0:
367,115,72086,1,2,0:0:0:0:
367,115,72186,2,0,L|379:171,1,50,8|0,0:0|0:0,0:0:0:0:
261,252,72386,1,2,0:0:0:0:
261,252,72486,1,2,0:0:0:0:
261,252,72586,2,0,L|205:264,1,50,8|0,0:0|0:0,0:0:0:0:
322,375,72786,5,2,0:0:0:0:
322,375,72886,1,2,0:0:0:0:
322,375,72986,1,8,0:0:0:0:
426,251,73186,1,2,0:0:0:0:
426,251,73286,1,2,0:0:0:0:
426,251,73386,1,8,0:0:0:0:
426,251,73486,1,8,0:0:0:0:
426,251,73586,5,6,0:0:0:0:
454,210,73686,1,2,0:0:0:0:
458,161,73786,1,8,0:0:0:0:
436,117,73886,1,8,0:0:0:0:
394,91,73986,1,2,0:0:0:0:
345,90,74086,1,2,0:0:0:0:
302,115,74186,1,8,0:0:0:0:
252,114,74286,1,8,0:0:0:0:
211,87,74386,5,6,0:0:0:0:
204,87,74486,1,2,0:0:0:0:
197,88,74586,2,0,L|138:96,1,37.5000014305115,8|0,0:0|0:0,0:0:0:0:
63,159,74786,1,2,0:0:0:0:
70,159,74886,1,2,0:0:0:0:
77,160,74986,2,0,L|136:168,1,37.5000014305115,8|0,0:0|0:0,0:0:0:0:
211,245,75186,1,2,0:0:0:0:
204,245,75286,1,2,0:0:0:0:
197,245,75386,1,8,0:0:0:0:
190,245,75486,2,0,L|132:252,1,37.5000014305115,2|0,0:0|0:0,0:0:0:0:
56,316,75686,1,2,0:0:0:0:
63,317,75786,2,0,L|122:325,1,37.5000014305115,8|0,0:0|0:0,0:0:0:0:
194,166,75986,5,2,0:0:0:0:
194,173,76086,1,2,0:0:0:0:
193,180,76186,2,0,L|185:239,1,37.5000014305115,8|0,0:0|0:0,0:0:0:0:
290,290,76386,1,2,0:0:0:0:
290,283,76486,1,2,0:0:0:0:
289,276,76586,2,0,L|281:217,1,37.5000014305115,8|0,0:0|0:0,0:0:0:0:
385,180,76786,1,2,0:0:0:0:
385,187,76886,1,2,0:0:0:0:
385,194,76986,1,8,0:0:0:0:
385,201,77086,2,0,L|377:260,1,37.5000014305115,2|0,0:0|0:0,0:0:0:0:
482,311,77286,1,2,0:0:0:0:
481,304,77386,2,0,L|473:245,1,37.5000014305115,8|0,0:0|0:0,0:0:0:0:
292,189,77586,5,2,0:0:0:0:
280,232,77686,1,2,0:0:0:0:
289,276,77786,2,0,P|310:305|337:317,1,44.999998626709,8|0,0:0|0:0,0:0:0:0:
385,155,77986,1,2,0:0:0:0:
362,116,78086,1,2,0:0:0:0:
325,90,78186,1,8,0:0:0:0:
281,85,78286,1,8,0:0:0:0:
238,98,78386,6,0,P|209:114|196:136,1,44.999998626709,6|0,0:0|0:0,0:0:0:0:
179,240,78586,1,8,0:0:0:0:
179,240,78686,2,0,L|59:252,1,89.9999972534181,6|2,0:0|0:0,0:0:0:0:
26,169,78986,1,12,0:0:0:0:
17,124,79086,1,8,0:0:0:0:
27,77,79186,6,0,P|91:30|199:56,1,179.999994506836,6|0,0:0|0:0,0:0:0:0:
254,135,79586,2,0,L|363:125,1,59.9999981689454
409,75,79786,2,0,L|459:70,2,29.9999990844727,2|0|0,0:0|0:0|0:0,0:0:0:0:
484,144,79986,6,0,P|491:221|458:272,1,129.999994049073,6|0,0:0|0:0,0:0:0:0:
350,231,80286,2,0,P|321:288|331:351,1,129.999994049073,6|0,0:0|0:0,0:0:0:0:
213,243,80586,1,8,0:0:0:0:
210,216,80686,1,8,0:0:0:0:
209,186,80786,6,0,L|205:128,3,50,6|0|8|2,0:0|0:0|0:0|0:0,0:0:0:0:
304,123,81186,1,2,0:0:0:0:
351,136,81286,1,2,0:0:0:0:
380,175,81386,1,8,0:0:0:0:
381,225,81486,1,2,0:0:0:0:
352,264,81586,5,2,0:0:0:0:
306,244,81686,1,2,0:0:0:0:
257,242,81786,1,8,0:0:0:0:
210,260,81886,1,2,0:0:0:0:
174,293,81986,1,2,0:0:0:0:
124,294,82086,1,2,0:0:0:0:
84,266,82186,1,8,0:0:0:0:
67,220,82286,1,2,0:0:0:0:
79,173,82386,6,0,P|90:129|86:107,3,50,2|2|8|2,0:0|0:0|0:0|0:0,0:0:0:0:
197,142,82786,1,2,0:0:0:0:
246,137,82886,1,2,0:0:0:0:
296,132,82986,1,8,0:0:0:0:
346,127,83086,1,2,0:0:0:0:
396,122,83186,5,2,0:0:0:0:
391,73,83286,1,2,0:0:0:0:
358,36,83386,1,8,0:0:0:0:
310,25,83486,1,2,0:0:0:0:
265,45,83586,1,2,0:0:0:0:
241,88,83686,1,2,0:0:0:0:
246,137,83786,1,8,0:0:0:0:
222,180,83886,1,2,0:0:0:0:
177,200,83986,6,0,P|147:204|106:185,3,50,2|2|8|2,0:0|0:0|0:0|0:0,0:0:0:0:
61,36,84386,1,2,0:0:0:0:
63,45,84486,1,2,0:0:0:0:
65,54,84586,1,8,0:0:0:0:
67,63,84686,1,2,0:0:0:0:
68,72,84786,5,2,0:0:0:0:
107,101,84886,1,2,0:0:0:0:
156,108,84986,1,8,0:0:0:0:
202,90,85086,1,2,0:0:0:0:
251,96,85186,1,2,0:0:0:0:
290,126,85286,1,2,0:0:0:0:
299,175,85386,1,8,0:0:0:0:
281,221,85486,1,2,0:0:0:0:
235,242,85586,5,2,0:0:0:0:
222,263,85686,1,2,0:0:0:0:
217,288,85786,1,8,0:0:0:0:
221,312,85886,1,2,0:0:0:0:
235,338,85986,2,0,P|264:353|294:356,3,50,2|2|8|2,0:0|0:0|0:0|0:0,0:0:0:0:
389,323,86386,5,2,0:0:0:0:
415,280,86486,1,2,0:0:0:0:
416,231,86586,1,8,0:0:0:0:
393,187,86686,1,2,0:0:0:0:
352,161,86786,1,2,0:0:0:0:
302,158,86886,1,2,0:0:0:0:
258,181,86986,1,8,0:0:0:0:
208,178,87086,1,2,0:0:0:0:
166,151,87186,5,6,0:0:0:0:
139,180,87286,1,2,0:0:0:0:
103,196,87386,1,8,0:0:0:0:
63,195,87486,1,2,0:0:0:0:
28,177,87586,1,2,0:0:0:0:
4,145,87686,1,2,0:0:0:0:
0,106,87786,1,8,0:0:0:0:
6,68,87886,1,2,0:0:0:0:
31,37,87986,1,2,0:0:0:0:
67,20,88086,1,2,0:0:0:0:
106,20,88186,1,8,0:0:0:0:
142,38,88286,1,2,0:0:0:0:
167,68,88386,1,2,0:0:0:0:
202,86,88486,1,2,0:0:0:0:
242,86,88586,1,8,0:0:0:0:
274,69,88686,1,2,0:0:0:0:
294,34,88786,5,2,0:0:0:0:
299,83,88886,1,2,0:0:0:0:
330,121,88986,1,8,0:0:0:0:
376,137,89086,1,2,0:0:0:0:
407,175,89186,1,6,0:0:0:0:
412,224,89286,1,2,0:0:0:0:
388,268,89386,1,8,0:0:0:0:
340,283,89486,1,8,0:0:0:0:
291,271,89586,6,0,P|232:268|177:310,1,119.999996337891,6|0,0:0|0:0,0:0:0:0:
49,243,89886,2,0,P|107:245|162:203,1,119.999996337891,6|0,0:0|0:0,0:0:0:0:
236,185,90186,1,6,0:0:0:0:
102,329,90386,5,6,0:0:0:0:
90,129,90586,1,8,0:0:0:0:
123,79,90686,1,8,0:0:0:0:
175,50,90786,1,8,0:0:0:0:
235,49,90886,1,8,0:0:0:0:
288,75,90986,2,0,P|312:106|316:154,1,59.9999981689454,8|0,0:0|0:0,0:0:0:0:
340,262,91186,2,0,L|389:263,1,29.9999990844727,8|2,0:0|0:0,0:0:0:0:
356,204,91286,2,0,L|399:230,1,29.9999990844727,2|2,0:0|0:0,0:0:0:0:
397,161,91386,2,0,L|427:209,1,29.9999990844727,2|2,0:0|0:0,0:0:0:0:
454,143,91486,2,0,L|456:199,1,29.9999990844727,2|2,0:0|0:0,0:0:0:0:
512,154,91586,6,0,P|534:209|447:326,1,179.999994506836,6|0,0:0|0:0,0:0:0:0:
484,311,91986,1,4,0:0:0:0:
256,192,96786,12,4,98386,0:0:0:0:
181,105,98786,6,0,P|159:133|157:237,2,139.999995727539,0|0|0,0:0|0:0|0:0,0:0:0:0:
287,95,99986,1,0,0:0:0:0:
365,162,100386,2,0,P|433:169|493:136,2,139.999995727539,0|0|0,0:0|0:0|0:0,0:0:0:0:
287,95,101586,6,0,L|233:85,7,34.9999989318848,8|8|8|8|8|8|8|8,0:0|0:0|0:0|0:0|0:0|0:0|0:0|0:0,0:0:0:0:
204,177,102386,2,0,L|155:185,7,44.999998626709,8|8|8|8|8|8|8|8,0:0|0:0|0:0|0:0|0:0|0:0|0:0|0:0,0:0:0:0:
98,65,103186,5,6,0:0:0:0:
49,70,103286,1,8,0:0:0:0:
12,103,103386,1,8,0:0:0:0:
0,151,103486,1,8,0:0:0:0:
17,197,103586,1,6,0:0:0:0:
91,289,103786,1,8,0:0:0:0:
128,256,103886,1,8,0:0:0:0:
176,244,103986,5,6,0:0:0:0:
216,273,104086,1,8,0:0:0:0:
264,284,104186,1,8,0:0:0:0:
313,275,104286,1,8,0:0:0:0:
355,248,104386,2,0,P|365:231|371:174,1,66.6666666666667,2|2,0:0|0:0,0:0:0:0:
369,149,104586,2,0,P|364:130|355:115,2,33.3333333333333,2|2|2,0:0|0:0|0:0,0:0:0:0:
294,72,104786,5,6,0:0:0:0:
252,87,104886,1,0,0:0:0:0:
208,80,104986,1,8,0:0:0:0:
173,52,105086,1,0,0:0:0:0:
129,44,105186,1,2,0:0:0:0:
87,60,105286,1,2,0:0:0:0:
68,101,105386,1,8,0:0:0:0:
78,144,105486,1,2,0:0:0:0:
116,167,105586,1,2,0:0:0:0:
139,204,105686,1,2,0:0:0:0:
133,247,105786,1,8,0:0:0:0:
99,275,105886,1,2,0:0:0:0:
55,274,105986,1,2,0:0:0:0:
21,302,106086,1,2,0:0:0:0:
20,345,106186,1,8,0:0:0:0:
53,374,106286,1,2,0:0:0:0:
96,367,106386,5,2,0:0:0:0:
135,345,106486,1,2,0:0:0:0:
179,335,106586,1,8,0:0:0:0:
224,339,106686,1,2,0:0:0:0:
265,356,106786,1,2,0:0:0:0:
306,373,106886,1,2,0:0:0:0:
351,376,106986,1,8,0:0:0:0:
394,367,107086,1,2,0:0:0:0:
433,345,107186,2,0,P|452:310|455:274,3,55.0000016784668,2|2|8|2,0:0|0:0|0:0|0:0,0:0:0:0:
329,260,107586,2,0,P|310:225|307:189,3,59.9999981689454,2|2|8|2,0:0|0:0|0:0|0:0,0:0:0:0:
478,135,107986,6,0,L|469:207,3,64.9999970245363,2|2|8|2,0:0|0:0|0:0|0:0,0:0:0:0:
399,54,108386,1,2,0:0:0:0:
355,46,108486,1,2,0:0:0:0:
314,64,108586,1,8,0:0:0:0:
290,101,108686,1,2,0:0:0:0:
291,146,108786,1,2,0:0:0:0:
278,187,108886,1,2,0:0:0:0:
239,207,108986,1,8,0:0:0:0:
198,193,109086,1,2,0:0:0:0:
180,153,109186,1,2,0:0:0:0:
181,108,109286,1,2,0:0:0:0:
157,71,109386,1,8,0:0:0:0:
116,53,109486,1,2,0:0:0:0:
72,61,109586,6,0,P|33:94|24:118,3,44.999998626709,2|2|8|2,0:0|0:0|0:0|0:0,0:0:0:0:
16,207,109986,1,2,0:0:0:0:
28,249,110086,1,2,0:0:0:0:
63,276,110186,1,8,0:0:0:0:
107,279,110286,1,2,0:0:0:0:
145,257,110386,6,0,P|180:242|211:243,2,39.9999987792969,6|0|0,0:0|0:0|0:0,0:0:0:0:
235,302,110586,2,0,P|254:297|271:287,2,39.9999987792969,8|0|0,0:0|0:0|0:0,0:0:0:0:
265,210,110786,2,0,P|300:195|331:196,2,39.9999987792969,6|0|0,0:0|0:0|0:0,0:0:0:0:
354,254,110986,2,0,P|373:249|390:239,2,39.9999987792969,8|0|0,0:0|0:0|0:0,0:0:0:0:
402,154,111186,5,6,0:0:0:0:
408,110,111286,1,2,0:0:0:0:
390,69,111386,1,8,0:0:0:0:
352,47,111486,1,2,0:0:0:0:
307,49,111586,1,2,0:0:0:0:
269,73,111686,1,2,0:0:0:0:
225,82,111786,1,8,0:0:0:0:
181,74,111886,1,2,0:0:0:0:
144,49,111986,1,2,0:0:0:0:
99,51,112086,1,2,0:0:0:0:
63,77,112186,1,8,0:0:0:0:
46,118,112286,1,2,0:0:0:0:
54,162,112386,1,2,0:0:0:0:
84,194,112486,1,2,0:0:0:0:
128,205,112586,1,8,0:0:0:0:
170,191,112686,1,2,0:0:0:0:
197,156,112786,5,2,0:0:0:0:
233,183,112886,1,2,0:0:0:0:
254,222,112986,1,8,0:0:0:0:
255,267,113086,1,2,0:0:0:0:
237,307,113186,1,6,0:0:0:0:
244,351,113286,1,2,0:0:0:0:
278,379,113386,1,8,0:0:0:0:
322,380,113486,1,8,0:0:0:0:
356,352,113586,1,6,0:0:0:0:
364,309,113686,1,2,0:0:0:0:
343,270,113786,1,8,0:0:0:0:
351,216,113886,1,8,0:0:0:0:
391,179,113986,1,8,0:0:0:0:
411,129,114086,1,8,0:0:0:0:
397,77,114186,1,8,0:0:0:0:
354,44,114286,1,8,0:0:0:0:
300,44,114386,6,0,P|234:73|204:142,1,125,6|0,0:0|0:0,0:0:0:0:
168,270,114686,2,0,P|234:241|264:172,1,125,6|0,0:0|0:0,0:0:0:0:
113,101,114986,2,0,P|115:145|137:183,1,62.5,6|0,0:0|0:0,0:0:0:0:
41,351,115186,6,0,P|5:294|6:218,1,125,6|0,0:0|0:0,0:0:0:0:
59,89,115486,2,0,P|98:145|93:221,1,125,6|0,0:0|0:0,0:0:0:0:
151,22,115786,2,0,P|197:6|244:9,1,62.5,6|0,0:0|0:0,0:0:0:0:
347,97,115986,5,6,0:0:0:0:
347,97,117586,6,0,B|310:167|381:240|445:221|445:221|479:253|436:350|327:316|327:316|291:240|207:246|207:246|151:334|47:287,1,700,6|0,0:0|0:0,0:0:0:0:
61,287,119186,6,0,B|4:212|86:145|86:145|32:94|42:30|42:30|132:42|177:133|177:133|153:59|189:-4|189:-4|245:20|258:91,1,700,6|0,0:0|0:0,0:0:0:0:
257,75,120786,6,0,B|293:139|373:149|373:149|340:180|281:192|281:192|351:224|423:213|423:213|399:292|296:303|221:249|221:249|185:226|130:236,1,700,6|0,0:0|0:0,0:0:0:0:
137,241,122386,6,0,P|105:297|219:346,1,200,6|4,0:0|0:0,0:0:0:0:
278,292,122986,2,0,L|311:289,2,33.3333333333333,2|2|2,0:0|0:0|0:0,0:0:0:0:
383,318,123186,2,0,L|416:159,2,150,6|2|2,0:0|0:0|0:0,0:0:0:0:
454,346,123986,5,6,0:0:0:0:
495,201,124186,1,0,0:0:0:0:
495,201,124286,1,0,0:0:0:0:
495,201,124386,2,0,P|494:132|470:101,1,100,0|0,0:0|0:0,0:0:0:0:
365,92,124786,2,0,P|309:97|250:69,1,100,0|0,0:0|0:0,0:0:0:0:
239,62,125086,2,0,L|202:229,1,150,0|0,0:0|0:0,0:0:0:0:
206,208,125486,1,0,0:0:0:0:
206,208,125586,5,2,0:0:0:0:
238,224,125686,1,2,0:0:0:0:
267,222,125786,1,2,0:0:0:0:
294,211,125886,1,2,0:0:0:0:
315,189,125986,1,2,0:0:0:0:
356,179,126086,1,2,0:0:0:0:
396,195,126186,1,2,0:0:0:0:
419,232,126286,1,2,0:0:0:0:
417,275,126386,5,8,0:0:0:0:
460,251,126486,1,8,0:0:0:0:
489,210,126586,1,8,0:0:0:0:
499,162,126686,1,8,0:0:0:0:
486,114,126786,1,8,0:0:0:0:
455,75,126886,1,8,0:0:0:0:
410,54,126986,1,8,0:0:0:0:
360,54,127086,1,8,0:0:0:0:
316,75,127186,6,0,P|250:96|149:50,1,125,6|0,0:0|0:0,0:0:0:0:
59,61,127486,2,0,P|108:105|118:211,1,119.999996337891,6|0,0:0|0:0,0:0:0:0:
170,279,127786,2,0,P|179:235|236:194,1,62.5,6|0,0:0|0:0,0:0:0:0:
342,67,127986,6,0,P|283:103|173:83,1,135.000000514984,6|8,0:0|0:0,0:0:0:0:
46,37,128286,2,0,P|106:69|144:174,1,150.000005722046,6|2,0:0|0:0,0:0:0:0:
147,305,128586,2,0,P|145:255|197:194,1,69.9999978637696,12|8,0:0|0:0,0:0:0:0:
316,75,128786,5,6,0:0:0:0:
316,75,129186,5,4,0:0:0:0:
367,181,129386,2,0,L|363:220,2,29.9999990844727,2|2|2,0:0|0:0|0:0,0:0:0:0:
441,209,129586,1,2,0:0:0:0:
226,254,129886,2,0,L|236:344,1,89.9999972534181,12|2,0:0|0:0,0:0:0:0:
216,180,130186,1,8,0:0:0:0:
213,153,130286,1,8,0:0:0:0:
210,123,130386,6,0,L|202:51,3,50,6|0|8|2,0:0|0:0|0:0|0:0,0:0:0:0:
113,43,130786,1,2,0:0:0:0:
63,43,130886,1,2,0:0:0:0:
21,69,130986,1,8,0:0:0:0:
0,114,131086,1,2,0:0:0:0:
6,163,131186,5,2,0:0:0:0:
54,153,131286,1,2,0:0:0:0:
103,164,131386,1,8,0:0:0:0:
142,194,131486,1,2,0:0:0:0:
165,238,131586,1,2,0:0:0:0:
204,267,131686,1,2,0:0:0:0:
253,279,131786,1,8,0:0:0:0:
301,269,131886,1,2,0:0:0:0:
339,237,131986,6,0,P|355:208|359:184,3,50,2|2|8|2,0:0|0:0|0:0|0:0,0:0:0:0:
464,195,132386,1,2,0:0:0:0:
498,229,132486,1,2,0:0:0:0:
512,277,132586,1,8,0:0:0:0:
502,325,132686,1,2,0:0:0:0:
470,363,132786,5,2,0:0:0:0:
424,342,132886,1,2,0:0:0:0:
375,336,132986,1,8,0:0:0:0:
326,347,133086,1,2,0:0:0:0:
283,372,133186,1,2,0:0:0:0:
234,383,133286,1,2,0:0:0:0:
185,377,133386,1,8,0:0:0:0:
139,356,133486,1,2,0:0:0:0:
111,314,133586,6,0,P|102:279|104:253,3,50,2|2|8|2,0:0|0:0|0:0|0:0,0:0:0:0:
24,79,133986,1,2,0:0:0:0:
22,88,134086,1,2,0:0:0:0:
20,97,134186,1,8,0:0:0:0:
18,106,134286,1,2,0:0:0:0:
17,115,134386,5,2,0:0:0:0:
55,146,134486,1,2,0:0:0:0:
102,159,134586,1,8,0:0:0:0:
151,151,134686,1,2,0:0:0:0:
192,123,134786,1,2,0:0:0:0:
241,126,134886,1,2,0:0:0:0:
278,158,134986,1,8,0:0:0:0:
286,206,135086,1,2,0:0:0:0:
262,249,135186,5,2,0:0:0:0:
256,273,135286,1,2,0:0:0:0:
260,298,135386,1,8,0:0:0:0:
272,319,135486,1,2,0:0:0:0:
294,339,135586,2,0,P|326:343|355:335,3,50,2|2|8|2,0:0|0:0|0:0|0:0,0:0:0:0:
419,283,135986,5,2,0:0:0:0:
400,236,136086,1,2,0:0:0:0:
407,187,136186,1,8,0:0:0:0:
427,143,136286,1,2,0:0:0:0:
422,93,136386,1,2,0:0:0:0:
392,54,136486,1,2,0:0:0:0:
346,36,136586,1,8,0:0:0:0:
297,44,136686,1,2,0:0:0:0:
260,76,136786,5,6,0:0:0:0:
274,113,136886,1,2,0:0:0:0:
267,152,136986,1,8,0:0:0:0:
242,183,137086,1,2,0:0:0:0:
205,198,137186,1,2,0:0:0:0:
166,192,137286,1,2,0:0:0:0:
129,206,137386,1,8,0:0:0:0:
104,237,137486,1,2,0:0:0:0:
97,276,137586,1,2,0:0:0:0:
109,313,137686,1,2,0:0:0:0:
138,340,137786,1,8,0:0:0:0:
176,351,137886,1,2,0:0:0:0:
214,343,137986,1,2,0:0:0:0:
245,317,138086,1,2,0:0:0:0:
282,308,138186,1,8,0:0:0:0:
321,319,138286,1,2,0:0:0:0:
349,347,138386,5,2,0:0:0:0:
391,321,138486,1,2,0:0:0:0:
419,280,138586,1,8,0:0:0:0:
425,231,138686,1,2,0:0:0:0:
410,184,138786,1,6,0:0:0:0:
375,148,138886,1,2,0:0:0:0:
329,132,138986,1,8,0:0:0:0:
279,137,139086,1,8,0:0:0:0:
237,163,139186,6,0,P|156:179|114:161,1,119.999996337891,6|0,0:0|0:0,0:0:0:0:
20,273,139486,2,0,P|101:257|143:275,1,119.999996337891,6|0,0:0|0:0,0:0:0:0:
226,266,139786,1,6,0:0:0:0:
106,74,139986,5,6,0:0:0:0:
385,47,140286,1,0,0:0:0:0:
314,243,140586,1,0,0:0:0:0:
226,266,140786,5,0,0:0:0:0:
246,61,141086,1,0,0:0:0:0:
350,145,141386,1,0,0:0:0:0:
262,168,141586,6,0,P|189:163|145:140,1,100,6|0,0:0|0:0,0:0:0:0:
14,73,141986,2,0,P|87:78|131:101,1,100,2|0,0:0|0:0,0:0:0:0:
273,182,142386,2,0,P|200:177|156:154,1,100,2|0,0:0|0:0,0:0:0:0:
25,87,142786,2,0,P|98:92|142:115,1,100,2|0,0:0|0:0,0:0:0:0:
196,356,143186,6,0,P|201:283|224:239,1,100,2|0,0:0|0:0,0:0:0:0:
291,108,143586,2,0,P|286:181|263:225,1,100,2|0,0:0|0:0,0:0:0:0:
182,367,143986,2,0,P|187:294|210:250,1,100,2|0,0:0|0:0,0:0:0:0:
277,119,144386,1,2,0:0:0:0:
277,119,144486,2,0,P|341:129|387:166,1,100,0|0,0:0|0:0,0:0:0:0:
410,248,144786,5,6,0:0:0:0:
407,292,144886,1,2,0:0:0:0:
385,331,144986,1,2,0:0:0:0:
348,355,145086,1,2,0:0:0:0:
303,360,145186,1,2,0:0:0:0:
262,345,145286,1,2,0:0:0:0:
231,313,145386,1,2,0:0:0:0:
189,297,145486,1,2,0:0:0:0:
145,302,145586,1,2,0:0:0:0:
105,321,145686,1,2,0:0:0:0:
61,317,145786,1,2,0:0:0:0:
26,290,145886,1,2,0:0:0:0:
10,248,145986,1,2,0:0:0:0:
20,205,146086,1,2,0:0:0:0:
51,173,146186,1,2,0:0:0:0:
94,163,146286,1,2,0:0:0:0:
136,178,146386,5,2,0:0:0:0:
182,194,146486,1,2,0:0:0:0:
232,197,146586,1,2,0:0:0:0:
281,186,146686,1,2,0:0:0:0:
324,161,146786,1,2,0:0:0:0:
334,113,146886,1,2,0:0:0:0:
315,68,146986,1,2,0:0:0:0:
273,42,147086,1,2,0:0:0:0:
224,45,147186,1,2,0:0:0:0:
186,77,147286,1,2,0:0:0:0:
173,124,147386,1,2,0:0:0:0:
191,170,147486,1,2,0:0:0:0:
231,198,147586,1,2,0:0:0:0:
248,243,147686,1,2,0:0:0:0:
236,291,147786,1,2,0:0:0:0:
198,322,147886,1,2,0:0:0:0:
