osu file format v14

[General]
AudioFilename: Prota.mp3
AudioLeadIn: 0
PreviewTime: 66570
Countdown: 0
SampleSet: None
StackLeniency: 0.7
Mode: 3
LetterboxInBreaks: 0
SpecialStyle: 0
WidescreenStoryboard: 1

[Editor]
DistanceSpacing: 0.9
BeatDivisor: 4
GridSize: 4
TimelineZoom: 2.899999

[Metadata]
Title:Purgatorium (Megumi Takanashi & NishikazeS)
TitleUnicode:Purgatorium [音源 & 高音質]
Artist:Moon Symphony
ArtistUnicode:お月さま交響曲
Creator:Xyzeria-sama
Version:Zeria[L][N]
Source:Arcaea
Tags:
BeatmapID:1902467
BeatmapSetID:911379

[Difficulty]
HPDrainRate:8
CircleSize:4
OverallDifficulty:0
ApproachRate:5
SliderMultiplier:1.4
SliderTickRate:1

[Events]
//Background and Video events
0,0,"BG.png",0,0
//Break Periods
//Storyboard Layer 0 (Background)
//Storyboard Layer 1 (Fail)
//Storyboard Layer 2 (Pass)
//Storyboard Layer 3 (Foreground)
//Storyboard Sound Samples

[TimingPoints]
770,400,4,2,0,0,1,0
67970,-100,4,2,0,0,0,1
90370,-100,4,2,0,0,0,0
104770,-100,4,2,0,0,0,1
105170,-100,4,2,0,0,0,0
111170,-100,4,2,0,0,0,1
111570,-100,4,2,0,0,0,0
130370,-100,4,2,0,0,0,1
139970,-100,4,2,0,0,0,0

[HitObjects]
64,192,770,5,0,0:0:0:0:
448,192,770,128,0,2370:0:0:0:0:
320,192,870,1,0,0:0:0:0:
64,192,970,128,0,1070:0:0:0:0:
192,192,1070,128,0,1170:0:0:0:0:
320,192,1170,1,0,0:0:0:0:
192,192,1270,1,0,0:0:0:0:
64,192,1370,1,0,0:0:0:0:
320,192,1370,128,0,1470:0:0:0:0:
192,192,1470,128,0,1570:0:0:0:0:
64,192,1570,128,0,1670:0:0:0:0:
320,192,1670,1,0,0:0:0:0:
192,192,1770,128,0,1870:0:0:0:0:
64,192,1770,1,0,0:0:0:0:
320,192,1870,1,0,0:0:0:0:
320,192,1970,128,0,2070:0:0:0:0:
192,192,1970,1,0,0:0:0:0:
64,192,2070,1,0,0:0:0:0:
192,192,2170,1,0,0:0:0:0:
320,192,2270,1,0,0:0:0:0:
64,192,2370,128,0,3970:0:0:0:0:
192,192,2370,128,0,2470:0:0:0:0:
320,192,2470,1,0,0:0:0:0:
448,192,2570,1,0,0:0:0:0:
320,192,2670,1,0,0:0:0:0:
192,192,2770,1,0,0:0:0:0:
448,192,2770,1,0,0:0:0:0:
320,192,2870,128,0,2970:0:0:0:0:
192,192,2970,128,0,3070:0:0:0:0:
448,192,2970,1,0,0:0:0:0:
320,192,3070,1,0,0:0:0:0:
448,192,3170,128,0,3270:0:0:0:0:
192,192,3170,1,0,0:0:0:0:
320,192,3270,128,0,3370:0:0:0:0:
448,192,3370,128,0,3470:0:0:0:0:
192,192,3470,128,0,3570:0:0:0:0:
448,192,3570,128,0,3770:0:0:0:0:
320,192,3570,128,0,3670:0:0:0:0:
192,192,3670,128,0,3870:0:0:0:0:
320,192,3770,128,0,3870:0:0:0:0:
448,192,3870,128,0,3970:0:0:0:0:
192,192,3970,128,0,5570:0:0:0:0:
320,192,3970,128,0,4070:0:0:0:0:
64,192,4070,1,0,0:0:0:0:
448,192,4170,1,0,0:0:0:0:
320,192,4270,1,0,0:0:0:0:
64,192,4370,128,0,4470:0:0:0:0:
448,192,4370,1,0,0:0:0:0:
320,192,4470,1,0,0:0:0:0:
64,192,4570,1,0,0:0:0:0:
448,192,4570,1,0,0:0:0:0:
320,192,4670,1,0,0:0:0:0:
448,192,4770,128,0,4870:0:0:0:0:
64,192,4770,1,0,0:0:0:0:
320,192,4870,128,0,4970:0:0:0:0:
64,192,4970,128,0,5070:0:0:0:0:
448,192,5070,128,0,5170:0:0:0:0:
320,192,5170,128,0,5270:0:0:0:0:
64,192,5170,128,0,5270:0:0:0:0:
448,192,5270,128,0,5470:0:0:0:0:
320,192,5370,128,0,5470:0:0:0:0:
64,192,5470,128,0,5570:0:0:0:0:
320,192,5570,128,0,7170:0:0:0:0:
448,192,5570,128,0,5670:0:0:0:0:
192,192,5670,128,0,5770:0:0:0:0:
64,192,5770,128,0,5870:0:0:0:0:
192,192,5870,1,0,0:0:0:0:
448,192,5870,128,0,5970:0:0:0:0:
64,192,5970,128,0,6070:0:0:0:0:
192,192,6070,128,0,6170:0:0:0:0:
64,192,6170,128,0,6270:0:0:0:0:
448,192,6170,128,0,6270:0:0:0:0:
192,192,6270,128,0,6370:0:0:0:0:
448,192,6370,128,0,6470:0:0:0:0:
64,192,6370,1,0,0:0:0:0:
192,192,6470,128,0,6570:0:0:0:0:
448,192,6570,128,0,6670:0:0:0:0:
64,192,6670,128,0,6770:0:0:0:0:
448,192,6770,1,0,0:0:0:0:
192,192,6770,128,0,6870:0:0:0:0:
64,192,6870,128,0,6970:0:0:0:0:
192,192,6970,128,0,7070:0:0:0:0:
448,192,6970,128,0,7070:0:0:0:0:
64,192,7070,128,0,7170:0:0:0:0:
192,192,7170,1,0,0:0:0:0:
448,192,7170,128,0,7270:0:0:0:0:
320,192,7270,1,0,0:0:0:0:
192,192,7270,128,0,7370:0:0:0:0:
64,192,7370,1,0,0:0:0:0:
320,192,7370,128,0,7470:0:0:0:0:
448,192,7470,128,0,7570:0:0:0:0:
320,192,7570,1,0,0:0:0:0:
192,192,7570,128,0,7670:0:0:0:0:
64,192,7570,128,0,7595:0:0:0:0:
448,192,7670,1,0,0:0:0:0:
64,192,7770,128,0,7870:0:0:0:0:
320,192,7770,1,0,0:0:0:0:
192,192,7870,1,0,0:0:0:0:
64,192,7970,1,0,0:0:0:0:
448,192,7970,128,0,8070:0:0:0:0:
320,192,7970,128,0,7995:0:0:0:0:
192,192,8070,1,0,0:0:0:0:
320,192,8170,128,0,8270:0:0:0:0:
448,192,8170,1,0,0:0:0:0:
192,192,8270,128,0,8370:0:0:0:0:
64,192,8370,128,0,8470:0:0:0:0:
320,192,8370,1,0,0:0:0:0:
448,192,8470,1,0,0:0:0:0:
192,192,8570,128,0,8670:0:0:0:0:
320,192,8570,128,0,8595:0:0:0:0:
64,192,8670,1,0,0:0:0:0:
320,192,8770,128,0,8870:0:0:0:0:
448,192,8770,128,0,8795:0:0:0:0:
192,192,8870,1,0,0:0:0:0:
64,192,8970,1,0,0:0:0:0:
448,192,9070,1,0,0:0:0:0:
320,192,9170,128,0,9270:0:0:0:0:
192,192,9170,128,0,9195:0:0:0:0:
64,192,9270,1,0,0:0:0:0:
192,192,9370,1,0,0:0:0:0:
448,192,9370,128,0,9470:0:0:0:0:
320,192,9470,128,0,9570:0:0:0:0:
64,192,9570,128,0,9770:0:0:0:0:
192,192,9570,128,0,9670:0:0:0:0:
448,192,9670,128,0,9770:0:0:0:0:
320,192,9770,128,0,9870:0:0:0:0:
192,192,9870,128,0,9970:0:0:0:0:
448,192,9870,1,0,0:0:0:0:
64,192,9970,1,0,0:0:0:0:
320,192,10070,1,0,0:0:0:0:
448,192,10170,1,0,0:0:0:0:
64,192,10170,1,0,0:0:0:0:
192,192,10170,128,0,10270:0:0:0:0:
320,192,10370,1,0,0:0:0:0:
448,192,10370,1,0,0:0:0:0:
192,192,10470,1,0,0:0:0:0:
64,192,10570,1,0,0:0:0:0:
448,192,10570,1,0,0:0:0:0:
320,192,10670,1,0,0:0:0:0:
64,192,10770,1,0,0:0:0:0:
448,192,10770,1,0,0:0:0:0:
192,192,10770,128,0,10870:0:0:0:0:
320,192,10870,1,0,0:0:0:0:
448,192,10970,128,0,11070:0:0:0:0:
64,192,10970,1,0,0:0:0:0:
192,192,11070,1,0,0:0:0:0:
64,192,11170,128,0,11270:0:0:0:0:
320,192,11170,128,0,11195:0:0:0:0:
192,192,11270,128,0,11370:0:0:0:0:
448,192,11370,128,0,11470:0:0:0:0:
320,192,11370,1,0,0:0:0:0:
64,192,11470,128,0,11520:0:0:0:0:
192,192,11470,128,0,11520:0:0:0:0:
320,192,11570,128,0,11620:0:0:0:0:
448,192,11570,128,0,11620:0:0:0:0:
192,192,11670,128,0,11720:0:0:0:0:
64,192,11670,128,0,11720:0:0:0:0:
320,192,11770,128,0,11820:0:0:0:0:
448,192,11770,128,0,11820:0:0:0:0:
64,192,11870,128,0,11920:0:0:0:0:
320,192,11970,128,0,12020:0:0:0:0:
448,192,11970,128,0,12020:0:0:0:0:
192,192,12070,128,0,12120:0:0:0:0:
64,192,12070,128,0,12120:0:0:0:0:
448,192,12170,128,0,12220:0:0:0:0:
320,192,12170,128,0,12220:0:0:0:0:
192,192,12270,128,0,12320:0:0:0:0:
64,192,12270,128,0,12320:0:0:0:0:
320,192,12370,128,0,12420:0:0:0:0:
448,192,12370,128,0,12420:0:0:0:0:
64,192,12470,128,0,12520:0:0:0:0:
320,192,12470,128,0,12520:0:0:0:0:
192,192,12570,128,0,12620:0:0:0:0:
448,192,12570,128,0,12620:0:0:0:0:
320,192,12670,128,0,12720:0:0:0:0:
192,192,12670,128,0,12720:0:0:0:0:
64,192,12770,128,0,12820:0:0:0:0:
448,192,12770,128,0,12820:0:0:0:0:
320,192,12770,128,0,12820:0:0:0:0:
192,192,12870,128,0,12920:0:0:0:0:
64,192,12870,128,0,12920:0:0:0:0:
448,192,12970,128,0,13020:0:0:0:0:
320,192,12970,128,0,13020:0:0:0:0:
192,192,13070,128,0,13120:0:0:0:0:
320,192,13070,128,0,13120:0:0:0:0:
64,192,13170,128,0,13220:0:0:0:0:
448,192,13170,128,0,13220:0:0:0:0:
320,192,13270,128,0,13320:0:0:0:0:
448,192,13270,128,0,13320:0:0:0:0:
192,192,13370,128,0,13420:0:0:0:0:
64,192,13370,128,0,13420:0:0:0:0:
320,192,13470,128,0,13520:0:0:0:0:
192,192,13470,128,0,13520:0:0:0:0:
448,192,13570,1,0,0:0:0:0:
64,192,13570,1,0,0:0:0:0:
320,192,13703,1,0,0:0:0:0:
192,192,13836,1,0,0:0:0:0:
448,192,13970,1,0,0:0:0:0:
64,192,14103,1,0,0:0:0:0:
320,192,14236,1,0,0:0:0:0:
192,192,14370,1,0,0:0:0:0:
448,192,14503,1,0,0:0:0:0:
192,192,14570,1,0,0:0:0:0:
64,192,14570,1,0,0:0:0:0:
320,192,14636,1,0,0:0:0:0:
448,192,14636,1,0,0:0:0:0:
192,192,14703,1,0,0:0:0:0:
64,192,14703,1,0,0:0:0:0:
320,192,14770,1,0,0:0:0:0:
448,192,14770,128,0,15170:0:0:0:0:
192,192,15170,1,0,0:0:0:0:
64,192,15170,1,0,0:0:0:0:
320,192,15270,128,0,15320:0:0:0:0:
192,192,15370,128,0,15420:0:0:0:0:
192,192,15470,128,0,15520:0:0:0:0:
448,192,15570,128,0,15620:0:0:0:0:
448,192,15670,128,0,15720:0:0:0:0:
320,192,15770,128,0,15820:0:0:0:0:
64,192,15870,128,0,15920:0:0:0:0:
192,192,15970,128,0,16020:0:0:0:0:
192,192,16070,128,0,16120:0:0:0:0:
320,192,16170,128,0,16220:0:0:0:0:
320,192,16270,128,0,16320:0:0:0:0:
64,192,16370,128,0,16420:0:0:0:0:
64,192,16470,128,0,16520:0:0:0:0:
448,192,16570,128,0,16620:0:0:0:0:
448,192,16670,128,0,16720:0:0:0:0:
192,192,16770,128,0,16820:0:0:0:0:
320,192,16870,128,0,16920:0:0:0:0:
64,192,16970,128,0,17020:0:0:0:0:
64,192,17070,128,0,17120:0:0:0:0:
320,192,17170,128,0,17220:0:0:0:0:
320,192,17270,128,0,17320:0:0:0:0:
192,192,17370,128,0,17420:0:0:0:0:
64,192,17470,128,0,17520:0:0:0:0:
448,192,17570,128,0,17620:0:0:0:0:
448,192,17670,128,0,17720:0:0:0:0:
192,192,17770,1,0,0:0:0:0:
64,192,17770,1,0,0:0:0:0:
320,192,17836,1,0,0:0:0:0:
448,192,17836,1,0,0:0:0:0:
192,192,17903,1,0,0:0:0:0:
64,192,17903,1,0,0:0:0:0:
320,192,17970,1,0,0:0:0:0:
448,192,17970,1,0,0:0:0:0:
64,192,18070,128,0,18270:0:0:0:0:
192,192,18070,128,0,18270:0:0:0:0:
448,192,18370,1,0,0:0:0:0:
320,192,18370,1,0,0:0:0:0:
192,192,18470,128,0,18520:0:0:0:0:
64,192,18570,128,0,18620:0:0:0:0:
64,192,18670,128,0,18720:0:0:0:0:
320,192,18770,128,0,18820:0:0:0:0:
320,192,18870,128,0,18920:0:0:0:0:
192,192,18970,128,0,19020:0:0:0:0:
64,192,19070,128,0,19120:0:0:0:0:
448,192,19170,128,0,19220:0:0:0:0:
448,192,19270,128,0,19320:0:0:0:0:
64,192,19370,128,0,19420:0:0:0:0:
64,192,19470,128,0,19520:0:0:0:0:
192,192,19570,128,0,19620:0:0:0:0:
192,192,19670,128,0,19720:0:0:0:0:
320,192,19770,128,0,19820:0:0:0:0:
320,192,19870,128,0,19920:0:0:0:0:
64,192,19970,128,0,20020:0:0:0:0:
448,192,20070,128,0,20120:0:0:0:0:
192,192,20170,128,0,20220:0:0:0:0:
192,192,20270,128,0,20320:0:0:0:0:
320,192,20370,128,0,20420:0:0:0:0:
320,192,20470,128,0,20520:0:0:0:0:
192,192,20570,1,0,0:0:0:0:
64,192,20570,1,0,0:0:0:0:
320,192,20670,1,0,0:0:0:0:
448,192,20670,1,0,0:0:0:0:
192,192,20770,1,0,0:0:0:0:
64,192,20836,1,0,0:0:0:0:
320,192,20903,1,0,0:0:0:0:
192,192,20970,1,0,0:0:0:0:
448,192,21036,1,0,0:0:0:0:
320,192,21103,1,0,0:0:0:0:
192,192,21170,1,0,0:0:0:0:
64,192,21170,1,0,0:0:0:0:
64,192,21570,1,0,0:0:0:0:
192,192,21570,1,0,0:0:0:0:
448,192,21570,1,0,0:0:0:0:
320,192,21670,128,0,21720:0:0:0:0:
192,192,21770,128,0,21820:0:0:0:0:
192,192,21870,128,0,21920:0:0:0:0:
320,192,21970,1,0,0:0:0:0:
448,192,21970,1,0,0:0:0:0:
64,192,22070,128,0,22120:0:0:0:0:
320,192,22170,128,0,22220:0:0:0:0:
192,192,22270,128,0,22320:0:0:0:0:
64,192,22370,1,0,0:0:0:0:
448,192,22370,1,0,0:0:0:0:
320,192,22470,128,0,22520:0:0:0:0:
320,192,22570,128,0,22620:0:0:0:0:
448,192,22670,128,0,22720:0:0:0:0:
192,192,22770,1,0,0:0:0:0:
64,192,22770,1,0,0:0:0:0:
320,192,22870,128,0,22920:0:0:0:0:
320,192,22970,128,0,23020:0:0:0:0:
192,192,23070,128,0,23120:0:0:0:0:
448,192,23170,1,0,0:0:0:0:
64,192,23170,1,0,0:0:0:0:
320,192,23270,128,0,23320:0:0:0:0:
192,192,23370,128,0,23420:0:0:0:0:
192,192,23470,128,0,23520:0:0:0:0:
448,192,23570,1,0,0:0:0:0:
320,192,23570,1,0,0:0:0:0:
64,192,23670,128,0,23720:0:0:0:0:
64,192,23770,128,0,23820:0:0:0:0:
448,192,23870,128,0,23920:0:0:0:0:
192,192,23970,1,0,0:0:0:0:
320,192,23970,1,0,0:0:0:0:
320,192,24070,128,0,24120:0:0:0:0:
320,192,24170,128,0,24220:0:0:0:0:
192,192,24270,128,0,24320:0:0:0:0:
448,192,24370,1,0,0:0:0:0:
64,192,24370,1,0,0:0:0:0:
320,192,24470,128,0,24670:0:0:0:0:
192,192,24470,128,0,24670:0:0:0:0:
448,192,24770,1,0,0:0:0:0:
64,192,24870,128,0,24920:0:0:0:0:
320,192,24970,128,0,25020:0:0:0:0:
320,192,25070,128,0,25120:0:0:0:0:
192,192,25170,1,0,0:0:0:0:
64,192,25170,1,0,0:0:0:0:
448,192,25270,128,0,25320:0:0:0:0:
64,192,25370,128,0,25420:0:0:0:0:
320,192,25470,128,0,25520:0:0:0:0:
192,192,25570,1,0,0:0:0:0:
448,192,25570,1,0,0:0:0:0:
64,192,25670,128,0,25720:0:0:0:0:
64,192,25770,128,0,25820:0:0:0:0:
192,192,25870,128,0,25920:0:0:0:0:
320,192,25970,1,0,0:0:0:0:
448,192,25970,1,0,0:0:0:0:
192,192,26070,128,0,26120:0:0:0:0:
192,192,26170,128,0,26220:0:0:0:0:
448,192,26270,128,0,26320:0:0:0:0:
320,192,26370,1,0,0:0:0:0:
64,192,26370,1,0,0:0:0:0:
192,192,26470,128,0,26520:0:0:0:0:
320,192,26570,128,0,26620:0:0:0:0:
320,192,26670,128,0,26720:0:0:0:0:
64,192,26770,1,0,0:0:0:0:
448,192,26770,1,0,0:0:0:0:
192,192,26870,1,0,0:0:0:0:
320,192,26970,1,0,0:0:0:0:
448,192,26970,1,0,0:0:0:0:
192,192,27070,1,0,0:0:0:0:
64,192,27070,1,0,0:0:0:0:
320,192,27170,1,0,0:0:0:0:
448,192,27170,1,0,0:0:0:0:
64,192,27170,1,0,0:0:0:0:
192,192,27570,1,0,0:0:0:0:
320,192,27570,1,0,0:0:0:0:
64,192,27570,1,0,0:0:0:0:
320,192,27770,1,0,0:0:0:0:
448,192,27770,1,0,0:0:0:0:
320,192,27870,1,0,0:0:0:0:
448,192,27870,1,0,0:0:0:0:
192,192,27970,1,0,0:0:0:0:
64,192,27970,1,0,0:0:0:0:
320,192,28070,1,0,0:0:0:0:
192,192,28170,1,0,0:0:0:0:
448,192,28170,1,0,0:0:0:0:
192,192,28270,1,0,0:0:0:0:
64,192,28270,1,0,0:0:0:0:
320,192,28320,1,0,0:0:0:0:
448,192,28320,1,0,0:0:0:0:
192,192,28370,1,0,0:0:0:0:
64,192,28370,1,0,0:0:0:0:
320,192,28420,1,0,0:0:0:0:
448,192,28420,1,0,0:0:0:0:
192,192,28470,1,0,0:0:0:0:
64,192,28470,1,0,0:0:0:0:
320,192,28570,1,0,0:0:0:0:
192,192,28670,1,0,0:0:0:0:
64,192,28770,1,0,0:0:0:0:
320,192,28770,1,0,0:0:0:0:
448,192,28770,1,0,0:0:0:0:
192,192,28870,1,0,0:0:0:0:
64,192,28870,1,0,0:0:0:0:
64,192,28970,1,0,0:0:0:0:
192,192,28970,1,0,0:0:0:0:
320,192,29070,1,0,0:0:0:0:
448,192,29070,1,0,0:0:0:0:
448,192,29170,1,0,0:0:0:0:
320,192,29170,1,0,0:0:0:0:
192,192,29270,1,0,0:0:0:0:
64,192,29270,1,0,0:0:0:0:
64,192,29370,1,0,0:0:0:0:
192,192,29370,1,0,0:0:0:0:
320,192,29470,1,0,0:0:0:0:
192,192,29470,1,0,0:0:0:0:
64,192,29570,1,0,0:0:0:0:
320,192,29570,1,0,0:0:0:0:
448,192,29570,1,0,0:0:0:0:
192,192,29670,1,0,0:0:0:0:
448,192,29770,128,0,29970:0:0:0:0:
320,192,29870,128,0,29970:0:0:0:0:
64,192,29970,128,0,30170:0:0:0:0:
192,192,29970,128,0,30070:0:0:0:0:
320,192,30070,1,0,0:0:0:0:
448,192,30170,128,0,30370:0:0:0:0:
192,192,30170,128,0,30270:0:0:0:0:
320,192,30270,128,0,30370:0:0:0:0:
64,192,30370,128,0,30570:0:0:0:0:
192,192,30370,1,0,0:0:0:0:
320,192,30470,128,0,30570:0:0:0:0:
448,192,30570,128,0,30770:0:0:0:0:
192,192,30570,128,0,30670:0:0:0:0:
64,192,30670,128,0,30770:0:0:0:0:
320,192,30770,128,0,30970:0:0:0:0:
192,192,30770,128,0,30870:0:0:0:0:
64,192,30870,128,0,30970:0:0:0:0:
448,192,30970,128,0,31170:0:0:0:0:
192,192,30970,128,0,31070:0:0:0:0:
320,192,31070,128,0,31170:0:0:0:0:
192,192,31170,128,0,31370:0:0:0:0:
64,192,31170,128,0,31270:0:0:0:0:
448,192,31270,1,0,0:0:0:0:
320,192,31370,128,0,31470:0:0:0:0:
64,192,31370,1,0,0:0:0:0:
448,192,31470,128,0,31570:0:0:0:0:
320,192,31570,128,0,31770:0:0:0:0:
64,192,31570,128,0,31670:0:0:0:0:
192,192,31670,128,0,31770:0:0:0:0:
448,192,31770,128,0,31970:0:0:0:0:
64,192,31770,128,0,31870:0:0:0:0:
192,192,31870,128,0,31970:0:0:0:0:
64,192,31970,1,0,0:0:0:0:
320,192,31970,128,0,32170:0:0:0:0:
192,192,32070,1,0,0:0:0:0:
448,192,32170,128,0,32270:0:0:0:0:
64,192,32170,128,0,32270:0:0:0:0:
192,192,32270,128,0,32370:0:0:0:0:
320,192,32370,128,0,32570:0:0:0:0:
448,192,32370,128,0,32470:0:0:0:0:
192,192,32470,128,0,32570:0:0:0:0:
64,192,32570,128,0,32770:0:0:0:0:
448,192,32570,128,0,32670:0:0:0:0:
192,192,32670,128,0,32770:0:0:0:0:
320,192,32770,128,0,32870:0:0:0:0:
448,192,32770,128,0,32970:0:0:0:0:
192,192,32870,128,0,32970:0:0:0:0:
64,192,32970,128,0,33170:0:0:0:0:
320,192,32970,1,0,0:0:0:0:
320,192,33070,128,0,33170:0:0:0:0:
192,192,33170,128,0,33370:0:0:0:0:
448,192,33170,128,0,33270:0:0:0:0:
64,192,33270,128,0,33370:0:0:0:0:
320,192,33370,128,0,33570:0:0:0:0:
448,192,33370,128,0,33470:0:0:0:0:
192,192,33470,128,0,33670:0:0:0:0:
448,192,33570,1,0,0:0:0:0:
64,192,33570,128,0,34770:0:0:0:0:
320,192,33670,128,0,33770:0:0:0:0:
448,192,33770,128,0,33870:0:0:0:0:
192,192,33770,128,0,33970:0:0:0:0:
320,192,33870,128,0,33970:0:0:0:0:
448,192,33970,128,0,34170:0:0:0:0:
320,192,34070,128,0,34170:0:0:0:0:
192,192,34170,128,0,34270:0:0:0:0:
448,192,34270,128,0,34370:0:0:0:0:
320,192,34370,128,0,34470:0:0:0:0:
192,192,34470,1,0,0:0:0:0:
448,192,34570,1,0,0:0:0:0:
320,192,34670,1,0,0:0:0:0:
192,192,34770,1,0,0:0:0:0:
448,192,34770,1,0,0:0:0:0:
320,192,34870,1,0,0:0:0:0:
192,192,34970,1,0,0:0:0:0:
448,192,34970,128,0,35170:0:0:0:0:
64,192,35070,1,0,0:0:0:0:
320,192,35170,128,0,35370:0:0:0:0:
192,192,35170,128,0,35270:0:0:0:0:
64,192,35270,1,0,0:0:0:0:
448,192,35370,1,0,0:0:0:0:
192,192,35370,128,0,35470:0:0:0:0:
64,192,35470,128,0,35570:0:0:0:0:
448,192,35570,128,0,35770:0:0:0:0:
320,192,35570,128,0,35670:0:0:0:0:
192,192,35670,1,0,0:0:0:0:
64,192,35770,128,0,35970:0:0:0:0:
320,192,35770,1,0,0:0:0:0:
192,192,35870,128,0,35970:0:0:0:0:
448,192,35970,128,0,36170:0:0:0:0:
320,192,35970,128,0,36070:0:0:0:0:
64,192,36070,1,0,0:0:0:0:
192,192,36170,128,0,36370:0:0:0:0:
320,192,36270,128,0,36370:0:0:0:0:
448,192,36370,1,0,0:0:0:0:
64,192,36370,128,0,36570:0:0:0:0:
320,192,36470,1,0,0:0:0:0:
192,192,36570,128,0,36770:0:0:0:0:
448,192,36570,1,0,0:0:0:0:
64,192,36670,128,0,36770:0:0:0:0:
320,192,36770,128,0,36970:0:0:0:0:
448,192,36770,128,0,36870:0:0:0:0:
64,192,36870,1,0,0:0:0:0:
64,192,36970,128,0,37170:0:0:0:0:
192,192,36970,1,0,0:0:0:0:
448,192,37070,128,0,37170:0:0:0:0:
192,192,37170,128,0,37370:0:0:0:0:
320,192,37170,128,0,37270:0:0:0:0:
64,192,37270,128,0,37370:0:0:0:0:
448,192,37370,128,0,37470:0:0:0:0:
320,192,37370,128,0,37570:0:0:0:0:
192,192,37470,128,0,37570:0:0:0:0:
64,192,37570,128,0,37770:0:0:0:0:
448,192,37570,128,0,37670:0:0:0:0:
192,192,37670,1,0,0:0:0:0:
320,192,37770,1,0,0:0:0:0:
448,192,37770,128,0,37970:0:0:0:0:
192,192,37870,1,0,0:0:0:0:
64,192,37970,128,0,38070:0:0:0:0:
320,192,37970,1,0,0:0:0:0:
320,192,38070,128,0,38170:0:0:0:0:
448,192,38170,128,0,38370:0:0:0:0:
192,192,38170,128,0,38270:0:0:0:0:
320,192,38270,128,0,38370:0:0:0:0:
64,192,38370,128,0,38570:0:0:0:0:
192,192,38370,128,0,38470:0:0:0:0:
448,192,38470,1,0,0:0:0:0:
320,192,38570,1,0,0:0:0:0:
192,192,38670,128,0,38770:0:0:0:0:
448,192,38770,1,0,0:0:0:0:
320,192,38770,128,0,38970:0:0:0:0:
64,192,38870,128,0,38970:0:0:0:0:
192,192,38970,128,0,39170:0:0:0:0:
448,192,39070,1,0,0:0:0:0:
320,192,39170,1,0,0:0:0:0:
64,192,39170,128,0,40370:0:0:0:0:
192,192,39270,128,0,39370:0:0:0:0:
448,192,39370,128,0,39470:0:0:0:0:
320,192,39370,1,0,0:0:0:0:
192,192,39470,1,0,0:0:0:0:
448,192,39570,1,0,0:0:0:0:
320,192,39570,128,0,39770:0:0:0:0:
192,192,39670,128,0,39770:0:0:0:0:
448,192,39770,128,0,39970:0:0:0:0:
320,192,39870,1,0,0:0:0:0:
192,192,39970,1,0,0:0:0:0:
320,192,40070,1,0,0:0:0:0:
448,192,40170,1,0,0:0:0:0:
192,192,40270,1,0,0:0:0:0:
320,192,40370,1,0,0:0:0:0:
448,192,40370,1,0,0:0:0:0:
64,192,40470,1,0,0:0:0:0:
192,192,40470,1,0,0:0:0:0:
448,192,40570,1,0,0:0:0:0:
320,192,40570,1,0,0:0:0:0:
192,192,40670,1,0,0:0:0:0:
64,192,40670,1,0,0:0:0:0:
320,192,40770,1,0,0:0:0:0:
448,192,40770,128,0,40970:0:0:0:0:
192,192,40970,128,0,41170:0:0:0:0:
64,192,41170,128,0,41370:0:0:0:0:
320,192,41370,1,0,0:0:0:0:
448,192,41370,1,0,0:0:0:0:
192,192,41420,1,0,0:0:0:0:
64,192,41420,1,0,0:0:0:0:
320,192,41470,1,0,0:0:0:0:
448,192,41470,1,0,0:0:0:0:
192,192,41520,1,0,0:0:0:0:
64,192,41520,1,0,0:0:0:0:
320,192,41570,1,0,0:0:0:0:
448,192,41570,1,0,0:0:0:0:
192,192,41770,1,0,0:0:0:0:
64,192,41770,1,0,0:0:0:0:
64,192,41870,1,0,0:0:0:0:
192,192,41870,1,0,0:0:0:0:
320,192,41970,1,0,0:0:0:0:
448,192,41970,1,0,0:0:0:0:
448,192,42070,1,0,0:0:0:0:
320,192,42070,1,0,0:0:0:0:
192,192,42170,1,0,0:0:0:0:
64,192,42170,1,0,0:0:0:0:
64,192,42270,1,0,0:0:0:0:
192,192,42270,1,0,0:0:0:0:
64,192,42370,1,0,0:0:0:0:
192,192,42370,1,0,0:0:0:0:
448,192,42370,1,0,0:0:0:0:
320,192,42470,128,0,42520:0:0:0:0:
320,192,42570,128,0,42620:0:0:0:0:
192,192,42670,128,0,42720:0:0:0:0:
320,192,42770,1,0,0:0:0:0:
448,192,42770,1,0,0:0:0:0:
64,192,42870,128,0,42920:0:0:0:0:
64,192,42970,128,0,43020:0:0:0:0:
192,192,43070,128,0,43120:0:0:0:0:
64,192,43170,1,0,0:0:0:0:
448,192,43170,1,0,0:0:0:0:
320,192,43270,128,0,43320:0:0:0:0:
448,192,43370,128,0,43420:0:0:0:0:
448,192,43470,128,0,43520:0:0:0:0:
192,192,43570,1,0,0:0:0:0:
64,192,43570,1,0,0:0:0:0:
320,192,43570,1,0,0:0:0:0:
320,192,43670,128,0,43720:0:0:0:0:
320,192,43770,128,0,43820:0:0:0:0:
192,192,43870,128,0,43920:0:0:0:0:
448,192,43970,1,0,0:0:0:0:
64,192,43970,1,0,0:0:0:0:
320,192,44070,128,0,44120:0:0:0:0:
320,192,44170,128,0,44220:0:0:0:0:
64,192,44270,128,0,44320:0:0:0:0:
448,192,44370,1,0,0:0:0:0:
320,192,44370,1,0,0:0:0:0:
192,192,44370,1,0,0:0:0:0:
64,192,44470,128,0,44520:0:0:0:0:
64,192,44570,128,0,44620:0:0:0:0:
448,192,44670,128,0,44720:0:0:0:0:
192,192,44770,1,0,0:0:0:0:
320,192,44770,1,0,0:0:0:0:
192,192,44870,128,0,44920:0:0:0:0:
320,192,44970,128,0,45020:0:0:0:0:
320,192,45070,128,0,45120:0:0:0:0:
448,192,45170,1,0,0:0:0:0:
64,192,45170,1,0,0:0:0:0:
192,192,45170,1,0,0:0:0:0:
192,192,45270,128,0,45320:0:0:0:0:
192,192,45370,128,0,45420:0:0:0:0:
448,192,45470,128,0,45520:0:0:0:0:
320,192,45570,1,0,0:0:0:0:
64,192,45570,1,0,0:0:0:0:
192,192,45670,128,0,45720:0:0:0:0:
192,192,45770,128,0,45820:0:0:0:0:
64,192,45870,128,0,45920:0:0:0:0:
320,192,45970,1,0,0:0:0:0:
448,192,45970,1,0,0:0:0:0:
192,192,45970,1,0,0:0:0:0:
192,192,46070,128,0,46120:0:0:0:0:
192,192,46170,128,0,46220:0:0:0:0:
320,192,46270,128,0,46320:0:0:0:0:
64,192,46370,1,0,0:0:0:0:
192,192,46370,1,0,0:0:0:0:
448,192,46470,128,0,46520:0:0:0:0:
320,192,46570,128,0,46620:0:0:0:0:
320,192,46670,128,0,46720:0:0:0:0:
64,192,46770,1,0,0:0:0:0:
448,192,46770,1,0,0:0:0:0:
192,192,46770,1,0,0:0:0:0:
192,192,46870,128,0,46920:0:0:0:0:
192,192,46970,128,0,47020:0:0:0:0:
64,192,47070,128,0,47120:0:0:0:0:
320,192,47170,1,0,0:0:0:0:
192,192,47170,1,0,0:0:0:0:
448,192,47270,128,0,47320:0:0:0:0:
448,192,47370,128,0,47420:0:0:0:0:
192,192,47470,128,0,47520:0:0:0:0:
64,192,47570,1,0,0:0:0:0:
320,192,47570,1,0,0:0:0:0:
448,192,47570,1,0,0:0:0:0:
320,192,47670,128,0,47720:0:0:0:0:
320,192,47770,128,0,47820:0:0:0:0:
64,192,47870,128,0,47920:0:0:0:0:
192,192,47970,1,0,0:0:0:0:
320,192,47970,1,0,0:0:0:0:
448,192,48070,128,0,48120:0:0:0:0:
192,192,48170,128,0,48220:0:0:0:0:
192,192,48270,128,0,48320:0:0:0:0:
64,192,48370,1,0,0:0:0:0:
320,192,48370,1,0,0:0:0:0:
448,192,48370,1,0,0:0:0:0:
448,192,48470,128,0,48520:0:0:0:0:
448,192,48570,128,0,48620:0:0:0:0:
320,192,48670,128,0,48720:0:0:0:0:
64,192,48770,1,0,0:0:0:0:
448,192,48770,1,0,0:0:0:0:
192,192,48770,1,0,0:0:0:0:
320,192,48870,128,0,48920:0:0:0:0:
320,192,48970,128,0,49020:0:0:0:0:
192,192,49070,128,0,49120:0:0:0:0:
64,192,49170,1,0,0:0:0:0:
320,192,49170,1,0,0:0:0:0:
448,192,49170,1,0,0:0:0:0:
320,192,49270,128,0,49320:0:0:0:0:
320,192,49370,128,0,49420:0:0:0:0:
192,192,49470,128,0,49520:0:0:0:0:
320,192,49570,1,0,0:0:0:0:
448,192,49570,1,0,0:0:0:0:
64,192,49670,128,0,49720:0:0:0:0:
192,192,49770,128,0,49820:0:0:0:0:
192,192,49870,128,0,49920:0:0:0:0:
320,192,49970,1,0,0:0:0:0:
448,192,49970,1,0,0:0:0:0:
64,192,49970,1,0,0:0:0:0:
192,192,50070,128,0,50120:0:0:0:0:
320,192,50170,1,0,0:0:0:0:
448,192,50170,1,0,0:0:0:0:
192,192,50270,1,0,0:0:0:0:
64,192,50270,1,0,0:0:0:0:
320,192,50370,1,0,0:0:0:0:
448,192,50370,1,0,0:0:0:0:
64,192,50370,1,0,0:0:0:0:
192,192,50470,1,0,0:0:0:0:
192,192,50570,1,0,0:0:0:0:
320,192,50670,1,0,0:0:0:0:
192,192,50770,1,0,0:0:0:0:
64,192,50770,1,0,0:0:0:0:
448,192,50770,1,0,0:0:0:0:
320,192,50970,1,0,0:0:0:0:
448,192,50970,1,0,0:0:0:0:
192,192,51070,1,0,0:0:0:0:
64,192,51070,1,0,0:0:0:0:
320,192,51170,1,0,0:0:0:0:
448,192,51170,1,0,0:0:0:0:
192,192,51370,1,0,0:0:0:0:
64,192,51470,1,0,0:0:0:0:
320,192,51570,1,0,0:0:0:0:
448,192,51570,1,0,0:0:0:0:
192,192,51670,1,0,0:0:0:0:
64,192,51670,1,0,0:0:0:0:
320,192,51770,1,0,0:0:0:0:
448,192,51770,1,0,0:0:0:0:
192,192,51870,1,0,0:0:0:0:
64,192,51870,1,0,0:0:0:0:
320,192,51970,1,0,0:0:0:0:
64,192,51970,1,0,0:0:0:0:
448,192,51970,128,0,52170:0:0:0:0:
192,192,52170,128,0,52370:0:0:0:0:
64,192,52170,1,0,0:0:0:0:
320,192,52370,128,0,52570:0:0:0:0:
448,192,52370,1,0,0:0:0:0:
64,192,52570,128,0,52770:0:0:0:0:
192,192,52570,1,0,0:0:0:0:
448,192,52770,1,0,0:0:0:0:
192,192,52770,1,0,0:0:0:0:
320,192,52770,128,0,52970:0:0:0:0:
64,192,52970,128,0,53170:0:0:0:0:
192,192,52970,1,0,0:0:0:0:
192,192,53170,128,0,53370:0:0:0:0:
320,192,53170,1,0,0:0:0:0:
448,192,53370,128,0,53570:0:0:0:0:
64,192,53370,1,0,0:0:0:0:
192,192,53570,1,0,0:0:0:0:
320,192,53570,1,0,0:0:0:0:
64,192,53570,128,0,53770:0:0:0:0:
320,192,53870,128,0,53970:0:0:0:0:
448,192,53870,128,0,53970:0:0:0:0:
320,192,54170,128,0,54270:0:0:0:0:
448,192,54170,128,0,54270:0:0:0:0:
64,192,54370,128,0,54970:0:0:0:0:
192,192,54370,1,0,0:0:0:0:
320,192,54370,1,0,0:0:0:0:
448,192,54570,1,0,0:0:0:0:
320,192,54770,1,0,0:0:0:0:
448,192,54970,1,0,0:0:0:0:
192,192,54970,1,0,0:0:0:0:
320,192,55170,1,0,0:0:0:0:
192,192,55170,1,0,0:0:0:0:
448,192,55170,128,0,55370:0:0:0:0:
64,192,55370,1,0,0:0:0:0:
192,192,55370,128,0,55570:0:0:0:0:
448,192,55570,1,0,0:0:0:0:
320,192,55570,128,0,55770:0:0:0:0:
64,192,55770,1,0,0:0:0:0:
192,192,55770,128,0,55970:0:0:0:0:
320,192,55970,1,0,0:0:0:0:
64,192,55970,1,0,0:0:0:0:
448,192,55970,128,0,56170:0:0:0:0:
192,192,56170,1,0,0:0:0:0:
320,192,56170,128,0,56370:0:0:0:0:
64,192,56370,1,0,0:0:0:0:
448,192,56370,128,0,56570:0:0:0:0:
320,192,56570,1,0,0:0:0:0:
192,192,56570,128,0,56770:0:0:0:0:
320,192,56770,1,0,0:0:0:0:
64,192,56770,1,0,0:0:0:0:
320,192,57070,1,0,0:0:0:0:
448,192,57070,1,0,0:0:0:0:
320,192,57370,1,0,0:0:0:0:
448,192,57370,1,0,0:0:0:0:
64,192,57570,1,0,0:0:0:0:
320,192,57570,1,0,0:0:0:0:
448,192,57570,1,0,0:0:0:0:
192,192,57770,1,0,0:0:0:0:
64,192,57770,1,0,0:0:0:0:
320,192,57870,1,0,0:0:0:0:
448,192,57870,1,0,0:0:0:0:
192,192,57970,1,0,0:0:0:0:
64,192,57970,1,0,0:0:0:0:
320,192,58036,1,0,0:0:0:0:
448,192,58103,1,0,0:0:0:0:
64,192,58170,1,0,0:0:0:0:
192,192,58236,1,0,0:0:0:0:
320,192,58303,1,0,0:0:0:0:
192,192,58370,1,0,0:0:0:0:
448,192,58370,1,0,0:0:0:0:
64,192,58370,128,0,58570:0:0:0:0:
320,192,58470,1,0,0:0:0:0:
192,192,58570,1,0,0:0:0:0:
448,192,58570,128,0,58770:0:0:0:0:
320,192,58670,128,0,58770:0:0:0:0:
64,192,58770,128,0,58970:0:0:0:0:
192,192,58770,128,0,58870:0:0:0:0:
320,192,58970,1,0,0:0:0:0:
448,192,58970,128,0,59170:0:0:0:0:
192,192,59070,1,0,0:0:0:0:
320,192,59170,128,0,59370:0:0:0:0:
64,192,59170,1,0,0:0:0:0:
192,192,59270,128,0,59370:0:0:0:0:
448,192,59370,128,0,59570:0:0:0:0:
320,192,59470,1,0,0:0:0:0:
64,192,59570,128,0,59770:0:0:0:0:
192,192,59570,1,0,0:0:0:0:
192,192,59670,128,0,59770:0:0:0:0:
320,192,59770,128,0,59970:0:0:0:0:
448,192,59770,128,0,59870:0:0:0:0:
192,192,59870,128,0,59970:0:0:0:0:
448,192,59970,128,0,60170:0:0:0:0:
64,192,59970,1,0,0:0:0:0:
192,192,60070,1,0,0:0:0:0:
320,192,60170,1,0,0:0:0:0:
64,192,60170,128,0,60370:0:0:0:0:
192,192,60270,128,0,60370:0:0:0:0:
448,192,60370,128,0,60570:0:0:0:0:
320,192,60370,1,0,0:0:0:0:
192,192,60470,1,0,0:0:0:0:
64,192,60570,1,0,0:0:0:0:
320,192,60570,128,0,60770:0:0:0:0:
192,192,60670,128,0,60770:0:0:0:0:
448,192,60770,1,0,0:0:0:0:
64,192,60770,128,0,60970:0:0:0:0:
192,192,60870,128,0,60970:0:0:0:0:
448,192,60970,128,0,61170:0:0:0:0:
320,192,60970,128,0,61070:0:0:0:0:
192,192,61070,1,0,0:0:0:0:
320,192,61170,1,0,0:0:0:0:
64,192,61170,128,0,61370:0:0:0:0:
192,192,61270,128,0,61370:0:0:0:0:
320,192,61370,1,0,0:0:0:0:
448,192,61370,1,0,0:0:0:0:
192,192,61470,1,0,0:0:0:0:
64,192,61470,1,0,0:0:0:0:
320,192,61570,1,0,0:0:0:0:
448,192,61570,1,0,0:0:0:0:
64,192,61570,1,0,0:0:0:0:
192,192,61970,1,0,0:0:0:0:
320,192,62170,1,0,0:0:0:0:
192,192,62370,1,0,0:0:0:0:
64,192,62370,1,0,0:0:0:0:
448,192,62370,1,0,0:0:0:0:
320,192,62670,1,0,0:0:0:0:
192,192,62670,1,0,0:0:0:0:
64,192,62970,1,0,0:0:0:0:
192,192,62970,1,0,0:0:0:0:
320,192,63170,1,0,0:0:0:0:
448,192,63170,1,0,0:0:0:0:
192,192,63303,1,0,0:0:0:0:
320,192,63303,1,0,0:0:0:0:
192,192,63436,1,0,0:0:0:0:
64,192,63436,1,0,0:0:0:0:
320,192,63570,1,0,0:0:0:0:
448,192,63570,1,0,0:0:0:0:
64,192,63703,1,0,0:0:0:0:
192,192,63703,1,0,0:0:0:0:
192,192,63836,1,0,0:0:0:0:
320,192,63836,1,0,0:0:0:0:
64,192,63970,1,0,0:0:0:0:
192,192,63970,1,0,0:0:0:0:
448,192,63970,1,0,0:0:0:0:
448,192,64270,1,0,0:0:0:0:
192,192,64270,1,0,0:0:0:0:
320,192,64270,1,0,0:0:0:0:
64,192,64570,1,0,0:0:0:0:
192,192,64570,1,0,0:0:0:0:
320,192,64570,1,0,0:0:0:0:
320,192,64770,1,0,0:0:0:0:
448,192,64770,1,0,0:0:0:0:
64,192,64770,1,0,0:0:0:0:
448,192,64970,1,0,0:0:0:0:
320,192,65020,1,0,0:0:0:0:
192,192,65070,1,0,0:0:0:0:
64,192,65120,1,0,0:0:0:0:
320,192,65170,1,0,0:0:0:0:
448,192,65170,1,0,0:0:0:0:
320,192,65270,1,0,0:0:0:0:
448,192,65270,1,0,0:0:0:0:
192,192,65370,1,0,0:0:0:0:
64,192,65370,1,0,0:0:0:0:
64,192,65470,1,0,0:0:0:0:
192,192,65470,1,0,0:0:0:0:
448,192,65570,1,0,0:0:0:0:
320,192,65570,1,0,0:0:0:0:
64,192,65570,1,0,0:0:0:0:
192,192,65870,5,0,0:0:0:0:
320,192,65870,1,0,0:0:0:0:
448,192,65870,1,0,0:0:0:0:
64,192,66170,1,0,0:0:0:0:
192,192,66170,1,0,0:0:0:0:
448,192,66170,1,0,0:0:0:0:
320,192,66370,1,0,0:0:0:0:
192,192,66370,1,0,0:0:0:0:
64,192,66370,1,0,0:0:0:0:
64,192,66770,128,0,67170:0:0:0:0:
448,192,67170,128,0,67470:0:0:0:0:
192,192,67470,128,0,67770:0:0:0:0:
320,192,67770,128,0,67970:0:0:0:0:
192,192,67970,1,0,0:0:0:0:
64,192,67970,128,0,68170:0:0:0:0:
448,192,67970,128,0,68070:0:0:0:0:
192,192,68070,128,0,68270:0:0:0:0:
448,192,68170,128,0,68370:0:0:0:0:
320,192,68170,128,0,68270:0:0:0:0:
64,192,68270,128,0,68370:0:0:0:0:
320,192,68370,128,0,68570:0:0:0:0:
192,192,68370,128,0,68470:0:0:0:0:
448,192,68470,128,0,68670:0:0:0:0:
192,192,68570,128,0,68670:0:0:0:0:
64,192,68570,128,0,68670:0:0:0:0:
320,192,68670,128,0,68770:0:0:0:0:
448,192,68770,128,0,68970:0:0:0:0:
192,192,68770,128,0,68870:0:0:0:0:
64,192,68770,128,0,68870:0:0:0:0:
320,192,68870,128,0,68970:0:0:0:0:
64,192,68970,128,0,69070:0:0:0:0:
192,192,68970,128,0,69170:0:0:0:0:
320,192,69070,1,0,0:0:0:0:
448,192,69070,128,0,69270:0:0:0:0:
320,192,69170,128,0,69270:0:0:0:0:
64,192,69170,128,0,69370:0:0:0:0:
192,192,69270,128,0,69370:0:0:0:0:
448,192,69370,128,0,69570:0:0:0:0:
320,192,69370,128,0,69470:0:0:0:0:
64,192,69470,128,0,69570:0:0:0:0:
192,192,69470,1,0,0:0:0:0:
320,192,69570,128,0,69770:0:0:0:0:
192,192,69570,128,0,69670:0:0:0:0:
448,192,69670,1,0,0:0:0:0:
64,192,69670,1,0,0:0:0:0:
448,192,69770,128,0,69870:0:0:0:0:
64,192,69770,128,0,69970:0:0:0:0:
192,192,69770,1,0,0:0:0:0:
192,192,69870,128,0,69970:0:0:0:0:
320,192,69870,1,0,0:0:0:0:
448,192,69970,1,0,0:0:0:0:
320,192,69970,128,0,70170:0:0:0:0:
64,192,70070,128,0,70170:0:0:0:0:
192,192,70070,1,0,0:0:0:0:
448,192,70170,1,0,0:0:0:0:
192,192,70170,128,0,70370:0:0:0:0:
320,192,70270,1,0,0:0:0:0:
64,192,70270,128,0,70370:0:0:0:0:
448,192,70370,128,0,70570:0:0:0:0:
320,192,70370,128,0,70470:0:0:0:0:
192,192,70470,128,0,70570:0:0:0:0:
64,192,70470,128,0,70670:0:0:0:0:
320,192,70570,128,0,70670:0:0:0:0:
448,192,70670,128,0,70870:0:0:0:0:
192,192,70670,128,0,70770:0:0:0:0:
64,192,70770,128,0,70970:0:0:0:0:
320,192,70770,128,0,70870:0:0:0:0:
192,192,70870,128,0,71070:0:0:0:0:
448,192,70970,128,0,71170:0:0:0:0:
320,192,70970,128,0,71070:0:0:0:0:
64,192,71070,128,0,71270:0:0:0:0:
192,192,71170,128,0,71270:0:0:0:0:
320,192,71170,128,0,71370:0:0:0:0:
448,192,71270,128,0,71470:0:0:0:0:
192,192,71370,128,0,71570:0:0:0:0:
64,192,71370,128,0,71470:0:0:0:0:
320,192,71470,128,0,71670:0:0:0:0:
64,192,71570,128,0,71770:0:0:0:0:
448,192,71570,128,0,71670:0:0:0:0:
192,192,71670,128,0,71870:0:0:0:0:
320,192,71770,128,0,71970:0:0:0:0:
448,192,71770,128,0,71870:0:0:0:0:
64,192,71870,128,0,72070:0:0:0:0:
448,192,71970,128,0,72170:0:0:0:0:
192,192,71970,128,0,72070:0:0:0:0:
320,192,72070,128,0,72170:0:0:0:0:
64,192,72170,1,0,0:0:0:0:
192,192,72170,128,0,72370:0:0:0:0:
448,192,72270,1,0,0:0:0:0:
320,192,72270,128,0,72470:0:0:0:0:
64,192,72370,128,0,72570:0:0:0:0:
448,192,72370,128,0,72470:0:0:0:0:
192,192,72470,128,0,72670:0:0:0:0:
448,192,72570,128,0,72770:0:0:0:0:
320,192,72570,128,0,72770:0:0:0:0:
64,192,72670,1,0,0:0:0:0:
64,192,72770,128,0,73970:0:0:0:0:
192,192,72770,128,0,72870:0:0:0:0:
320,192,72870,1,0,0:0:0:0:
448,192,72970,1,0,0:0:0:0:
192,192,72970,1,0,0:0:0:0:
320,192,73070,1,0,0:0:0:0:
192,192,73170,1,0,0:0:0:0:
448,192,73170,128,0,73270:0:0:0:0:
320,192,73270,128,0,73370:0:0:0:0:
192,192,73370,128,0,73470:0:0:0:0:
448,192,73470,128,0,73570:0:0:0:0:
320,192,73470,1,0,0:0:0:0:
192,192,73570,128,0,73670:0:0:0:0:
320,192,73670,1,0,0:0:0:0:
448,192,73770,1,0,0:0:0:0:
192,192,73770,1,0,0:0:0:0:
320,192,73870,1,0,0:0:0:0:
192,192,73870,1,0,0:0:0:0:
448,192,73970,1,0,0:0:0:0:
320,192,73970,1,0,0:0:0:0:
192,192,74070,1,0,0:0:0:0:
64,192,74170,1,0,0:0:0:0:
320,192,74270,1,0,0:0:0:0:
192,192,74370,1,0,0:0:0:0:
64,192,74370,1,0,0:0:0:0:
448,192,74370,128,0,74570:0:0:0:0:
320,192,74470,128,0,74670:0:0:0:0:
64,192,74570,128,0,74770:0:0:0:0:
192,192,74570,1,0,0:0:0:0:
448,192,74670,128,0,74770:0:0:0:0:
320,192,74770,128,0,74970:0:0:0:0:
192,192,74770,128,0,74870:0:0:0:0:
64,192,74870,128,0,75070:0:0:0:0:
192,192,74970,128,0,75070:0:0:0:0:
448,192,74970,128,0,75170:0:0:0:0:
320,192,75070,128,0,75270:0:0:0:0:
192,192,75170,128,0,75370:0:0:0:0:
64,192,75170,128,0,75270:0:0:0:0:
448,192,75270,1,0,0:0:0:0:
64,192,75370,128,0,75570:0:0:0:0:
320,192,75370,128,0,75470:0:0:0:0:
448,192,75470,128,0,75570:0:0:0:0:
192,192,75570,128,0,75670:0:0:0:0:
320,192,75570,128,0,75770:0:0:0:0:
64,192,75670,128,0,75870:0:0:0:0:
448,192,75770,128,0,75970:0:0:0:0:
192,192,75770,128,0,75870:0:0:0:0:
320,192,75870,128,0,75970:0:0:0:0:
192,192,75970,1,0,0:0:0:0:
64,192,75970,128,0,76170:0:0:0:0:
320,192,76070,1,0,0:0:0:0:
448,192,76170,1,0,0:0:0:0:
192,192,76170,1,0,0:0:0:0:
320,192,76270,1,0,0:0:0:0:
448,192,76370,1,0,0:0:0:0:
64,192,76370,128,0,76570:0:0:0:0:
192,192,76370,128,0,76470:0:0:0:0:
320,192,76470,128,0,76570:0:0:0:0:
448,192,76570,1,0,0:0:0:0:
192,192,76570,128,0,76770:0:0:0:0:
64,192,76670,1,0,0:0:0:0:
320,192,76770,1,0,0:0:0:0:
448,192,76770,128,0,76970:0:0:0:0:
192,192,76870,128,0,77070:0:0:0:0:
64,192,76970,1,0,0:0:0:0:
320,192,76970,128,0,77170:0:0:0:0:
448,192,77070,128,0,77170:0:0:0:0:
192,192,77170,128,0,77370:0:0:0:0:
64,192,77170,128,0,77270:0:0:0:0:
320,192,77270,128,0,77370:0:0:0:0:
448,192,77270,1,0,0:0:0:0:
64,192,77370,128,0,77570:0:0:0:0:
448,192,77370,128,0,77570:0:0:0:0:
320,192,77470,1,0,0:0:0:0:
320,192,77570,128,0,77770:0:0:0:0:
192,192,77570,128,0,77670:0:0:0:0:
448,192,77670,128,0,77770:0:0:0:0:
64,192,77770,1,0,0:0:0:0:
192,192,77770,1,0,0:0:0:0:
320,192,77870,1,0,0:0:0:0:
192,192,77970,1,0,0:0:0:0:
64,192,77970,1,0,0:0:0:0:
64,192,78070,1,0,0:0:0:0:
192,192,78070,1,0,0:0:0:0:
320,192,78170,1,0,0:0:0:0:
448,192,78170,1,0,0:0:0:0:
192,192,78220,1,0,0:0:0:0:
64,192,78220,1,0,0:0:0:0:
320,192,78270,1,0,0:0:0:0:
448,192,78270,1,0,0:0:0:0:
192,192,78320,1,0,0:0:0:0:
64,192,78320,1,0,0:0:0:0:
320,192,78370,1,0,0:0:0:0:
448,192,78370,1,0,0:0:0:0:
192,192,78570,1,0,0:0:0:0:
320,192,78570,1,0,0:0:0:0:
64,192,78670,1,0,0:0:0:0:
320,192,78670,1,0,0:0:0:0:
448,192,78670,1,0,0:0:0:0:
448,192,78970,1,0,0:0:0:0:
320,192,78970,1,0,0:0:0:0:
320,192,79070,1,0,0:0:0:0:
448,192,79070,1,0,0:0:0:0:
64,192,79170,1,0,0:0:0:0:
320,192,79170,1,0,0:0:0:0:
448,192,79170,1,0,0:0:0:0:
192,192,79770,1,0,0:0:0:0:
64,192,79770,1,0,0:0:0:0:
320,192,79820,1,0,0:0:0:0:
448,192,79820,1,0,0:0:0:0:
192,192,79870,1,0,0:0:0:0:
64,192,79870,1,0,0:0:0:0:
320,192,79920,1,0,0:0:0:0:
448,192,79920,1,0,0:0:0:0:
192,192,79970,1,0,0:0:0:0:
64,192,79970,1,0,0:0:0:0:
320,192,80270,1,0,0:0:0:0:
64,192,80270,1,0,0:0:0:0:
448,192,80503,1,0,0:0:0:0:
192,192,80570,1,0,0:0:0:0:
64,192,80570,1,0,0:0:0:0:
320,192,80636,1,0,0:0:0:0:
448,192,80770,128,0,80870:0:0:0:0:
64,192,80770,128,0,80970:0:0:0:0:
192,192,80770,1,0,0:0:0:0:
192,192,80870,128,0,81070:0:0:0:0:
320,192,80970,128,0,81070:0:0:0:0:
448,192,80970,128,0,81170:0:0:0:0:
64,192,81070,128,0,81170:0:0:0:0:
192,192,81170,128,0,81270:0:0:0:0:
320,192,81170,128,0,81370:0:0:0:0:
448,192,81270,128,0,81470:0:0:0:0:
64,192,81370,128,0,81470:0:0:0:0:
192,192,81370,128,0,81470:0:0:0:0:
320,192,81470,128,0,81570:0:0:0:0:
64,192,81570,128,0,81670:0:0:0:0:
192,192,81570,128,0,81670:0:0:0:0:
448,192,81570,128,0,81770:0:0:0:0:
320,192,81670,128,0,81770:0:0:0:0:
192,192,81770,128,0,81970:0:0:0:0:
64,192,81770,128,0,81870:0:0:0:0:
448,192,81870,128,0,82070:0:0:0:0:
320,192,81870,1,0,0:0:0:0:
64,192,81970,128,0,82170:0:0:0:0:
320,192,81970,128,0,82070:0:0:0:0:
192,192,82070,128,0,82170:0:0:0:0:
320,192,82170,128,0,82270:0:0:0:0:
448,192,82170,128,0,82370:0:0:0:0:
192,192,82270,1,0,0:0:0:0:
64,192,82270,128,0,82370:0:0:0:0:
192,192,82370,128,0,82470:0:0:0:0:
320,192,82370,128,0,82570:0:0:0:0:
64,192,82470,1,0,0:0:0:0:
448,192,82470,1,0,0:0:0:0:
192,192,82570,1,0,0:0:0:0:
64,192,82570,128,0,82770:0:0:0:0:
448,192,82570,128,0,82670:0:0:0:0:
320,192,82670,1,0,0:0:0:0:
192,192,82670,128,0,82770:0:0:0:0:
320,192,82770,128,0,82970:0:0:0:0:
448,192,82770,1,0,0:0:0:0:
192,192,82870,1,0,0:0:0:0:
64,192,82870,128,0,82970:0:0:0:0:
192,192,82970,128,0,83170:0:0:0:0:
448,192,82970,1,0,0:0:0:0:
64,192,83070,128,0,83170:0:0:0:0:
320,192,83070,1,0,0:0:0:0:
320,192,83170,128,0,83270:0:0:0:0:
448,192,83170,128,0,83370:0:0:0:0:
64,192,83270,128,0,83470:0:0:0:0:
192,192,83270,128,0,83370:0:0:0:0:
320,192,83370,128,0,83470:0:0:0:0:
192,192,83470,128,0,83570:0:0:0:0:
448,192,83470,128,0,83670:0:0:0:0:
320,192,83570,128,0,83670:0:0:0:0:
64,192,83570,128,0,83770:0:0:0:0:
192,192,83670,128,0,83870:0:0:0:0:
320,192,83770,128,0,83870:0:0:0:0:
448,192,83770,128,0,83970:0:0:0:0:
64,192,83870,128,0,84070:0:0:0:0:
320,192,83970,128,0,84170:0:0:0:0:
192,192,83970,128,0,84070:0:0:0:0:
448,192,84070,128,0,84270:0:0:0:0:
64,192,84170,128,0,84270:0:0:0:0:
192,192,84170,128,0,84370:0:0:0:0:
320,192,84270,128,0,84470:0:0:0:0:
448,192,84370,128,0,84470:0:0:0:0:
64,192,84370,128,0,84570:0:0:0:0:
192,192,84470,128,0,84670:0:0:0:0:
448,192,84570,128,0,84670:0:0:0:0:
320,192,84570,128,0,84770:0:0:0:0:
64,192,84670,128,0,84870:0:0:0:0:
192,192,84770,128,0,84870:0:0:0:0:
448,192,84770,128,0,84970:0:0:0:0:
320,192,84870,128,0,84970:0:0:0:0:
192,192,84970,128,0,85170:0:0:0:0:
64,192,84970,1,0,0:0:0:0:
320,192,85070,128,0,85270:0:0:0:0:
448,192,85070,1,0,0:0:0:0:
448,192,85170,128,0,85270:0:0:0:0:
64,192,85170,128,0,85370:0:0:0:0:
192,192,85270,128,0,85470:0:0:0:0:
320,192,85370,128,0,85570:0:0:0:0:
448,192,85370,128,0,85570:0:0:0:0:
64,192,85470,1,0,0:0:0:0:
64,192,85570,128,0,85970:0:0:0:0:
192,192,85570,128,0,85670:0:0:0:0:
320,192,85670,1,0,0:0:0:0:
192,192,85770,1,0,0:0:0:0:
448,192,85770,1,0,0:0:0:0:
320,192,85870,128,0,85970:0:0:0:0:
448,192,85970,128,0,86070:0:0:0:0:
192,192,85970,1,0,0:0:0:0:
320,192,86070,128,0,86170:0:0:0:0:
192,192,86170,128,0,86270:0:0:0:0:
64,192,86170,128,0,86370:0:0:0:0:
320,192,86270,1,0,0:0:0:0:
448,192,86270,128,0,86370:0:0:0:0:
192,192,86370,128,0,86470:0:0:0:0:
320,192,86470,1,0,0:0:0:0:
448,192,86570,1,0,0:0:0:0:
192,192,86570,128,0,86770:0:0:0:0:
320,192,86670,128,0,86770:0:0:0:0:
64,192,86670,1,0,0:0:0:0:
448,192,86770,128,0,86870:0:0:0:0:
64,192,86770,128,0,86870:0:0:0:0:
192,192,86870,1,0,0:0:0:0:
64,192,86970,1,0,0:0:0:0:
320,192,86970,128,0,87070:0:0:0:0:
448,192,86970,1,0,0:0:0:0:
192,192,87070,128,0,87170:0:0:0:0:
448,192,87170,128,0,87370:0:0:0:0:
64,192,87170,1,0,0:0:0:0:
320,192,87270,128,0,87470:0:0:0:0:
192,192,87370,1,0,0:0:0:0:
64,192,87370,128,0,87570:0:0:0:0:
448,192,87470,128,0,87570:0:0:0:0:
192,192,87570,128,0,87670:0:0:0:0:
320,192,87570,128,0,87770:0:0:0:0:
64,192,87670,128,0,87870:0:0:0:0:
448,192,87770,128,0,87970:0:0:0:0:
192,192,87770,128,0,87870:0:0:0:0:
320,192,87870,128,0,88070:0:0:0:0:
64,192,87970,128,0,88070:0:0:0:0:
192,192,87970,128,0,88170:0:0:0:0:
448,192,88070,1,0,0:0:0:0:
320,192,88170,128,0,88270:0:0:0:0:
64,192,88170,128,0,88370:0:0:0:0:
448,192,88270,128,0,88370:0:0:0:0:
192,192,88270,1,0,0:0:0:0:
320,192,88370,128,0,88570:0:0:0:0:
192,192,88370,128,0,88470:0:0:0:0:
64,192,88470,128,0,88670:0:0:0:0:
448,192,88470,1,0,0:0:0:0:
192,192,88570,128,0,88670:0:0:0:0:
448,192,88570,128,0,88770:0:0:0:0:
320,192,88670,128,0,88770:0:0:0:0:
64,192,88770,128,0,88970:0:0:0:0:
192,192,88770,1,0,0:0:0:0:
320,192,88870,1,0,0:0:0:0:
192,192,88970,1,0,0:0:0:0:
448,192,88970,1,0,0:0:0:0:
320,192,89070,1,0,0:0:0:0:
64,192,89170,1,0,0:0:0:0:
192,192,89170,1,0,0:0:0:0:
448,192,89170,1,0,0:0:0:0:
320,192,89270,1,0,0:0:0:0:
192,192,89370,1,0,0:0:0:0:
64,192,89370,1,0,0:0:0:0:
320,192,89420,1,0,0:0:0:0:
448,192,89420,1,0,0:0:0:0:
192,192,89470,1,0,0:0:0:0:
64,192,89470,1,0,0:0:0:0:
320,192,89520,1,0,0:0:0:0:
448,192,89520,1,0,0:0:0:0:
192,192,89570,1,0,0:0:0:0:
64,192,89570,1,0,0:0:0:0:
192,192,89870,1,0,0:0:0:0:
320,192,89870,1,0,0:0:0:0:
448,192,89870,1,0,0:0:0:0:
192,192,90170,1,0,0:0:0:0:
64,192,90170,1,0,0:0:0:0:
448,192,90170,1,0,0:0:0:0:
320,192,90370,1,0,0:0:0:0:
448,192,90370,1,0,0:0:0:0:
64,192,90370,1,0,0:0:0:0:
320,192,90570,1,0,0:0:0:0:
448,192,90570,1,0,0:0:0:0:
320,192,90670,1,0,0:0:0:0:
448,192,90670,1,0,0:0:0:0:
192,192,90770,1,0,0:0:0:0:
64,192,90770,1,0,0:0:0:0:
320,192,90870,1,0,0:0:0:0:
192,192,90870,1,0,0:0:0:0:
64,192,90970,1,0,0:0:0:0:
320,192,90970,1,0,0:0:0:0:
448,192,90970,1,0,0:0:0:0:
64,192,91170,1,0,0:0:0:0:
192,192,91220,1,0,0:0:0:0:
320,192,91270,1,0,0:0:0:0:
448,192,91320,1,0,0:0:0:0:
192,192,91370,1,0,0:0:0:0:
64,192,91370,1,0,0:0:0:0:
64,192,91470,1,0,0:0:0:0:
192,192,91470,1,0,0:0:0:0:
320,192,91570,1,0,0:0:0:0:
448,192,91570,1,0,0:0:0:0:
64,192,91570,1,0,0:0:0:0:
320,192,91970,1,0,0:0:0:0:
192,192,91970,1,0,0:0:0:0:
64,192,91970,1,0,0:0:0:0:
320,192,93370,1,0,0:0:0:0:
192,192,93436,1,0,0:0:0:0:
64,192,93503,1,0,0:0:0:0:
320,192,93570,1,0,0:0:0:0:
448,192,93570,1,0,0:0:0:0:
192,192,94970,1,0,0:0:0:0:
320,192,95036,1,0,0:0:0:0:
64,192,95103,1,0,0:0:0:0:
192,192,95170,1,0,0:0:0:0:
320,192,95170,1,0,0:0:0:0:
192,192,96770,1,0,0:0:0:0:
64,192,96770,1,0,0:0:0:0:
320,192,97570,1,0,0:0:0:0:
192,192,97870,1,0,0:0:0:0:
448,192,98170,1,0,0:0:0:0:
192,192,98370,1,0,0:0:0:0:
64,192,98370,1,0,0:0:0:0:
320,192,98470,1,0,0:0:0:0:
320,192,98570,1,0,0:0:0:0:
448,192,98670,1,0,0:0:0:0:
448,192,98770,1,0,0:0:0:0:
192,192,98870,1,0,0:0:0:0:
192,192,98970,1,0,0:0:0:0:
320,192,99070,1,0,0:0:0:0:
320,192,99170,1,0,0:0:0:0:
64,192,99270,1,0,0:0:0:0:
64,192,99370,1,0,0:0:0:0:
192,192,99470,1,0,0:0:0:0:
192,192,99570,1,0,0:0:0:0:
320,192,99670,1,0,0:0:0:0:
320,192,99770,1,0,0:0:0:0:
64,192,99870,1,0,0:0:0:0:
192,192,99970,1,0,0:0:0:0:
448,192,99970,1,0,0:0:0:0:
320,192,100070,1,0,0:0:0:0:
320,192,100170,1,0,0:0:0:0:
64,192,100270,1,0,0:0:0:0:
64,192,100370,1,0,0:0:0:0:
448,192,100470,1,0,0:0:0:0:
448,192,100570,1,0,0:0:0:0:
192,192,100670,1,0,0:0:0:0:
192,192,100770,1,0,0:0:0:0:
320,192,100870,1,0,0:0:0:0:
320,192,100970,1,0,0:0:0:0:
64,192,101070,1,0,0:0:0:0:
64,192,101170,1,0,0:0:0:0:
448,192,101270,1,0,0:0:0:0:
448,192,101370,1,0,0:0:0:0:
320,192,101470,1,0,0:0:0:0:
192,192,101570,1,0,0:0:0:0:
64,192,101570,1,0,0:0:0:0:
320,192,101670,1,0,0:0:0:0:
448,192,101670,1,0,0:0:0:0:
64,192,101770,1,0,0:0:0:0:
192,192,101770,1,0,0:0:0:0:
320,192,101870,1,0,0:0:0:0:
192,192,101870,1,0,0:0:0:0:
64,192,101970,1,0,0:0:0:0:
448,192,101970,1,0,0:0:0:0:
320,192,102070,1,0,0:0:0:0:
192,192,102070,1,0,0:0:0:0:
64,192,102170,1,0,0:0:0:0:
192,192,102170,1,0,0:0:0:0:
320,192,102270,1,0,0:0:0:0:
448,192,102270,1,0,0:0:0:0:
64,192,102370,1,0,0:0:0:0:
320,192,102370,1,0,0:0:0:0:
192,192,102470,1,0,0:0:0:0:
448,192,102470,1,0,0:0:0:0:
448,192,102570,1,0,0:0:0:0:
64,192,102570,1,0,0:0:0:0:
320,192,102670,1,0,0:0:0:0:
192,192,102670,1,0,0:0:0:0:
64,192,102770,1,0,0:0:0:0:
192,192,102770,1,0,0:0:0:0:
320,192,102870,1,0,0:0:0:0:
448,192,102870,1,0,0:0:0:0:
192,192,102970,1,0,0:0:0:0:
320,192,102970,1,0,0:0:0:0:
64,192,103070,1,0,0:0:0:0:
192,192,103070,1,0,0:0:0:0:
320,192,103170,1,0,0:0:0:0:
448,192,103170,1,0,0:0:0:0:
64,192,103170,1,0,0:0:0:0:
320,192,103270,1,0,0:0:0:0:
448,192,103270,1,0,0:0:0:0:
320,192,103370,1,0,0:0:0:0:
448,192,103370,1,0,0:0:0:0:
192,192,103470,1,0,0:0:0:0:
64,192,103470,1,0,0:0:0:0:
448,192,103470,1,0,0:0:0:0:
320,192,103770,1,0,0:0:0:0:
192,192,103770,1,0,0:0:0:0:
192,192,103870,1,0,0:0:0:0:
320,192,103870,1,0,0:0:0:0:
64,192,103970,1,0,0:0:0:0:
320,192,103970,1,0,0:0:0:0:
448,192,103970,1,0,0:0:0:0:
320,192,104070,1,0,0:0:0:0:
448,192,104070,1,0,0:0:0:0:
192,192,104170,1,0,0:0:0:0:
64,192,104170,1,0,0:0:0:0:
64,192,104270,1,0,0:0:0:0:
192,192,104270,1,0,0:0:0:0:
320,192,104370,1,0,0:0:0:0:
448,192,104370,1,0,0:0:0:0:
192,192,104436,1,0,0:0:0:0:
64,192,104503,1,0,0:0:0:0:
448,192,104570,1,0,0:0:0:0:
320,192,104636,1,0,0:0:0:0:
192,192,104703,1,0,0:0:0:0:
64,192,104770,1,0,0:0:0:0:
448,192,104770,128,0,104970:0:0:0:0:
320,192,104770,128,0,104836:0:0:0:0:
192,192,104836,128,0,104903:0:0:0:0:
320,192,104903,128,0,104970:0:0:0:0:
192,192,104970,1,0,0:0:0:0:
64,192,104970,128,0,105170:0:0:0:0:
320,192,105036,128,0,105103:0:0:0:0:
192,192,105103,128,0,105170:0:0:0:0:
448,192,105170,128,0,105370:0:0:0:0:
320,192,105170,128,0,105236:0:0:0:0:
64,192,105236,1,0,0:0:0:0:
192,192,105303,1,0,0:0:0:0:
320,192,105370,1,0,0:0:0:0:
64,192,105370,128,0,105503:0:0:0:0:
192,192,105436,128,0,105570:0:0:0:0:
448,192,105503,128,0,105636:0:0:0:0:
320,192,105570,128,0,105703:0:0:0:0:
64,192,105636,128,0,105770:0:0:0:0:
192,192,105703,128,0,105770:0:0:0:0:
448,192,105770,128,0,105970:0:0:0:0:
320,192,105770,128,0,105836:0:0:0:0:
64,192,105836,1,0,0:0:0:0:
192,192,105903,1,0,0:0:0:0:
320,192,105970,1,0,0:0:0:0:
64,192,105970,128,0,106103:0:0:0:0:
192,192,106036,128,0,106103:0:0:0:0:
448,192,106103,128,0,106236:0:0:0:0:
320,192,106103,128,0,106170:0:0:0:0:
192,192,106170,1,0,0:0:0:0:
64,192,106170,128,0,106370:0:0:0:0:
320,192,106236,1,0,0:0:0:0:
192,192,106303,1,0,0:0:0:0:
320,192,106370,128,0,106436:0:0:0:0:
448,192,106436,128,0,106503:0:0:0:0:
192,192,106503,128,0,106570:0:0:0:0:
320,192,106570,1,0,0:0:0:0:
448,192,106570,128,0,106770:0:0:0:0:
64,192,106570,128,0,106636:0:0:0:0:
192,192,106636,128,0,106770:0:0:0:0:
320,192,106703,1,0,0:0:0:0:
64,192,106770,128,0,106970:0:0:0:0:
320,192,106836,1,0,0:0:0:0:
448,192,106903,1,0,0:0:0:0:
192,192,106903,128,0,106970:0:0:0:0:
320,192,106970,128,0,107036:0:0:0:0:
448,192,106970,128,0,107170:0:0:0:0:
192,192,107036,1,0,0:0:0:0:
64,192,107103,1,0,0:0:0:0:
320,192,107170,1,0,0:0:0:0:
192,192,107170,128,0,107236:0:0:0:0:
64,192,107236,128,0,107303:0:0:0:0:
320,192,107303,128,0,107370:0:0:0:0:
192,192,107370,128,0,107436:0:0:0:0:
64,192,107370,128,0,107436:0:0:0:0:
448,192,107370,128,0,107436:0:0:0:0:
320,192,107436,128,0,107503:0:0:0:0:
192,192,107503,128,0,107570:0:0:0:0:
64,192,107570,128,0,107636:0:0:0:0:
320,192,107636,128,0,107703:0:0:0:0:
448,192,107703,128,0,107770:0:0:0:0:
192,192,107770,128,0,107836:0:0:0:0:
64,192,107770,128,0,107836:0:0:0:0:
320,192,107770,128,0,107836:0:0:0:0:
192,192,107903,128,0,107970:0:0:0:0:
448,192,107970,128,0,108370:0:0:0:0:
320,192,108070,128,0,108170:0:0:0:0:
64,192,108170,1,0,0:0:0:0:
192,192,108270,1,0,0:0:0:0:
320,192,108370,1,0,0:0:0:0:
64,192,108436,128,0,108503:0:0:0:0:
192,192,108503,128,0,108570:0:0:0:0:
320,192,108570,128,0,108703:0:0:0:0:
448,192,108570,128,0,108636:0:0:0:0:
64,192,108570,128,0,108636:0:0:0:0:
192,192,108636,128,0,108703:0:0:0:0:
448,192,108703,128,0,108770:0:0:0:0:
192,192,108770,128,0,108970:0:0:0:0:
64,192,108870,1,0,0:0:0:0:
320,192,108970,128,0,109370:0:0:0:0:
448,192,108970,1,0,0:0:0:0:
192,192,109070,128,0,109170:0:0:0:0:
64,192,109170,1,0,0:0:0:0:
192,192,109270,1,0,0:0:0:0:
64,192,109370,128,0,109570:0:0:0:0:
448,192,109370,1,0,0:0:0:0:
192,192,109470,1,0,0:0:0:0:
192,192,109570,128,0,109970:0:0:0:0:
320,192,109570,1,0,0:0:0:0:
448,192,109670,1,0,0:0:0:0:
64,192,109770,128,0,109870:0:0:0:0:
320,192,109770,1,0,0:0:0:0:
320,192,109903,128,0,109970:0:0:0:0:
448,192,109970,128,0,110036:0:0:0:0:
64,192,110036,128,0,110103:0:0:0:0:
192,192,110103,128,0,110170:0:0:0:0:
320,192,110170,128,0,110236:0:0:0:0:
448,192,110170,128,0,110236:0:0:0:0:
64,192,110170,128,0,110236:0:0:0:0:
192,192,110236,128,0,110303:0:0:0:0:
320,192,110303,128,0,110370:0:0:0:0:
448,192,110370,128,0,110436:0:0:0:0:
64,192,110436,128,0,110503:0:0:0:0:
320,192,110503,128,0,110570:0:0:0:0:
192,192,110570,128,0,110636:0:0:0:0:
64,192,110570,128,0,110636:0:0:0:0:
448,192,110570,128,0,110636:0:0:0:0:
320,192,110703,128,0,110770:0:0:0:0:
448,192,110770,128,0,110820:0:0:0:0:
64,192,110836,128,0,110903:0:0:0:0:
192,192,110903,128,0,110970:0:0:0:0:
320,192,110970,128,0,111036:0:0:0:0:
64,192,110970,128,0,111036:0:0:0:0:
448,192,110970,128,0,111036:0:0:0:0:
192,192,111036,128,0,111103:0:0:0:0:
64,192,111120,128,0,111170:0:0:0:0:
320,192,111170,128,0,111220:0:0:0:0:
448,192,111220,128,0,111270:0:0:0:0:
192,192,111270,128,0,111320:0:0:0:0:
64,192,111320,128,0,111370:0:0:0:0:
320,192,111370,128,0,111420:0:0:0:0:
448,192,111420,128,0,111470:0:0:0:0:
64,192,111470,128,0,111520:0:0:0:0:
192,192,111520,128,0,111570:0:0:0:0:
320,192,111570,128,0,111620:0:0:0:0:
448,192,111620,128,0,111670:0:0:0:0:
192,192,111670,128,0,111720:0:0:0:0:
64,192,111720,128,0,111770:0:0:0:0:
448,192,111770,128,0,111820:0:0:0:0:
320,192,111820,128,0,111870:0:0:0:0:
192,192,111870,128,0,111920:0:0:0:0:
64,192,111920,128,0,111970:0:0:0:0:
320,192,111970,128,0,112020:0:0:0:0:
448,192,112020,128,0,112070:0:0:0:0:
64,192,112070,128,0,112120:0:0:0:0:
192,192,112120,128,0,112170:0:0:0:0:
320,192,112170,128,0,112220:0:0:0:0:
448,192,112220,128,0,112270:0:0:0:0:
192,192,112270,128,0,112320:0:0:0:0:
64,192,112320,128,0,112370:0:0:0:0:
320,192,112370,128,0,112420:0:0:0:0:
448,192,112420,128,0,112470:0:0:0:0:
64,192,112470,128,0,112520:0:0:0:0:
192,192,112520,128,0,112570:0:0:0:0:
320,192,112570,128,0,112620:0:0:0:0:
448,192,112620,128,0,112670:0:0:0:0:
192,192,112670,128,0,112720:0:0:0:0:
64,192,112720,128,0,112770:0:0:0:0:
448,192,112770,128,0,112820:0:0:0:0:
320,192,112820,128,0,112870:0:0:0:0:
192,192,112870,128,0,112920:0:0:0:0:
64,192,112920,128,0,112970:0:0:0:0:
320,192,112970,128,0,113020:0:0:0:0:
448,192,113020,128,0,113070:0:0:0:0:
64,192,113070,128,0,113120:0:0:0:0:
192,192,113120,128,0,113170:0:0:0:0:
320,192,113170,128,0,113220:0:0:0:0:
448,192,113220,128,0,113270:0:0:0:0:
192,192,113270,128,0,113320:0:0:0:0:
64,192,113320,128,0,113370:0:0:0:0:
448,192,113370,128,0,113420:0:0:0:0:
320,192,113420,128,0,113470:0:0:0:0:
192,192,113470,128,0,113520:0:0:0:0:
64,192,113520,128,0,113570:0:0:0:0:
320,192,113570,128,0,113620:0:0:0:0:
448,192,113620,128,0,113670:0:0:0:0:
64,192,113670,128,0,113720:0:0:0:0:
192,192,113720,128,0,113770:0:0:0:0:
320,192,113770,128,0,113820:0:0:0:0:
448,192,113820,128,0,113870:0:0:0:0:
64,192,113870,128,0,113920:0:0:0:0:
192,192,113920,128,0,113970:0:0:0:0:
448,192,113970,128,0,114020:0:0:0:0:
320,192,114020,128,0,114070:0:0:0:0:
192,192,114070,128,0,114120:0:0:0:0:
64,192,114120,128,0,114170:0:0:0:0:
448,192,114170,128,0,114220:0:0:0:0:
320,192,114220,128,0,114270:0:0:0:0:
64,192,114270,128,0,114320:0:0:0:0:
192,192,114320,128,0,114370:0:0:0:0:
320,192,114370,1,0,0:0:0:0:
448,192,114370,1,0,0:0:0:0:
192,192,114436,128,0,114503:0:0:0:0:
64,192,114503,128,0,114570:0:0:0:0:
448,192,114570,128,0,114636:0:0:0:0:
320,192,114636,1,0,0:0:0:0:
192,192,114636,1,0,0:0:0:0:
64,192,114703,128,0,114770:0:0:0:0:
320,192,114770,128,0,114836:0:0:0:0:
448,192,114836,128,0,114903:0:0:0:0:
192,192,114903,128,0,114970:0:0:0:0:
64,192,114970,1,0,0:0:0:0:
320,192,114970,128,0,115036:0:0:0:0:
448,192,115036,128,0,115103:0:0:0:0:
192,192,115103,128,0,115170:0:0:0:0:
320,192,115170,128,0,115236:0:0:0:0:
64,192,115236,128,0,115303:0:0:0:0:
448,192,115303,128,0,115370:0:0:0:0:
320,192,115370,128,0,115436:0:0:0:0:
64,192,115436,128,0,115503:0:0:0:0:
192,192,115503,1,0,0:0:0:0:
448,192,115503,1,0,0:0:0:0:
320,192,115570,128,0,115636:0:0:0:0:
192,192,115636,128,0,115703:0:0:0:0:
64,192,115703,128,0,115770:0:0:0:0:
448,192,115770,1,0,0:0:0:0:
320,192,115770,1,0,0:0:0:0:
192,192,115836,128,0,115903:0:0:0:0:
64,192,115903,128,0,115970:0:0:0:0:
320,192,115970,128,0,117570:0:0:0:0:
192,192,115970,1,0,0:0:0:0:
448,192,115970,1,0,0:0:0:0:
64,192,117570,1,0,0:0:0:0:
192,192,117570,1,0,0:0:0:0:
448,192,117570,1,0,0:0:0:0:
64,192,119170,1,0,0:0:0:0:
192,192,119170,1,0,0:0:0:0:
448,192,119170,1,0,0:0:0:0:
320,192,119170,1,0,0:0:0:0:
64,192,120770,1,0,0:0:0:0:
192,192,120770,1,0,0:0:0:0:
320,192,120770,1,0,0:0:0:0:
448,192,120770,1,0,0:0:0:0:
64,192,122370,1,0,0:0:0:0:
320,192,122370,1,0,0:0:0:0:
448,192,122370,1,0,0:0:0:0:
192,192,122370,1,0,0:0:0:0:
192,192,122770,1,0,0:0:0:0:
64,192,122970,1,0,0:0:0:0:
192,192,123036,1,0,0:0:0:0:
320,192,123103,1,0,0:0:0:0:
448,192,123170,1,0,0:0:0:0:
64,192,123170,1,0,0:0:0:0:
192,192,123470,1,0,0:0:0:0:
320,192,123770,1,0,0:0:0:0:
64,192,123970,1,0,0:0:0:0:
192,192,123970,1,0,0:0:0:0:
448,192,123970,1,0,0:0:0:0:
320,192,124070,1,0,0:0:0:0:
320,192,124170,1,0,0:0:0:0:
192,192,124270,1,0,0:0:0:0:
192,192,124370,1,0,0:0:0:0:
448,192,124470,1,0,0:0:0:0:
448,192,124570,1,0,0:0:0:0:
320,192,124670,1,0,0:0:0:0:
320,192,124770,1,0,0:0:0:0:
192,192,124870,1,0,0:0:0:0:
192,192,124970,1,0,0:0:0:0:
320,192,125070,1,0,0:0:0:0:
64,192,125170,1,0,0:0:0:0:
448,192,125170,1,0,0:0:0:0:
320,192,125270,1,0,0:0:0:0:
320,192,125370,1,0,0:0:0:0:
192,192,125370,1,0,0:0:0:0:
192,192,125470,1,0,0:0:0:0:
64,192,125570,1,0,0:0:0:0:
448,192,125570,1,0,0:0:0:0:
320,192,125670,1,0,0:0:0:0:
192,192,125670,1,0,0:0:0:0:
64,192,125770,1,0,0:0:0:0:
192,192,125770,1,0,0:0:0:0:
320,192,125870,1,0,0:0:0:0:
448,192,125870,1,0,0:0:0:0:
192,192,125970,1,0,0:0:0:0:
64,192,125970,1,0,0:0:0:0:
320,192,126070,1,0,0:0:0:0:
192,192,126070,1,0,0:0:0:0:
448,192,126170,1,0,0:0:0:0:
64,192,126170,1,0,0:0:0:0:
320,192,126270,1,0,0:0:0:0:
64,192,126270,1,0,0:0:0:0:
192,192,126370,1,0,0:0:0:0:
448,192,126370,1,0,0:0:0:0:
320,192,126470,1,0,0:0:0:0:
192,192,126470,1,0,0:0:0:0:
320,192,126570,1,0,0:0:0:0:
448,192,126570,1,0,0:0:0:0:
192,192,126670,1,0,0:0:0:0:
64,192,126670,1,0,0:0:0:0:
320,192,126770,1,0,0:0:0:0:
192,192,126770,1,0,0:0:0:0:
320,192,126870,1,0,0:0:0:0:
448,192,126870,1,0,0:0:0:0:
64,192,126970,1,0,0:0:0:0:
192,192,126970,1,0,0:0:0:0:
320,192,127070,1,0,0:0:0:0:
192,192,127070,1,0,0:0:0:0:
64,192,127170,1,0,0:0:0:0:
320,192,127170,1,0,0:0:0:0:
448,192,127170,1,0,0:0:0:0:
64,192,127470,1,0,0:0:0:0:
448,192,127470,1,0,0:0:0:0:
192,192,127470,1,0,0:0:0:0:
192,192,127770,1,0,0:0:0:0:
320,192,127770,1,0,0:0:0:0:
64,192,127770,1,0,0:0:0:0:
192,192,127970,1,0,0:0:0:0:
320,192,127970,1,0,0:0:0:0:
448,192,127970,1,0,0:0:0:0:
64,192,128170,1,0,0:0:0:0:
192,192,128170,1,0,0:0:0:0:
448,192,128270,1,0,0:0:0:0:
320,192,128270,1,0,0:0:0:0:
192,192,128370,1,0,0:0:0:0:
320,192,128570,1,0,0:0:0:0:
448,192,128570,1,0,0:0:0:0:
320,192,128670,1,0,0:0:0:0:
448,192,128670,1,0,0:0:0:0:
192,192,128770,1,0,0:0:0:0:
64,192,128770,1,0,0:0:0:0:
448,192,128770,1,0,0:0:0:0:
192,192,129370,1,0,0:0:0:0:
64,192,129370,1,0,0:0:0:0:
320,192,129420,1,0,0:0:0:0:
448,192,129420,1,0,0:0:0:0:
192,192,129470,1,0,0:0:0:0:
64,192,129470,1,0,0:0:0:0:
320,192,129520,1,0,0:0:0:0:
448,192,129520,1,0,0:0:0:0:
192,192,129570,1,0,0:0:0:0:
64,192,129570,1,0,0:0:0:0:
192,192,129870,1,0,0:0:0:0:
320,192,129870,1,0,0:0:0:0:
448,192,129870,1,0,0:0:0:0:
64,192,130070,1,0,0:0:0:0:
192,192,130070,1,0,0:0:0:0:
320,192,130170,1,0,0:0:0:0:
448,192,130170,1,0,0:0:0:0:
320,192,130270,1,0,0:0:0:0:
448,192,130270,1,0,0:0:0:0:
448,192,130370,128,0,130470:0:0:0:0:
64,192,130370,128,0,130570:0:0:0:0:
192,192,130370,1,0,0:0:0:0:
192,192,130470,128,0,130670:0:0:0:0:
320,192,130570,128,0,130670:0:0:0:0:
448,192,130570,128,0,130770:0:0:0:0:
64,192,130670,128,0,130770:0:0:0:0:
192,192,130770,128,0,130870:0:0:0:0:
320,192,130770,128,0,130970:0:0:0:0:
448,192,130870,128,0,131070:0:0:0:0:
64,192,130970,128,0,131070:0:0:0:0:
192,192,130970,128,0,131070:0:0:0:0:
320,192,131070,128,0,131170:0:0:0:0:
64,192,131170,128,0,131270:0:0:0:0:
192,192,131170,128,0,131270:0:0:0:0:
448,192,131170,128,0,131370:0:0:0:0:
320,192,131270,128,0,131370:0:0:0:0:
192,192,131370,128,0,131570:0:0:0:0:
64,192,131370,128,0,131470:0:0:0:0:
448,192,131470,128,0,131670:0:0:0:0:
320,192,131470,1,0,0:0:0:0:
64,192,131570,128,0,131770:0:0:0:0:
320,192,131570,128,0,131670:0:0:0:0:
192,192,131670,128,0,131770:0:0:0:0:
320,192,131770,128,0,131870:0:0:0:0:
448,192,131770,128,0,131970:0:0:0:0:
192,192,131870,1,0,0:0:0:0:
64,192,131870,128,0,131970:0:0:0:0:
192,192,131970,128,0,132070:0:0:0:0:
320,192,131970,128,0,132170:0:0:0:0:
64,192,132070,1,0,0:0:0:0:
448,192,132070,1,0,0:0:0:0:
192,192,132170,1,0,0:0:0:0:
64,192,132170,128,0,132370:0:0:0:0:
448,192,132170,128,0,132270:0:0:0:0:
320,192,132270,1,0,0:0:0:0:
192,192,132270,128,0,132370:0:0:0:0:
320,192,132370,128,0,132570:0:0:0:0:
448,192,132370,1,0,0:0:0:0:
192,192,132470,1,0,0:0:0:0:
64,192,132470,128,0,132570:0:0:0:0:
192,192,132570,128,0,132770:0:0:0:0:
448,192,132570,1,0,0:0:0:0:
64,192,132670,128,0,132770:0:0:0:0:
320,192,132670,1,0,0:0:0:0:
320,192,132770,128,0,132870:0:0:0:0:
448,192,132770,128,0,132970:0:0:0:0:
64,192,132870,128,0,133070:0:0:0:0:
192,192,132870,128,0,132970:0:0:0:0:
320,192,132970,128,0,133070:0:0:0:0:
192,192,133070,128,0,133170:0:0:0:0:
448,192,133070,128,0,133270:0:0:0:0:
320,192,133170,128,0,133270:0:0:0:0:
64,192,133170,128,0,133370:0:0:0:0:
192,192,133270,128,0,133470:0:0:0:0:
320,192,133370,128,0,133470:0:0:0:0:
448,192,133370,128,0,133570:0:0:0:0:
64,192,133470,128,0,133670:0:0:0:0:
320,192,133570,128,0,133770:0:0:0:0:
192,192,133570,128,0,133670:0:0:0:0:
448,192,133670,128,0,133870:0:0:0:0:
64,192,133770,128,0,133870:0:0:0:0:
192,192,133770,128,0,133970:0:0:0:0:
320,192,133870,128,0,134070:0:0:0:0:
448,192,133970,128,0,134070:0:0:0:0:
64,192,133970,128,0,134170:0:0:0:0:
192,192,134070,128,0,134270:0:0:0:0:
448,192,134170,128,0,134270:0:0:0:0:
320,192,134170,128,0,134370:0:0:0:0:
64,192,134270,128,0,134470:0:0:0:0:
192,192,134370,128,0,134470:0:0:0:0:
448,192,134370,128,0,134570:0:0:0:0:
320,192,134470,128,0,134570:0:0:0:0:
192,192,134570,128,0,134770:0:0:0:0:
64,192,134570,1,0,0:0:0:0:
320,192,134670,128,0,134870:0:0:0:0:
448,192,134670,1,0,0:0:0:0:
448,192,134770,128,0,134870:0:0:0:0:
64,192,134770,128,0,134970:0:0:0:0:
192,192,134870,128,0,135070:0:0:0:0:
320,192,134970,128,0,135170:0:0:0:0:
448,192,134970,128,0,135170:0:0:0:0:
64,192,135070,1,0,0:0:0:0:
64,192,135170,128,0,135570:0:0:0:0:
192,192,135170,128,0,135270:0:0:0:0:
320,192,135270,1,0,0:0:0:0:
192,192,135370,1,0,0:0:0:0:
448,192,135370,1,0,0:0:0:0:
320,192,135470,128,0,135570:0:0:0:0:
448,192,135570,128,0,135670:0:0:0:0:
192,192,135570,1,0,0:0:0:0:
320,192,135670,128,0,135770:0:0:0:0:
192,192,135770,128,0,135870:0:0:0:0:
64,192,135770,128,0,135970:0:0:0:0:
320,192,135870,1,0,0:0:0:0:
448,192,135870,128,0,135970:0:0:0:0:
192,192,135970,128,0,136070:0:0:0:0:
320,192,136070,1,0,0:0:0:0:
448,192,136170,1,0,0:0:0:0:
192,192,136170,128,0,136370:0:0:0:0:
320,192,136270,128,0,136370:0:0:0:0:
64,192,136270,1,0,0:0:0:0:
448,192,136370,128,0,136470:0:0:0:0:
64,192,136370,128,0,136470:0:0:0:0:
192,192,136470,1,0,0:0:0:0:
64,192,136570,1,0,0:0:0:0:
320,192,136570,128,0,136670:0:0:0:0:
448,192,136570,1,0,0:0:0:0:
192,192,136670,128,0,136770:0:0:0:0:
448,192,136770,128,0,136970:0:0:0:0:
64,192,136770,1,0,0:0:0:0:
320,192,136870,128,0,137070:0:0:0:0:
192,192,136970,1,0,0:0:0:0:
64,192,136970,128,0,137170:0:0:0:0:
448,192,137070,128,0,137170:0:0:0:0:
192,192,137170,128,0,137270:0:0:0:0:
320,192,137170,128,0,137370:0:0:0:0:
64,192,137270,128,0,137470:0:0:0:0:
448,192,137370,128,0,137570:0:0:0:0:
192,192,137370,128,0,137470:0:0:0:0:
320,192,137470,128,0,137670:0:0:0:0:
64,192,137570,128,0,137670:0:0:0:0:
192,192,137570,128,0,137770:0:0:0:0:
448,192,137670,1,0,0:0:0:0:
320,192,137770,128,0,137870:0:0:0:0:
64,192,137770,128,0,137970:0:0:0:0:
448,192,137870,128,0,137970:0:0:0:0:
192,192,137870,1,0,0:0:0:0:
320,192,137970,128,0,138170:0:0:0:0:
192,192,137970,128,0,138070:0:0:0:0:
64,192,138070,128,0,138270:0:0:0:0:
448,192,138070,1,0,0:0:0:0:
192,192,138170,128,0,138270:0:0:0:0:
448,192,138170,128,0,138370:0:0:0:0:
320,192,138270,128,0,138370:0:0:0:0:
64,192,138370,128,0,138570:0:0:0:0:
192,192,138370,1,0,0:0:0:0:
320,192,138470,1,0,0:0:0:0:
192,192,138570,1,0,0:0:0:0:
448,192,138570,1,0,0:0:0:0:
320,192,138670,1,0,0:0:0:0:
64,192,138770,1,0,0:0:0:0:
192,192,138770,1,0,0:0:0:0:
448,192,138770,1,0,0:0:0:0:
320,192,138870,1,0,0:0:0:0:
192,192,138970,1,0,0:0:0:0:
64,192,138970,1,0,0:0:0:0:
320,192,139020,1,0,0:0:0:0:
448,192,139020,1,0,0:0:0:0:
192,192,139070,1,0,0:0:0:0:
64,192,139070,1,0,0:0:0:0:
320,192,139120,1,0,0:0:0:0:
448,192,139120,1,0,0:0:0:0:
192,192,139170,1,0,0:0:0:0:
64,192,139170,1,0,0:0:0:0:
192,192,139470,1,0,0:0:0:0:
320,192,139470,1,0,0:0:0:0:
448,192,139470,1,0,0:0:0:0:
192,192,139770,1,0,0:0:0:0:
64,192,139770,1,0,0:0:0:0:
448,192,139770,1,0,0:0:0:0:
320,192,139970,1,0,0:0:0:0:
448,192,139970,1,0,0:0:0:0:
64,192,139970,1,0,0:0:0:0:
192,192,139970,128,0,140270:0:0:0:0:
320,192,140270,128,0,140570:0:0:0:0:
448,192,140570,128,0,141170:0:0:0:0:
320,192,140970,1,0,0:0:0:0:
192,192,141020,1,0,0:0:0:0:
64,192,141070,1,0,0:0:0:0:
192,192,141120,1,0,0:0:0:0:
320,192,141170,128,0,141370:0:0:0:0:
192,192,141370,128,0,141570:0:0:0:0:
64,192,141570,1,0,0:0:0:0:
448,192,141570,1,0,0:0:0:0:
320,192,141670,128,0,141720:0:0:0:0:
192,192,141770,128,0,141820:0:0:0:0:
192,192,141870,128,0,141920:0:0:0:0:
320,192,141970,1,0,0:0:0:0:
448,192,141970,1,0,0:0:0:0:
64,192,142070,128,0,142120:0:0:0:0:
320,192,142170,128,0,142220:0:0:0:0:
192,192,142270,128,0,142320:0:0:0:0:
64,192,142370,1,0,0:0:0:0:
448,192,142370,1,0,0:0:0:0:
320,192,142470,128,0,142520:0:0:0:0:
320,192,142570,128,0,142620:0:0:0:0:
448,192,142670,128,0,142720:0:0:0:0:
192,192,142770,1,0,0:0:0:0:
64,192,142770,1,0,0:0:0:0:
320,192,142870,128,0,142920:0:0:0:0:
320,192,142970,128,0,143020:0:0:0:0:
192,192,143070,128,0,143120:0:0:0:0:
448,192,143170,1,0,0:0:0:0:
64,192,143170,1,0,0:0:0:0:
320,192,143270,128,0,143320:0:0:0:0:
192,192,143370,128,0,143420:0:0:0:0:
192,192,143470,128,0,143520:0:0:0:0:
448,192,143570,1,0,0:0:0:0:
320,192,143570,1,0,0:0:0:0:
64,192,143670,128,0,143720:0:0:0:0:
64,192,143770,128,0,143820:0:0:0:0:
448,192,143870,128,0,143920:0:0:0:0:
192,192,143970,1,0,0:0:0:0:
320,192,143970,1,0,0:0:0:0:
320,192,144070,128,0,144120:0:0:0:0:
320,192,144170,128,0,144220:0:0:0:0:
192,192,144270,128,0,144320:0:0:0:0:
448,192,144370,1,0,0:0:0:0:
64,192,144370,1,0,0:0:0:0:
320,192,144470,128,0,144670:0:0:0:0:
192,192,144470,128,0,144670:0:0:0:0:
448,192,144770,1,0,0:0:0:0:
192,192,144770,1,0,0:0:0:0:
64,192,144770,1,0,0:0:0:0:
64,192,144870,128,0,144920:0:0:0:0:
192,192,144870,128,0,144920:0:0:0:0:
320,192,144970,128,0,145020:0:0:0:0:
448,192,144970,128,0,145020:0:0:0:0:
320,192,145070,128,0,145120:0:0:0:0:
192,192,145070,128,0,145120:0:0:0:0:
64,192,145170,1,0,0:0:0:0:
448,192,145170,1,0,0:0:0:0:
448,192,145270,128,0,145320:0:0:0:0:
320,192,145270,128,0,145320:0:0:0:0:
64,192,145370,128,0,145420:0:0:0:0:
192,192,145370,128,0,145420:0:0:0:0:
320,192,145470,128,0,145520:0:0:0:0:
448,192,145470,128,0,145520:0:0:0:0:
192,192,145570,1,0,0:0:0:0:
64,192,145570,1,0,0:0:0:0:
192,192,145670,128,0,145720:0:0:0:0:
64,192,145670,128,0,145720:0:0:0:0:
320,192,145770,128,0,145820:0:0:0:0:
448,192,145770,128,0,145820:0:0:0:0:
192,192,145870,128,0,145920:0:0:0:0:
64,192,145870,128,0,145920:0:0:0:0:
320,192,145970,1,0,0:0:0:0:
448,192,145970,1,0,0:0:0:0:
192,192,146070,128,0,146120:0:0:0:0:
64,192,146070,128,0,146120:0:0:0:0:
192,192,146170,128,0,146220:0:0:0:0:
320,192,146170,128,0,146220:0:0:0:0:
448,192,146270,128,0,146320:0:0:0:0:
320,192,146270,128,0,146320:0:0:0:0:
64,192,146370,1,0,0:0:0:0:
192,192,146370,1,0,0:0:0:0:
192,192,146470,128,0,146520:0:0:0:0:
448,192,146470,128,0,146520:0:0:0:0:
320,192,146570,128,0,146620:0:0:0:0:
64,192,146570,128,0,146620:0:0:0:0:
320,192,146670,128,0,146720:0:0:0:0:
192,192,146670,128,0,146720:0:0:0:0:
64,192,146770,1,0,0:0:0:0:
448,192,146770,1,0,0:0:0:0:
192,192,146870,1,0,0:0:0:0:
320,192,146970,1,0,0:0:0:0:
448,192,146970,1,0,0:0:0:0:
192,192,147070,1,0,0:0:0:0:
64,192,147070,1,0,0:0:0:0:
320,192,147170,1,0,0:0:0:0:
448,192,147170,1,0,0:0:0:0:
64,192,147170,1,0,0:0:0:0:
320,192,147270,1,0,0:0:0:0:
192,192,147270,1,0,0:0:0:0:
64,192,147370,1,0,0:0:0:0:
448,192,147370,1,0,0:0:0:0:
192,192,147470,1,0,0:0:0:0:
320,192,147470,1,0,0:0:0:0:
192,192,147570,1,0,0:0:0:0:
64,192,147570,1,0,0:0:0:0:
64,192,147670,1,0,0:0:0:0:
192,192,147670,1,0,0:0:0:0:
64,192,147770,1,0,0:0:0:0:
192,192,147770,1,0,0:0:0:0:
64,192,147870,1,0,0:0:0:0:
192,192,147870,1,0,0:0:0:0:
