osu file format v14

[General]
AudioFilename: Moon Hooch - Growing Up.mp3
AudioLeadIn: 0
PreviewTime: 157938
Countdown: 1
SampleSet: Normal
StackLeniency: 0.7
Mode: 1
LetterboxInBreaks: 0
WidescreenStoryboard: 0

[Editor]
DistanceSpacing: 2
BeatDivisor: 12
GridSize: 32
TimelineZoom: 2.999999

[Metadata]
Title:Growing Up
TitleUnicode:Growing Up
Artist:Moon Hooch
ArtistUnicode:Moon Hooch
Creator:-[ ix Ishida xi ]-
Version:-[ ix Taiko xi ]-
Source:
Tags:
BeatmapID:1618627
BeatmapSetID:769819

[Difficulty]
HPDrainRate:5
CircleSize:5
OverallDifficulty:5
ApproachRate:5
SliderMultiplier:1.4
SliderTickRate:1

[Events]
//Background and Video events
0,0,"217481.jpg",0,0
//Break Periods
//Storyboard Layer 0 (Background)
//Storyboard Layer 1 (Fail)
//Storyboard Layer 2 (Pass)
//Storyboard Layer 3 (Foreground)
//Storyboard Sound Samples

[TimingPoints]
130,410.958904109589,4,1,0,70,1,0
130,-83.3333333333333,4,1,0,70,0,0
12356,-81.3008130081301,4,1,0,70,0,0
12407,-80.6451612903226,4,1,0,70,0,0
12458,-80,4,1,0,70,0,0
12561,-78.125,4,1,0,70,0,0
12664,-76.3358778625954,4,1,0,70,0,0
12766,-74.6268656716418,4,1,0,70,0,0
12869,-72.992700729927,4,1,0,70,0,0
12972,-71.4285714285714,4,1,0,70,0,0
13075,-69.9300699300699,4,1,0,70,0,0
13177,-68.4931506849315,4,1,0,70,0,0
13280,-66.6666666666667,4,1,0,70,0,0
18911,-65.359477124183,4,1,0,40,0,0
18962,-64.9350649350649,4,1,0,55,0,0
19014,-64.5161290322581,4,1,0,70,0,0
19116,-63.2911392405063,4,1,0,70,0,0
19219,-62.111801242236,4,1,0,70,0,0
19322,-60.9756097560976,4,1,0,70,0,0
19425,-59.8802395209581,4,1,0,70,0,0
21859,-50,4,1,0,70,0,0
22527,-33.3333333333333,4,1,0,70,0,0
22681,-50,4,1,0,70,0,0
22784,-52.6315789473684,4,1,0,70,0,0
22886,-55.5555555555556,4,1,0,70,0,0
22989,-58.8235294117647,4,1,0,70,0,0
23092,-62.5,4,1,0,70,0,0
23195,-67.5675675675676,4,1,0,35,0,0
23451,-68.4931506849315,4,1,0,70,0,0
23657,-69.4444444444444,4,1,0,35,0,0
23862,-70.4225352112676,4,1,0,70,0,0
24068,-71.4285714285714,4,1,0,35,0,0
24273,-72.463768115942,4,1,0,70,0,0
24479,-73.5294117647059,4,1,0,35,0,0
24684,-74.6268656716418,4,1,0,70,0,0
24890,-75.7575757575758,4,1,0,35,0,0
25095,-76.9230769230769,4,1,0,70,0,0
25301,-78.125,4,1,0,60,0,0
25506,-79.3650793650794,4,1,0,70,0,0
25712,-80.6451612903226,4,1,0,35,0,0
25917,-83.3333333333333,4,1,0,50,0,0
26071,-80,4,1,0,65,0,0
26174,-76.9230769230769,4,1,0,80,0,0
26277,-74.0740740740741,4,1,0,95,0,0
26379,-71.4285714285714,4,1,0,100,0,0
26431,-71.4285714285714,4,1,0,100,0,0
26534,-66.6666666666667,4,1,0,70,0,0
49650,-71.4285714285714,4,1,0,70,0,0
49753,-72.992700729927,4,1,0,70,0,0
49856,-74.6268656716418,4,1,0,70,0,0
50061,-83.3333333333333,4,1,0,70,0,0
50266,-86.9565217391304,4,1,0,70,0,0
50472,-90.9090909090909,4,1,0,70,0,0
50677,-95.2380952380952,4,1,0,70,0,0
50883,-100,4,1,0,70,0,0
51088,-100,4,1,0,70,0,0
51191,-97.0873786407767,4,1,0,70,0,0
51294,-94.3396226415094,4,1,0,70,0,0
51397,-91.743119266055,4,1,0,70,0,0
51499,-89.2857142857143,4,1,0,70,0,0
51602,-86.9565217391304,4,1,0,70,0,0
51705,-84.7457627118644,4,1,0,70,0,0
51808,-82.6446280991736,4,1,0,70,0,0
51910,-80.6451612903226,4,1,0,70,0,0
51979,-79.3650793650794,4,1,0,70,0,0
52047,-78.125,4,1,0,70,0,0
52116,-76.9230769230769,4,1,0,70,0,0
52184,-75.7575757575758,4,1,0,70,0,0
52253,-74.6268656716418,4,1,0,70,0,0
52321,-73.5294117647059,4,1,0,70,0,0
52424,-71.4285714285714,4,1,0,70,0,0
52527,-69.9300699300699,4,1,0,70,0,0
52629,-68.4931506849315,4,1,0,70,0,0
52732,-66.6666666666667,4,1,0,70,0,1
57732,-66.6666666666667,4,3,0,5,0,1
57921,-66.6666666666667,4,1,0,70,0,1
58023,-66.6666666666667,4,3,0,5,0,1
58177,-66.6666666666667,4,1,0,70,0,1
67595,-66.6666666666667,4,3,0,5,0,1
67784,-66.6666666666667,4,1,0,70,0,1
67886,-66.6666666666667,4,3,0,5,0,1
68040,-66.6666666666667,4,1,0,70,0,1
79034,-76.9230769230769,4,1,0,70,0,0
79136,-83.3333333333333,4,1,0,40,0,0
85130,-83.3333333333333,4,1,0,100,0,0
85266,-83.3333333333333,4,1,0,50,0,0
91705,-83.3333333333333,4,1,0,100,0,0
91842,-83.3333333333333,4,1,0,5,0,0
92133,-66.6666666666667,4,1,0,80,0,0
92236,-100,4,1,0,50,0,0
92544,-66.6666666666667,4,1,0,80,0,0
92647,-100,4,1,0,50,0,0
92955,-66.6666666666667,4,1,0,80,0,0
93058,-83.3333333333333,4,1,0,50,0,0
93366,-66.6666666666667,4,1,0,80,0,0
93469,-83.3333333333333,4,1,0,50,0,0
93777,-66.6666666666667,4,1,0,80,0,0
93880,-83.3333333333333,4,1,0,50,0,0
94188,-66.6666666666667,4,1,0,80,0,0
94291,-83.3333333333333,4,1,0,50,0,0
94616,-66.6666666666667,4,1,0,80,0,0
94719,-83.3333333333333,4,1,0,50,0,0
95010,-66.6666666666667,4,1,0,80,0,0
95113,-83.3333333333333,4,1,0,50,0,0
95421,-66.6666666666667,4,1,0,80,0,0
95524,-83.3333333333333,4,1,0,50,0,0
95832,-66.6666666666667,4,1,0,80,0,0
95935,-83.3333333333333,4,1,0,50,0,0
96260,-66.6666666666667,4,1,0,80,0,0
96363,-83.3333333333333,4,1,0,50,0,0
96653,-66.6666666666667,4,1,0,80,0,0
96756,-83.3333333333333,4,1,0,50,0,0
97064,-66.6666666666667,4,1,0,80,0,0
97167,-83.3333333333333,4,1,0,50,0,0
97475,-66.6666666666667,4,1,0,80,0,0
97578,-83.3333333333333,4,1,0,50,0,0
98708,-66.6666666666667,4,1,0,80,0,0
98811,-83.3333333333333,4,1,0,50,0,0
99119,-66.6666666666667,4,1,0,80,0,0
99222,-83.3333333333333,4,1,0,50,0,0
99547,-66.6666666666667,4,1,0,80,0,0
99650,-83.3333333333333,4,1,0,50,0,0
99941,-66.6666666666667,4,1,0,80,0,0
100044,-83.3333333333333,4,1,0,50,0,0
100352,-66.6666666666667,4,1,0,80,0,0
100455,-83.3333333333333,4,1,0,50,0,0
100763,-66.6666666666667,4,1,0,80,0,0
100866,-83.3333333333333,4,1,0,50,0,0
101191,-66.6666666666667,4,1,0,80,0,0
101294,-83.3333333333333,4,1,0,50,0,0
101585,-66.6666666666667,4,1,0,80,0,0
101688,-83.3333333333333,4,1,0,50,0,0
101996,-66.6666666666667,4,1,0,80,0,0
102099,-83.3333333333333,4,1,0,50,0,0
102424,-66.6666666666667,4,1,0,80,0,0
102527,-68.9655172413793,4,1,0,50,0,0
102664,-71.4285714285714,4,1,0,50,0,0
102869,-74.0740740740741,4,1,0,50,0,0
103075,-76.9230769230769,4,1,0,50,0,0
103280,-80,4,1,0,50,0,0
103486,-83.3333333333333,4,1,0,50,0,0
103691,-86.9565217391304,4,1,0,50,0,0
104102,-90.9090909090909,4,1,0,50,0,0
104513,-90.9090909090909,4,1,0,50,0,0
104616,-86.9565217391304,4,1,0,50,0,0
104719,-83.3333333333333,4,1,0,50,0,0
104821,-80,4,1,0,50,0,0
104924,-76.9230769230769,4,1,0,50,0,0
105027,-74.0740740740741,4,1,0,50,0,0
105129,-71.4285714285714,4,1,0,50,0,0
105232,-68.9655172413793,4,1,0,60,0,0
105335,-66.6666666666667,4,1,0,70,0,1
123469,-66.6666666666667,4,3,0,5,0,1
123658,-66.6666666666667,4,1,0,70,0,1
123760,-66.6666666666667,4,3,0,5,0,1
123914,-66.6666666666667,4,1,0,70,0,1
131636,-66.6666666666667,4,1,0,70,0,0
131842,-83.3333333333333,4,1,0,70,0,0
134616,-83.3333333333333,4,1,0,5,0,0
135027,-83.3333333333333,4,1,0,70,0,0
141191,-83.3333333333333,4,1,0,5,0,0
141602,-83.3333333333333,4,1,0,70,0,0
144016,-81.3008130081301,4,1,0,50,0,0
144119,-80.6451612903226,4,1,0,50,0,0
144171,-80,4,1,0,50,0,0
144273,-78.125,4,1,0,50,0,0
144376,-76.3358778625954,4,1,0,50,0,0
144479,-74.6268656716418,4,1,0,50,0,0
144582,-72.992700729927,4,1,0,50,0,0
144633,-72.463768115942,4,1,0,50,0,0
144684,-71.9424460431655,4,1,0,50,0,0
144736,-70.4225352112676,4,1,0,70,0,0
144993,-69.4444444444444,4,1,0,70,0,0
145403,-68.4931506849315,4,1,0,70,0,0
147047,-67.5675675675676,4,1,0,70,0,0
151362,-50,4,1,0,70,0,0
151568,-54.054054054054,4,1,0,70,0,0
151773,-58.8235294117647,4,1,0,70,0,0
151979,-64.5161290322581,4,1,0,70,0,0
152184,-71.4285714285714,4,1,0,70,0,0
152390,-80,4,1,0,70,0,0
152595,-90.9090909090909,4,1,0,70,0,0
152801,-105.263157894737,4,1,0,70,0,0
153006,-125,4,1,0,70,0,0
153212,-105.263157894737,4,1,0,70,0,0
153417,-90.9090909090909,4,1,0,70,0,0
153623,-80,4,1,0,70,0,0
153824,-71.4285714285714,4,1,0,70,0,0
154029,-64.5161290322581,4,1,0,70,0,0
154235,-58.8235294117647,4,1,0,70,0,0
154440,-54.054054054054,4,1,0,70,0,0
154646,-50,4,1,0,70,0,0
154753,-52.6315789473684,4,1,0,70,0,0
154856,-55.5555555555556,4,1,0,70,0,0
154958,-58.8235294117647,4,1,0,70,0,0
155061,-62.5,4,1,0,70,0,0
155164,-66.6666666666667,4,1,0,70,0,0
155266,-62.5,4,1,0,70,0,0
155369,-66.6666666666667,4,1,0,70,0,0
155472,-52.6315789473684,4,1,0,70,0,0
155575,-55.5555555555556,4,1,0,70,0,0
155677,-58.8235294117647,4,1,0,70,0,0
155780,-62.5,4,1,0,70,0,0
155883,-66.6666666666667,4,1,0,70,0,0
155986,-58.8235294117647,4,1,0,70,0,0
156088,-62.5,4,1,0,70,0,0
156191,-66.6666666666667,4,1,0,70,0,0
156294,-62.5,4,1,0,70,0,0
156397,-66.6666666666667,4,1,0,70,0,0
156499,-62.5,4,1,0,70,0,0
156602,-66.6666666666667,4,1,0,70,0,0
156705,-64.5161290322581,4,1,0,70,0,0
156756,-66.6666666666667,4,1,0,70,0,0
156808,-58.1395348837209,4,1,0,70,0,0
156859,-59.8802395209581,4,1,0,70,0,0
156910,-61.7283950617284,4,1,0,70,0,0
156962,-63.6942675159236,4,1,0,70,0,0
157047,-66.6666666666667,4,1,0,70,0,0
157116,-58.8235294117647,4,1,0,70,0,0
157184,-62.5,4,1,0,70,0,0
157253,-66.6666666666667,4,1,0,70,0,0
157321,-58.8235294117647,4,1,0,70,0,0
157390,-62.5,4,1,0,70,0,0
157458,-66.6666666666667,4,1,0,70,0,0
157527,-58.8235294117647,4,1,0,70,0,0
157595,-62.5,4,1,0,70,0,0
157664,-66.6666666666667,4,1,0,70,0,0
157732,-55.5555555555556,4,1,0,70,0,0
157801,-58.8235294117647,4,1,0,70,0,0
157869,-62.5,4,1,0,70,0,0
157938,-66.6666666666667,4,1,0,70,0,1
162921,-66.6666666666667,4,3,0,5,0,1
163110,-66.6666666666667,4,1,0,70,0,1
163212,-66.6666666666667,4,3,0,5,0,1
163426,-66.6666666666667,4,1,0,70,0,1
171067,410.958904109589,4,1,0,70,1,1
171067,-66.6666666666667,4,1,0,70,0,1
171088,410.958904109589,4,1,0,70,1,9
171088,-66.6666666666667,4,1,0,70,0,9
172703,410.958904109589,4,1,0,70,1,1
172703,-66.6666666666667,4,1,0,70,0,1
172732,410.958904109589,4,1,0,70,1,9
172732,-66.6666666666667,4,1,0,70,0,9
176071,-66.6666666666667,4,3,0,5,0,1
176260,-66.6666666666667,4,1,0,70,0,1
176362,-66.6666666666667,4,3,0,5,0,1
176556,-66.6666666666667,4,1,0,70,0,1
180951,-66.6666666666667,4,1,0,70,0,1
181156,-68.0272108843537,4,1,0,70,0,1
181259,-68.4931506849315,4,1,0,70,0,1
181362,-68.9655172413793,4,1,0,70,0,1
181567,-70.4225352112676,4,1,0,70,0,1
181773,-71.9424460431655,4,1,0,70,0,1
181978,-73.5294117647059,4,1,0,70,0,1
182184,-75.187969924812,4,1,0,70,0,1
182389,-76.9230769230769,4,1,0,70,0,1
182595,-78.7401574803149,4,1,0,70,0,1
182697,-79.3650793650794,4,1,0,70,0,1
182800,-80,4,1,0,70,0,1
182903,-80.6451612903226,4,1,0,70,0,1
183005,-81.3008130081301,4,1,0,70,0,1
183108,-81.9672131147541,4,1,0,70,0,1
183211,-82.6446280991736,4,1,0,70,0,1
183314,-83.3333333333333,4,1,0,70,0,1
183416,-84.0336134453781,4,1,0,70,0,1
183485,-84.7457627118644,4,1,0,70,0,1
183553,-85.4700854700855,4,1,0,70,0,1
183622,-86.2068965517241,4,1,0,70,0,1
183690,-86.9565217391304,4,1,0,70,0,1
183759,-87.719298245614,4,1,0,70,0,1
183810,-88.4955752212389,4,1,0,70,0,1
183930,-89.2857142857143,4,1,0,70,0,1
184033,-90.0900900900901,4,1,0,70,0,1
184136,-90.9090909090909,4,1,0,70,0,1
184238,-91.743119266055,4,1,0,70,0,1
187937,-91.743119266055,4,1,0,70,0,0

[HitObjects]
160,96,130,5,8,0:0:0:0:
384,160,335,1,0,0:0:0:0:
384,160,403,1,0,0:0:0:0:
384,160,472,1,0,0:0:0:0:
384,160,540,1,8,0:0:0:0:
288,64,746,1,0,0:0:0:0:
320,64,1157,1,0,0:0:0:0:
320,96,1362,1,8,0:0:0:0:
416,128,1568,1,0,0:0:0:0:
384,160,1671,1,0,0:0:0:0:
384,160,1773,1,8,0:0:0:0:
448,128,1979,1,0,0:0:0:0:
448,128,2047,1,0,0:0:0:0:
448,128,2116,1,0,0:0:0:0:
448,128,2184,1,8,0:0:0:0:
448,128,2390,1,0,0:0:0:0:
448,128,2801,1,0,0:0:0:0:
448,128,3006,1,8,0:0:0:0:
448,128,3212,1,0,0:0:0:0:
384,128,3314,1,0,0:0:0:0:
384,128,3417,1,8,0:0:0:0:
448,96,3623,1,0,0:0:0:0:
416,160,3691,1,0,0:0:0:0:
416,160,3760,1,0,0:0:0:0:
416,160,3828,1,8,0:0:0:0:
416,160,4034,1,0,0:0:0:0:
352,96,4445,1,0,0:0:0:0:
352,96,4650,1,8,0:0:0:0:
416,128,4856,1,0,0:0:0:0:
416,224,4958,1,0,0:0:0:0:
416,160,5061,1,8,0:0:0:0:
384,160,5266,1,0,0:0:0:0:
384,160,5335,1,0,0:0:0:0:
384,160,5403,1,0,0:0:0:0:
384,160,5472,1,8,0:0:0:0:
448,96,5677,1,0,0:0:0:0:
352,64,6088,1,0,0:0:0:0:
416,64,6294,1,12,0:0:0:0:
384,96,6499,1,0,0:0:0:0:
352,160,6705,1,8,0:0:0:0:
384,128,6910,1,0,0:0:0:0:
384,128,6979,1,0,0:0:0:0:
384,128,7047,1,0,0:0:0:0:
384,128,7116,1,8,0:0:0:0:
288,32,7321,1,0,0:0:0:0:
448,128,7732,1,0,0:0:0:0:
448,128,7938,1,8,0:0:0:0:
416,128,8143,1,0,0:0:0:0:
416,224,8245,1,0,0:0:0:0:
416,160,8348,1,8,0:0:0:0:
384,160,8553,1,0,0:0:0:0:
384,160,8622,1,0,0:0:0:0:
384,160,8690,1,0,0:0:0:0:
384,160,8759,1,8,0:0:0:0:
448,96,8964,1,0,0:0:0:0:
192,96,9376,1,0,0:0:0:0:
320,128,9582,1,8,0:0:0:0:
416,128,9787,1,0,0:0:0:0:
416,224,9889,1,0,0:0:0:0:
416,160,9992,1,8,0:0:0:0:
384,160,10197,1,0,0:0:0:0:
384,160,10266,1,0,0:0:0:0:
384,160,10334,1,0,0:0:0:0:
384,160,10403,1,8,0:0:0:0:
448,96,10608,1,0,0:0:0:0:
128,128,11020,1,0,0:0:0:0:
288,96,11225,1,8,0:0:0:0:
416,128,11431,1,0,0:0:0:0:
416,224,11533,1,0,0:0:0:0:
416,160,11636,1,8,0:0:0:0:
384,160,11841,1,0,0:0:0:0:
384,160,11910,1,0,0:0:0:0:
384,160,11978,1,0,0:0:0:0:
384,160,12047,1,8,0:0:0:0:
448,96,12252,1,0,0:0:0:0:
416,128,12356,1,0,0:0:0:0:
416,128,12407,1,0,0:0:0:0:
384,128,12458,1,0,0:0:0:0:
384,128,12561,1,8,0:0:0:0:
384,128,12664,1,8,0:0:0:0:
384,128,12766,1,8,0:0:0:0:
384,128,12869,1,8,0:0:0:0:
384,128,12972,1,8,0:0:0:0:
384,128,13075,1,8,0:0:0:0:
384,128,13177,1,8,0:0:0:0:
448,128,13280,1,4,0:0:0:0:
416,128,13486,1,8,0:0:0:0:
416,128,13588,1,8,0:0:0:0:
416,128,13691,1,0,0:0:0:0:
416,128,13794,1,8,0:0:0:0:
416,128,13897,1,8,0:0:0:0:
416,128,14102,1,0,0:0:0:0:
416,128,14205,1,8,0:0:0:0:
416,128,14308,1,8,0:0:0:0:
384,96,14359,1,8,0:0:0:0:
416,128,14410,1,8,0:0:0:0:
416,128,14513,1,0,0:0:0:0:
384,96,14616,1,8,0:0:0:0:
384,96,14719,1,8,0:0:0:0:
384,96,14821,1,8,0:0:0:0:
384,96,14924,1,0,0:0:0:0:
384,96,15129,1,8,0:0:0:0:
384,96,15181,1,8,0:0:0:0:
384,96,15232,1,8,0:0:0:0:
384,96,15335,1,0,0:0:0:0:
384,96,15438,1,8,0:0:0:0:
384,96,15540,1,8,0:0:0:0:
384,96,15746,1,0,0:0:0:0:
256,128,15849,1,8,0:0:0:0:
320,96,15951,1,8,0:0:0:0:
320,96,16003,1,8,0:0:0:0:
320,96,16054,1,8,0:0:0:0:
320,96,16157,1,0,0:0:0:0:
320,96,16260,1,8,0:0:0:0:
320,96,16311,1,8,0:0:0:0:
320,96,16362,1,8,0:0:0:0:
320,96,16465,1,8,0:0:0:0:
320,96,16568,1,0,0:0:0:0:
416,96,16773,1,8,0:0:0:0:
416,96,16876,1,8,0:0:0:0:
416,96,16979,1,0,0:0:0:0:
416,96,17082,1,8,0:0:0:0:
416,96,17184,1,8,0:0:0:0:
416,128,17390,1,0,0:0:0:0:
416,128,17493,1,8,0:0:0:0:
416,128,17596,1,8,0:0:0:0:
384,96,17647,1,8,0:0:0:0:
416,128,17698,1,8,0:0:0:0:
416,128,17801,1,0,0:0:0:0:
384,96,17904,1,8,0:0:0:0:
384,96,18007,1,8,0:0:0:0:
384,96,18109,1,8,0:0:0:0:
384,96,18212,1,0,0:0:0:0:
384,96,18417,1,8,0:0:0:0:
384,96,18469,1,8,0:0:0:0:
384,96,18520,1,8,0:0:0:0:
384,96,18623,1,0,0:0:0:0:
384,96,18726,1,8,0:0:0:0:
384,96,18828,1,8,0:0:0:0:
320,96,18931,1,0,0:0:0:0:
320,96,18982,1,0,0:0:0:0:
320,96,19034,1,0,0:0:0:0:
320,96,19136,1,8,0:0:0:0:
320,96,19239,1,8,0:0:0:0:
320,96,19342,1,8,0:0:0:0:
320,96,19445,1,0,0:0:0:0:
448,256,19650,1,8,0:0:0:0:
384,160,19753,1,8,0:0:0:0:
320,96,19856,1,4,0:0:0:0:
448,128,20061,1,8,0:0:0:0:
448,128,20164,1,8,0:0:0:0:
448,128,20266,1,0,0:0:0:0:
448,128,20369,1,8,0:0:0:0:
448,128,20472,1,8,0:0:0:0:
448,128,20677,1,0,0:0:0:0:
448,128,20780,1,8,0:0:0:0:
448,128,20883,1,8,0:0:0:0:
416,128,21088,1,0,0:0:0:0:
416,128,21191,1,8,0:0:0:0:
416,128,21243,1,8,0:0:0:0:
416,128,21294,1,8,0:0:0:0:
416,128,21397,1,8,0:0:0:0:
288,96,21499,1,4,0:0:0:0:
384,96,21910,1,8,0:0:0:0:
384,96,22116,1,8,0:0:0:0:
384,96,22219,1,8,0:0:0:0:
224,160,22321,1,8,0:0:0:0:
352,128,22527,1,12,0:0:0:0:
352,128,22732,1,8,0:0:0:0:
352,128,22835,1,8,0:0:0:0:
352,128,22938,1,8,0:0:0:0:
256,128,23040,1,8,0:0:0:0:
192,160,23143,1,4,0:0:0:0:
352,96,23349,1,8,0:0:0:0:
352,96,23554,1,12,0:0:0:0:
224,64,23760,1,8,0:0:0:0:
224,64,23965,1,12,0:0:0:0:
224,64,24171,1,0,0:0:0:0:
224,64,24376,1,12,0:0:0:0:
224,64,24582,1,0,0:0:0:0:
224,64,24787,1,4,0:0:0:0:
224,64,24993,1,0,0:0:0:0:
224,64,25198,1,12,0:0:0:0:
224,64,25403,1,12,0:0:0:0:
224,64,25609,1,12,0:0:0:0:
224,64,25814,1,0,0:0:0:0:
224,64,26020,1,8,0:0:0:0:
224,64,26123,1,8,0:0:0:0:
224,64,26225,1,8,0:0:0:0:
224,64,26328,1,8,0:0:0:0:
160,160,26431,1,4,0:0:0:0:
160,160,26636,1,8,0:0:0:0:
160,160,26739,1,8,0:0:0:0:
160,160,26842,1,0,0:0:0:0:
160,160,27047,1,8,0:0:0:0:
160,160,27150,1,8,0:0:0:0:
160,160,27252,1,0,0:0:0:0:
160,160,27355,1,8,0:0:0:0:
256,128,27458,1,8,0:0:0:0:
352,64,27663,1,0,0:0:0:0:
256,96,27766,1,8,0:0:0:0:
352,64,27869,1,8,0:0:0:0:
256,96,27972,1,8,0:0:0:0:
352,64,28074,1,0,0:0:0:0:
160,96,28280,1,8,0:0:0:0:
256,96,28383,1,8,0:0:0:0:
256,96,28485,1,0,0:0:0:0:
160,160,28691,1,8,0:0:0:0:
256,96,28794,1,8,0:0:0:0:
160,160,28896,1,0,0:0:0:0:
160,160,28999,1,8,0:0:0:0:
160,160,29102,1,0,0:0:0:0:
320,32,29307,1,0,0:0:0:0:
160,160,29410,1,8,0:0:0:0:
160,160,29513,1,8,0:0:0:0:
256,96,29615,1,8,0:0:0:0:
256,96,29718,1,0,0:0:0:0:
384,256,29924,1,8,0:0:0:0:
320,160,30026,1,8,0:0:0:0:
384,256,30129,1,0,0:0:0:0:
256,64,30335,1,8,0:0:0:0:
320,160,30437,1,8,0:0:0:0:
384,256,30540,1,0,0:0:0:0:
160,160,30643,1,8,0:0:0:0:
160,160,30746,1,8,0:0:0:0:
352,192,30951,1,0,0:0:0:0:
160,160,31054,1,8,0:0:0:0:
160,160,31157,1,8,0:0:0:0:
160,160,31259,1,8,0:0:0:0:
160,160,31362,1,0,0:0:0:0:
160,160,31568,1,8,0:0:0:0:
160,160,31670,1,8,0:0:0:0:
160,160,31773,1,0,0:0:0:0:
160,160,31876,1,8,0:0:0:0:
160,160,31979,1,8,0:0:0:0:
160,160,32184,1,0,0:0:0:0:
160,160,32287,1,8,0:0:0:0:
160,160,32389,1,8,0:0:0:0:
160,160,32492,1,8,0:0:0:0:
160,160,32595,1,0,0:0:0:0:
160,160,32698,1,8,0:0:0:0:
160,160,32800,1,8,0:0:0:0:
160,160,32903,1,8,0:0:0:0:
160,160,33006,1,0,0:0:0:0:
448,128,33212,1,8,0:0:0:0:
256,128,33314,1,8,0:0:0:0:
384,192,33417,1,0,0:0:0:0:
320,192,33623,1,8,0:0:0:0:
320,192,33725,1,8,0:0:0:0:
288,128,33828,1,0,0:0:0:0:
288,128,33931,1,8,0:0:0:0:
256,128,34034,1,8,0:0:0:0:
256,128,34239,1,0,0:0:0:0:
224,96,34342,1,8,0:0:0:0:
224,96,34445,1,8,0:0:0:0:
256,128,34547,1,8,0:0:0:0:
256,128,34650,1,0,0:0:0:0:
160,160,34856,1,8,0:0:0:0:
160,160,34958,1,8,0:0:0:0:
160,160,35061,1,0,0:0:0:0:
160,160,35164,1,8,0:0:0:0:
160,160,35266,1,8,0:0:0:0:
160,160,35369,1,8,0:0:0:0:
160,160,35472,1,0,0:0:0:0:
160,160,35575,1,8,0:0:0:0:
160,160,35677,1,8,0:0:0:0:
160,160,35883,1,0,0:0:0:0:
160,160,35986,1,8,0:0:0:0:
160,160,36088,1,8,0:0:0:0:
160,160,36191,1,8,0:0:0:0:
160,160,36294,1,0,0:0:0:0:
160,160,36499,1,8,0:0:0:0:
160,160,36602,1,8,0:0:0:0:
160,160,36705,1,0,0:0:0:0:
160,160,36808,1,8,0:0:0:0:
160,160,36910,1,8,0:0:0:0:
160,160,37116,1,0,0:0:0:0:
160,160,37219,1,8,0:0:0:0:
160,160,37321,1,8,0:0:0:0:
96,128,37527,1,0,0:0:0:0:
192,128,37630,1,8,0:0:0:0:
160,160,37732,1,8,0:0:0:0:
160,160,37835,1,8,0:0:0:0:
160,160,37938,1,0,0:0:0:0:
224,64,38143,1,8,0:0:0:0:
224,64,38246,1,8,0:0:0:0:
160,160,38349,1,0,0:0:0:0:
160,160,38451,1,8,0:0:0:0:
160,160,38554,1,8,0:0:0:0:
256,192,38657,1,0,0:0:0:0:
320,192,38708,1,0,0:0:0:0:
160,160,38760,1,0,0:0:0:0:
160,160,38862,1,8,0:0:0:0:
160,160,38965,1,8,0:0:0:0:
224,128,39068,1,8,0:0:0:0:
160,160,39171,1,8,0:0:0:0:
160,160,39273,1,8,0:0:0:0:
160,160,39376,1,8,0:0:0:0:
160,160,39479,1,8,0:0:0:0:
160,160,39582,1,0,0:0:0:0:
160,160,39787,1,8,0:0:0:0:
160,160,39890,1,8,0:0:0:0:
160,160,39993,1,0,0:0:0:0:
160,160,40198,1,8,0:0:0:0:
160,160,40301,1,8,0:0:0:0:
160,160,40403,1,0,0:0:0:0:
160,160,40506,1,8,0:0:0:0:
256,128,40609,1,8,0:0:0:0:
352,64,40814,1,0,0:0:0:0:
256,96,40917,1,8,0:0:0:0:
352,64,41020,1,8,0:0:0:0:
256,96,41123,1,8,0:0:0:0:
352,64,41225,1,0,0:0:0:0:
160,96,41431,1,8,0:0:0:0:
256,96,41534,1,8,0:0:0:0:
256,96,41636,1,0,0:0:0:0:
160,160,41842,1,8,0:0:0:0:
256,96,41945,1,8,0:0:0:0:
160,160,42047,1,0,0:0:0:0:
160,160,42150,1,8,0:0:0:0:
160,160,42253,1,0,0:0:0:0:
320,32,42458,1,0,0:0:0:0:
160,160,42561,1,8,0:0:0:0:
160,160,42664,1,8,0:0:0:0:
256,96,42766,1,8,0:0:0:0:
256,96,42869,1,0,0:0:0:0:
384,256,43075,1,8,0:0:0:0:
320,160,43177,1,8,0:0:0:0:
384,256,43280,1,0,0:0:0:0:
256,64,43486,1,8,0:0:0:0:
320,160,43588,1,8,0:0:0:0:
384,256,43691,1,0,0:0:0:0:
160,160,43794,1,8,0:0:0:0:
160,160,43897,1,8,0:0:0:0:
352,192,44102,1,0,0:0:0:0:
160,160,44308,1,8,0:0:0:0:
256,128,44410,1,8,0:0:0:0:
160,160,44513,1,0,0:0:0:0:
160,160,44719,1,8,0:0:0:0:
160,160,44821,1,8,0:0:0:0:
160,160,44924,1,0,0:0:0:0:
160,160,45027,1,8,0:0:0:0:
160,160,45130,1,8,0:0:0:0:
160,160,45335,1,0,0:0:0:0:
160,160,45438,1,8,0:0:0:0:
160,160,45540,1,8,0:0:0:0:
160,160,45643,1,0,0:0:0:0:
160,160,45746,1,8,0:0:0:0:
160,160,45849,1,8,0:0:0:0:
160,160,45951,1,8,0:0:0:0:
160,160,46054,1,8,0:0:0:0:
160,160,46157,1,0,0:0:0:0:
160,160,46362,1,8,0:0:0:0:
256,128,46465,1,8,0:0:0:0:
352,96,46568,1,0,0:0:0:0:
160,160,46773,1,8,0:0:0:0:
160,160,46876,1,8,0:0:0:0:
160,160,46979,1,0,0:0:0:0:
160,160,47082,1,8,0:0:0:0:
160,160,47184,1,8,0:0:0:0:
352,96,47390,1,0,0:0:0:0:
160,160,47493,1,8,0:0:0:0:
160,160,47595,1,8,0:0:0:0:
160,160,47698,1,8,0:0:0:0:
160,160,47801,1,0,0:0:0:0:
160,160,48006,1,8,0:0:0:0:
160,160,48109,1,8,0:0:0:0:
160,160,48212,1,0,0:0:0:0:
160,160,48417,1,8,0:0:0:0:
160,160,48520,1,8,0:0:0:0:
160,160,48623,1,0,0:0:0:0:
160,160,48828,1,8,0:0:0:0:
160,160,48931,1,8,0:0:0:0:
160,160,49034,1,0,0:0:0:0:
160,160,49136,1,8,0:0:0:0:
160,160,49239,1,8,0:0:0:0:
160,160,49342,1,8,0:0:0:0:
160,160,49445,1,0,0:0:0:0:
416,96,49650,1,8,0:0:0:0:
448,96,49753,1,8,0:0:0:0:
352,128,49856,1,8,0:0:0:0:
416,96,50061,1,0,0:0:0:0:
416,96,50266,1,8,0:0:0:0:
416,96,50472,1,0,0:0:0:0:
416,96,50677,1,0,0:0:0:0:
416,96,50883,1,0,0:0:0:0:
416,96,51088,1,0,0:0:0:0:
416,96,51191,1,0,0:0:0:0:
416,96,51294,1,8,0:0:0:0:
416,96,51397,1,0,0:0:0:0:
416,96,51499,1,8,0:0:0:0:
416,96,51602,1,0,0:0:0:0:
416,96,51705,1,8,0:0:0:0:
416,96,51808,1,0,0:0:0:0:
416,96,51910,1,8,0:0:0:0:
352,128,51979,1,0,0:0:0:0:
416,96,52047,1,0,0:0:0:0:
352,128,52116,1,0,0:0:0:0:
416,96,52184,1,0,0:0:0:0:
352,128,52253,1,0,0:0:0:0:
416,96,52321,1,8,0:0:0:0:
416,96,52424,1,8,0:0:0:0:
416,96,52527,1,0,0:0:0:0:
416,96,52629,1,0,0:0:0:0:
256,160,52732,1,4,0:0:0:0:
288,128,53143,1,0,0:0:0:0:
288,128,53349,1,0,0:0:0:0:
288,128,53554,1,8,0:0:0:0:
288,128,53965,1,0,0:0:0:0:
320,96,54171,1,8,0:0:0:0:
320,96,54273,1,8,0:0:0:0:
320,96,54376,1,0,0:0:0:0:
320,96,54582,1,8,0:0:0:0:
320,96,54787,1,0,0:0:0:0:
320,96,55198,1,8,0:0:0:0:
416,160,55335,1,0,0:0:0:0:
416,160,55472,1,0,0:0:0:0:
416,160,55609,1,8,0:0:0:0:
416,160,55746,1,8,0:0:0:0:
416,160,55883,1,0,0:0:0:0:
416,160,56020,1,4,0:0:0:0:
416,128,56431,1,0,0:0:0:0:
416,128,56636,1,0,0:0:0:0:
512,96,56705,1,0,0:0:0:0:
512,96,56773,1,0,0:0:0:0:
416,128,56842,1,8,0:0:0:0:
320,96,57047,1,0,0:0:0:0:
320,96,57253,1,8,0:0:0:0:
320,96,57356,1,8,0:0:0:0:
320,96,57458,1,0,0:0:0:0:
320,96,57664,1,0,0:0:0:0:
352,64,57869,1,0,0:0:0:0:
352,64,57972,1,0,0:0:0:0:
352,64,58075,1,8,0:0:0:0:
352,64,58280,1,0,0:0:0:0:
352,64,58486,1,8,0:0:0:0:
352,64,58691,1,0,0:0:0:0:
384,160,58743,1,0,0:0:0:0:
352,64,58794,1,0,0:0:0:0:
352,64,58897,1,8,0:0:0:0:
352,64,58999,1,8,0:0:0:0:
352,64,59102,1,8,0:0:0:0:
352,64,59205,1,8,0:0:0:0:
352,64,59308,1,4,0:0:0:0:
352,96,59719,1,0,0:0:0:0:
480,96,59924,1,0,0:0:0:0:
480,96,59993,1,0,0:0:0:0:
480,96,60061,1,0,0:0:0:0:
480,96,60130,1,8,0:0:0:0:
384,96,60540,1,0,0:0:0:0:
384,96,60745,1,8,0:0:0:0:
384,96,60814,1,8,0:0:0:0:
384,96,60882,1,8,0:0:0:0:
384,96,60951,1,0,0:0:0:0:
256,64,61157,1,8,0:0:0:0:
352,64,61362,1,0,0:0:0:0:
352,64,61568,1,0,0:0:0:0:
384,128,61671,1,0,0:0:0:0:
384,128,61773,1,8,0:0:0:0:
384,160,61910,1,0,0:0:0:0:
384,160,62047,1,0,0:0:0:0:
384,160,62184,1,8,0:0:0:0:
384,160,62321,1,8,0:0:0:0:
384,160,62458,1,0,0:0:0:0:
384,160,62595,1,4,0:0:0:0:
384,128,62869,1,8,0:0:0:0:
384,128,62938,1,8,0:0:0:0:
384,128,63006,1,0,0:0:0:0:
384,128,63212,1,0,0:0:0:0:
384,128,63417,1,8,0:0:0:0:
384,128,63623,1,0,0:0:0:0:
416,192,63725,1,0,0:0:0:0:
416,192,63828,1,8,0:0:0:0:
384,128,63931,1,8,0:0:0:0:
384,128,64034,1,8,0:0:0:0:
384,128,64136,1,8,0:0:0:0:
384,128,64239,1,0,0:0:0:0:
416,96,64445,1,0,0:0:0:0:
416,96,64513,1,0,0:0:0:0:
416,96,64582,1,0,0:0:0:0:
416,96,64650,1,8,0:0:0:0:
416,96,64856,1,0,0:0:0:0:
416,96,65061,1,8,0:0:0:0:
416,96,65198,1,0,0:0:0:0:
320,96,65472,1,0,0:0:0:0:
192,32,65677,1,8,0:0:0:0:
192,64,65883,1,4,0:0:0:0:
256,64,66294,1,0,0:0:0:0:
416,128,66499,1,0,0:0:0:0:
416,128,66602,1,0,0:0:0:0:
416,128,66705,1,8,0:0:0:0:
224,192,67116,1,0,0:0:0:0:
224,192,67321,1,8,0:0:0:0:
224,192,67424,1,8,0:0:0:0:
224,192,67527,1,0,0:0:0:0:
224,192,67732,1,8,0:0:0:0:
352,128,67835,1,0,0:0:0:0:
224,192,67938,1,0,0:0:0:0:
352,128,68143,1,0,0:0:0:0:
224,192,68349,1,8,0:0:0:0:
224,192,68486,1,0,0:0:0:0:
384,96,68554,1,0,0:0:0:0:
224,192,68623,1,0,0:0:0:0:
224,192,68760,1,8,0:0:0:0:
224,192,68897,1,8,0:0:0:0:
224,192,69034,1,0,0:0:0:0:
224,192,69171,1,4,0:0:0:0:
320,64,69582,1,0,0:0:0:0:
224,192,69787,1,0,0:0:0:0:
224,192,69993,1,8,0:0:0:0:
224,192,70198,1,0,0:0:0:0:
224,192,70301,1,0,0:0:0:0:
224,192,70403,1,8,0:0:0:0:
224,192,70506,1,8,0:0:0:0:
224,192,70609,1,8,0:0:0:0:
224,192,70712,1,8,0:0:0:0:
224,192,70814,1,0,0:0:0:0:
224,192,71020,1,0,0:0:0:0:
224,192,71123,1,0,0:0:0:0:
224,192,71225,1,8,0:0:0:0:
224,192,71431,1,0,0:0:0:0:
224,192,71636,1,8,0:0:0:0:
224,192,71842,1,0,0:0:0:0:
224,192,71945,1,0,0:0:0:0:
224,192,72047,1,8,0:0:0:0:
224,192,72184,1,8,0:0:0:0:
224,192,72321,1,8,0:0:0:0:
224,192,72458,1,4,0:0:0:0:
224,192,72869,1,0,0:0:0:0:
224,192,73075,1,0,0:0:0:0:
384,128,73143,1,0,0:0:0:0:
384,128,73212,1,0,0:0:0:0:
224,192,73280,1,8,0:0:0:0:
224,96,73691,1,0,0:0:0:0:
224,192,73897,1,8,0:0:0:0:
224,64,73965,1,8,0:0:0:0:
224,64,74034,1,8,0:0:0:0:
224,192,74102,1,0,0:0:0:0:
224,192,74308,1,8,0:0:0:0:
224,192,74513,1,0,0:0:0:0:
416,96,74719,1,0,0:0:0:0:
416,96,74821,1,0,0:0:0:0:
224,192,74924,1,8,0:0:0:0:
224,192,75061,1,0,0:0:0:0:
224,192,75198,1,0,0:0:0:0:
224,192,75335,1,8,0:0:0:0:
224,192,75472,1,8,0:0:0:0:
224,192,75609,1,0,0:0:0:0:
448,96,75677,1,0,0:0:0:0:
224,192,75746,1,4,0:0:0:0:
224,192,76157,1,0,0:0:0:0:
224,192,76362,1,0,0:0:0:0:
224,192,76465,1,0,0:0:0:0:
224,192,76568,1,8,0:0:0:0:
224,192,76773,1,0,0:0:0:0:
224,192,76979,1,8,0:0:0:0:
224,192,77184,1,8,0:0:0:0:
224,192,77287,1,8,0:0:0:0:
224,192,77390,1,0,0:0:0:0:
224,192,77595,1,8,0:0:0:0:
224,192,77801,1,0,0:0:0:0:
224,192,78006,1,0,0:0:0:0:
416,128,78109,1,0,0:0:0:0:
416,128,78212,1,8,0:0:0:0:
224,192,78349,1,0,0:0:0:0:
224,128,79034,1,12,0:0:0:0:
352,128,79239,1,0,0:0:0:0:
352,128,79308,1,0,0:0:0:0:
352,128,79376,1,0,0:0:0:0:
352,128,79445,1,8,0:0:0:0:
352,128,79650,1,0,0:0:0:0:
352,128,80061,1,8,0:0:0:0:
352,128,80472,1,0,0:0:0:0:
320,64,80677,1,12,0:0:0:0:
320,64,80883,1,0,0:0:0:0:
320,64,80951,1,0,0:0:0:0:
320,64,81020,1,0,0:0:0:0:
320,64,81088,1,8,0:0:0:0:
320,64,81294,1,0,0:0:0:0:
320,64,81705,1,8,0:0:0:0:
256,96,82116,1,0,0:0:0:0:
256,96,82321,1,12,0:0:0:0:
384,96,82527,1,0,0:0:0:0:
384,96,82595,1,0,0:0:0:0:
384,96,82664,1,0,0:0:0:0:
384,96,82732,1,8,0:0:0:0:
384,96,82938,1,0,0:0:0:0:
384,96,83349,1,8,0:0:0:0:
384,96,83760,1,0,0:0:0:0:
384,96,83965,1,12,0:0:0:0:
384,96,84171,1,0,0:0:0:0:
384,96,84239,1,0,0:0:0:0:
384,96,84308,1,0,0:0:0:0:
384,96,84376,1,8,0:0:0:0:
384,96,84582,1,0,0:0:0:0:
384,96,85198,1,0,0:0:0:0:
224,128,85609,1,12,0:0:0:0:
352,128,85814,1,0,0:0:0:0:
352,128,85883,1,0,0:0:0:0:
352,128,85951,1,0,0:0:0:0:
352,128,86020,1,8,0:0:0:0:
352,128,86225,1,0,0:0:0:0:
352,128,86636,1,8,0:0:0:0:
352,128,87047,1,0,0:0:0:0:
320,64,87252,1,12,0:0:0:0:
320,64,87458,1,0,0:0:0:0:
320,64,87526,1,0,0:0:0:0:
320,64,87595,1,0,0:0:0:0:
320,64,87663,1,8,0:0:0:0:
320,64,87869,1,0,0:0:0:0:
320,64,88280,1,8,0:0:0:0:
256,96,88691,1,0,0:0:0:0:
256,96,88896,1,12,0:0:0:0:
384,96,89102,1,0,0:0:0:0:
384,96,89170,1,0,0:0:0:0:
384,96,89239,1,0,0:0:0:0:
384,96,89307,1,8,0:0:0:0:
384,96,89513,1,0,0:0:0:0:
384,96,89924,1,8,0:0:0:0:
384,96,90335,1,0,0:0:0:0:
384,96,90540,1,12,0:0:0:0:
384,96,90746,1,0,0:0:0:0:
384,96,90814,1,0,0:0:0:0:
384,96,90883,1,0,0:0:0:0:
384,96,90951,1,8,0:0:0:0:
384,96,91157,1,0,0:0:0:0:
384,96,91773,1,0,0:0:0:0:
224,192,92184,1,4,0:0:0:0:
256,128,92595,1,12,0:0:0:0:
256,128,93006,1,12,0:0:0:0:
256,128,93212,1,0,0:0:0:0:
256,128,93417,1,12,0:0:0:0:
256,128,93623,1,0,0:0:0:0:
256,128,93828,1,12,0:0:0:0:
288,128,94239,1,12,0:0:0:0:
448,160,94445,1,0,0:0:0:0:
448,160,94513,1,0,0:0:0:0:
448,160,94582,1,0,0:0:0:0:
288,96,94650,1,12,0:0:0:0:
288,96,94856,1,0,0:0:0:0:
288,96,95061,1,12,0:0:0:0:
288,96,95266,1,0,0:0:0:0:
288,96,95472,1,12,0:0:0:0:
288,96,95883,1,12,0:0:0:0:
352,160,96088,1,0,0:0:0:0:
352,160,96157,1,0,0:0:0:0:
352,160,96225,1,0,0:0:0:0:
288,96,96294,1,12,0:0:0:0:
288,96,96499,1,0,0:0:0:0:
288,96,96705,1,12,0:0:0:0:
288,96,96910,1,0,0:0:0:0:
256,64,97116,1,12,0:0:0:0:
352,96,97321,1,0,0:0:0:0:
416,160,97424,1,0,0:0:0:0:
352,96,97527,1,12,0:0:0:0:
352,96,97732,1,8,0:0:0:0:
352,96,97801,1,0,0:0:0:0:
352,96,97869,1,0,0:0:0:0:
352,96,97938,1,8,0:0:0:0:
384,160,98040,1,8,0:0:0:0:
384,160,98143,1,0,0:0:0:0:
384,160,98349,1,8,0:0:0:0:
384,160,98451,1,8,0:0:0:0:
384,160,98554,1,0,0:0:0:0:
384,160,98657,1,0,0:0:0:0:
384,160,98760,1,12,0:0:0:0:
224,96,99171,1,12,0:0:0:0:
352,160,99376,1,0,0:0:0:0:
288,96,99445,1,0,0:0:0:0:
320,160,99513,1,0,0:0:0:0:
352,160,99582,1,12,0:0:0:0:
352,160,99787,1,0,0:0:0:0:
352,160,99993,1,12,0:0:0:0:
352,160,100198,1,0,0:0:0:0:
352,160,100403,1,12,0:0:0:0:
224,96,100815,1,12,0:0:0:0:
352,160,101020,1,0,0:0:0:0:
288,128,101088,1,0,0:0:0:0:
224,96,101157,1,0,0:0:0:0:
352,160,101226,1,12,0:0:0:0:
352,160,101431,1,0,0:0:0:0:
352,160,101637,1,12,0:0:0:0:
352,160,101842,1,0,0:0:0:0:
352,160,102047,1,12,0:0:0:0:
384,64,102253,1,0,0:0:0:0:
384,96,102321,1,0,0:0:0:0:
384,128,102390,1,0,0:0:0:0:
384,128,102458,1,12,0:0:0:0:
288,160,102664,1,12,0:0:0:0:
288,160,102869,1,12,0:0:0:0:
288,160,103075,1,4,0:0:0:0:
288,160,103280,1,4,0:0:0:0:
288,160,103486,1,4,0:0:0:0:
416,160,103691,1,8,0:0:0:0:
416,160,103794,1,8,0:0:0:0:
416,160,103897,1,0,0:0:0:0:
384,128,104102,1,8,0:0:0:0:
384,128,104205,1,8,0:0:0:0:
384,128,104308,1,0,0:0:0:0:
384,128,104513,1,8,0:0:0:0:
384,128,104616,1,8,0:0:0:0:
384,128,104719,1,8,0:0:0:0:
384,128,104821,1,8,0:0:0:0:
384,128,104924,1,8,0:0:0:0:
384,128,105027,1,0,0:0:0:0:
384,128,105129,1,0,0:0:0:0:
384,128,105232,1,0,0:0:0:0:
384,128,105335,1,4,0:0:0:0:
256,160,105746,1,8,0:0:0:0:
256,160,105951,1,0,0:0:0:0:
256,160,106157,1,12,0:0:0:0:
192,128,106568,1,0,0:0:0:0:
192,128,106773,1,8,0:0:0:0:
352,160,106876,1,0,0:0:0:0:
352,160,106927,1,0,0:0:0:0:
192,128,106979,1,0,0:0:0:0:
384,128,107184,1,8,0:0:0:0:
384,128,107390,1,0,0:0:0:0:
384,160,107801,1,12,0:0:0:0:
352,160,107938,1,0,0:0:0:0:
352,160,108075,1,0,0:0:0:0:
352,160,108212,1,8,0:0:0:0:
352,160,108349,1,8,0:0:0:0:
352,160,108486,1,0,0:0:0:0:
352,160,108623,1,4,0:0:0:0:
288,160,109034,1,0,0:0:0:0:
416,128,109239,1,0,0:0:0:0:
416,128,109342,1,0,0:0:0:0:
416,128,109445,1,12,0:0:0:0:
416,128,109650,1,0,0:0:0:0:
416,128,109856,1,8,0:0:0:0:
384,96,109958,1,8,0:0:0:0:
384,96,110061,1,0,0:0:0:0:
384,96,110266,1,4,0:0:0:0:
448,128,110472,1,0,0:0:0:0:
448,128,110540,1,0,0:0:0:0:
448,128,110609,1,0,0:0:0:0:
448,128,110677,1,8,0:0:0:0:
448,128,110883,1,0,0:0:0:0:
288,128,110986,1,0,0:0:0:0:
352,128,111114,1,12,0:0:0:0:
384,160,111243,1,0,0:0:0:0:
384,160,111362,1,0,0:0:0:0:
384,160,111499,1,8,0:0:0:0:
384,160,111636,1,8,0:0:0:0:
384,160,111773,1,0,0:0:0:0:
384,160,111910,1,4,0:0:0:0:
224,192,112321,1,0,0:0:0:0:
384,160,112527,1,0,0:0:0:0:
384,160,112595,1,0,0:0:0:0:
384,160,112664,1,0,0:0:0:0:
384,160,112732,1,12,0:0:0:0:
448,64,113143,1,0,0:0:0:0:
480,64,113349,1,8,0:0:0:0:
480,64,113451,1,8,0:0:0:0:
480,64,113554,1,0,0:0:0:0:
352,128,113760,1,8,0:0:0:0:
352,128,113965,1,0,0:0:0:0:
352,128,114376,1,12,0:0:0:0:
256,96,114513,1,0,0:0:0:0:
256,96,114650,1,0,0:0:0:0:
256,96,114787,1,8,0:0:0:0:
352,128,114924,1,0,0:0:0:0:
320,96,115044,1,8,0:0:0:0:
320,96,115095,1,0,0:0:0:0:
320,96,115147,1,0,0:0:0:0:
256,192,115198,1,4,0:0:0:0:
352,128,115403,1,0,0:0:0:0:
352,128,115609,1,0,0:0:0:0:
352,128,115814,1,0,0:0:0:0:
352,128,116020,1,12,0:0:0:0:
352,128,116225,1,0,0:0:0:0:
352,128,116431,1,0,0:0:0:0:
352,128,116636,1,0,0:0:0:0:
416,192,116739,1,0,0:0:0:0:
416,96,116842,1,0,0:0:0:0:
416,96,116945,1,0,0:0:0:0:
416,96,117047,1,0,0:0:0:0:
224,96,117099,1,0,0:0:0:0:
416,96,117150,1,0,0:0:0:0:
416,128,117253,1,8,0:0:0:0:
192,96,117356,1,0,0:0:0:0:
224,128,117458,1,0,0:0:0:0:
224,128,117510,1,0,0:0:0:0:
384,160,117561,1,0,0:0:0:0:
480,96,117664,1,8,0:0:0:0:
352,192,117801,1,0,0:0:0:0:
352,192,117938,1,0,0:0:0:0:
384,64,118075,1,8,0:0:0:0:
384,96,118177,1,0,0:0:0:0:
384,96,118280,1,8,0:0:0:0:
256,64,118349,1,8,0:0:0:0:
256,64,118417,1,8,0:0:0:0:
384,96,118486,1,4,0:0:0:0:
352,192,118897,1,0,0:0:0:0:
224,160,119102,1,0,0:0:0:0:
480,160,119205,1,0,0:0:0:0:
352,192,119308,1,12,0:0:0:0:
352,160,119719,1,0,0:0:0:0:
352,160,119924,1,8,0:0:0:0:
352,160,120027,1,8,0:0:0:0:
352,160,120129,1,0,0:0:0:0:
352,160,120335,1,8,0:0:0:0:
352,160,120438,1,0,0:0:0:0:
352,160,120540,1,8,0:0:0:0:
352,160,120746,1,0,0:0:0:0:
416,96,120951,1,8,0:0:0:0:
416,96,121020,1,8,0:0:0:0:
416,96,121088,1,8,0:0:0:0:
416,96,121225,1,8,0:0:0:0:
416,96,121362,1,0,0:0:0:0:
416,96,121499,1,0,0:0:0:0:
416,96,121636,1,0,0:0:0:0:
416,96,121773,1,4,0:0:0:0:
416,96,122184,1,8,0:0:0:0:
416,96,122390,1,0,0:0:0:0:
416,192,122493,1,0,0:0:0:0:
416,96,122595,1,12,0:0:0:0:
416,192,122801,1,0,0:0:0:0:
416,192,123006,1,8,0:0:0:0:
416,192,123109,1,8,0:0:0:0:
416,192,123212,1,0,0:0:0:0:
416,192,123417,1,4,0:0:0:0:
384,96,123623,1,0,0:0:0:0:
384,96,123725,1,0,0:0:0:0:
384,96,123828,1,8,0:0:0:0:
384,96,124034,1,0,0:0:0:0:
384,96,124239,1,12,0:0:0:0:
384,96,124445,1,8,0:0:0:0:
384,96,124547,1,8,0:0:0:0:
384,96,124650,1,8,0:0:0:0:
384,96,124753,1,0,0:0:0:0:
384,96,124856,1,0,0:0:0:0:
384,96,124958,1,0,0:0:0:0:
384,96,125061,1,4,0:0:0:0:
384,96,125472,1,0,0:0:0:0:
384,96,125677,1,0,0:0:0:0:
384,96,125780,1,0,0:0:0:0:
384,96,125883,1,12,0:0:0:0:
384,96,126294,1,0,0:0:0:0:
384,96,126499,1,8,0:0:0:0:
416,96,126568,1,8,0:0:0:0:
416,96,126636,1,8,0:0:0:0:
384,96,126705,1,0,0:0:0:0:
416,96,126808,1,0,0:0:0:0:
416,96,127013,1,0,0:0:0:0:
416,96,127116,1,8,0:0:0:0:
416,96,127321,1,0,0:0:0:0:
320,96,127527,1,12,0:0:0:0:
192,64,127664,1,0,0:0:0:0:
192,64,127801,1,0,0:0:0:0:
192,64,127938,1,8,0:0:0:0:
192,64,128075,1,8,0:0:0:0:
192,64,128212,1,0,0:0:0:0:
192,64,128349,1,4,0:0:0:0:
384,96,128486,1,0,0:0:0:0:
384,96,128554,1,0,0:0:0:0:
384,96,128623,1,0,0:0:0:0:
384,96,128760,1,8,0:0:0:0:
448,160,128897,1,0,0:0:0:0:
448,160,129034,1,0,0:0:0:0:
320,96,129171,1,8,0:0:0:0:
352,160,129273,1,0,0:0:0:0:
352,160,129376,1,0,0:0:0:0:
352,160,129479,1,0,0:0:0:0:
352,160,129582,1,8,0:0:0:0:
256,64,129684,1,8,0:0:0:0:
384,128,129787,1,0,0:0:0:0:
384,192,129993,1,8,0:0:0:0:
384,192,130095,1,0,0:0:0:0:
448,96,130198,1,8,0:0:0:0:
256,160,130266,1,8,0:0:0:0:
256,160,130335,1,8,0:0:0:0:
448,96,130403,1,0,0:0:0:0:
288,96,130609,1,8,0:0:0:0:
288,96,130677,1,0,0:0:0:0:
288,96,130746,1,0,0:0:0:0:
288,96,130814,1,8,0:0:0:0:
288,96,130951,1,0,0:0:0:0:
288,96,131636,1,4,0:0:0:0:
288,96,132047,1,8,0:0:0:0:
288,96,132253,1,0,0:0:0:0:
288,96,132458,1,12,0:0:0:0:
288,96,132869,1,0,0:0:0:0:
288,96,133691,1,8,0:0:0:0:
224,64,133896,1,0,0:0:0:0:
224,64,134102,1,12,0:0:0:0:
224,64,134307,1,0,0:0:0:0:
320,160,134513,1,8,0:0:0:0:
384,192,134719,1,0,0:0:0:0:
384,192,134821,1,0,0:0:0:0:
384,192,134924,1,0,0:0:0:0:
352,192,135335,1,8,0:0:0:0:
352,192,135540,1,0,0:0:0:0:
352,192,135746,1,12,0:0:0:0:
352,192,135951,1,0,0:0:0:0:
352,192,136157,1,0,0:0:0:0:
384,96,136568,1,0,0:0:0:0:
384,96,136671,1,8,0:0:0:0:
384,96,136773,1,0,0:0:0:0:
384,96,136876,1,0,0:0:0:0:
384,96,136979,1,0,0:0:0:0:
384,96,137390,1,12,0:0:0:0:
384,96,137595,1,0,0:0:0:0:
384,96,138212,1,0,0:0:0:0:
384,96,138623,1,8,0:0:0:0:
384,96,138828,1,0,0:0:0:0:
256,128,139034,1,12,0:0:0:0:
256,128,139445,1,0,0:0:0:0:
352,160,140061,1,8,0:0:0:0:
352,160,140266,1,0,0:0:0:0:
352,160,140677,1,12,0:0:0:0:
352,160,140883,1,0,0:0:0:0:
352,160,140986,1,8,0:0:0:0:
352,160,141088,1,8,0:0:0:0:
352,160,141294,1,0,0:0:0:0:
352,160,141397,1,0,0:0:0:0:
352,160,141499,1,0,0:0:0:0:
352,160,141910,1,0,0:0:0:0:
352,160,142116,1,0,0:0:0:0:
352,160,142219,1,0,0:0:0:0:
352,160,142321,1,12,0:0:0:0:
352,160,142527,1,0,0:0:0:0:
352,160,142732,1,0,0:0:0:0:
352,160,143143,1,8,0:0:0:0:
352,160,143246,1,8,0:0:0:0:
352,160,143349,1,0,0:0:0:0:
352,160,143451,1,0,0:0:0:0:
352,160,143554,1,0,0:0:0:0:
352,160,143965,1,12,0:0:0:0:
448,96,144068,1,0,0:0:0:0:
448,96,144119,1,0,0:0:0:0:
448,96,144171,1,8,0:0:0:0:
448,96,144273,1,8,0:0:0:0:
448,96,144376,1,8,0:0:0:0:
448,96,144479,1,8,0:0:0:0:
416,192,144582,1,0,0:0:0:0:
448,160,144633,1,0,0:0:0:0:
320,128,144684,1,8,0:0:0:0:
320,128,144787,1,4,0:0:0:0:
320,128,145198,1,12,0:0:0:0:
352,96,145609,1,12,0:0:0:0:
352,96,145814,1,0,0:0:0:0:
352,96,146020,1,12,0:0:0:0:
352,96,146225,1,0,0:0:0:0:
352,96,146431,1,4,0:0:0:0:
352,96,146636,1,8,0:0:0:0:
352,96,146842,1,12,0:0:0:0:
288,96,147253,1,12,0:0:0:0:
288,96,147458,1,0,0:0:0:0:
288,96,147561,1,0,0:0:0:0:
288,128,147664,1,8,0:0:0:0:
288,128,147766,1,0,0:0:0:0:
288,128,147869,1,8,0:0:0:0:
288,128,147972,1,0,0:0:0:0:
288,128,148075,1,4,0:0:0:0:
288,128,148280,1,8,0:0:0:0:
288,128,148486,1,12,0:0:0:0:
192,64,148691,1,0,0:0:0:0:
192,96,148897,1,12,0:0:0:0:
192,96,148999,1,0,0:0:0:0:
192,96,149102,1,0,0:0:0:0:
192,96,149308,1,12,0:0:0:0:
192,96,149513,1,0,0:0:0:0:
288,64,149616,1,0,0:0:0:0:
288,64,149719,1,4,0:0:0:0:
288,64,149821,1,8,0:0:0:0:
288,64,149924,1,8,0:0:0:0:
320,128,150130,1,8,0:0:0:0:
320,128,150232,1,8,0:0:0:0:
320,128,150335,1,0,0:0:0:0:
320,128,150438,1,0,0:0:0:0:
320,128,150540,1,4,0:0:0:0:
320,128,150643,1,8,0:0:0:0:
320,128,150746,1,8,0:0:0:0:
320,128,150849,1,0,0:0:0:0:
320,128,150951,1,8,0:0:0:0:
320,128,151054,1,8,0:0:0:0:
224,64,151157,1,8,0:0:0:0:
224,64,151260,1,8,0:0:0:0:
320,96,151362,1,4,0:0:0:0:
352,96,151568,1,4,0:0:0:0:
352,96,151773,1,4,0:0:0:0:
352,96,151979,1,4,0:0:0:0:
352,96,152184,1,4,0:0:0:0:
352,96,152390,1,4,0:0:0:0:
352,96,152595,1,4,0:0:0:0:
352,96,152801,1,4,0:0:0:0:
352,96,153006,1,4,0:0:0:0:
352,96,153212,1,4,0:0:0:0:
352,96,153417,1,4,0:0:0:0:
352,96,153623,1,4,0:0:0:0:
352,96,153828,1,4,0:0:0:0:
352,96,154034,1,4,0:0:0:0:
352,96,154239,1,4,0:0:0:0:
352,96,154445,1,4,0:0:0:0:
416,128,154650,1,8,0:0:0:0:
416,128,154753,1,8,0:0:0:0:
416,128,154856,1,8,0:0:0:0:
416,128,154958,1,8,0:0:0:0:
416,128,155061,1,8,0:0:0:0:
416,128,155164,1,8,0:0:0:0:
416,128,155266,1,0,0:0:0:0:
416,128,155369,1,0,0:0:0:0:
416,128,155472,1,8,0:0:0:0:
416,128,155575,1,8,0:0:0:0:
416,128,155677,1,8,0:0:0:0:
416,128,155780,1,8,0:0:0:0:
416,128,155883,1,8,0:0:0:0:
416,128,155986,1,0,0:0:0:0:
416,128,156088,1,0,0:0:0:0:
416,128,156191,1,0,0:0:0:0:
416,128,156294,1,8,0:0:0:0:
416,128,156397,1,8,0:0:0:0:
416,128,156499,1,0,0:0:0:0:
416,128,156602,1,0,0:0:0:0:
448,96,156705,1,8,0:0:0:0:
448,96,156756,1,8,0:0:0:0:
448,96,156808,1,0,0:0:0:0:
448,96,156859,1,0,0:0:0:0:
448,96,156910,1,0,0:0:0:0:
448,96,156962,1,0,0:0:0:0:
192,32,157047,1,0,0:0:0:0:
288,160,157116,1,8,0:0:0:0:
416,128,157184,1,8,0:0:0:0:
416,128,157253,1,8,0:0:0:0:
288,160,157321,1,0,0:0:0:0:
224,96,157390,1,0,0:0:0:0:
224,96,157458,1,0,0:0:0:0:
320,128,157527,1,8,0:0:0:0:
320,128,157595,1,8,0:0:0:0:
320,128,157664,1,8,0:0:0:0:
352,128,157732,1,0,0:0:0:0:
224,64,157801,1,0,0:0:0:0:
352,128,157869,1,0,0:0:0:0:
288,160,157938,1,4,0:0:0:0:
416,96,158349,1,0,0:0:0:0:
416,96,158554,1,0,0:0:0:0:
352,32,158657,1,0,0:0:0:0:
416,96,158760,1,12,0:0:0:0:
416,96,159171,1,0,0:0:0:0:
416,96,159376,1,8,0:0:0:0:
352,32,159479,1,8,0:0:0:0:
320,128,159582,1,0,0:0:0:0:
320,128,159787,1,8,0:0:0:0:
320,128,159993,1,0,0:0:0:0:
512,224,160198,1,0,0:0:0:0:
416,192,160301,1,0,0:0:0:0:
320,128,160403,1,8,0:0:0:0:
416,192,160506,1,8,0:0:0:0:
320,128,160609,1,0,0:0:0:0:
416,192,160712,1,8,0:0:0:0:
320,128,160814,1,8,0:0:0:0:
416,192,160917,1,8,0:0:0:0:
480,96,161020,1,0,0:0:0:0:
416,96,161071,1,0,0:0:0:0:
384,128,161123,1,8,0:0:0:0:
416,32,161225,1,4,0:0:0:0:
480,160,161636,1,8,0:0:0:0:
480,160,161842,1,0,0:0:0:0:
480,160,161945,1,0,0:0:0:0:
480,160,162047,1,12,0:0:0:0:
288,96,162253,1,0,0:0:0:0:
352,96,162321,1,8,0:0:0:0:
288,64,162390,1,8,0:0:0:0:
352,96,162458,1,0,0:0:0:0:
256,160,162664,1,8,0:0:0:0:
480,160,162869,1,0,0:0:0:0:
384,128,162972,1,8,0:0:0:0:
480,160,163075,1,8,0:0:0:0:
384,128,163177,1,0,0:0:0:0:
480,160,163280,1,8,0:0:0:0:
384,128,163383,1,8,0:0:0:0:
480,160,163486,1,0,0:0:0:0:
288,96,163691,1,8,0:0:0:0:
384,128,163794,1,8,0:0:0:0:
480,160,163897,1,8,0:0:0:0:
416,160,163999,1,8,0:0:0:0:
416,64,164102,1,8,0:0:0:0:
416,64,164205,1,0,0:0:0:0:
352,128,164308,1,0,0:0:0:0:
352,128,164359,1,0,0:0:0:0:
352,128,164410,1,8,0:0:0:0:
352,128,164513,1,4,0:0:0:0:
256,64,164924,1,0,0:0:0:0:
320,256,165130,1,0,0:0:0:0:
288,192,165198,1,0,0:0:0:0:
288,128,165266,1,0,0:0:0:0:
256,64,165335,1,12,0:0:0:0:
352,96,165746,1,0,0:0:0:0:
352,96,165951,1,8,0:0:0:0:
352,96,166020,1,8,0:0:0:0:
352,96,166088,1,8,0:0:0:0:
352,96,166157,1,0,0:0:0:0:
352,96,166362,1,8,0:0:0:0:
352,96,166568,1,0,0:0:0:0:
480,96,166773,1,0,0:0:0:0:
480,96,166876,1,0,0:0:0:0:
480,96,166979,1,12,0:0:0:0:
352,128,167116,1,0,0:0:0:0:
224,160,167253,1,0,0:0:0:0:
352,96,167390,1,8,0:0:0:0:
224,160,167527,1,8,0:0:0:0:
352,96,167664,1,0,0:0:0:0:
224,160,167801,1,4,0:0:0:0:
448,160,168212,1,0,0:0:0:0:
448,160,168417,1,0,0:0:0:0:
320,128,168486,1,0,0:0:0:0:
320,128,168554,1,0,0:0:0:0:
448,160,168623,1,8,0:0:0:0:
320,128,168760,1,0,0:0:0:0:
320,128,168897,1,0,0:0:0:0:
384,256,169034,1,8,0:0:0:0:
352,160,169136,1,0,0:0:0:0:
256,352,169239,1,8,0:0:0:0:
256,288,169308,1,8,0:0:0:0:
256,224,169376,1,8,0:0:0:0:
256,224,169445,1,0,0:0:0:0:
448,192,169650,1,8,0:0:0:0:
352,224,169753,1,8,0:0:0:0:
416,128,169856,1,0,0:0:0:0:
288,288,170061,1,0,0:0:0:0:
416,128,170266,1,12,0:0:0:0:
320,224,170446,1,0,0:0:0:0:
224,0,170656,1,8,0:0:0:0:
256,64,170725,1,8,0:0:0:0:
288,128,170793,1,8,0:0:0:0:
288,128,170862,1,8,0:0:0:0:
288,128,170930,1,8,0:0:0:0:
288,128,170999,1,8,0:0:0:0:
288,128,171067,1,4,0:0:0:0:
224,224,171474,1,0,0:0:0:0:
32,64,171679,1,0,0:0:0:0:
128,96,171782,1,0,0:0:0:0:
224,128,171885,1,12,0:0:0:0:
448,96,172090,1,0,0:0:0:0:
256,128,172321,1,8,0:0:0:0:
384,160,172450,1,8,0:0:0:0:
384,160,172578,1,8,0:0:0:0:
384,160,172703,1,4,0:0:0:0:
256,128,173006,1,0,0:0:0:0:
256,128,173280,1,0,0:0:0:0:
256,128,173554,1,8,0:0:0:0:
256,128,173691,1,8,0:0:0:0:
256,128,173828,1,8,0:0:0:0:
256,128,173965,1,0,0:0:0:0:
256,128,174102,1,0,0:0:0:0:
256,128,174239,1,0,0:0:0:0:
256,128,174376,1,4,0:0:0:0:
448,64,174582,1,8,0:0:0:0:
352,96,174684,1,0,0:0:0:0:
256,96,174787,1,8,0:0:0:0:
256,96,174890,1,0,0:0:0:0:
352,128,174993,1,0,0:0:0:0:
256,160,175198,1,12,0:0:0:0:
384,160,175609,1,0,0:0:0:0:
352,128,175814,1,8,0:0:0:0:
352,128,175882,1,8,0:0:0:0:
352,128,175951,1,8,0:0:0:0:
352,128,176019,1,0,0:0:0:0:
416,160,176225,1,8,0:0:0:0:
416,160,176328,1,0,0:0:0:0:
416,160,176431,1,0,0:0:0:0:
416,160,176534,1,8,0:0:0:0:
416,160,176636,1,0,0:0:0:0:
416,160,176842,1,12,0:0:0:0:
192,160,177047,1,8,0:0:0:0:
288,160,177150,1,8,0:0:0:0:
288,160,177253,1,8,0:0:0:0:
288,160,177356,1,0,0:0:0:0:
288,160,177458,1,0,0:0:0:0:
288,160,177561,1,0,0:0:0:0:
288,160,177664,1,4,0:0:0:0:
448,64,178075,1,0,0:0:0:0:
448,64,178280,1,0,0:0:0:0:
448,64,178383,1,0,0:0:0:0:
448,64,178486,1,12,0:0:0:0:
64,192,178897,1,0,0:0:0:0:
256,128,179102,1,8,0:0:0:0:
352,96,179205,1,8,0:0:0:0:
256,128,179308,1,0,0:0:0:0:
448,160,179513,1,8,0:0:0:0:
448,160,179582,1,8,0:0:0:0:
448,160,179650,1,8,0:0:0:0:
256,96,179719,1,0,0:0:0:0:
448,128,179924,1,0,0:0:0:0:
224,128,180130,1,12,0:0:0:0:
448,128,180335,1,8,0:0:0:0:
448,64,180386,1,8,0:0:0:0:
352,128,180438,1,8,0:0:0:0:
256,160,180540,1,8,0:0:0:0:
352,128,180643,1,0,0:0:0:0:
256,160,180746,1,0,0:0:0:0:
352,128,180849,1,0,0:0:0:0:
256,160,180951,1,4,0:0:0:0:
288,96,181157,1,0,0:0:0:0:
288,96,181260,1,0,0:0:0:0:
288,96,181362,1,8,0:0:0:0:
288,96,181567,1,0,0:0:0:0:
288,96,181773,1,0,0:0:0:0:
288,96,181979,1,0,0:0:0:0:
416,256,182184,1,8,0:0:0:0:
288,96,182390,1,0,0:0:0:0:
64,128,182595,1,0,0:0:0:0:
160,96,182697,1,0,0:0:0:0:
256,96,182800,1,8,0:0:0:0:
160,128,182903,1,0,0:0:0:0:
256,96,183005,1,8,0:0:0:0:
352,96,183108,1,0,0:0:0:0:
448,64,183211,1,8,0:0:0:0:
352,96,183314,1,8,0:0:0:0:
320,192,183416,1,0,0:0:0:0:
288,192,183485,1,8,0:0:0:0:
288,192,183553,1,0,0:0:0:0:
288,192,183622,1,0,0:0:0:0:
224,224,183690,1,0,0:0:0:0:
288,192,183750,1,8,0:0:0:0:
288,160,183810,1,8,0:0:0:0:
448,96,183930,1,0,0:0:0:0:
448,96,184033,1,0,0:0:0:0:
448,96,184136,1,0,0:0:0:0:
448,96,184238,1,4,0:0:0:0:
