osu file format v14

[General]
AudioFilename: audio.mp3
AudioLeadIn: 0
PreviewTime: 507
Countdown: 0
SampleSet: Soft
StackLeniency: 0.7
Mode: 2
LetterboxInBreaks: 0
WidescreenStoryboard: 1

[Editor]
DistanceSpacing: 1.3
BeatDivisor: 4
GridSize: 8
TimelineZoom: 1

[Metadata]
Title:Harumachi Clover
TitleUnicode:春待ちクローバー
Artist:Montablan64
ArtistUnicode:Montablan64
Creator:Quix
Version:Salad
Source:OneRoom
Tags:anime ed ending 市道真央 Ichimichi Mao 奥井康介 Kosuke Okui 花坂結衣 hanasaka yui M・A・O bluirre electronic instrumental chiptune bighzonda bigh 16bit cover [Montablan64]
BeatmapID:3674417
BeatmapSetID:1792964

[Difficulty]
HPDrainRate:3
CircleSize:3
OverallDifficulty:7
ApproachRate:7
SliderMultiplier:1.65
SliderTickRate:1

[Events]
//Background and Video events
0,0,"bg.jpg",0,0
//Break Periods
//Storyboard Layer 0 (Background)
//Storyboard Layer 1 (Fail)
//Storyboard Layer 2 (Pass)
//Storyboard Layer 3 (Foreground)
//Storyboard Layer 4 (Overlay)
//Storyboard Sound Samples

[TimingPoints]
613,422.535211267606,4,2,1,65,1,0
1670,422.535211267606,4,2,1,65,1,0
28712,-100,4,2,1,65,0,0
28923,-100,4,2,1,60,0,0
29134,-100,4,2,1,55,0,0
29346,-100,4,2,1,50,0,0
29557,-100,4,2,1,45,0,0
29768,-100,4,2,1,40,0,0
29979,-100,4,2,1,35,0,0
30191,-100,4,2,1,30,0,0
30402,-100,4,2,1,25,0,0
30613,-100,4,2,1,20,0,0
30824,-100,4,2,1,15,0,0
31036,-100,4,2,1,10,0,0
31881,-100,4,2,1,5,0,0

[Colours]
Combo1 : 0,128,255
Combo2 : 0,255,64
Combo3 : 255,255,64
Combo4 : 255,0,0

[HitObjects]
184,288,613,5,2,2:0:0:0:
102,292,824,2,0,P|43:258|110:226,1,165,2|2,2:0|2:0,0:0:0:0:
432,261,1670,6,0,L|433:96,1,165,4|0,3:2|1:0,0:0:0:0:
268,88,2515,2,0,L|168:85,2,82.5,0|2|0,3:0|2:0|1:0,0:0:0:0:
350,96,3148,1,2,2:0:0:0:
160,157,3360,6,0,L|61:156,2,82.5,0|2|0,3:0|2:0|1:0,0:0:0:0:
242,158,3993,2,0,P|345:154|363:282,1,247.5,2|0,2:0|1:0,0:0:0:0:
285,291,4839,1,2,2:0:0:0:
95,290,5050,6,0,L|96:126,1,165,0|0,3:0|1:0,0:0:0:0:
261,159,5895,1,0,3:0:0:0:
343,164,6106,1,2,2:0:0:0:
425,166,6317,1,0,1:0:0:0:
94,209,6740,6,0,L|0:209,2,82.5,0|2|0,3:0|2:0|1:0,0:0:0:0:
177,211,7374,2,0,L|440:211,1,247.5,2|0,2:0|1:0,0:0:0:0:
424,211,8219,1,2,2:0:0:0:
234,164,8430,6,0,L|68:163,1,165,4|0,3:2|1:0,0:0:0:0:
152,163,9064,1,2,2:0:0:0:
234,172,9275,2,0,L|234:84,1,82.5,0|2,3:0|2:0,0:0:0:0:
151,89,9698,2,0,L|239:89,1,82.5,0|2,1:0|2:0,0:0:0:0:
423,105,10120,6,0,P|481:154|422:180,1,165,4|0,3:2|1:0,0:0:0:0:
260,176,10965,2,0,L|139:176,2,82.5,0|2|0,3:0|2:0|1:0,0:0:0:0:
343,180,11599,1,2,2:0:0:0:
153,247,11810,6,0,P|92:282|157:330,1,165,4|0,3:2|1:0,0:0:0:0:
306,329,12655,2,0,L|480:330,1,165,0|0,3:0|1:0,0:0:0:0:
388,326,13289,1,2,2:0:0:0:
198,311,13500,5,4,1:2:0:0:
116,315,13712,1,2,3:0:0:0:
34,315,13923,1,0,1:0:0:0:
116,315,14134,1,2,3:0:0:0:
199,315,14346,2,0,L|22:315,1,165,0|0,1:0|1:0,0:0:0:0:
365,246,15191,6,0,P|437:271|419:345,1,165,4|0,3:2|1:0,0:0:0:0:
255,235,16036,1,0,3:0:0:0:
173,235,16247,1,2,2:0:0:0:
91,233,16458,1,0,1:0:0:0:
422,237,16881,6,0,L|515:237,2,82.5,0|2|0,3:0|2:0|1:0,0:0:0:0:
339,238,17515,2,0,P|246:214|329:122,1,247.5,2|0,2:0|1:0,0:0:0:0:
391,129,18360,1,2,2:0:0:0:
201,275,18571,6,0,L|36:276,1,165,4|0,3:2|1:0,0:0:0:0:
202,180,19416,2,0,L|302:177,2,82.5,0|2|0,3:0|2:0|1:0,0:0:0:0:
118,187,20049,1,2,2:0:0:0:
308,285,20261,6,0,L|478:284,1,165,4|0,3:2|1:0,0:0:0:0:
390,286,20895,1,0,3:0:0:0:
308,285,21106,2,0,L|111:285,1,165,0|0,1:0|1:0,0:0:0:0:
473,241,21951,6,0,P|483:164|406:162,1,165,4|0,3:2|1:0,0:0:0:0:
247,301,22796,1,0,1:0:0:0:
330,303,23008,1,2,3:0:0:0:
412,301,23219,1,0,1:0:0:0:
222,301,23430,6,0,P|173:295|229:228,1,165,6|2,2:0|3:0,0:0:0:0:
292,229,24064,2,0,L|292:137,1,82.5,0|2,3:0|3:0,0:0:0:0:
210,144,24486,2,0,L|118:144,1,82.5,0|2,1:0|3:0,0:0:0:0:
127,144,24909,1,0,3:0:0:0:
317,71,25120,6,0,L|496:70,1,165,6|2,2:0|2:0,0:0:0:0:
399,84,25754,2,0,L|229:84,1,165,0|0,3:0|1:0,0:0:0:0:
400,220,26599,1,0,3:0:0:0:
210,222,26810,6,0,L|37:220,1,165,6|2,2:0|2:0,0:0:0:0:
128,224,27444,1,0,1:0:0:0:
212,228,27655,2,0,P|291:200|266:108,1,165,0|0,1:0|1:0,0:0:0:0:
207,108,28289,1,0,1:0:0:0:
125,86,28500,1,0,1:0:0:0:
324,91,28712,5,4,1:2:0:0:
256,192,29134,12,0,31881,0:0:0:0:
