osu file format v14

[General]
AudioFilename: audio.mp3
AudioLeadIn: 0
PreviewTime: 507
Countdown: 0
SampleSet: Soft
StackLeniency: 0.7
Mode: 2
LetterboxInBreaks: 0
WidescreenStoryboard: 1

[Editor]
DistanceSpacing: 1.3
BeatDivisor: 4
GridSize: 8
TimelineZoom: 1.9

[Metadata]
Title:Harumachi Clover
TitleUnicode:春待ちクローバー
Artist:Montablan64
ArtistUnicode:Montablan64
Creator:Quix
Version:Cup
Source:OneRoom
Tags:anime ed ending 市道真央 Ichimichi Mao 奥井康介 Kosuke Okui 花坂結衣 hanasaka yui M・A・O bluirre electronic instrumental chiptune bighzonda bigh 16bit cover [Montablan64]
BeatmapID:3674415
BeatmapSetID:1792964

[Difficulty]
HPDrainRate:2
CircleSize:2.5
OverallDifficulty:6
ApproachRate:6
SliderMultiplier:1.55
SliderTickRate:1

[Events]
//Background and Video events
0,0,"bg.jpg",0,0
//Break Periods
//Storyboard Layer 0 (Background)
//Storyboard Layer 1 (Fail)
//Storyboard Layer 2 (Pass)
//Storyboard Layer 3 (Foreground)
//Storyboard Layer 4 (Overlay)
//Storyboard Sound Samples

[TimingPoints]
613,422.535211267606,4,2,1,65,1,0
1670,422.535211267606,4,2,1,65,1,0
28712,-100,4,2,1,65,0,0
28923,-100,4,2,1,60,0,0
29134,-100,4,2,1,55,0,0
29346,-100,4,2,1,50,0,0
29557,-100,4,2,1,45,0,0
29768,-100,4,2,1,40,0,0
29979,-100,4,2,1,35,0,0
30191,-100,4,2,1,30,0,0
30402,-100,4,2,1,25,0,0
30613,-100,4,2,1,20,0,0
30824,-100,4,2,1,15,0,0
31036,-100,4,2,1,10,0,0
31881,-100,4,2,1,5,0,0

[Colours]
Combo1 : 0,128,255
Combo2 : 0,255,64
Combo3 : 255,255,64
Combo4 : 255,0,0

[HitObjects]
295,307,613,5,2,2:0:0:0:
217,310,824,2,0,P|167:253|240:222,1,155,2|2,2:0|2:0,0:0:0:0:
372,242,1670,6,0,L|372:76,1,155,4|0,3:2|1:0,0:0:0:0:
217,87,2515,2,0,L|217:253,1,155,0|0,3:0|1:0,0:0:0:0:
373,231,3360,5,0,3:0:0:0:
295,234,3571,1,2,2:0:0:0:
217,242,3782,1,0,1:0:0:0:
372,231,4205,2,0,L|208:231,1,155,0|0,3:0|1:0,0:0:0:0:
62,264,5050,6,0,L|62:82,1,155,0|0,3:0|1:0,0:0:0:0:
217,117,5895,2,0,L|378:117,1,155,0|0,3:0|1:0,0:0:0:0:
217,117,6740,6,0,L|115:117,2,77.5,0|2|0,3:0|2:0|1:0,0:0:0:0:
372,117,7585,2,0,L|372:292,1,155,0|0,3:0|1:0,0:0:0:0:
217,271,8430,6,0,L|390:272,1,155,4|0,3:2|1:0,0:0:0:0:
217,271,9275,1,0,3:0:0:0:
139,269,9486,1,2,2:0:0:0:
61,270,9698,1,0,1:0:0:0:
217,271,10120,6,0,L|394:272,1,155,4|0,3:2|1:0,0:0:0:0:
217,241,10965,1,0,3:0:0:0:
139,225,11177,1,2,2:0:0:0:
217,241,11388,1,0,1:0:0:0:
372,253,11810,6,0,L|214:253,1,155,4|0,3:2|1:0,0:0:0:0:
62,253,12655,2,0,L|220:253,1,155,0|0,3:0|1:0,0:0:0:0:
372,197,13500,5,4,1:2:0:0:
450,199,13712,1,2,3:0:0:0:
372,197,13923,1,0,1:0:0:0:
217,158,14346,1,0,1:0:0:0:
295,150,14557,1,0,1:0:0:0:
374,133,14768,1,0,1:0:0:0:
452,115,14979,1,0,1:0:0:0:
374,133,15191,6,0,L|189:133,1,155,4|0,3:2|1:0,0:0:0:0:
374,133,16036,2,0,P|430:180|372:228,1,155,0|0,3:0|1:0,0:0:0:0:
231,219,16881,5,0,3:0:0:0:
153,214,17092,1,2,2:0:0:0:
75,211,17303,1,0,1:0:0:0:
230,226,17726,2,0,L|230:384,1,155,0|0,3:0|1:0,0:0:0:0:
75,348,18571,6,0,L|233:350,1,155,4|0,3:2|1:0,0:0:0:0:
385,331,19416,2,0,L|385:168,1,155,0|0,3:0|1:0,0:0:0:0:
230,204,20261,5,4,3:2:0:0:
75,206,20683,2,0,L|75:126,1,77.5,0|0,1:0|3:0,0:0:0:0:
153,122,21106,2,0,L|329:123,1,155,0|0,1:0|1:0,0:0:0:0:
153,160,21951,6,0,P|95:198|154:241,1,155,4|0,3:2|1:0,0:0:0:0:
297,244,22796,1,0,1:0:0:0:
375,247,23008,1,2,3:0:0:0:
453,248,23219,1,0,1:0:0:0:
375,247,23430,1,6,2:0:0:0:
220,241,23853,5,2,3:0:0:0:
142,237,24064,1,0,3:0:0:0:
220,241,24275,1,2,3:0:0:0:
298,253,24486,2,0,L|299:77,1,155,0|0,1:0|3:0,0:0:0:0:
221,69,25120,6,0,L|59:69,1,155,6|2,2:0|2:0,0:0:0:0:
144,71,25754,1,0,3:0:0:0:
455,95,26599,1,0,3:0:0:0:
377,94,26810,6,0,L|212:94,1,155,6|2,2:0|2:0,0:0:0:0:
300,93,27444,1,0,1:0:0:0:
223,94,27655,1,0,1:0:0:0:
68,99,28078,2,0,L|69:194,1,77.5,0|0,1:0|1:0,0:0:0:0:
224,187,28712,5,4,1:2:0:0:
256,192,29134,12,0,31881,0:0:0:0:
