osu file format v14

[General]
AudioFilename: audio.mp3
AudioLeadIn: 0
PreviewTime: -1
Countdown: 0
SampleSet: Soft
StackLeniency: 0.5
Mode: 0
LetterboxInBreaks: 0
WidescreenStoryboard: 1

[Editor]
DistanceSpacing: 3
BeatDivisor: 16
GridSize: 8
TimelineZoom: 8

[Metadata]
Title:[Trance] - Au5 - Crossroad (feat. Danyka Nadeau) [
TitleUnicode:[Trance] - Au5 - Crossroad (feat. Danyka Nadeau) [
Artist:Monstercat: Uncaged
ArtistUnicode:Monstercat: Uncaged
Creator:Keydona
Version:Extra
Source:
Tags:
BeatmapID:3780726
BeatmapSetID:1801347

[Difficulty]
HPDrainRate:5
CircleSize:4
OverallDifficulty:8
ApproachRate:9
SliderMultiplier:1.6
SliderTickRate:1

[Events]
//Background and Video events
0,0,"120-1205428_soul-worker-iris-yuma.jpg",0,0
//Break Periods
2,15200,16275
2,105668,107681
2,121840,123150
2,125590,126900
//Storyboard Layer 0 (Background)
//Storyboard Layer 1 (Fail)
//Storyboard Layer 2 (Pass)
//Storyboard Layer 3 (Foreground)
//Storyboard Layer 4 (Overlay)
//Storyboard Sound Samples

[TimingPoints]
0,468.75,4,2,0,60,1,0
0,468.75,4,2,0,60,1,0
5625,-100,4,2,0,60,0,0
16875,-133.333333333333,4,2,0,60,0,0
30000,-100,4,2,0,60,0,0
34218,-66.6666666666667,4,2,0,60,0,0
37968,-100,4,2,0,60,0,0
38437,-100,4,2,0,60,0,0
39609,-133.333333333333,4,2,0,60,0,0
41718,-100,4,2,0,60,0,0
45000,-50,4,2,0,60,0,0
46171,-100,4,2,0,60,0,0
46875,-66.6666666666667,4,2,0,60,0,0
48281,-33.3333333333333,4,2,0,60,0,0
49101,-66.6666666666667,4,2,0,60,0,0
49218,-66.6666666666667,4,2,0,60,0,0
51562,-33.3333333333333,4,2,0,60,0,0
53437,-66.6666666666667,4,2,0,60,0,0
54375,-33.3333333333333,4,2,0,60,0,0
54843,-66.6666666666667,4,2,0,60,0,0
55078,-33.3333333333333,4,2,0,60,0,0
55781,-33.3333333333333,4,2,0,60,0,0
56250,-33.3333333333333,4,2,0,60,0,0
56718,-66.6666666666667,4,2,0,60,0,0
60000,-50,4,2,0,60,0,0
63281,-33.3333333333333,4,2,0,60,0,0
64218,-66.6666666666667,4,2,0,60,0,0
67500,-58.8235294117647,4,2,0,60,0,0
70312,-33.3333333333333,4,2,0,60,0,0
72187,-58.8235294117647,4,2,0,60,0,0
75000,234.375,4,2,0,60,1,0
75000,-100,4,2,0,60,0,0
78281,-133.333333333333,4,2,0,60,0,0
78750,-100,4,2,0,60,0,0
82031,-133.333333333333,4,2,0,60,0,0
82500,-100,4,2,0,60,0,0
89062,-100,4,2,0,60,0,1
89296,-100,4,2,0,60,0,0
89531,-100,4,2,0,60,0,1
90000,-100,4,2,0,60,0,1
97500,-90.9090909090909,4,2,0,60,0,1
101250,-90.9090909090909,4,2,0,60,0,1
102890,-90.9090909090909,4,2,0,60,0,0
103125,-90.9090909090909,4,2,0,60,0,1
104003,-90.9090909090909,4,2,0,60,0,0
104062,-90.9090909090909,4,2,0,60,0,1
104941,-90.9090909090909,4,2,0,60,0,0
105000,468.75,4,2,0,60,1,0
105000,-100,4,2,0,60,0,1
105087,-100,4,2,0,60,0,0
111562,-66.6666666666667,4,2,0,60,0,0
120000,-66.6666666666667,4,2,0,60,0,0
123750,-66.6666666666667,4,2,0,60,0,0
127500,234.375,4,2,0,60,1,0
127500,-100,4,2,0,60,0,1
127500,-100,4,2,0,60,0,1
127558,-100,4,2,0,60,0,0
128437,-66.6666666666667,4,2,0,60,0,0
129375,-100,4,2,0,60,0,0
130312,-66.6666666666667,4,2,0,60,0,0
131250,-133.333333333333,4,2,0,60,0,1
131484,-100,4,2,0,60,0,1
131718,-66.6666666666667,4,2,0,60,0,1
131953,-50,4,2,0,60,0,1
132084,-50,4,2,0,60,0,0
132187,-40,4,2,0,60,0,1
132421,-33.3333333333333,4,2,0,60,0,1
132656,-28.5714285714286,4,2,0,60,0,1
132890,-25,4,2,0,60,0,1
133066,-25,4,2,0,60,0,0
133125,468.75,4,2,0,60,1,0
133125,-100,4,2,0,60,0,1
133271,-100,4,2,0,60,0,0
134531,-100,4,2,0,60,0,1
135000,234.375,4,2,0,60,1,0
135000,-100,4,2,0,60,0,1
135937,-285.714285714284,4,2,0,60,0,1
136054,-100,4,2,0,60,0,1
137343,-200,4,2,0,60,0,1
137460,-100,4,2,0,60,0,1
139687,-200,4,2,0,60,0,1
139921,-100,4,2,0,60,0,1
140156,-100,4,2,0,60,0,1
141093,-200,4,2,0,60,0,1
141328,-100,4,2,0,60,0,1
141562,-100,4,2,0,60,0,1
144609,-100,4,2,0,60,0,1
150000,-100,4,2,0,60,0,1
150468,-66.6666666666667,4,2,0,60,0,1
150937,-100,4,2,0,60,0,1
153750,-100,4,2,0,60,0,1
154218,-66.6666666666667,4,2,0,60,0,1
154687,-100,4,2,0,60,0,1
157500,-100,4,2,0,60,0,1
157968,-66.6666666666667,4,2,0,60,0,1
158437,-100,4,2,0,60,0,1
161132,-100,4,2,0,60,0,0
161250,-100,4,2,0,60,0,1
161484,-100,4,2,0,60,0,1
163125,468.75,4,2,0,60,1,0
163125,-100,4,2,0,60,0,1
163242,-100,4,2,0,60,0,0
165000,234.375,4,2,0,60,1,0
165468,-90.9090909090909,4,2,0,60,0,0
193125,-90.9090909090909,4,2,0,60,0,1
194062,234.375,3,2,0,60,1,1
195468,468.75,4,2,0,60,1,1
195936,-100,4,2,0,60,0,0
198749,-66.6666666666667,4,2,0,60,0,0
201561,-66.6666666666667,4,2,0,60,0,0
202030,-66.6666666666667,4,2,0,60,0,0
202499,-66.6666666666667,4,2,0,60,0,0
205780,468.75,3,2,0,66,1,0
206248,-66.6666666666667,3,2,0,59,0,0
206717,-66.6666666666667,3,2,0,60,0,0
209998,468.75,4,2,0,100,1,0
223123,468.75,3,2,0,100,1,0
225935,468.75,4,2,0,29,1,0
242810,-133.333333333333,4,2,0,28,0,0
252185,468.75,3,2,0,27,1,0
254060,-100,3,2,0,61,0,1
254323,-100,3,2,0,60,0,1
254997,468.75,4,2,0,60,1,0
254997,-47.6190476190476,4,2,0,60,0,1
257106,-47.6190476190476,4,2,0,60,0,0
258747,-47.6190476190476,4,2,0,60,0,1
260387,-47.6190476190476,4,2,0,60,0,0
262497,-47.6190476190476,4,2,0,60,0,1
264137,-47.6190476190476,4,2,0,60,0,0
266247,468.75,3,2,0,60,1,0
266247,-50,3,2,0,60,0,1
266247,-50,3,2,0,60,0,1
267887,-50,3,2,0,60,0,0
269059,234.375,4,2,0,60,1,0
269059,-66.6666666666667,4,2,0,60,0,1
273819,-66.6666666666667,4,2,0,60,0,0
273980,-66.6666666666667,4,2,0,60,0,1
275592,-66.6666666666667,4,2,0,60,0,0
275621,-66.6666666666667,4,2,0,60,0,1
277437,-66.6666666666667,4,2,0,60,0,0
277496,-66.6666666666667,4,2,0,60,0,1
281217,-66.6666666666667,4,2,0,60,0,0
281246,-66.6666666666667,4,2,0,60,0,1
283077,-66.6666666666667,4,2,0,60,0,0
283121,-66.6666666666667,4,2,0,60,0,1
284000,-66.6666666666667,4,2,0,60,0,0
284059,-66.6666666666667,4,2,0,60,0,1
284996,468.75,4,2,0,60,1,0

[Colours]
Combo1 : 0,0,160
Combo2 : 192,192,192
Combo3 : 255,255,0
Combo4 : 255,128,0
Combo5 : 213,0,0
Combo6 : 255,0,128
Combo7 : 128,0,128
Combo8 : 0,0,64

[HitObjects]
344,245,3750,6,0,B|316:254|304:245|308:229|317:210|317:201|311:195|296:172|282:164|259:167|236:175|226:189|217:206|212:219|210:230|211:233|211:242|206:269|186:289|162:285|127:257|114:241,1,320,2|0,0:0|0:0,0:0:0:0:
113,243,5625,6,0,B|138:298|138:298|195:330|195:330|218:329|245:314|264:291|272:262|260:240|247:226|241:222|221:212|204:194|214:178,1,320,2|0,0:0|0:0,0:0:0:0:
115,62,7500,6,0,B|164:49|176:49|200:83|233:99|256:165|214:213|165:221|131:231|110:258|103:297|120:338|171:367|269:449|281:333|346:380|358:204|299:179|273:122|273:122|247:90|258:-2|388:-18|423:29|379:77|411:117|418:153|414:174|407:181|403:185|390:199|385:218|385:238|388:265|387:276|351:275|439:329,1,1200,2|0,0:0|0:0,0:0:0:0:
256,192,11250,12,2,15000,0:0:0:0:
221,265,16875,6,0,B|215:244|217:242|219:236|229:220|242:209|265:185|260:156,1,120.000004577637,2|0,0:0|0:0,0:0:0:0:
121,238,17578,1,0,0:0:0:0:
303,338,17812,6,0,B|282:353|270:358|238:367|222:368|209:368|185:363|155:343|149:333|147:329|146:327|146:326|157:306|181:288|200:276|217:267|235:259|239:252|245:229|239:185|227:161|208:139|125:103|125:102|113:82|109:73,1,480.000018310548,2|0,0:0|0:0,0:0:0:0:
370,324,20625,6,0,B|371:306|368:295|332:282,1,60.0000022888184,2|0,0:0|0:0,0:0:0:0:
272,245,21093,2,0,B|254:247|231:246|213:236,1,60.0000022888184,2|0,0:0|0:0,0:0:0:0:
158,109,21562,1,2,0:0:0:0:
339,122,21796,2,0,L|326:186,1,60.0000022888184
231,163,22265,1,0,0:0:0:0:
230,207,22500,6,0,P|232:175|200:92,1,120.000004577637,2|0,0:0|0:0,0:0:0:0:
202,114,23437,5,2,0:0:0:0:
369,114,23671,1,0,0:0:0:0:
362,269,23906,5,2,0:0:0:0:
196,234,24140,1,0,0:0:0:0:
196,234,24375,2,0,P|173:233|142:205,2,60.0000022888184,2|0|0,0:0|0:0|0:0,0:0:0:0:
250,91,25078,1,0,0:0:0:0:
250,91,25312,6,0,P|214:55|205:54,2,60.0000022888184,2|0|0,0:0|0:0|0:0,0:0:0:0:
264,139,26015,1,0,0:0:0:0:
264,139,26250,6,0,B|257:153|234:162|199:173|190:184|205:286|195:300|128:327,1,240.000009155274,2|0,0:0|0:0,0:0:0:0:
148,63,28125,6,0,P|159:88|223:158,1,120.000004577637,2|0,0:0|0:0,0:0:0:0:
354,310,28828,1,0,0:0:0:0:
102,205,29062,6,0,B|103:198|114:175|130:147|167:97|190:97|226:103|237:106,1,180.000006866455,2|0,0:0|0:0,0:0:0:0:
285,318,30000,5,2,0:0:0:0:
101,241,30234,1,0,0:0:0:0:
274,134,30468,6,0,L|355:105,1,80,2|0,0:0|0:0,0:0:0:0:
278,348,30937,5,2,0:0:0:0:
124,267,31171,1,0,0:0:0:0:
266,137,31406,6,0,L|349:117,1,80,2|0,0:0|0:0,0:0:0:0:
307,336,31875,5,2,0:0:0:0:
359,180,32109,1,0,0:0:0:0:
184,135,32343,6,0,P|185:168|206:219,1,80,2|0,0:0|0:0,0:0:0:0:
336,348,32812,6,0,B|323:316|334:309|354:296|361:273|333:191,1,160,2|0,0:0|0:0,0:0:0:0:
324,133,33750,5,2,0:0:0:0:
119,33,33984,1,0,0:0:0:0:
225,204,34218,6,0,P|240:243|308:271,1,120.000004577637,2|0,0:0|0:0,0:0:0:0:
367,76,34687,5,2,0:0:0:0:
162,34,34921,1,0,0:0:0:0:
264,227,35156,6,0,P|273:240|366:276,1,120.000004577637,2|0,0:0|0:0,0:0:0:0:
210,378,35625,5,2,0:0:0:0:
121,245,35859,1,0,0:0:0:0:
280,156,36093,6,0,P|304:183|284:265,1,120.000004577637,2|0,0:0|0:0,0:0:0:0:
111,67,36562,5,2,0:0:0:0:
270,48,36796,1,0,0:0:0:0:
277,230,37030,6,0,P|242:239|178:184,1,120.000004577637,2|0,0:0|0:0,0:0:0:0:
430,114,37500,5,2,0:0:0:0:
380,266,37734,1,0,0:0:0:0:
212,196,37968,6,0,P|219:160|242:117,1,80,2|0,0:0|0:0,0:0:0:0:
280,50,38437,5,2,0:0:0:0:
195,137,38671,1,0,0:0:0:0:
286,145,38906,5,2,0:0:0:0:
286,145,39140,2,0,P|303:148|346:199,1,80
358,265,39609,2,0,P|320:279|151:128,1,300.000011444092
124,267,41250,5,2,0:0:0:0:
231,86,41484,1,0,0:0:0:0:
231,86,41718,6,0,P|264:103|301:126,1,80,2|0,0:0|0:0,0:0:0:0:
124,267,42187,5,2,0:0:0:0:
231,86,42421,1,0,0:0:0:0:
231,86,42655,6,0,P|264:103|301:126,1,80,2|0,0:0|0:0,0:0:0:0:
377,85,43125,5,2,0:0:0:0:
511,233,43359,1,0,0:0:0:0:
511,233,43593,6,0,P|494:267|471:304,1,80,2|0,0:0|0:0,0:0:0:0:
377,85,44062,5,2,0:0:0:0:
511,233,44296,1,0,0:0:0:0:
511,233,44530,6,0,P|494:267|471:304,1,80,2|0,0:0|0:0,0:0:0:0:
271,100,45000,6,0,P|258:133|145:186,1,160,14|0,0:0|0:0,0:0:0:0:
141,86,45351,2,0,P|157:100|198:228,1,160,10|0,0:0|0:0,0:0:0:0:
199,227,45703,2,0,P|202:197|184:136,2,80,10|0|0,0:0|0:0|0:0,0:0:0:0:
360,120,46171,1,0,0:0:0:0:
360,120,46289,1,0,0:0:0:0:
360,120,46406,6,0,L|341:155,1,40,2|0,0:0|0:0,0:0:0:0:
339,273,46640,1,0,0:0:0:0:
166,166,46875,6,0,P|203:142|286:149,1,120.000004577637,2|0,0:0|0:0,0:0:0:0:
287,312,47343,6,0,P|270:269|258:193,1,120.000004577637,2|0,0:0|0:0,0:0:0:0:
217,30,47812,6,0,P|243:33|314:94,1,120.000004577637,2|0,0:0|0:0,0:0:0:0:
184,66,48281,6,0,P|251:76|262:146,1,120.000004577637,14|0,0:0|0:0,0:0:0:0:
212,125,48515,6,0,P|222:161|313:158,1,120.000004577637,14|0,0:0|0:0,0:0:0:0:
267,128,48750,6,0,P|274:99|139:99,1,240.000009155274,14|0,0:0|0:0,0:0:0:0:
212,125,49101,2,0,P|220:144|298:208,1,120.000004577637
267,128,49453,2,0,P|279:147|368:188,1,120.000004577637
359,323,49921,1,0,0:0:0:0:
159,264,50156,5,2,0:0:0:0:
312,116,50390,1,0,0:0:0:0:
233,38,50625,6,0,P|262:66|313:262,1,240.000009155274,2|0,0:0|0:0,0:0:0:0:
290,314,51328,2,0,L|239:280,1,60.0000022888184
182,155,51562,6,0,P|237:150|395:55,1,240.000009155274,14|0,0:0|0:0,0:0:0:0:
393,57,52031,6,0,P|371:86|208:16,1,240.000009155274,14|0,0:0|0:0,0:0:0:0:
211,34,52500,6,0,P|318:84|259:147,1,240.000009155274,14|0,0:0|0:0,0:0:0:0:
141,156,52968,5,2,0:0:0:0:
346,183,53203,1,0,0:0:0:0:
245,144,53437,6,0,P|249:193|184:192,1,120.000004577637,2|0,0:0|0:0,0:0:0:0:
177,56,53906,5,2,0:0:0:0:
318,99,54140,1,0,0:0:0:0:
323,101,54375,6,0,P|335:133|196:221,1,240.000009155274,14|0,0:0|0:0,0:0:0:0:
329,56,54843,5,2,0:0:0:0:
329,56,55078,2,0,P|288:150|205:85,1,240.000009155274,14|0,0:0|0:0,0:0:0:0:
391,190,55546,1,0,0:0:0:0:
221,111,55781,1,14,0:0:0:0:
190,124,55898,1,0,0:0:0:0:
163,104,56015,1,0,0:0:0:0:
132,115,56132,1,0,0:0:0:0:
100,101,56250,2,0,P|103:206|210:276,1,240.000009155274,14|0,0:0|0:0,0:0:0:0:
171,183,56718,5,2,0:0:0:0:
354,144,56953,6,0,P|318:181|307:249,2,120.000004577637
264,120,57656,5,2,0:0:0:0:
303,193,58359,5,2,0:0:0:0:
303,193,59062,5,2,0:0:0:0:
269,241,59296,1,0,0:0:0:0:
236,209,59531,5,2,0:0:0:0:
216,234,59648,1,0,0:0:0:0:
220,267,59765,1,0,0:0:0:0:
234,298,59882,1,0,0:0:0:0:
261,322,60000,6,0,P|226:324|130:244,1,160,14|0,0:0|0:0,0:0:0:0:
219,198,60351,6,0,P|214:218|115:309,1,160,10|0,0:0|0:0,0:0:0:0:
116,311,60703,6,0,P|145:301|193:258,2,80,10|0|0,0:0|0:0|0:0,0:0:0:0:
270,171,61171,1,0,0:0:0:0:
270,171,61289,1,0,0:0:0:0:
270,171,61406,6,0,L|311:246,1,80,2|0,0:0|0:0,0:0:0:0:
387,267,61640,1,0,0:0:0:0:
189,135,61875,6,0,P|189:170|280:265,1,160,2|0,0:0|0:0,0:0:0:0:
373,106,62343,6,0,P|339:102|208:151,1,160,2|0,0:0|0:0,0:0:0:0:
297,387,62812,5,2,0:0:0:0:
323,295,63281,6,0,P|330:245|268:268,1,120.000004577637,14|0,0:0|0:0,0:0:0:0:
275,246,63515,6,0,P|276:186|229:187,1,120.000004577637,14|0,0:0|0:0,0:0:0:0:
230,186,63750,2,0,P|212:222|344:287,1,240.000009155274,14|0,0:0|0:0,0:0:0:0:
388,132,64218,5,2,0:0:0:0:
382,247,64453,2,0,P|371:259|264:289,1,120.000004577637
310,247,64921,1,0,0:0:0:0:
310,247,65039,1,0,0:0:0:0:
310,247,65156,6,0,P|246:264|182:258,1,120.000004577637,2|0,0:0|0:0,0:0:0:0:
125,149,65625,5,14,0:0:0:0:
145,124,65742,1,0,0:0:0:0:
291,140,65976,2,0,L|235:186,1,60.0000022888184
125,266,66328,2,0,L|185:228,1,60.0000022888184
267,294,66562,5,14,0:0:0:0:
295,278,66679,1,0,0:0:0:0:
110,300,66914,6,0,L|169:263,1,60.0000022888184
207,144,67265,1,0,0:0:0:0:
176,133,67382,1,0,0:0:0:0:
146,116,67500,2,0,P|121:102|231:22,1,272.000005187988,14|0,0:0|0:0,0:0:0:0:
189,206,68203,1,0,0:0:0:0:
233,272,68437,6,0,P|194:233|327:193,1,272.000005187988,2|0,0:0|0:0,0:0:0:0:
290,224,69140,1,0,0:0:0:0:
381,321,69375,6,0,P|303:359|301:221,1,272.000005187988,2|0,0:0|0:0,0:0:0:0:
224,148,70078,1,0,0:0:0:0:
157,196,70312,6,0,P|125:195|218:158,1,480.000018310548,14|0,0:0|0:0,0:0:0:0:
222,225,71015,1,0,0:0:0:0:
241,251,71132,1,0,0:0:0:0:
265,275,71250,6,0,B|312:257|331:238|342:212|339:166|329:132|308:108|281:96|236:87|202:96|177:118|157:145|154:162|154:182|157:200|163:219|170:236|177:251|184:270|190:278|196:288|208:304,1,480.000018310548,14|0,0:0|0:0,0:0:0:0:
279,327,71953,1,0,0:0:0:0:
279,327,72070,1,0,0:0:0:0:
279,327,72187,6,0,P|270:281|227:370,1,272.000005187988,2|0,0:0|0:0,0:0:0:0:
322,378,72890,1,0,0:0:0:0:
178,253,73125,1,14,0:0:0:0:
194,228,73242,1,0,0:0:0:0:
218,213,73359,1,0,0:0:0:0:
171,97,73593,5,2,0:0:0:0:
364,126,73828,1,0,0:0:0:0:
269,189,74062,5,14,0:0:0:0:
269,189,74179,2,0,P|204:212|163:183,1,120.000004577637
107,120,74414,5,14,0:0:0:0:
79,141,74531,6,0,B|138:176|138:176|90:202,1,120.000004577637,2|0,0:0|0:0,0:0:0:0:
111,291,74765,5,14,0:0:0:0:
139,274,74882,1,0,0:0:0:0:
225,292,75000,6,0,B|275:268|290:236|254:222|240:194|248:135|279:103|310:92,1,240.000009155274,2|0,0:0|0:0,0:0:0:0:
170,199,75468,6,0,B|161:233|136:248|106:243|85:209|88:179|101:163|135:150|153:137|162:114|152:81|153:71,1,240,2|0,0:0|0:0,0:0:0:0:
205,291,75937,6,0,B|234:197|233:178|224:160|228:146|151:74,1,240,2|0,0:0|0:0,0:0:0:0:
170,199,76406,6,0,B|194:235|161:300|159:348|264:399,1,240,2|0,0:0|0:0,0:0:0:0:
352,393,76875,6,0,B|381:347|345:331|313:337|294:335|277:320|269:243|366:228,1,240,2|0,0:0|0:0,0:0:0:0:
263,398,77343,6,0,B|237:324|261:294|320:298|394:317|352:391,1,240,2|0,0:0|0:0,0:0:0:0:
249,0,77812,6,0,B|313:6|324:112|295:143|238:139|207:153,1,240,2|0,0:0|0:0,0:0:0:0:
98,145,78281,6,0,L|105:207,1,60.0000022888184,2|0,0:0|0:0,0:0:0:0:
211,152,78515,5,2,0:0:0:0:
137,305,78632,1,0,0:0:0:0:
255,337,78750,6,0,B|214:328|199:299|203:265|210:233|211:200|121:154,1,240,2|0,0:0|0:0,0:0:0:0:
216,46,79218,6,0,B|209:83|306:117|334:106|346:109|362:134|339:205,1,240,2|0,0:0|0:0,0:0:0:0:
226,208,79687,6,0,B|197:239|196:256|220:297|258:310|376:240,1,240,2|0,0:0|0:0,0:0:0:0:
352,377,80156,6,0,B|315:349|318:296|325:254|309:210|257:191|221:211,1,240,2|0,0:0|0:0,0:0:0:0:
259,204,80625,6,0,B|242:187|222:200|218:221|232:261|231:292|208:322|168:333|104:280,1,240,2|0,0:0|0:0,0:0:0:0:
164,231,81093,6,0,B|142:221|147:182|171:158|197:120|197:80|175:48|115:34,1,240,2|0,0:0|0:0,0:0:0:0:
114,107,81562,6,0,B|120:124|120:149|111:190|101:205|87:219|88:247|101:274|123:296|154:310|181:319|168:314,1,240,2|0,0:0|0:0,0:0:0:0:
192,227,82031,6,0,P|205:201|237:191,1,60.0000022888184,2|0,0:0|0:0,0:0:0:0:
168,315,82265,5,2,0:0:0:0:
320,286,82382,1,0,0:0:0:0:
243,350,82500,6,0,B|226:321|245:299|269:269|283:236|280:202|263:174|235:165|215:165|197:169|189:173,1,240,2|0,0:0|0:0,0:0:0:0:
315,131,82968,6,0,B|300:156|260:149|234:138|209:149|193:184|201:208|203:237|207:245|238:266|272:266,1,240,2|0,0:0|0:0,0:0:0:0:
322,211,83437,6,0,B|274:215|241:237|243:299|270:331|316:316|352:286|383:286|395:294,1,240,2|0,0:0|0:0,0:0:0:0:
191,0,83906,6,0,B|154:11|137:14|112:39|112:74|124:100|149:115|184:107|197:114|205:149|186:179,1,240,2|0,0:0|0:0,0:0:0:0:
212,285,84375,6,0,B|180:280|165:261|148:246|138:220|150:186|167:176|185:174|192:174,1,160,2|0,0:0|0:0,0:0:0:0:
310,170,84726,1,0,0:0:0:0:
188,175,84843,5,2,0:0:0:0:
333,337,85078,5,2,0:0:0:0:
230,113,85312,6,0,B|210:134|221:144|242:156|266:164|275:183|272:204|260:223|220:238,1,160,2|0,0:0|0:0,0:0:0:0:
105,195,85664,1,0,0:0:0:0:
225,236,85781,5,2,0:0:0:0:
319,70,86015,5,2,0:0:0:0:
130,132,86250,6,0,B|158:137|169:158|180:183|211:200|253:200|275:194,1,160,2|0,0:0|0:0,0:0:0:0:
349,93,86601,1,0,0:0:0:0:
403,223,86718,5,2,0:0:0:0:
164,258,86953,5,2,0:0:0:0:
324,134,87187,5,2,0:0:0:0:
97,202,87656,6,0,B|125:200|141:217|159:238|193:246|233:234|253:222,1,160,2|0,0:0|0:0,0:0:0:0:
304,97,88007,1,0,0:0:0:0:
384,215,88124,5,2,0:0:0:0:
164,314,88359,5,2,0:0:0:0:
284,151,88593,5,2,0:0:0:0:
232,133,89062,6,0,B|334:70|334:70|321:78|307:101|303:185,1,240,2|0,0:0|0:0,0:0:0:0:
215,235,89531,6,0,P|203:285|147:200,1,240,2|0,0:0|0:0,0:0:0:0:
184,10,90000,1,10,0:0:0:0:
316,139,90234,1,0,0:0:0:0:
365,241,90351,1,0,0:0:0:0:
254,239,90468,5,10,0:0:0:0:
354,71,90703,2,0,B|392:102|392:102|391:135,1,80
316,139,90937,6,0,B|303:183|303:183|327:218,1,80,10|0,0:0|0:0,0:0:0:0:
385,226,91171,1,0,0:0:0:0:
282,59,91406,1,10,0:0:0:0:
220,229,91640,1,0,0:0:0:0:
293,282,91757,1,0,0:0:0:0:
205,315,91875,5,10,0:0:0:0:
143,196,92109,2,0,B|116:155|116:155|117:117,1,80
202,107,92343,6,0,B|199:61|199:61|173:30,1,80,10|0,0:0|0:0,0:0:0:0:
261,0,92578,1,0,0:0:0:0:
140,218,92812,5,10,0:0:0:0:
256,63,93281,6,0,L|305:129,1,80,10|0,0:0|0:0,0:0:0:0:
229,189,93515,2,0,L|178:122,1,80,2|0,0:0|0:0,0:0:0:0:
142,62,93750,1,10,0:0:0:0:
275,213,93984,1,0,0:0:0:0:
376,190,94101,1,0,0:0:0:0:
305,116,94218,5,10,0:0:0:0:
140,250,94453,2,0,B|184:297|184:297|208:299,1,80
224,231,94687,6,0,B|253:211|253:211|301:231,1,80,10|0,0:0|0:0,0:0:0:0:
279,311,94921,1,0,0:0:0:0:
107,201,95156,5,10,0:0:0:0:
370,223,95625,5,10,0:0:0:0:
237,108,95976,1,0,0:0:0:0:
324,61,96093,5,10,0:0:0:0:
159,283,96328,5,2,0:0:0:0:
367,241,96562,5,10,0:0:0:0:
234,60,96914,1,0,0:0:0:0:
324,81,97031,5,10,0:0:0:0:
183,261,97265,5,2,0:0:0:0:
395,294,97500,6,0,B|368:339|341:357|308:384|246:346,1,176.000005371094,10|0,0:0|0:0,0:0:0:0:
166,293,97851,1,0,0:0:0:0:
131,192,97968,5,10,0:0:0:0:
191,83,98203,6,0,P|234:45|348:71,2,176.000005371094,2|8|0,0:0|0:0|0:0,0:0:0:0:
117,90,98906,6,0,B|144:45|171:27|204:0|266:38,1,176.000005371094,10|0,0:0|0:0,0:0:0:0:
346,91,99257,1,0,0:0:0:0:
381,192,99374,5,10,0:0:0:0:
321,301,99609,6,0,P|278:339|164:313,2,176.000005371094,2|8|0,0:0|0:0|0:0,0:0:0:0:
178,192,100312,6,0,B|190:189|208:189|216:213|203:245|179:283|173:311|217:355|253:352|270:324|280:284|284:262|317:267,1,264.000008056641,10|0,0:0|0:0,0:0:0:0:
385,265,100781,5,10,0:0:0:0:
260,195,101015,1,0,0:0:0:0:
244,70,101250,6,0,P|205:107|269:194,1,176.000005371094,10|0,0:0|0:0,0:0:0:0:
133,183,101718,6,0,P|162:227|260:180,1,176.000005371094,10|0,0:0|0:0,0:0:0:0:
255,315,102187,6,0,P|296:283|243:189,1,176.000005371094,10|0,0:0|0:0,0:0:0:0:
378,191,102656,6,0,P|346:150|252:205,1,176.000005371094,10|0,0:0|0:0,0:0:0:0:
130,279,103007,1,0,0:0:0:0:
110,257,103125,5,14,0:0:0:0:
101,231,103242,1,0,0:0:0:0:
110,202,103359,1,0,0:0:0:0:
132,182,103476,1,0,0:0:0:0:
158,174,103593,5,14,0:0:0:0:
184,186,103710,1,0,0:0:0:0:
204,208,103828,1,0,0:0:0:0:
222,235,103945,1,0,0:0:0:0:
153,285,104062,1,14,0:0:0:0:
132,311,104179,1,0,0:0:0:0:
121,342,104296,1,0,0:0:0:0:
123,371,104414,1,0,0:0:0:0:
138,397,104531,5,14,0:0:0:0:
161,411,104648,1,0,0:0:0:0:
190,411,104765,1,0,0:0:0:0:
217,410,104882,1,0,0:0:0:0:
241,400,105000,6,0,P|268:372|285:249,1,160,14|0,0:0|0:0,0:0:0:0:
268,26,108281,5,14,0:0:0:0:
171,184,108515,5,14,0:0:0:0:
249,298,108750,6,0,P|270:277|300:234,1,80,14|0,0:0|0:0,0:0:0:0:
324,187,109218,5,2,0:0:0:0:
324,187,109453,1,0,0:0:0:0:
266,87,109687,5,2,0:0:0:0:
176,309,110039,5,0,0:0:0:0:
336,196,110390,5,0,0:0:0:0:
259,192,111093,5,2,0:0:0:0:
259,192,111328,1,0,0:0:0:0:
176,288,111562,6,0,P|192:256|272:216,1,120.000004577637,14|0,0:0|0:0,0:0:0:0:
224,232,112031,6,0,P|288:216|352:224,1,120.000004577637,14|0,0:0|0:0,0:0:0:0:
296,408,112500,6,0,P|273:383|264:288,1,120.000004577637,14|0,0:0|0:0,0:0:0:0:
268,90,112968,5,2,0:0:0:0:
268,90,113203,1,0,0:0:0:0:
218,236,113437,5,2,0:0:0:0:
368,174,113789,1,0,0:0:0:0:
162,240,114140,1,0,0:0:0:0:
312,32,114375,6,0,L|336:152,1,120.000004577637,14|0,0:0|0:0,0:0:0:0:
229,73,114843,5,2,0:0:0:0:
272,320,115078,2,0,L|240:200,1,120.000004577637,14|0,0:0|0:0,0:0:0:0:
370,194,115546,1,0,0:0:0:0:
224,56,115781,5,14,0:0:0:0:
248,80,115898,1,0,0:0:0:0:
256,112,116015,1,0,0:0:0:0:
242,143,116132,1,0,0:0:0:0:
217,164,116250,6,0,P|217:212|269:258,1,120.000004577637,14|0,0:0|0:0,0:0:0:0:
257,400,116718,5,2,0:0:0:0:
257,400,116953,1,0,0:0:0:0:
305,152,117187,5,2,0:0:0:0:
183,233,117539,1,0,0:0:0:0:
290,289,117890,1,0,0:0:0:0:
357,282,118593,5,2,0:0:0:0:
357,282,118828,1,0,0:0:0:0:
203,181,119062,5,2,0:0:0:0:
199,326,119414,1,0,0:0:0:0:
173,70,119765,1,0,0:0:0:0:
148,236,120000,6,0,P|159:289|226:319,1,120.000004577637,14|0,0:0|0:0,0:0:0:0:
256,192,120468,5,2,0:0:0:0:
344,96,120703,1,0,0:0:0:0:
216,96,120937,5,2,0:0:0:0:
344,56,121289,1,0,0:0:0:0:
416,0,121640,1,0,0:0:0:0:
140,241,123750,6,0,P|159:288|222:310,1,120.000004577637,14|0,0:0|0:0,0:0:0:0:
256,192,124218,5,2,0:0:0:0:
344,96,124453,1,0,0:0:0:0:
216,96,124687,5,2,0:0:0:0:
344,56,125039,1,0,0:0:0:0:
416,0,125390,1,0,0:0:0:0:
260,141,127500,5,14,0:0:0:0:
273,170,127617,1,0,0:0:0:0:
286,198,127734,5,0,0:0:0:0:
343,307,127968,5,10,0:0:0:0:
343,307,128203,5,2,0:0:0:0:
225,172,128437,5,14,0:0:0:0:
242,199,128554,1,0,0:0:0:0:
259,226,128671,5,0,0:0:0:0:
310,320,128906,5,10,0:0:0:0:
310,320,129140,5,2,0:0:0:0:
302,131,129375,5,14,0:0:0:0:
327,153,129492,1,0,0:0:0:0:
352,172,129609,1,0,0:0:0:0:
429,253,129843,1,10,0:0:0:0:
429,253,130078,5,2,0:0:0:0:
320,305,130312,5,14,0:0:0:0:
293,316,130429,1,0,0:0:0:0:
265,329,130546,1,0,0:0:0:0:
220,178,130781,5,10,0:0:0:0:
251,163,130898,1,0,0:0:0:0:
281,149,131015,5,10,0:0:0:0:
312,134,131132,1,0,0:0:0:0:
379,167,131250,5,14,0:0:0:0:
372,197,131367,1,0,0:0:0:0:
343,209,131484,1,0,0:0:0:0:
313,197,131601,1,0,0:0:0:0:
285,180,131718,5,14,0:0:0:0:
255,167,131835,1,0,0:0:0:0:
220,165,131953,1,0,0:0:0:0:
192,187,132070,1,0,0:0:0:0:
244,265,132187,5,14,0:0:0:0:
264,237,132304,1,0,0:0:0:0:
271,203,132421,1,0,0:0:0:0:
259,172,132539,1,0,0:0:0:0:
241,142,132656,5,14,0:0:0:0:
222,116,132773,1,0,0:0:0:0:
198,90,132890,1,0,0:0:0:0:
171,67,133007,1,0,0:0:0:0:
141,54,133125,6,0,P|126:64|125:262,1,240,14|0,0:0|0:0,0:0:0:0:
313,93,134296,1,0,0:0:0:0:
408,184,134531,6,0,P|416:240|416:264,1,80,14|0,0:0|0:0,0:0:0:0:
266,233,135000,6,0,B|290:202|299:182|299:182|323:168,1,80,14|0,0:0|0:0,0:0:0:0:
337,268,135234,5,2,0:0:0:0:
216,184,135351,1,0,0:0:0:0:
253,252,135468,5,2,0:0:0:0:
256,112,135703,5,2,0:0:0:0:
320,64,135937,5,14,0:0:0:0:
344,48,136054,2,0,P|360:88|344:128,2,80
246,151,136406,6,0,B|222:182|213:202|213:202|189:216,1,80,14|0,0:0|0:0,0:0:0:0:
175,116,136640,5,2,0:0:0:0:
296,200,136757,1,0,0:0:0:0:
259,132,136874,5,2,0:0:0:0:
256,272,137109,5,2,0:0:0:0:
192,320,137343,5,14,0:0:0:0:
168,336,137460,2,0,P|152:296|168:256,2,80
304,175,137812,5,14,0:0:0:0:
332,111,138046,5,2,0:0:0:0:
248,232,138163,1,0,0:0:0:0:
315,195,138280,5,2,0:0:0:0:
176,192,138515,5,2,0:0:0:0:
264,51,138750,6,0,L|252:133,1,80,14|0,0:0|0:0,0:0:0:0:
237,222,138984,5,2,0:0:0:0:
315,195,139101,1,0,0:0:0:0:
243,314,139218,5,2,0:0:0:0:
143,291,139335,1,0,0:0:0:0:
96,363,139453,5,2,0:0:0:0:
166,387,139570,1,0,0:0:0:0:
235,414,139687,5,14,0:0:0:0:
265,51,140156,2,0,L|253:133,1,80,14|0,0:0|0:0,0:0:0:0:
237,222,140390,5,2,0:0:0:0:
315,195,140507,1,0,0:0:0:0:
243,313,140625,5,2,0:0:0:0:
144,291,140741,1,0,0:0:0:0:
97,362,140859,5,2,0:0:0:0:
166,387,140976,1,0,0:0:0:0:
236,413,141093,5,14,0:0:0:0:
248,333,141562,6,0,L|260:251,1,80,14|0,0:0|0:0,0:0:0:0:
276,162,141796,5,2,0:0:0:0:
197,189,141913,1,0,0:0:0:0:
269,70,142030,5,2,0:0:0:0:
369,92,142147,1,0,0:0:0:0:
416,21,142265,5,2,0:0:0:0:
346,0,142382,1,0,0:0:0:0:
48,187,142500,6,0,B|99:159|99:159|113:180|113:180|186:143,1,160,10|0,0:0|0:0,0:0:0:0:
136,133,142851,1,0,0:0:0:0:
136,133,142968,6,0,B|218:85|218:85|289:96,1,160,10|0,0:0|0:0,0:0:0:0:
351,242,143320,1,0,0:0:0:0:
351,242,143437,6,0,B|285:264|285:264|260:248|260:248|202:267,1,160,10|0,0:0|0:0,0:0:0:0:
194,324,143789,1,0,0:0:0:0:
194,324,143906,6,0,P|212:294|139:212,1,160,10|0,0:0|0:0,0:0:0:0:
145,140,144257,1,0,0:0:0:0:
209,78,144375,5,14,0:0:0:0:
145,140,144609,2,0,B|174:169|175:169|157:203|157:203|162:213,1,80
298,284,144843,2,0,P|264:277|226:245,1,80
294,174,145078,5,2,0:0:0:0:
215,150,145195,1,0,0:0:0:0:
157,219,145312,6,0,P|140:251|148:295,2,80,14|0|0,0:0|0:0|0:0,0:0:0:0:
215,150,145664,2,0,P|235:118|277:94,2,80
262,251,146015,1,2,0:0:0:0:
157,219,146132,1,0,0:0:0:0:
178,366,146250,6,0,B|160:347|147:335|147:335|148:298,1,80,14|0,0:0|0:0,0:0:0:0:
127,183,146484,5,2,0:0:0:0:
251,113,146601,1,0,0:0:0:0:
233,221,146718,6,0,L|178:158,1,80,10|0,0:0|0:0,0:0:0:0:
301,139,146953,5,2,0:0:0:0:
135,83,147187,2,0,L|187:143,1,80,2|0,0:0|0:0,0:0:0:0:
153,177,147421,2,0,L|209:232,1,70,2|0,0:0|0:0,0:0:0:0:
384,275,147656,6,0,B|368:321|368:321|336:324,1,80,14|0,0:0|0:0,0:0:0:0:
231,323,147890,5,2,0:0:0:0:
231,414,148007,1,0,0:0:0:0:
149,369,148125,6,0,P|131:354|127:301,1,80,14|0,0:0|0:0,0:0:0:0:
230,292,148359,5,2,0:0:0:0:
380,284,148593,2,0,L|304:251,1,80,2|0,0:0|0:0,0:0:0:0:
336,208,148828,2,0,L|262:179,1,80,2|0,0:0|0:0,0:0:0:0:
128,109,149062,6,0,B|144:63|144:63|176:60,1,80,14|0,0:0|0:0,0:0:0:0:
281,62,149296,5,2,0:0:0:0:
363,15,149413,1,0,0:0:0:0:
363,15,149531,6,0,P|338:46|259:136,1,160,14|0,0:0|0:0,0:0:0:0:
255,189,150000,1,14,0:0:0:0:
279,203,150117,1,0,0:0:0:0:
302,217,150234,2,0,B|331:235|331:235|331:258|331:258|354:278,1,80,2|0,0:0|0:0,0:0:0:0:
274,354,150468,6,0,P|221:379|221:332,1,120.000004577637,14|0,0:0|0:0,0:0:0:0:
220,337,150703,2,0,P|163:330|191:302,1,120.000004577637
237,172,150937,5,2,0:0:0:0:
260,152,151054,2,0,B|281:123|281:123|293:133|293:133|316:107,1,80
187,217,151289,1,0,0:0:0:0:
162,231,151406,2,0,B|131:260|131:260|131:303,1,80
228,346,151640,5,2,0:0:0:0:
346,219,151875,2,0,L|227:338,1,160
237,172,152343,5,14,0:0:0:0:
260,152,152460,6,0,B|260:100|260:100|324:100|324:100|324:54,1,160
175,0,152812,5,2,0:0:0:0:
175,0,152929,2,0,B|192:30|192:30|223:41,1,80
316,68,153164,1,0,0:0:0:0:
369,182,153281,5,14,0:0:0:0:
258,361,153515,2,0,L|256:274,1,80,2|0,0:0|0:0,0:0:0:0:
257,192,153750,1,14,0:0:0:0:
233,178,153867,1,0,0:0:0:0:
210,164,153984,2,0,B|181:146|181:146|181:123|181:123|158:103,1,80,2|0,0:0|0:0,0:0:0:0:
258,2,154218,6,0,P|282:-10|326:52,1,120.000004577637,14|0,0:0|0:0,0:0:0:0:
326,52,154453,2,0,P|292:82|218:79,1,120.000004577637
111,75,154687,5,2,0:0:0:0:
111,75,154804,2,0,B|144:115|144:115|144:149,1,80
144,266,155039,1,0,0:0:0:0:
246,344,155156,5,14,0:0:0:0:
347,200,155390,5,2,0:0:0:0:
221,280,155625,6,0,L|141:142,1,160,2|0,0:0|0:0,0:0:0:0:
404,302,156093,5,14,0:0:0:0:
210,240,156328,5,2,0:0:0:0:
348,206,156562,5,2,0:0:0:0:
348,206,156679,2,0,B|369:186|369:186|369:130,1,80
256,173,156914,1,0,0:0:0:0:
159,250,157031,5,14,0:0:0:0:
242,395,157265,6,0,L|242:309,1,80,2|0,0:0|0:0,0:0:0:0:
257,193,157500,1,14,0:0:0:0:
274,170,157617,1,0,0:0:0:0:
291,149,157734,2,0,B|313:122|313:122|336:125|336:125|358:104,1,80,2|0,0:0|0:0,0:0:0:0:
260,14,157968,2,0,P|214:18|214:80,1,120.000004577637,14|0,0:0|0:0,0:0:0:0:
215,80,158203,2,0,P|176:90|151:21,1,120.000004577637
237,172,158437,5,2,0:0:0:0:
261,152,158554,2,0,B|280:92|280:92|329:115|329:115|345:70,1,160
393,0,158906,5,14,0:0:0:0:
178,128,159140,5,2,0:0:0:0:
320,330,159375,5,2,0:0:0:0:
211,250,159492,2,0,B|248:330|248:330|322:330,1,160
398,328,159843,5,14,0:0:0:0:
419,305,159960,2,0,P|420:284|392:233,2,80
296,359,160312,5,2,0:0:0:0:
296,359,160429,2,0,P|256:346|216:325,1,80
220,186,160664,1,0,0:0:0:0:
242,169,160781,2,0,L|319:129,1,80,14|0,0:0|0:0,0:0:0:0:
355,207,161015,5,2,0:0:0:0:
421,165,161132,1,2,0:0:0:0:
256,192,161250,12,14,163125,0:0:0:0:
272,191,163593,5,2,0:0:0:0:
157,117,163828,1,0,0:0:0:0:
309,94,164062,5,2,0:0:0:0:
168,208,164414,6,0,L|209:208,2,40,0|14|0,0:0|0:0|0:0,0:0:0:0:
230,295,164765,1,0,0:0:0:0:
188,254,165000,5,14,0:0:0:0:
110,129,165234,1,2,0:0:0:0:
208,28,165468,6,0,L|240:59,2,44.0000013427735,14|0|0,0:0|0:0|0:0,0:0:0:0:
150,73,165703,1,2,0:0:0:0:
116,203,165937,1,2,0:0:0:0:
342,208,166171,1,2,0:0:0:0:
267,321,166406,6,0,P|249:303|237:285,2,44.0000013427735,14|0|0,0:0|0:0|0:0,0:0:0:0:
177,303,166640,1,2,0:0:0:0:
94,155,166875,1,2,0:0:0:0:
125,236,167109,1,2,0:0:0:0:
256,279,167343,6,0,L|268:328,2,44.0000013427735,14|0|0,0:0|0:0|0:0,0:0:0:0:
332,254,167578,1,2,0:0:0:0:
239,291,167812,2,0,P|270:303|328:303,1,88.000002685547,2|0,0:0|0:0,0:0:0:0:
376,244,168046,1,2,0:0:0:0:
256,111,168281,6,0,L|292:140,2,44.0000013427735,14|0|0,0:0|0:0|0:0,0:0:0:0:
198,173,168515,1,2,0:0:0:0:
193,82,168750,5,14,0:0:0:0:
123,201,168984,1,2,0:0:0:0:
205,293,169218,6,0,P|217:311|241:320,2,44.0000013427735,14|0|0,0:0|0:0|0:0,0:0:0:0:
123,201,169453,1,2,0:0:0:0:
193,82,169687,1,2,0:0:0:0:
274,229,169921,1,2,0:0:0:0:
182,270,170156,6,0,L|221:236,2,44.0000013427735,14|0|0,0:0|0:0|0:0,0:0:0:0:
181,105,170390,1,2,0:0:0:0:
332,80,170625,1,2,0:0:0:0:
181,105,170859,1,2,0:0:0:0:
182,270,171093,6,0,P|179:250|190:228,2,44.0000013427735,14|0|0,0:0|0:0|0:0,0:0:0:0:
229,341,171328,1,2,0:0:0:0:
343,197,171562,2,0,P|303:197|254:186,1,88.000002685547
180,136,171796,1,2,0:0:0:0:
90,44,172031,6,0,P|92:14|103:6,2,44.0000013427735,14|0|0,0:0|0:0|0:0,0:0:0:0:
140,171,172265,1,2,0:0:0:0:
284,66,172500,5,14,0:0:0:0:
239,154,172734,1,2,0:0:0:0:
341,250,172968,6,0,L|378:285,2,44.0000013427735,14|0|0,0:0|0:0|0:0,0:0:0:0:
288,199,173203,1,2,0:0:0:0:
189,110,173437,1,2,0:0:0:0:
288,199,173671,1,2,0:0:0:0:
323,274,173906,6,0,L|359:305,2,44.0000013427735,14|0|0,0:0|0:0|0:0,0:0:0:0:
224,185,174140,1,2,0:0:0:0:
141,216,174375,2,0,P|126:177|202:82,1,176.000005371094,14|0,0:0|0:0,0:0:0:0:
224,185,174726,1,0,0:0:0:0:
226,281,174843,6,0,L|227:324,2,44.0000013427735,14|0|0,0:0|0:0|0:0,0:0:0:0:
142,217,175078,1,2,0:0:0:0:
199,86,175195,1,0,0:0:0:0:
159,146,175312,2,0,B|124:210|124:210|125:313,1,176.000005371094,14|0,0:0|0:0,0:0:0:0:
250,89,175664,1,0,0:0:0:0:
250,89,175781,6,0,L|250:134,2,44.0000013427735,14|0|0,0:0|0:0|0:0,0:0:0:0:
158,149,176015,1,2,0:0:0:0:
143,218,176132,1,0,0:0:0:0:
209,207,176250,1,14,0:0:0:0:
381,169,176484,1,0,0:0:0:0:
256,279,176718,6,0,L|256:327,2,44.0000013427735,14|0|0,0:0|0:0|0:0,0:0:0:0:
331,246,176953,1,0,0:0:0:0:
331,91,177187,1,0,0:0:0:0:
331,246,177421,1,0,0:0:0:0:
198,245,177656,6,0,P|191:266|202:289,2,44.0000013427735,14|0|0,0:0|0:0|0:0,0:0:0:0:
106,161,177890,1,0,0:0:0:0:
219,51,178125,1,0,0:0:0:0:
151,109,178359,1,0,0:0:0:0:
95,235,178593,6,0,P|106:263|104:284,2,44.0000013427735,14|0|0,0:0|0:0|0:0,0:0:0:0:
191,214,178828,1,0,0:0:0:0:
338,127,179062,6,0,B|307:153|302:158|220:155|220:155|178:198,1,176.000005371094,14|0,0:0|0:0,0:0:0:0:
102,241,179531,6,0,P|114:278|223:248,1,176.000005371094,14|0,0:0|0:0,0:0:0:0:
353,191,180000,5,14,0:0:0:0:
203,192,180234,1,0,0:0:0:0:
204,76,180468,6,0,L|257:77,2,44.0000013427735,14|0|0,0:0|0:0|0:0,0:0:0:0:
202,315,180703,1,0,0:0:0:0:
371,190,180937,1,0,0:0:0:0:
203,192,181171,1,0,0:0:0:0:
310,69,181406,6,0,L|266:69,2,44.0000013427735,14|0|0,0:0|0:0|0:0,0:0:0:0:
309,192,181640,1,0,0:0:0:0:
141,194,181875,1,0,0:0:0:0:
234,294,182109,1,0,0:0:0:0:
141,194,182343,6,0,L|94:193,2,44.0000013427735,14|0|0,0:0|0:0|0:0,0:0:0:0:
257,192,182578,1,0,0:0:0:0:
306,77,182812,6,0,L|305:-13,1,88.000002685547,14|0,0:0|0:0,0:0:0:0:
396,69,183046,1,0,0:0:0:0:
347,193,183281,6,0,L|398:193,2,44.0000013427735,14|0|0,0:0|0:0|0:0,0:0:0:0:
255,192,183515,1,0,0:0:0:0:
148,47,183750,5,14,0:0:0:0:
296,116,183984,1,0,0:0:0:0:
148,188,184218,6,0,L|191:186,2,44.0000013427735,14|0|0,0:0|0:0|0:0,0:0:0:0:
255,55,184453,1,0,0:0:0:0:
148,188,184687,1,0,0:0:0:0:
287,269,184921,1,0,0:0:0:0:
354,32,185156,6,0,L|308:31,2,44.0000013427735,14|0|0,0:0|0:0|0:0,0:0:0:0:
299,154,185390,1,0,0:0:0:0:
407,166,185625,1,0,0:0:0:0:
206,123,185859,1,0,0:0:0:0:
206,123,186093,6,0,L|247:155,2,44.0000013427735,14|0|0,0:0|0:0|0:0,0:0:0:0:
295,187,186328,1,0,0:0:0:0:
187,274,186562,1,0,0:0:0:0:
356,112,186796,1,0,0:0:0:0:
356,112,187031,6,0,L|395:81,2,44.0000013427735,14|0|0,0:0|0:0|0:0,0:0:0:0:
265,194,187265,1,0,0:0:0:0:
143,114,187500,5,14,0:0:0:0:
179,45,187734,2,0,B|177:41|183:36|232:20|268:35,1,88.000002685547
179,45,187968,6,0,L|210:79,2,44.0000013427735,14|0|0,0:0|0:0|0:0,0:0:0:0:
276,216,188203,2,0,P|225:224|121:162,2,176.000005371094
390,220,188906,6,0,L|390:170,2,44.0000013427735,14|0|0,0:0|0:0|0:0,0:0:0:0:
392,92,189140,2,0,P|383:69|325:32,1,88.000002685547
306,146,189375,5,2,0:0:0:0:
363,256,189609,2,0,L|296:194,1,88.000002685547
258,247,189843,6,0,L|220:213,2,44.0000013427735,14|0|0,0:0|0:0|0:0,0:0:0:0:
332,202,190078,1,0,0:0:0:0:
389,253,190195,1,0,0:0:0:0:
409,181,190312,2,0,B|424:128|425:128|413:92,1,88.000002685547
293,88,190546,2,0,L|360:152,1,88.000002685547
255,210,190781,6,0,L|217:176,2,44.0000013427735,14|0|0,0:0|0:0|0:0,0:0:0:0:
322,269,191015,1,0,0:0:0:0:
335,86,191250,6,0,L|267:26,1,88.000002685547,14|0,0:0|0:0,0:0:0:0:
198,0,191484,1,0,0:0:0:0:
269,28,191718,6,0,L|307:62,2,44.0000013427735,14|0|0,0:0|0:0|0:0,0:0:0:0:
198,0,191953,1,0,0:0:0:0:
335,86,192187,2,0,L|195:-24,1,176.000005371094
102,102,192656,6,0,L|103:50,2,44.0000013427735,14|0|0,0:0|0:0|0:0,0:0:0:0:
184,154,192890,1,0,0:0:0:0:
241,242,193125,6,0,B|232:285|202:304|144:309|132:293|117:264|113:248,1,176.000005371094,14|0,0:0|0:0,0:0:0:0:
257,169,193593,6,0,L|295:203,2,44.0000013427735,14|0|0,0:0|0:0|0:0,0:0:0:0:
120,236,193828,2,0,L|87:271,2,44.0000013427735
257,169,194062,6,0,P|231:210|122:232,1,160,2|0,0:0|0:0,0:0:0:0:
160,341,194413,1,0,0:0:0:0:
179,364,194530,6,0,L|207:392,2,40,14|0|0,0:0|0:0|0:0,0:0:0:0:
109,271,194765,2,0,L|162:342,1,80
122,228,194999,2,0,L|160:392,1,160,2|0,0:0|0:0,0:0:0:0:
139,195,195468,6,0,L|140:362,1,160,14|0,0:0|0:0,0:0:0:0:
348,212,196405,6,0,L|385:49,1,160,10|0,0:0|0:0,0:0:0:0:
325,230,197343,6,0,L|397:80,1,160,10|0,0:0|0:0,0:0:0:0:
317,251,198280,5,14,0:0:0:0:
292,263,198514,5,14,0:0:0:0:
266,277,198749,6,0,P|230:297|154:320,1,120.000004577637,14|0,0:0|0:0,0:0:0:0:
412,63,199218,1,10,0:0:0:0:
246,107,199686,6,0,P|282:87|358:64,1,120.000004577637,2|0,0:0|0:0,0:0:0:0:
412,63,200155,5,10,0:0:0:0:
412,63,200624,2,0,B|348:86|348:86|316:131,1,120.000004577637
227,257,201093,5,10,0:0:0:0:
175,294,201561,6,0,P|222:297|284:258,1,120.000004577637,14|0,0:0|0:0,0:0:0:0:
294,70,202030,6,0,P|285:46|203:59,1,120.000004577637,14|0,0:0|0:0,0:0:0:0:
268,237,202499,6,0,P|293:234|377:188,1,120.000004577637,14|0,0:0|0:0,0:0:0:0:
196,294,202968,1,10,0:0:0:0:
277,189,203436,2,0,B|319:144|319:144|320:78,1,120.000004577637,2|0,0:0|0:0,0:0:0:0:
207,119,203905,5,10,0:0:0:0:
207,119,204374,6,0,B|248:83|248:83|250:14,1,120.000004577637,14|0,0:0|0:0,0:0:0:0:
164,39,204843,1,2,0:0:0:0:
251,16,205077,6,0,B|278:61|278:61|274:139,2,120.000004577637,14|0|0,0:0|0:0|0:0,0:0:0:0:
274,129,205780,5,14,0:0:0:0:
164,39,206014,1,0,0:0:0:0:
141,64,206131,1,0,0:0:0:0:
113,81,206248,6,0,P|109:122|140:193,1,120.000004577637,14|0,0:0|0:0,0:0:0:0:
248,94,206717,5,10,0:0:0:0:
191,192,206951,1,0,0:0:0:0:
308,254,207186,6,0,B|277:244|255:268|254:292|251:321|238:338|229:338,1,120.000004577637,2|0,0:0|0:0,0:0:0:0:
174,301,207655,6,0,B|199:272|214:238|233:230|271:242,2,120.000004577637,10|0|0,0:0|0:0|0:0,0:0:0:0:
321,228,208592,5,10,0:0:0:0:
219,293,208826,1,0,0:0:0:0:
112,299,209061,2,0,P|143:325|219:350,1,120.000004577637,2|0,0:0|0:0,0:0:0:0:
243,277,209412,2,0,P|267:266|280:182,1,120.000004577637,2|0,0:0|0:0,0:0:0:0:
204,130,209764,1,2,0:0:0:0:
256,192,209998,12,0,221248,0:0:0:0:
