osu file format v14

[General]
AudioFilename: audio.mp3
AudioLeadIn: 0
PreviewTime: 709143
Countdown: 0
SampleSet: Normal
StackLeniency: 0.7
Mode: 0
LetterboxInBreaks: 0
WidescreenStoryboard: 0

[Editor]
Bookmarks: 181281,285359,420888,590646,686643,782643,966758,1069615,1326435,1441747,1569735,1675211,1809696,2045490
DistanceSpacing: 4
BeatDivisor: 4
GridSize: 8
TimelineZoom: 2.1

[Metadata]
Title:Best of Trap Mix
TitleUnicode:Best of Trap Mix
Artist:Monstercat
ArtistUnicode:Monstercat
Creator:EmeraldStar82
Version:Marathon
Source:
Tags:
BeatmapID:1380688
BeatmapSetID:651492

[Difficulty]
HPDrainRate:6
CircleSize:4
OverallDifficulty:8
ApproachRate:9.2
SliderMultiplier:1.4
SliderTickRate:1

[Events]
//Background and Video events
0,0,"OsEmcAG.png",0,0
//Break Periods
2,91148,101672
2,181147,190894
2,262454,272869
2,319082,329430
2,353317,361371
2,579198,590083
2,674853,686083
2,782665,803823
2,1069600,1082662
2,1110262,1123225
2,1178079,1204352
//Storyboard Layer 0 (Background)
//Storyboard Layer 1 (Fail)
//Storyboard Layer 2 (Pass)
//Storyboard Layer 3 (Foreground)
//Storyboard Layer 4 (Overlay)
//Storyboard Sound Samples

[TimingPoints]
28830.8348808439,352.941176470588,4,1,0,100,1,0
28910.8348808439,-133.333333333333,4,1,0,100,0,0
180595,-33.3333333333333,4,1,0,100,0,0
181286,357.142857142857,4,1,0,100,1,0
181386,-66.6666666666667,4,1,0,100,0,0
198428,359.281437125748,4,1,0,100,1,0
198544,-66.6666666666667,4,1,0,100,0,0
201338,361.44578313253,4,1,0,100,1,0
204254,363.636363636364,4,1,0,100,1,0
273439,357.142857142857,4,1,0,100,1,0
273995,358.208955223881,4,1,0,100,1,0
276852,357.142857142857,4,1,0,100,1,0
279717,356.083086053412,4,1,0,100,1,0
281135,355.029585798817,4,1,0,100,1,0
283949,353.982300884956,4,1,0,100,1,0
285352,352.941176470588,4,1,0,100,1,0
522704,-50,4,1,0,100,0,0
528175,-100,4,1,0,100,0,0
590653,375,4,1,0,100,1,0
590653,-66.6666666666667,4,1,0,100,0,0
613903,-133.333333333333,4,1,0,100,0,0
614653,-66.6666666666667,4,1,0,100,0,0
625340,-133.333333333333,4,1,0,100,0,0
625903,-66.6666666666667,4,1,0,100,0,0
638653,-133.333333333333,4,1,0,100,0,0
639403,-66.6666666666667,4,1,0,100,0,0
673903,-133.333333333333,4,1,0,100,0,0
674653,-100,4,1,0,100,0,0
782643,375,4,1,0,100,1,0
807862,413.793103448276,4,1,0,100,1,0
966758,428.571428571429,4,1,0,100,1,0
1069615,425.531914893617,4,1,0,100,1,0
1083232,422.535211267606,4,1,0,100,1,0
1313102,416.666666666667,4,1,0,100,1,0
1326411,405.405405405405,4,1,0,100,1,0
1339347,400,4,1,0,100,1,0
1569735,406.779661016949,4,1,0,100,1,0
1582753,413.793103448276,4,1,0,100,1,0
1662201,408.163265306122,4,1,0,100,1,0
1675262,406.779661016949,4,1,0,100,1,0
1681770,405.405405405405,4,1,0,100,1,0
1688196,400,4,1,0,100,1,0
1809696,342.857142857143,4,1,0,100,1,0
2045490,315.789473684211,4,1,0,100,1,0
2060627,300,4,1,0,100,1,0

[HitObjects]
128,160,21948,6,0,P|160:96|304:72,1,210,0|0,2:0|2:0,2:0:0:0:
256,192,22654,2,0,P|192:288|160:288,1,140,0|0,2:0|2:0,2:0:0:0:
96,160,23183,6,0,L|144:88,1,70,0|0,2:0|2:0,2:0:0:0:
216,56,23536,2,0,L|120:104,1,70,0|0,2:0|2:0,2:0:0:0:
168,200,23889,2,0,L|248:128,1,70,0|0,2:0|2:0,2:0:0:0:
320,80,24242,2,0,L|224:160,1,70,0|0,2:0|2:0,2:0:0:0:
264,248,24595,2,0,L|320:144,1,70,0|0,2:0|2:0,2:0:0:0:
408,96,24948,2,0,L|352:144,1,70,0|0,2:0|2:0,2:0:0:0:
336,288,25301,2,0,L|400:208,1,70,0|0,2:0|2:0,2:0:0:0:
440,144,25654,2,0,L|376:192,1,70,0|0,2:0|2:0,2:0:0:0:
248,328,26007,6,0,L|216:264,1,70,0|0,2:0|2:0,2:0:0:0:
64,328,26360,2,0,L|128:232,1,70,0|0,2:0|2:0,2:0:0:0:
256,248,26713,2,0,L|176:168,1,70,0|0,2:0|2:0,2:0:0:0:
88,248,27066,2,0,L|120:168,1,70,0|0,2:0|2:0,2:0:0:0:
224,160,27419,2,0,L|184:80,1,70,0|0,2:0|2:0,2:0:0:0:
80,144,27772,2,0,L|112:64,1,70,0|0,2:0|2:0,2:0:0:0:
232,96,28124,2,0,L|176:32,1,70,0|0,2:0|2:0,2:0:0:0:
72,72,28477,2,0,L|120:0,1,70,0|0,2:0|2:0,2:0:0:0:
128,96,28830,6,0,P|192:64|320:96,1,210,0|0,2:0|2:0,2:0:0:0:
272,184,29536,2,0,P|224:160|176:184,1,105.000004005432,0|0,2:0|2:0,2:0:0:0:
224,280,30066,1,0,2:0:0:0:
328,312,30242,2,0,P|400:264|400:208,1,105.000004005432,0|0,2:0|2:0,2:0:0:0:
424,104,30772,1,0,2:0:0:0:
328,72,30948,1,0,2:0:0:0:
120,96,31301,1,0,2:0:0:0:
264,248,31654,1,0,2:0:0:0:
112,328,32360,6,0,P|144:216|160:200,1,105.000004005432,0|0,2:0|2:0,2:0:0:0:
208,152,32889,1,0,2:0:0:0:
232,256,33066,2,0,P|312:240|328:192,1,105.000004005432,0|0,2:0|2:0,2:0:0:0:
440,48,33772,1,0,2:0:0:0:
384,336,34124,1,0,2:0:0:0:
336,128,34477,2,0,P|272:72|240:80,1,105.000004005432,0|0,2:0|2:0,2:0:0:0:
200,160,35007,5,0,2:0:0:0:
136,248,35183,2,0,L|272:240,1,105.000004005432,0|0,2:0|2:0,2:0:0:0:
344,232,35713,2,0,L|384:176,1,52.5000020027161,0|0,2:0|2:0,2:0:0:0:
208,64,36242,1,0,2:0:0:0:
272,152,36419,1,0,2:0:0:0:
360,96,36595,1,0,2:0:0:0:
424,296,36948,1,0,2:0:0:0:
216,280,37301,1,0,2:0:0:0:
128,104,37830,5,0,2:0:0:0:
160,208,38007,2,0,P|224:168|256:120,1,105.000004005432,0|0,2:0|2:0,2:0:0:0:
328,80,38536,1,0,2:0:0:0:
392,160,38713,1,0,2:0:0:0:
248,312,39066,1,0,2:0:0:0:
112,152,39419,1,0,2:0:0:0:
392,152,39772,1,0,2:0:0:0:
112,152,40124,1,0,2:0:0:0:
240,176,40654,6,0,L|184:224,1,52.5000020027161,0|0,2:0|2:0,2:0:0:0:
160,328,41183,2,0,P|216:320|232:304,1,52.5000020027161,0|0,2:0|2:0,2:0:0:0:
312,288,41536,1,0,2:0:0:0:
424,56,41889,1,0,2:0:0:0:
360,136,42066,1,0,2:0:0:0:
464,136,42242,1,0,2:0:0:0:
48,176,42595,1,0,2:0:0:0:
416,240,42948,1,0,2:0:0:0:
264,200,43477,5,0,2:0:0:0:
328,48,43654,2,0,P|240:80|232:104,1,105.000004005432,0|0,2:0|2:0,2:0:0:0:
192,200,44183,1,0,2:0:0:0:
256,312,44360,1,0,2:0:0:0:
416,112,44713,2,0,P|400:176|376:200,1,78.7500030040742,0|0,2:0|2:0,2:0:0:0:
344,224,45066,2,0,P|288:240|240:216,1,105.000004005432,0|0,2:0|2:0,2:0:0:0:
192,192,45595,2,0,P|152:200|136:224,1,65.6250025033952,0|0,2:0|2:0,2:0:0:0:
336,80,46301,5,0,2:0:0:0:
280,192,46477,2,0,P|336:168|360:120,1,105.000004005432,0|0,2:0|2:0,2:0:0:0:
248,64,47007,1,0,2:0:0:0:
184,176,47183,1,0,2:0:0:0:
408,288,47536,1,0,2:0:0:0:
296,296,47713,1,0,2:0:0:0:
168,64,47889,1,0,2:0:0:0:
392,64,48419,5,0,2:0:0:0:
152,240,48595,1,0,2:0:0:0:
224,312,49124,5,0,2:0:0:0:
456,232,49301,1,0,2:0:0:0:
264,64,49654,1,0,2:0:0:0:
168,144,49830,1,0,2:0:0:0:
160,272,50007,1,0,2:0:0:0:
256,272,50360,1,0,2:0:0:0:
265,194,50448,1,0,2:0:0:0:
312,168,50536,1,0,2:0:0:0:
392,264,50713,1,0,2:0:0:0:
152,344,51066,5,0,2:0:0:0:
54,280,51419,2,0,P|86:275|110:264,1,52.5000020027161,0|0,2:0|2:0,2:0:0:0:
177,238,51683,2,0,P|210:202|217:182,1,70.0000026702882,0|0,2:0|2:0,2:0:0:0:
312,96,52124,5,0,2:0:0:0:
320,320,52477,1,0,2:0:0:0:
376,208,52654,1,0,2:0:0:0:
312,96,52830,1,0,2:0:0:0:
192,320,53183,1,0,2:0:0:0:
320,312,53360,1,0,2:0:0:0:
112,80,53536,1,0,2:0:0:0:
312,96,53889,1,0,2:0:0:0:
168,296,54242,1,0,2:0:0:0:
480,312,54772,5,0,2:0:0:0:
352,80,54948,1,0,2:0:0:0:
120,200,55301,2,0,P|88:248|88:272,2,52.5000020027161,0|0|0,2:0|2:0|2:0,2:0:0:0:
232,176,56007,1,0,2:0:0:0:
248,208,56183,1,0,2:0:0:0:
272,240,56360,1,0,2:0:0:0:
312,256,56536,1,0,2:0:0:0:
352,264,56713,1,0,2:0:0:0:
456,264,57066,5,0,2:0:0:0:
344,56,57595,5,0,2:0:0:0:
224,80,57772,1,0,2:0:0:0:
128,176,58124,2,0,P|104:216|96:240,2,52.5000020027161,0|0|0,2:0|2:0|2:0,2:0:0:0:
312,64,58830,1,0,2:0:0:0:
416,128,59007,1,0,2:0:0:0:
440,248,59183,1,0,2:0:0:0:
216,336,59536,1,0,2:0:0:0:
312,112,59889,1,0,2:0:0:0:
96,216,60419,6,0,P|120:248|136:256,1,52.5000020027161,0|0,2:0|2:0,2:0:0:0:
264,312,60948,1,0,2:0:0:0:
376,344,61124,1,0,2:0:0:0:
264,312,61301,1,0,2:0:0:0:
376,232,61654,1,0,2:0:0:0:
376,232,61742,1,0,2:0:0:0:
376,232,61830,1,0,2:0:0:0:
376,232,62007,2,0,P|400:192|392:128,1,105.000004005432,0|0,2:0|2:0,2:0:0:0:
176,32,62713,6,0,B|150:54|168:88|136:120,1,78.7500030040742,0|0,2:0|2:0,2:0:0:0:
120,160,63066,2,0,B|96:176|128:200|96:208,1,52.5000020027161,0|0,2:0|2:0,2:0:0:0:
72,288,63419,1,0,2:0:0:0:
184,336,63772,1,0,2:0:0:0:
288,272,63948,1,0,2:0:0:0:
352,168,64124,1,0,2:0:0:0:
352,168,64477,1,0,2:0:0:0:
288,272,64654,1,0,2:0:0:0:
184,336,64830,1,0,2:0:0:0:
56,328,65183,1,0,2:0:0:0:
56,328,65272,1,0,2:0:0:0:
56,328,65360,1,0,2:0:0:0:
56,328,65448,6,0,P|116:253|208:224,1,183.750007009506,0|0,2:0|2:0,2:0:0:0:
196,224,66242,1,0,2:0:0:0:
384,72,66595,1,0,2:0:0:0:
384,192,66772,1,0,2:0:0:0:
384,312,66948,1,0,2:0:0:0:
144,320,67301,1,0,2:0:0:0:
256,272,67477,1,0,2:0:0:0:
152,208,67654,1,0,2:0:0:0:
256,152,68007,1,0,2:0:0:0:
152,80,68360,5,0,2:0:0:0:
320,56,68889,2,0,L|288:104,1,52.5000020027161,0|0,2:0|2:0,2:0:0:0:
176,72,69419,2,0,L|208:120,2,52.5000020027161,0|0|0,2:0|2:0|2:0,2:0:0:0:
320,56,70124,2,0,L|288:120,2,52.5000020027161,0|0|0,2:0|2:0|2:0,2:0:0:0:
72,320,71007,5,0,2:0:0:0:
360,240,71183,1,0,2:0:0:0:
72,320,71713,1,0,2:0:0:0:
360,240,71889,1,0,2:0:0:0:
128,168,72242,1,0,2:0:0:0:
240,216,72419,1,0,2:0:0:0:
128,168,72595,1,0,2:0:0:0:
336,48,72948,1,0,2:0:0:0:
336,48,73036,1,0,2:0:0:0:
336,48,73124,1,0,2:0:0:0:
376,160,73301,1,0,2:0:0:0:
344,272,73654,1,0,2:0:0:0:
104,296,74007,6,0,P|133:294|160:272,1,52.5000020027161,0|0,2:0|2:0,2:0:0:0:
200,240,74272,2,0,P|216:200|200:160,1,78.7500030040742,0|0,2:0|2:0,2:0:0:0:
128,96,74713,1,0,2:0:0:0:
368,48,75066,1,0,2:0:0:0:
280,128,75242,1,0,2:0:0:0:
272,248,75419,1,0,2:0:0:0:
352,360,75772,2,0,P|320:352|296:336,2,52.5000020027161,0|0|0,2:0|2:0|2:0,2:0:0:0:
456,312,76477,1,0,2:0:0:0:
456,312,76566,1,0,2:0:0:0:
456,312,76654,1,0,2:0:0:0:
392,336,76830,6,0,P|320:352|224:328,1,157.500006008148,0|0,2:0|2:0,2:0:0:0:
120,304,77536,1,0,2:0:0:0:
48,192,77889,1,0,2:0:0:0:
120,304,78066,1,0,2:0:0:0:
240,336,78242,1,0,2:0:0:0:
376,328,78595,5,0,2:0:0:0:
264,288,78772,1,0,2:0:0:0:
208,176,78948,1,0,2:0:0:0:
192,56,79124,2,0,L|240:96,1,52.5000020027161,0|0,2:0|2:0,2:0:0:0:
352,88,79477,1,0,2:0:0:0:
360,208,79654,6,0,B|314:174|256:165|208:192,1,157.500006008148,0|0,2:0|2:0,2:0:0:0:
112,256,80360,1,0,2:0:0:0:
272,72,80713,1,0,2:0:0:0:
200,168,80889,1,0,2:0:0:0:
296,240,81066,1,0,2:0:0:0:
424,120,81419,1,0,2:0:0:0:
304,128,81595,2,0,L|344:176,1,52.5000020027161,0|0,2:0|2:0,2:0:0:0:
296,272,82124,1,0,2:0:0:0:
453,257,82301,2,0,P|445:287|460:316,1,52.5000020027161,0|0,2:0|2:0,2:0:0:0:
80,184,83007,6,0,L|128:216,1,52.5000020027161,0|0,2:0|2:0,2:0:0:0:
224,264,83536,1,0,2:0:0:0:
344,288,83713,1,0,2:0:0:0:
464,288,83889,1,0,2:0:0:0:
464,288,84242,1,0,2:0:0:0:
464,288,84330,1,0,2:0:0:0:
464,288,84419,1,0,2:0:0:0:
464,288,84595,1,0,2:0:0:0:
224,320,84948,1,0,2:0:0:0:
464,288,85301,6,0,L|392:272,1,52.5000020027161,0|0,2:0|2:0,2:0:0:0:
352,264,85566,2,0,P|312:256|256:232,1,78.7500030040742,0|0,2:0|2:0,2:0:0:0:
168,192,86007,2,0,P|112:160|80:112,1,105.000004005432,0|0,2:0|2:0,2:0:0:0:
16,32,86536,1,0,2:0:0:0:
136,64,86713,1,0,2:0:0:0:
376,112,87066,5,0,2:0:0:0:
280,184,87242,1,0,2:0:0:0:
200,280,87419,1,0,2:0:0:0:
296,328,87772,1,0,2:0:0:0:
296,328,87860,1,0,2:0:0:0:
296,328,87948,1,0,2:0:0:0:
296,328,88036,2,0,L|248:312,1,26.2500010013581,0|0,2:0|2:0,2:0:0:0:
40,40,88654,5,0,2:0:0:0:
344,144,88830,1,0,2:0:0:0:
104,152,89183,1,0,2:0:0:0:
200,224,89360,1,0,2:0:0:0:
320,256,89536,1,0,2:0:0:0:
424,40,89889,5,0,2:0:0:0:
344,128,90066,1,0,2:0:0:0:
232,168,90242,1,0,2:0:0:0:
112,144,90419,1,0,2:0:0:0:
208,224,90595,1,0,2:0:0:0:
272,328,90772,1,0,2:0:0:0:
344,232,90948,1,0,2:0:0:0:
120,80,102242,6,0,L|160:112,3,26.2500010013581,0|0|0|0,2:0|2:0|2:0|2:0,2:0:0:0:
168,152,102595,1,0,0:0:0:0:
96,296,103124,1,0,0:0:0:0:
232,336,103477,1,0,0:0:0:0:
344,296,103654,6,0,L|296:288,3,26.2500010013581,0|0|0|0,2:0|2:0|2:0|2:0,2:0:0:0:
264,272,104007,1,0,0:0:0:0:
312,160,104183,1,0,2:0:0:0:
192,136,104360,1,0,2:0:0:0:
328,56,104713,1,0,0:0:0:0:
432,128,105066,6,0,L|424:160,3,26.2500010013581,0|0|0|0,2:0|2:0|2:0|2:0,2:0:0:0:
392,208,105419,1,0,0:0:0:0:
296,280,105595,1,0,2:0:0:0:
184,328,105772,6,0,L|208:296,3,26.2500010013581,0|0|0|0,2:0|2:0|2:0|2:0,2:0:0:0:
240,256,106124,1,0,0:0:0:0:
176,152,106301,1,0,2:0:0:0:
112,120,106477,6,0,L|152:104,3,26.2500010013581,0|0|0|0,2:0|2:0|2:0|2:0,2:0:0:0:
192,96,106830,2,0,L|232:120,3,26.2500010013581,0|0|0|0,0:0|2:0|2:0|2:0,2:0:0:0:
264,136,107183,2,0,L|296:112,3,26.2500010013581,0|0|0|0,2:0|2:0|2:0|2:0,2:0:0:0:
344,96,107536,2,0,L|368:128,3,26.2500010013581,0|0|0|0,0:0|2:0|2:0|2:0,2:0:0:0:
416,88,107889,5,0,0:0:0:0:
416,113,107977,1,0,2:0:0:0:
416,139,108065,1,0,2:0:0:0:
413,165,108153,1,0,2:0:0:0:
409,191,108241,1,0,0:0:0:0:
402,216,108330,1,0,2:0:0:0:
391,239,108418,1,0,2:0:0:0:
375,260,108506,1,0,2:0:0:0:
354,275,108594,5,0,0:0:0:0:
330,283,108683,1,0,2:0:0:0:
304,283,108771,1,0,2:0:0:0:
281,271,108859,1,0,2:0:0:0:
266,250,108947,1,0,0:0:0:0:
258,225,109036,1,0,2:0:0:0:
253,200,109124,1,0,2:0:0:0:
248,174,109212,1,0,2:0:0:0:
242,149,109300,5,0,0:0:0:0:
233,125,109389,1,0,2:0:0:0:
220,102,109477,1,0,2:0:0:0:
201,84,109565,1,0,2:0:0:0:
178,73,109653,1,0,0:0:0:0:
152,71,109741,1,0,2:0:0:0:
127,76,109830,1,0,2:0:0:0:
104,89,109918,1,0,2:0:0:0:
85,106,110006,5,0,0:0:0:0:
69,126,110094,1,0,2:0:0:0:
57,150,110183,1,0,2:0:0:0:
49,174,110271,1,0,2:0:0:0:
44,200,110359,1,0,0:0:0:0:
41,225,110447,1,0,2:0:0:0:
41,251,110536,1,0,2:0:0:0:
42,277,110624,1,0,2:0:0:0:
45,303,110712,5,0,0:0:0:0:
392,192,110889,1,0,0:0:0:0:
136,56,111066,1,0,0:0:0:0:
240,312,111242,1,0,0:0:0:0:
384,48,111419,1,0,0:0:0:0:
96,208,111595,1,0,0:0:0:0:
368,264,111772,1,0,0:0:0:0:
208,32,111948,1,0,0:0:0:0:
120,288,112124,5,0,0:0:0:0:
384,96,112301,1,0,0:0:0:0:
112,136,112477,1,0,0:0:0:0:
320,320,112654,1,0,0:0:0:0:
248,88,112830,2,0,P|184:56|144:72,1,105.000004005432
112,304,113536,6,0,P|216:304|312:256,1,210.000008010865,0|0,2:0|2:0,2:0:0:0:
440,56,114595,1,0,0:0:0:0:
104,152,114772,1,0,0:0:0:0:
456,136,115124,1,0,0:0:0:0:
112,240,115301,2,0,P|160:248|216:248,1,105.000004005432
336,240,115830,5,0,0:0:0:0:
392,208,115919,1,0,0:0:0:0:
432,168,116007,1,0,0:0:0:0:
472,120,116183,1,0,0:0:0:0:
352,120,116360,2,0,B|248:160|248:160|296:248,1,210.000008010865,0|0,2:0|0:0,2:0:0:0:
352,344,117419,5,0,0:0:0:0:
88,232,117595,1,0,0:0:0:0:
400,64,117948,1,0,0:0:0:0:
152,224,118124,1,0,0:0:0:0:
400,320,118477,1,0,0:0:0:0:
280,312,118654,5,0,0:0:0:0:
232,280,118742,1,0,0:0:0:0:
192,232,118830,1,0,0:0:0:0:
128,128,119007,1,0,0:0:0:0:
248,160,119183,2,0,P|352:200|424:272,1,210.000008010865,0|0,2:0|0:0,2:0:0:0:
192,336,120242,2,0,L|240:304,1,52.5000020027161
312,40,120772,2,0,L|264:72,1,52.5000020027161
112,248,121301,2,0,L|168:224,1,52.5000020027161
216,208,121566,1,0,0:0:0:0:
272,184,121654,2,0,L|336:160,1,52.5000020027161
432,128,122007,6,0,P|352:80|288:96,1,157.500006008148
192,160,122713,1,0,0:0:0:0:
152,328,123066,1,0,0:0:0:0:
408,216,123242,1,0,0:0:0:0:
408,80,123595,1,0,0:0:0:0:
112,200,123772,1,0,0:0:0:0:
336,296,124124,5,0,0:0:0:0:
248,216,124301,1,0,0:0:0:0:
296,176,124389,1,0,0:0:0:0:
336,136,124477,1,0,0:0:0:0:
192,112,124654,1,0,0:0:0:0:
152,224,124830,6,0,P|256:240|360:224,1,210.000008010865,0|0,2:0|0:0,0:0:0:0:
56,192,125889,1,0,0:0:0:0:
416,40,126066,1,0,0:0:0:0:
56,40,126419,1,0,0:0:0:0:
416,192,126595,1,0,0:0:0:0:
56,192,126948,2,0,P|96:200|128:216,1,52.5000020027161
160,232,127213,1,0,0:0:0:0:
208,264,127301,1,0,0:0:0:0:
296,344,127477,1,0,0:0:0:0:
296,344,127654,6,0,P|224:272|112:216,1,210.000008010865,0|0,2:0|0:0,0:0:0:0:
8,200,128713,1,0,0:0:0:0:
120,152,128889,1,0,0:0:0:0:
504,200,129242,1,0,0:0:0:0:
392,152,129418,1,0,0:0:0:0:
256,352,129772,1,0,0:0:0:0:
152,304,129948,2,0,L|112:280,2,26.2500010013581
248,272,130301,2,0,L|280:248,1,26.2500010013581
312,216,130477,6,0,B|352:168|304:128|285:119|285:119|264:128|232:128|234:94|264:64,1,210.000008010865,0|0,2:0|0:0,0:0:0:0:
456,136,131536,1,0,0:0:0:0:
240,312,131713,1,0,0:0:0:0:
56,160,132066,1,0,0:0:0:0:
240,24,132242,1,0,0:0:0:0:
152,248,132595,5,0,0:0:0:0:
336,104,132772,1,0,0:0:0:0:
352,160,132860,1,0,0:0:0:0:
320,208,132948,1,0,0:0:0:0:
232,296,133124,1,0,0:0:0:0:
184,184,133301,5,0,0:0:0:0:
384,48,133654,1,0,0:0:0:0:
328,152,133830,1,0,0:0:0:0:
424,224,134007,1,0,0:0:0:0:
344,312,134183,1,0,0:0:0:0:
224,320,134360,1,0,0:0:0:0:
112,280,134536,1,0,0:0:0:0:
80,232,134624,1,0,0:0:0:0:
64,176,134713,1,0,0:0:0:0:
184,176,134889,1,0,0:0:0:0:
304,184,135066,5,0,0:0:0:0:
272,136,135154,1,0,0:0:0:0:
224,104,135242,1,0,0:0:0:0:
184,176,135419,1,0,0:0:0:0:
264,264,135595,1,0,0:0:0:0:
200,256,135683,1,0,0:0:0:0:
152,224,135772,1,0,0:0:0:0:
264,176,135948,1,0,0:0:0:0:
144,272,136830,6,0,B|168:248|168:248|211:239|211:239|248:248,1,105.000004005432
352,280,137360,1,0,0:0:0:0:
440,56,137713,1,0,0:0:0:0:
320,72,137889,2,0,L|272:80,3,26.2500010013581,0|0|0|0,2:0|2:0|2:0|2:0,2:0:0:0:
344,104,138242,2,0,L|368:144,7,26.2500010013581,0|0|0|0|0|0|0|0,2:0|2:0|2:0|2:0|2:0|2:0|2:0|2:0,2:0:0:0:
296,144,138948,6,0,P|256:160|296:88,1,210.000008010865,0|0,2:0|0:0,0:0:0:0:
376,112,140007,2,0,L|344:160,1,52.5000020027161
304,272,140536,2,0,L|368:232,1,52.5000020027161
216,264,141066,1,0,0:0:0:0:
256,152,141242,1,0,0:0:0:0:
224,104,141330,1,0,0:0:0:0:
264,56,141419,1,0,0:0:0:0:
304,152,141595,1,0,0:0:0:0:
312,88,141683,1,0,0:0:0:0:
352,128,141772,6,0,P|384:208|296:296,1,210.000008010865,0|0,2:0|0:0,0:0:0:0:
72,328,142830,1,0,0:0:0:0:
288,248,143007,1,0,0:0:0:0:
72,136,143360,1,0,0:0:0:0:
224,352,143536,1,0,0:0:0:0:
352,144,143889,5,0,0:0:0:0:
272,232,144066,2,0,L|240:264,2,26.2500010013581
376,296,144419,1,0,0:0:0:0:
464,216,144595,2,0,P|432:128|368:120,1,157.500006008148,0|0,2:0|0:0,0:0:0:0:
448,336,145301,1,0,0:0:0:0:
208,328,145654,1,0,0:0:0:0:
456,224,145830,1,0,0:0:0:0:
96,208,146183,1,0,0:0:0:0:
288,56,146360,5,0,0:0:0:0:
240,88,146448,1,0,0:0:0:0:
216,144,146536,1,0,0:0:0:0:
272,248,146713,1,0,0:0:0:0:
408,136,146889,1,0,0:0:0:0:
376,184,146977,1,0,0:0:0:0:
368,240,147066,1,0,0:0:0:0:
272,248,147242,1,0,0:0:0:0:
192,336,147419,6,0,P|112:264|184:208,1,210.000008010865,0|0,2:0|0:0,0:0:0:0:
400,160,148477,1,0,0:0:0:0:
72,64,148654,1,0,0:0:0:0:
72,64,149007,1,0,0:0:0:0:
360,344,149183,1,0,0:0:0:0:
120,304,149536,1,0,0:0:0:0:
232,248,149713,1,0,0:0:0:0:
280,216,149801,1,0,0:0:0:0:
328,176,149889,1,0,0:0:0:0:
408,88,150066,1,0,0:0:0:0:
408,88,150242,6,0,B|432:136|432:136|376:136|376:136|336:136|376:176|376:176|416:216,1,210.000008010865,0|0,2:0|0:0,0:0:0:0:
464,328,151301,2,0,L|400:304,1,52.5000020027161
176,344,151830,2,0,L|224:296,1,52.5000020027161
104,192,152360,1,0,0:0:0:0:
208,128,152536,1,0,0:0:0:0:
264,144,152624,1,0,0:0:0:0:
296,192,152713,1,0,0:0:0:0:
184,240,152889,1,0,0:0:0:0:
240,256,152977,1,0,0:0:0:0:
304,264,153066,6,0,P|392:216|344:136,1,210.000008010865,0|0,2:0|0:0,0:0:0:0:
184,72,154124,1,0,0:0:0:0:
80,280,154301,1,0,0:0:0:0:
176,344,154654,1,0,0:0:0:0:
432,272,154830,2,0,P|376:272|320:232,1,105.000004005432
264,144,155360,1,0,0:0:0:0:
240,88,155448,1,0,0:0:0:0:
248,32,155536,1,0,0:0:0:0:
352,88,155713,1,0,0:0:0:0:
256,192,155889,12,0,157301,0:0:0:0:
128,88,157654,5,0,0:0:0:0:
224,240,157830,1,0,0:0:0:0:
128,88,158183,1,0,0:0:0:0:
224,240,158360,1,0,0:0:0:0:
360,128,158536,1,0,0:0:0:0:
360,128,158624,1,0,0:0:0:0:
360,128,158713,6,0,P|328:184|232:120,1,210.000008010865,0|0,2:0|2:0,2:0:0:0:
248,304,159948,1,0,2:0:0:0:
416,128,160301,2,0,L|368:168,1,52.5000020027161,0|0,2:0|2:0,2:0:0:0:
144,104,160830,1,0,2:0:0:0:
272,312,161183,1,0,2:0:0:0:
416,120,161536,6,0,P|352:112|192:128,1,210.000008010865,0|0,2:0|2:0,2:0:0:0:
304,256,162772,1,0,2:0:0:0:
136,192,163124,1,0,2:0:0:0:
248,144,163301,1,0,2:0:0:0:
368,280,163654,1,0,2:0:0:0:
256,328,163830,1,0,2:0:0:0:
160,256,164007,1,0,2:0:0:0:
152,200,164095,2,0,P|185:191|208:168,1,52.5000020027161,0|0,2:0|2:0,2:0:0:0:
249,118,164360,6,0,P|265:94|297:79,1,52.5000020027161,0|0,2:0|2:0,2:0:0:0:
392,88,164713,2,0,P|404:147|368:192,1,105.000004005432,0|0,2:0|2:0,2:0:0:0:
408,288,165595,1,0,2:0:0:0:
288,344,165948,2,0,P|256:352|216:344,1,52.5000020027161,0|0,2:0|2:0,2:0:0:0:
48,200,166477,1,0,2:0:0:0:
256,72,166830,1,0,2:0:0:0:
464,192,167183,6,0,L|288:192,1,157.500006008148,0|0,2:0|2:0,2:0:0:0:
184,192,167889,1,0,2:0:0:0:
256,328,168242,1,0,2:0:0:0:
256,40,168948,1,0,2:0:0:0:
256,104,169036,1,0,2:0:0:0:
256,168,169124,1,0,2:0:0:0:
344,256,169301,5,0,2:0:0:0:
232,296,169477,1,0,2:0:0:0:
176,272,169566,1,0,2:0:0:0:
160,152,169742,1,0,2:0:0:0:
104,128,169831,1,0,2:0:0:0:
64,240,170007,6,0,P|168:224|272:264,1,210.000008010865,0|0,2:0|2:0,2:0:0:0:
288,80,171419,1,0,0:0:0:0:
208,176,171595,1,0,0:0:0:0:
304,248,171772,1,0,0:0:0:0:
392,168,171948,1,0,0:0:0:0:
272,152,172124,1,0,0:0:0:0:
224,264,172301,1,0,0:0:0:0:
336,304,172477,5,0,2:0:0:0:
96,304,172830,2,0,P|168:232|272:232,1,210.000008010865,0|0,2:0|2:0,2:0:0:0:
408,136,174242,5,0,0:0:0:0:
208,64,174419,1,0,0:0:0:0:
280,48,174507,1,0,0:0:0:0:
232,184,174683,1,0,0:0:0:0:
296,144,174772,1,0,0:0:0:0:
288,264,174948,1,0,0:0:0:0:
408,248,175124,1,0,0:0:0:0:
368,184,175213,1,0,0:0:0:0:
392,64,175389,5,0,0:0:0:0:
424,112,175477,1,0,0:0:0:0:
424,176,175566,1,0,0:0:0:0:
416,232,175654,2,0,P|368:320|256:320,1,210.000008010865,0|0,2:0|2:0,2:0:0:0:
136,128,177066,5,0,0:0:0:0:
136,128,177154,1,0,0:0:0:0:
136,128,177242,1,0,0:0:0:0:
208,224,177419,1,0,0:0:0:0:
328,224,177595,1,0,0:0:0:0:
392,120,177772,1,0,0:0:0:0:
424,240,177948,1,0,0:0:0:0:
328,312,178124,1,0,0:0:0:0:
208,288,178301,1,0,0:0:0:0:
80,184,178477,5,0,0:0:0:0:
344,80,178654,1,0,0:0:0:0:
280,336,178830,1,0,0:0:0:0:
192,96,179007,1,0,0:0:0:0:
408,200,179183,1,0,0:0:0:0:
168,312,179360,1,0,0:0:0:0:
200,120,179536,1,0,0:0:0:0:
416,264,179713,1,0,0:0:0:0:
272,360,179889,1,0,0:0:0:0:
232,184,180066,1,0,0:0:0:0:
408,336,180242,1,0,0:0:0:0:
160,280,180419,1,0,0:0:0:0:
342,139,180595,2,0,P|466:73|354:157,1,420.000016021729
168,96,191464,6,0,P|208:80|288:80,1,105.000004005432
256,208,192000,1,0,0:0:0:0:
392,304,192357,2,0,P|320:336|280:320,1,105.000004005432
352,72,192714,6,0,P|368:120|352:184,1,105.000004005432
208,120,193071,1,0,0:0:0:0:
96,144,193250,1,0,0:0:0:0:
56,240,193428,2,0,P|80:280|136:304,1,105.000004005432
288,312,193786,2,0,P|232:304|176:264,1,105.000004005432
96,152,194143,1,0,0:0:0:0:
96,152,194321,1,0,0:0:0:0:
216,48,194500,1,0,0:0:0:0:
216,48,194678,1,0,0:0:0:0:
304,176,194857,1,0,0:0:0:0:
312,88,195036,5,0,0:0:0:0:
184,280,195214,1,0,0:0:0:0:
184,280,195393,1,0,0:0:0:0:
184,280,195483,1,0,0:0:0:0:
184,280,195571,1,0,0:0:0:0:
240,136,195750,1,0,0:0:0:0:
320,272,195928,2,0,P|256:240|208:192,1,105.000004005432
224,56,196286,2,0,P|176:112|168:168,1,105.000004005432
72,264,196643,2,0,P|80:176|64:136,1,105.000004005432
224,216,197000,5,0,0:0:0:0:
224,216,197178,1,0,0:0:0:0:
376,160,197357,1,0,0:0:0:0:
376,160,197536,1,0,0:0:0:0:
360,320,197714,1,0,0:0:0:0:
360,320,197893,1,0,0:0:0:0:
200,320,198071,1,0,0:0:0:0:
128,184,198250,5,0,0:0:0:0:
128,184,198339,1,0,0:0:0:0:
128,184,198428,1,0,0:0:0:0:
248,80,198607,1,0,0:0:0:0:
312,224,198787,2,0,L|216:152,1,105.000004005432
384,40,199146,2,0,L|384:168,1,105.000004005432
208,120,199505,2,0,L|296:32,1,105.000004005432
136,104,199865,2,0,L|144:232,1,105.000004005432
248,328,200224,2,0,L|368:272,1,105.000004005432
472,200,200583,2,0,L|408:64,1,105.000004005432
344,208,200942,2,0,L|280:344,1,105.000004005432
328,96,201338,5,0,0:0:0:0:
289,60,201428,1,0,0:0:0:0:
241,40,201518,1,0,0:0:0:0:
188,37,201609,1,0,0:0:0:0:
138,50,201699,1,0,0:0:0:0:
95,80,201789,1,0,0:0:0:0:
64,122,201880,1,0,0:0:0:0:
48,172,201970,1,0,0:0:0:0:
50,224,202060,5,0,0:0:0:0:
69,273,202151,1,0,0:0:0:0:
102,313,202241,1,0,0:0:0:0:
147,340,202331,1,0,0:0:0:0:
198,350,202422,1,0,0:0:0:0:
250,343,202512,1,0,0:0:0:0:
297,320,202603,1,0,0:0:0:0:
333,283,202693,1,0,0:0:0:0:
112,56,203325,5,0,0:0:0:0:
184,80,203416,1,0,0:0:0:0:
256,112,203506,1,0,0:0:0:0:
208,256,203687,1,0,0:0:0:0:
144,216,203868,2,0,P|144:288|160:312,1,70
296,200,204254,6,0,P|352:176|360:144,1,70
296,128,204617,2,0,P|224:192|248:224,1,140
424,200,205163,2,0,P|424:152|392:112,1,70
264,56,205526,1,0,0:0:0:0:
112,104,206254,2,0,P|88:160|104:192,1,70
192,328,206617,1,0,0:0:0:0:
384,328,206799,2,0,P|384:272|352:240,1,70
192,160,207163,6,0,P|168:112|184:72,1,70
312,104,207526,1,0,0:0:0:0:
248,248,207708,1,0,0:0:0:0:
384,168,207890,1,0,0:0:0:0:
384,80,208072,2,0,P|440:96|456:128,1,70
440,264,208435,2,0,B|344:272|336:216|336:216|280:288|240:240|240:240,1,210
88,88,209163,5,0,0:0:0:0:
160,104,209254,1,0,0:0:0:0:
232,128,209345,1,0,0:0:0:0:
384,176,209526,1,0,0:0:0:0:
224,32,209708,1,0,0:0:0:0:
232,272,209890,1,0,0:0:0:0:
96,200,210072,6,0,P|128:224|176:200,1,70
152,144,210435,2,0,P|192:152|232:192,1,70
336,224,210799,1,0,0:0:0:0:
352,240,210981,1,0,0:0:0:0:
368,256,211163,1,0,0:0:0:0:
384,272,211344,2,0,P|312:312|240:272,1,140
128,88,212072,5,0,0:0:0:0:
208,288,212254,1,0,0:0:0:0:
296,80,212435,1,0,0:0:0:0:
392,288,212617,2,0,P|344:272|304:240,2,70
136,216,213344,1,0,0:0:0:0:
224,136,213708,2,0,P|288:144|240:200,1,140
416,104,214435,1,0,0:0:0:0:
256,232,214617,1,0,0:0:0:0:
256,232,214708,1,0,0:0:0:0:
256,232,214799,1,0,0:0:0:0:
104,192,214981,5,0,0:0:0:0:
104,192,215072,1,0,0:0:0:0:
104,192,215163,1,0,0:0:0:0:
272,336,215345,1,0,0:0:0:0:
176,56,215526,1,0,0:0:0:0:
432,224,215708,1,0,0:0:0:0:
144,248,215890,2,0,P|160:192|184:160,1,70
288,32,216254,5,0,0:0:0:0:
360,168,216435,1,0,0:0:0:0:
344,328,216617,1,0,0:0:0:0:
184,320,216799,2,0,P|216:264|240:240,1,70
408,240,217163,1,0,0:0:0:0:
256,240,217345,1,0,0:0:0:0:
280,88,217526,1,0,0:0:0:0:
144,176,217708,1,0,0:0:0:0:
88,64,217890,6,0,P|152:72|176:88,1,70
192,248,218254,1,0,0:0:0:0:
360,80,218435,1,0,0:0:0:0:
384,288,218617,1,0,0:0:0:0:
128,264,218799,1,0,0:0:0:0:
272,192,218981,1,0,0:0:0:0:
120,136,219163,1,0,0:0:0:0:
272,72,219345,1,0,0:0:0:0:
104,32,219526,1,0,0:0:0:0:
120,48,219708,1,0,0:0:0:0:
136,64,219890,1,0,0:0:0:0:
152,80,220072,2,0,B|160:104|160:104|192:56|312:104|296:176,1,210
184,224,220799,5,0,0:0:0:0:
184,224,220890,1,0,0:0:0:0:
184,224,220981,1,0,0:0:0:0:
256,208,221163,2,0,B|248:168|200:136,1,70
104,192,221526,1,0,0:0:0:0:
104,112,221708,2,0,P|128:80|176:64,1,70
320,128,222072,1,0,0:0:0:0:
400,264,222254,1,0,0:0:0:0:
240,256,222435,1,0,0:0:0:0:
232,160,222617,2,0,P|184:184|168:224,1,70
304,160,222981,2,0,B|304:72|304:72|184:24|184:88,1,210
64,56,223708,5,0,0:0:0:0:
64,56,223890,1,0,0:0:0:0:
64,56,224072,1,0,0:0:0:0:
64,56,224254,1,0,0:0:0:0:
64,56,224435,1,0,0:0:0:0:
192,152,224617,2,0,B|288:112|288:112|352:136|352:136|288:256,1,280
280,128,225708,1,0,0:0:0:0:
136,256,226072,5,0,0:0:0:0:
240,264,226254,1,0,0:0:0:0:
312,256,226345,1,0,0:0:0:0:
384,232,226435,1,0,0:0:0:0:
464,176,226617,1,0,0:0:0:0:
392,152,226708,1,0,0:0:0:0:
320,176,226799,1,0,0:0:0:0:
320,88,226981,1,0,0:0:0:0:
224,88,227072,1,0,0:0:0:0:
224,184,227254,1,0,0:0:0:0:
128,184,227345,1,0,0:0:0:0:
56,144,227526,6,0,B|40:176|40:176|64:232,1,70
224,288,227890,1,0,0:0:0:0:
368,352,228072,1,0,0:0:0:0:
392,192,228254,1,0,0:0:0:0:
168,112,228435,2,0,P|128:88|80:96,1,70
88,224,228799,2,0,B|120:184|120:184|152:232|152:232|184:184|184:184|224:248|224:248,1,210
424,288,229526,2,0,P|368:256|352:224,1,70
264,24,229890,1,0,0:0:0:0:
112,176,230072,1,0,0:0:0:0:
320,208,230254,1,0,0:0:0:0:
160,64,230435,6,0,P|200:72|224:120,1,70
56,320,230799,1,0,0:0:0:0:
312,264,230981,1,0,0:0:0:0:
96,112,231163,1,0,0:0:0:0:
216,344,231345,1,0,0:0:0:0:
336,112,231526,1,0,0:0:0:0:
48,240,231708,2,0,B|72:192|72:192|112:264|160:176|160:176|216:200,1,210
192,72,232435,5,0,0:0:0:0:
192,72,232526,1,0,0:0:0:0:
192,72,232617,1,0,0:0:0:0:
216,232,232799,2,0,P|208:184|232:144,1,70
288,192,233163,1,0,0:0:0:0:
424,256,233344,2,0,P|408:288|352:320,1,70
184,320,233708,1,0,0:0:0:0:
72,104,234072,1,0,0:0:0:0:
208,192,234254,2,0,P|232:168|248:112,1,70
128,192,234617,2,0,P|144:232|168:248,3,70
304,304,235345,5,0,0:0:0:0:
376,168,235526,1,0,0:0:0:0:
280,40,235708,1,0,0:0:0:0:
160,144,235890,2,0,P|152:112|160:64,1,70
80,192,236254,2,0,B|208:344|296:272|328:208,1,280
184,192,237344,1,0,0:0:0:0:
320,64,237708,5,0,0:0:0:0:
200,96,237890,1,0,0:0:0:0:
200,96,237981,1,0,0:0:0:0:
200,96,238072,1,0,0:0:0:0:
312,208,238254,1,0,0:0:0:0:
240,240,238345,1,0,0:0:0:0:
168,208,238435,1,0,0:0:0:0:
240,160,238617,2,0,P|288:128|320:128,1,70
400,184,238981,1,0,0:0:0:0:
304,304,239163,5,0,0:0:0:0:
160,248,239344,1,0,0:0:0:0:
48,136,239526,2,0,P|40:72|48:40,1,70
168,88,239890,1,0,0:0:0:0:
256,216,240072,1,0,0:0:0:0:
360,336,240254,2,0,P|408:264|384:200,1,140
208,120,240799,1,0,0:0:0:0:
160,184,240890,1,0,0:0:0:0:
304,256,241072,1,0,0:0:0:0:
248,312,241163,1,0,0:0:0:0:
96,288,241345,1,0,0:0:0:0:
136,136,241526,1,0,0:0:0:0:
288,176,241708,1,0,0:0:0:0:
192,296,241890,1,0,0:0:0:0:
352,280,242072,5,0,0:0:0:0:
336,120,242254,1,0,0:0:0:0:
144,120,242435,2,0,P|144:176|168:208,1,70
352,272,242799,1,0,0:0:0:0:
328,112,242981,1,0,0:0:0:0:
176,240,243163,2,0,P|176:176|184:144,2,70
360,248,243708,1,0,0:0:0:0:
432,272,243799,1,0,0:0:0:0:
360,136,243981,1,0,0:0:0:0:
296,88,244072,1,0,0:0:0:0:
136,96,244254,1,0,0:0:0:0:
192,240,244435,1,0,0:0:0:0:
256,96,244617,1,0,0:0:0:0:
328,240,244799,1,0,0:0:0:0:
176,288,244981,6,0,P|232:296|264:272,1,70
392,168,245344,1,0,0:0:0:0:
248,96,245526,2,0,P|232:152|256:184,1,70
392,288,245890,1,0,0:0:0:0:
240,344,246072,1,0,0:0:0:0:
128,216,246435,5,0,0:0:0:0:
280,240,246617,2,0,L|240:200,1,35
232,40,246890,2,0,L|272:96,1,35
360,208,247163,1,0,0:0:0:0:
280,344,247345,1,0,0:0:0:0:
120,352,247526,1,0,0:0:0:0:
16,240,247708,1,0,0:0:0:0:
192,160,247890,6,0,P|240:208|272:208,1,70
400,224,248254,1,0,0:0:0:0:
280,320,248435,1,0,0:0:0:0:
184,192,248617,1,0,0:0:0:0:
344,200,248799,1,0,0:0:0:0:
256,64,248981,1,0,0:0:0:0:
120,240,249345,5,0,0:0:0:0:
272,288,249526,1,0,0:0:0:0:
256,208,249617,1,0,0:0:0:0:
112,96,249890,1,0,0:0:0:0:
184,136,249981,1,0,0:0:0:0:
256,176,250072,1,0,0:0:0:0:
368,288,250254,1,0,0:0:0:0:
368,128,250435,1,0,0:0:0:0:
288,264,250617,1,0,0:0:0:0:
152,128,250799,6,0,P|176:184|200:192,1,70
384,120,251163,1,0,0:0:0:0:
272,280,251344,2,0,P|224:256|208:216,1,70
320,80,251708,1,0,0:0:0:0:
136,104,251890,2,0,P|120:176|184:168,1,140
360,112,252435,1,0,0:0:0:0:
328,200,252526,1,0,0:0:0:0:
112,264,252799,1,0,0:0:0:0:
192,216,252890,1,0,0:0:0:0:
288,224,252981,1,0,0:0:0:0:
464,280,253163,2,0,P|448:216|440:200,1,70
288,56,253526,1,0,0:0:0:0:
104,216,253708,5,0,0:0:0:0:
320,328,253890,1,0,0:0:0:0:
408,104,254254,1,0,0:0:0:0:
320,328,254436,1,0,0:0:0:0:
408,104,254617,1,0,0:0:0:0:
176,48,254799,1,0,0:0:0:0:
128,160,255163,5,0,0:0:0:0:
312,248,255345,1,0,0:0:0:0:
432,248,255436,1,0,0:0:0:0:
256,88,255617,1,0,0:0:0:0:
200,120,255708,1,0,0:0:0:0:
168,176,255799,1,0,0:0:0:0:
160,240,255890,2,0,P|176:280|216:320,1,70
328,312,256254,1,0,0:0:0:0:
432,248,256436,1,0,0:0:0:0:
424,64,256617,5,0,0:0:0:0:
184,112,256799,1,0,0:0:0:0:
288,280,257163,2,0,B|256:288|256:288|208:240,1,70
160,64,257526,1,0,0:0:0:0:
312,152,257708,1,0,0:0:0:0:
96,248,258072,6,0,P|144:232|168:224,1,70
216,200,258344,2,0,P|264:168|288:136,1,70
304,104,258617,1,0,0:0:0:0:
440,104,258799,2,0,P|440:144|416:192,1,70
368,240,259072,2,0,P|336:184|344:120,1,105
280,64,259526,5,0,0:0:0:0:
128,160,259708,1,0,0:0:0:0:
216,304,260072,2,0,B|248:320|248:320|304:288,1,70
384,112,260435,1,0,0:0:0:0:
216,64,260617,2,0,B|184:88|184:88|200:136,1,70
160,296,260981,5,0,0:0:0:0:
336,304,261163,1,0,0:0:0:0:
336,216,261254,1,0,0:0:0:0:
168,48,261526,5,0,0:0:0:0:
216,120,261617,1,0,0:0:0:0:
304,136,261708,1,0,0:0:0:0:
464,232,261890,1,0,0:0:0:0:
328,344,262072,1,0,0:0:0:0:
200,224,262254,1,0,0:0:0:0:
136,120,273439,6,0,P|168:88|200:80,1,70
328,96,273796,1,0,0:0:0:0:
336,152,273886,1,0,0:0:0:0:
312,208,273995,6,0,L|224:256,1,70,0|0,2:0|2:0,2:0:0:0:
72,216,274353,2,0,L|96:120,1,70,0|0,2:0|2:0,2:0:0:0:
192,96,274711,2,0,L|240:160,1,70,0|0,2:0|2:0,2:0:0:0:
184,264,275069,2,0,L|152:176,1,70,0|0,2:0|2:0,2:0:0:0:
280,216,275428,2,0,L|240:296,1,70,0|0,2:0|2:0,2:0:0:0:
360,320,275786,2,0,L|408:240,1,70,0|0,2:0|2:0,2:0:0:0:
384,144,276144,2,0,L|312:208,1,70,0|0,2:0|2:0,2:0:0:0:
264,96,276502,2,0,L|208:168,1,70,0|0,2:0|2:0,2:0:0:0:
192,200,276771,1,0,2:0:0:0:
160,248,276852,5,0,2:0:0:0:
392,208,277209,1,0,2:0:0:0:
208,64,277566,1,0,2:0:0:0:
112,280,277923,1,0,2:0:0:0:
344,312,278280,1,0,2:0:0:0:
376,72,278637,1,0,2:0:0:0:
248,272,278994,1,0,2:0:0:0:
464,168,279352,1,0,2:0:0:0:
288,48,279530,1,0,0:0:0:0:
248,96,279619,1,0,0:0:0:0:
240,152,279717,5,0,0:0:0:0:
336,224,279895,1,0,0:0:0:0:
272,328,280073,1,0,0:0:0:0:
168,264,280251,1,0,0:0:0:0:
248,176,280429,1,0,0:0:0:0:
368,152,280607,1,0,0:0:0:0:
440,56,280785,1,0,0:0:0:0:
320,32,280963,1,0,0:0:0:0:
136,48,281135,5,0,0:0:0:0:
115,76,281223,1,0,0:0:0:0:
96,104,281312,1,0,0:0:0:0:
125,125,281401,1,0,0:0:0:0:
150,145,281490,1,0,0:0:0:0:
127,172,281578,1,0,0:0:0:0:
104,198,281667,1,0,0:0:0:0:
126,225,281756,1,0,0:0:0:0:
160,256,281845,5,0,0:0:0:0:
188,277,281933,1,0,0:0:0:0:
216,296,282022,1,0,0:0:0:0:
237,267,282111,1,0,0:0:0:0:
257,242,282200,1,0,0:0:0:0:
284,265,282288,1,0,0:0:0:0:
310,288,282377,1,0,0:0:0:0:
337,266,282466,1,0,0:0:0:0:
368,240,282555,6,0,L|400:208,3,35
440,176,282910,2,0,L|392:136,3,35
368,120,283265,2,0,L|400:88,3,35
440,64,283620,2,0,L|400:24,3,35
360,32,283949,5,0,0:0:0:0:
200,160,284125,1,0,0:0:0:0:
448,144,284302,1,0,0:0:0:0:
312,208,284479,1,0,0:0:0:0:
288,264,284568,1,0,0:0:0:0:
248,304,284656,1,0,0:0:0:0:
104,256,284833,1,0,0:0:0:0:
120,80,285010,2,0,P|160:80|200:104,1,70
360,72,285353,6,0,P|320:120|336:144,1,70,0|0,2:0|2:0,2:0:0:0:
432,296,285705,1,0,2:0:0:0:
88,336,286058,1,0,0:0:0:0:
208,80,286235,1,0,0:0:0:0:
360,312,286411,1,0,0:0:0:0:
104,192,286588,1,0,0:0:0:0:
376,128,286764,1,0,0:0:0:0:
320,208,286941,5,0,0:0:0:0:
256,296,287117,1,0,0:0:0:0:
40,120,287294,1,0,0:0:0:0:
304,40,287470,1,0,0:0:0:0:
432,288,287647,1,0,0:0:0:0:
160,336,287823,2,0,L|112:328,3,35
264,336,288176,2,0,P|304:328|328:304,1,70
120,48,288882,5,0,0:0:0:0:
384,144,289058,1,0,0:0:0:0:
112,224,289235,1,0,0:0:0:0:
384,280,289411,1,0,0:0:0:0:
112,352,289588,2,0,L|192:336,1,70
384,336,289941,5,0,0:0:0:0:
120,240,290117,1,0,0:0:0:0:
392,168,290294,1,0,0:0:0:0:
120,112,290470,1,0,0:0:0:0:
392,48,290647,1,0,0:0:0:0:
256,32,290823,1,0,0:0:0:0:
112,48,291000,2,0,B|72:104|72:104|112:176,1,140
128,296,291705,5,0,0:0:0:0:
408,288,291882,1,0,0:0:0:0:
264,48,292058,1,0,0:0:0:0:
48,232,292235,1,0,0:0:0:0:
320,184,292411,1,0,0:0:0:0:
376,112,292588,1,0,0:0:0:0:
400,24,292764,5,0,0:0:0:0:
128,80,292941,1,0,0:0:0:0:
224,344,293117,1,0,0:0:0:0:
464,200,293294,1,0,0:0:0:0:
184,208,293470,2,0,L|208:208,6,17.5
296,296,293823,5,0,0:0:0:0:
96,104,294000,1,0,0:0:0:0:
168,312,294529,5,0,0:0:0:0:
256,43,294705,1,0,0:0:0:0:
343,312,294882,1,0,0:0:0:0:
114,145,295058,1,0,0:0:0:0:
397,145,295235,1,0,0:0:0:0:
248,216,295411,1,0,0:0:0:0:
96,280,295588,5,0,0:0:0:0:
248,48,295764,1,0,0:0:0:0:
376,296,295941,1,0,0:0:0:0:
248,192,296117,1,0,0:0:0:0:
208,312,296294,1,0,0:0:0:0:
96,280,296470,1,0,0:0:0:0:
72,160,296647,6,0,P|96:120|144:96,1,70
256,40,297000,1,0,0:0:0:0:
432,328,297353,5,0,0:0:0:0:
336,192,297529,1,0,0:0:0:0:
248,320,297705,1,0,0:0:0:0:
152,192,297882,1,0,0:0:0:0:
72,328,298058,2,0,B|104:312|104:312|112:256,1,70
120,120,298411,5,0,0:0:0:0:
200,264,298588,1,0,0:0:0:0:
256,112,298764,1,0,0:0:0:0:
312,264,298941,1,0,0:0:0:0:
384,120,299117,1,0,0:0:0:0:
384,120,299205,1,0,0:0:0:0:
384,120,299294,1,0,0:0:0:0:
384,120,299382,1,0,0:0:0:0:
384,120,299470,2,0,P|384:176|368:216,3,70
336,344,300176,5,0,0:0:0:0:
224,232,300353,1,0,0:0:0:0:
312,96,300529,1,0,0:0:0:0:
224,232,300705,1,0,0:0:0:0:
96,128,300882,1,0,0:0:0:0:
224,232,301058,1,0,0:0:0:0:
360,320,301235,2,0,L|392:320,2,17.5
280,320,301411,2,0,L|248:320,2,17.5
320,248,301588,5,0,0:0:0:0:
160,248,301764,1,0,0:0:0:0:
272,128,301941,2,0,B|312:72|312:72|360:128,1,140
400,224,302647,1,0,0:0:0:0:
328,256,302735,1,0,0:0:0:0:
248,264,302823,1,0,0:0:0:0:
168,240,302911,1,0,0:0:0:0:
96,208,303000,5,0,0:0:0:0:
176,72,303176,1,0,0:0:0:0:
96,208,303353,1,0,0:0:0:0:
176,72,303529,1,0,0:0:0:0:
96,208,303705,1,0,0:0:0:0:
208,256,304058,5,0,0:0:0:0:
208,256,304235,1,0,0:0:0:0:
280,112,304411,1,0,0:0:0:0:
208,256,304588,1,0,0:0:0:0:
280,112,304764,2,0,L|312:112,6,17.5
360,96,305117,5,0,2:0:0:0:
64,224,305470,5,0,2:0:0:0:
376,304,305823,5,0,0:0:0:0:
376,304,306000,1,0,0:0:0:0:
376,304,306176,1,0,0:0:0:0:
216,328,306353,1,0,0:0:0:0:
72,248,306529,1,0,0:0:0:0:
112,64,306882,5,0,0:0:0:0:
152,216,307058,1,0,0:0:0:0:
240,80,307235,1,0,0:0:0:0:
304,232,307411,1,0,0:0:0:0:
432,136,307588,1,0,0:0:0:0:
496,288,307764,1,0,0:0:0:0:
344,344,307941,6,0,L|264:344,1,70
112,328,308294,2,0,L|208:304,1,70
328,256,308647,1,0,0:0:0:0:
328,256,308823,1,0,0:0:0:0:
176,200,309000,1,0,0:0:0:0:
296,96,309176,1,0,0:0:0:0:
328,256,309353,1,0,0:0:0:0:
168,72,309705,5,0,0:0:0:0:
256,341,309881,1,0,0:0:0:0:
343,72,310058,1,0,0:0:0:0:
114,239,310234,1,0,0:0:0:0:
397,239,310411,1,0,0:0:0:0:
320,208,310500,1,0,0:0:0:0:
240,176,310588,1,0,0:0:0:0:
168,136,310676,1,0,0:0:0:0:
96,104,310764,5,0,0:0:0:0:
248,336,310940,1,0,0:0:0:0:
208,72,311470,1,0,0:0:0:0:
96,104,311646,1,0,0:0:0:0:
72,224,311823,6,0,P|96:264|144:288,1,70
256,344,312176,1,0,0:0:0:0:
432,56,312529,5,0,0:0:0:0:
336,192,312705,1,0,0:0:0:0:
248,64,312881,1,0,0:0:0:0:
152,192,313058,1,0,0:0:0:0:
72,56,313234,2,0,B|104:72|104:72|112:128,1,70
120,272,313588,6,0,P|192:296|256:264,1,140
280,248,314029,1,0,0:0:0:0:
312,224,314117,1,0,0:0:0:0:
336,192,314205,1,0,0:0:0:0:
360,160,314293,1,0,0:0:0:0:
208,64,314470,1,0,0:0:0:0:
144,232,314647,1,0,0:0:0:0:
312,288,314823,1,0,0:0:0:0:
376,128,315000,1,0,0:0:0:0:
336,40,315352,5,0,0:0:0:0:
224,152,315529,1,0,0:0:0:0:
312,288,315705,1,0,0:0:0:0:
224,152,315881,1,0,0:0:0:0:
96,256,316058,1,0,0:0:0:0:
120,208,316147,1,0,0:0:0:0:
160,176,316235,1,0,0:0:0:0:
200,144,316323,1,0,0:0:0:0:
248,128,316411,6,0,P|312:112|384:144,1,140
280,320,317117,1,0,0:0:0:0:
136,208,317294,1,0,0:0:0:0:
120,24,317470,1,0,0:0:0:0:
272,128,317647,1,0,0:0:0:0:
424,24,317823,1,0,0:0:0:0:
128,112,318176,5,0,0:0:0:0:
184,288,318353,1,0,0:0:0:0:
240,144,318529,1,0,0:0:0:0:
312,248,318705,1,0,0:0:0:0:
352,160,318882,1,0,0:0:0:0:
192,72,330000,6,0,B|224:56|224:56|264:88,1,70
266,162,330353,1,0,0:0:0:0:
239,183,330441,1,0,0:0:0:0:
192,168,330529,1,0,0:0:0:0:
224,288,330705,2,0,B|256:304|256:304|296:256,1,70
376,112,331235,2,0,P|328:80|312:80,1,70
120,200,331764,1,0,0:0:0:0:
360,192,332117,2,0,P|336:240|304:256,1,70
288,72,332647,5,0,0:0:0:0:
200,112,332823,1,0,0:0:0:0:
152,200,333000,1,0,0:0:0:0:
152,200,333088,1,0,0:0:0:0:
152,200,333176,1,0,0:0:0:0:
152,200,333264,1,0,0:0:0:0:
152,200,333353,1,0,0:0:0:0:
320,168,333529,2,0,L|304:240,1,70
120,320,334058,6,0,L|152:248,1,70
400,48,334588,2,0,L|304:192,1,140
216,304,335117,1,0,0:0:0:0:
96,168,335469,5,0,0:0:0:0:
176,72,335647,1,0,0:0:0:0:
336,152,335823,1,0,0:0:0:0:
184,232,336000,1,0,0:0:0:0:
224,264,336088,1,0,0:0:0:0:
272,280,336176,5,0,0:0:0:0:
400,160,336352,1,0,0:0:0:0:
384,336,336529,1,0,0:0:0:0:
384,336,336882,2,0,L|312:272,1,70
144,264,337411,1,0,0:0:0:0:
144,264,337764,2,0,L|216:232,1,70
312,48,338294,5,0,0:0:0:0:
160,136,338470,1,0,0:0:0:0:
120,232,338647,1,0,0:0:0:0:
168,256,338735,1,0,0:0:0:0:
216,272,338823,1,0,0:0:0:0:
264,288,338911,1,0,0:0:0:0:
312,304,339000,6,0,P|352:320|392:328,1,70
432,240,339352,2,0,P|368:224|344:200,1,70
352,120,339705,2,0,P|400:136|432:128,1,70
448,32,340058,2,0,P|408:48|360:40,1,70
128,64,340411,5,0,0:0:0:0:
208,216,340588,1,0,0:0:0:0:
368,152,340764,1,0,0:0:0:0:
456,304,340941,1,0,0:0:0:0:
280,312,341117,5,0,0:0:0:0:
251,291,341205,1,0,0:0:0:0:
224,270,341293,1,0,0:0:0:0:
234,237,341381,1,0,0:0:0:0:
244,203,341469,1,0,0:0:0:0:
255,170,341558,1,0,0:0:0:0:
265,137,341646,1,0,0:0:0:0:
275,103,341734,1,0,0:0:0:0:
286,70,341822,5,0,0:0:0:0:
112,296,342352,1,0,0:0:0:0:
432,288,342882,1,0,0:0:0:0:
128,112,343235,1,0,0:0:0:0:
416,96,343764,1,0,0:0:0:0:
128,144,344294,1,0,0:0:0:0:
128,144,344382,1,0,0:0:0:0:
128,144,344470,1,0,0:0:0:0:
256,264,344647,5,0,0:0:0:0:
384,72,345176,1,0,0:0:0:0:
96,80,345705,1,0,0:0:0:0:
384,280,346058,1,0,0:0:0:0:
64,176,346588,1,0,0:0:0:0:
400,88,346941,2,0,P|344:120|336:144,1,70
288,216,347294,1,0,0:0:0:0:
288,216,347382,1,0,0:0:0:0:
288,216,347470,5,0,0:0:0:0:
72,72,348000,1,0,0:0:0:0:
128,312,348529,1,0,0:0:0:0:
224,312,348705,1,0,0:0:0:0:
320,312,348882,1,0,0:0:0:0:
416,72,349411,2,0,L|400:88,8,17.5
240,48,349941,1,0,0:0:0:0:
224,96,350029,1,0,0:0:0:0:
232,152,350117,1,0,0:0:0:0:
320,304,350294,5,0,0:0:0:0:
408,112,350647,1,0,0:0:0:0:
176,48,351000,1,0,0:0:0:0:
128,288,351352,1,0,0:0:0:0:
257,350,351529,1,0,0:0:0:0:
386,288,351705,1,0,0:0:0:0:
418,148,351882,1,0,0:0:0:0:
329,35,352058,1,0,0:0:0:0:
185,35,352235,1,0,0:0:0:0:
104,152,352411,6,0,L|80:176,4,17.5
128,128,352676,1,0,0:0:0:0:
155,106,352764,1,0,0:0:0:0:
187,93,352852,1,0,0:0:0:0:
222,88,352940,1,0,0:0:0:0:
256,92,353028,1,0,0:0:0:0:
289,104,353117,1,0,0:0:0:0:
256,192,361941,12,0,364411,0:0:0:0:
136,120,364941,5,0,0:0:0:0:
368,192,365470,1,0,0:0:0:0:
248,336,365823,1,0,0:0:0:0:
104,72,366352,1,0,0:0:0:0:
416,120,366882,5,0,0:0:0:0:
384,216,367058,1,0,0:0:0:0:
296,280,367235,1,0,0:0:0:0:
264,72,367764,1,0,0:0:0:0:
88,336,368294,1,0,0:0:0:0:
416,280,368647,1,0,0:0:0:0:
192,56,369176,1,0,0:0:0:0:
112,112,370058,6,0,L|184:144,1,70
256,208,370411,2,0,L|160:224,1,70
88,264,370764,2,0,L|184:296,1,70
224,304,371029,1,0,0:0:0:0:
288,280,371117,2,0,L|376:240,1,70
412,164,371470,5,0,0:0:0:0:
256,33,371647,1,0,0:0:0:0:
99,164,371823,1,0,0:0:0:0:
201,341,372000,1,0,0:0:0:0:
393,271,372176,1,0,0:0:0:0:
357,70,372352,1,0,0:0:0:0:
256,72,372441,1,0,0:0:0:0:
154,70,372529,1,0,0:0:0:0:
118,271,372704,1,0,0:0:0:0:
320,344,372882,5,0,0:0:0:0:
344,319,372970,1,0,0:0:0:0:
369,294,373058,1,0,0:0:0:0:
394,269,373146,1,0,0:0:0:0:
404,237,373234,1,0,0:0:0:0:
410,202,373323,1,0,0:0:0:0:
415,168,373411,1,0,0:0:0:0:
398,138,373499,1,0,0:0:0:0:
380,108,373587,5,0,0:0:0:0:
362,78,373676,1,0,0:0:0:0:
333,61,373764,1,0,0:0:0:0:
300,48,373852,1,0,0:0:0:0:
268,36,373940,1,0,0:0:0:0:
235,40,374029,1,0,0:0:0:0:
203,53,374117,1,0,0:0:0:0:
170,66,374205,1,0,0:0:0:0:
138,79,374293,5,0,0:0:0:0:
144,256,374470,1,0,0:0:0:0:
320,256,374647,1,0,0:0:0:0:
344,80,374823,1,0,0:0:0:0:
344,80,374911,1,0,0:0:0:0:
344,80,375000,1,0,0:0:0:0:
170,66,375176,1,0,0:0:0:0:
248,160,375352,2,0,L|328:168,1,70
472,248,375705,6,0,B|408:280|408:280|320:256,1,140
112,56,376411,2,0,P|152:96|160:128,1,70
184,280,376763,1,0,0:0:0:0:
360,256,376940,1,0,0:0:0:0:
256,112,377116,1,0,0:0:0:0:
96,184,377293,1,0,0:0:0:0:
200,328,377469,5,0,0:0:0:0:
224,152,377646,1,0,0:0:0:0:
352,328,377822,1,0,0:0:0:0:
408,160,377999,1,0,0:0:0:0:
464,328,378176,2,0,L|456:352,8,17.5
480,192,378704,1,0,0:0:0:0:
104,64,379235,5,0,0:0:0:0:
160,232,379411,1,0,0:0:0:0:
272,96,379588,1,0,0:0:0:0:
424,176,379764,1,0,0:0:0:0:
376,344,379941,1,0,0:0:0:0:
200,320,380117,2,0,L|136:264,1,70
128,96,380470,5,0,0:0:0:0:
296,152,380647,1,0,0:0:0:0:
440,56,380823,1,0,0:0:0:0:
464,232,381000,1,0,0:0:0:0:
328,344,381176,2,0,L|248:336,1,70
112,64,382058,5,0,0:0:0:0:
112,64,382235,1,0,0:0:0:0:
152,232,382411,1,0,0:0:0:0:
304,144,382588,1,0,0:0:0:0:
392,296,382764,1,0,0:0:0:0:
448,128,382941,1,0,0:0:0:0:
288,56,383117,5,0,0:0:0:0:
136,144,383294,1,0,0:0:0:0:
184,312,383470,1,0,0:0:0:0:
360,320,383647,1,0,0:0:0:0:
472,184,383823,2,0,L|456:192,8,17.5
312,264,384352,1,0,0:0:0:0:
120,312,384882,5,0,0:0:0:0:
120,312,385058,1,0,0:0:0:0:
40,152,385235,1,0,0:0:0:0:
168,32,385411,1,0,0:0:0:0:
144,208,385588,1,0,0:0:0:0:
256,344,385764,1,0,0:0:0:0:
280,168,385941,5,0,0:0:0:0:
384,24,386117,1,0,0:0:0:0:
360,200,386294,1,0,0:0:0:0:
456,344,386470,1,0,0:0:0:0:
296,280,386647,1,0,0:0:0:0:
304,104,386823,1,0,0:0:0:0:
136,48,387000,6,0,L|152:144,1,70
184,288,387352,1,0,0:0:0:0:
312,320,387705,1,0,0:0:0:0:
176,216,387882,1,0,0:0:0:0:
72,80,388058,1,0,0:0:0:0:
128,80,388147,1,0,0:0:0:0:
176,88,388235,1,0,0:0:0:0:
224,104,388323,1,0,0:0:0:0:
264,136,388411,1,0,0:0:0:0:
376,272,388588,5,0,0:0:0:0:
208,312,388764,1,0,0:0:0:0:
56,216,388941,1,0,0:0:0:0:
72,40,389117,1,0,0:0:0:0:
200,160,389294,1,0,0:0:0:0:
376,144,389470,2,0,L|360:200,3,35
280,200,389823,6,0,L|184:216,1,70
384,248,390176,2,0,L|448:304,1,70
264,336,390529,1,0,0:0:0:0:
248,160,390705,1,0,0:0:0:0:
192,328,390882,1,0,0:0:0:0:
176,152,391058,1,0,0:0:0:0:
112,320,391235,5,0,0:0:0:0:
256,216,391411,1,0,0:0:0:0:
304,144,391500,1,0,0:0:0:0:
368,80,391588,2,0,L|360:88,4,8.75,0|0|0|0|0,0:0|2:0|2:0|2:0|2:0,2:0:0:0:
424,144,391764,2,0,L|416:152,4,8.75,0|0|0|0|0,0:0|2:0|2:0|2:0|2:0,2:0:0:0:
416,232,391941,1,0,0:0:0:0:
264,320,392117,1,0,0:0:0:0:
96,264,392294,1,0,0:0:0:0:
168,160,392647,6,0,P|192:152|160:176,1,140
120,168,393088,1,0,0:0:0:0:
120,112,393176,1,0,0:0:0:0:
152,72,393264,1,0,0:0:0:0:
200,64,393352,5,0,0:0:0:0:
136,232,393529,1,0,0:0:0:0:
296,304,393705,1,0,0:0:0:0:
424,184,393882,1,0,0:0:0:0:
304,56,394058,2,0,L|344:136,1,70
352,296,394411,5,0,0:0:0:0:
184,248,394588,1,0,0:0:0:0:
240,80,394764,1,0,0:0:0:0:
272,256,394941,1,0,0:0:0:0:
104,200,395117,1,0,0:0:0:0:
152,184,395205,1,0,0:0:0:0:
208,176,395294,1,0,0:0:0:0:
256,184,395382,1,0,0:0:0:0:
304,192,395470,5,0,0:0:0:0:
104,80,395823,1,0,0:0:0:0:
312,56,396176,5,0,0:0:0:0:
120,240,396352,1,0,0:0:0:0:
232,32,396529,1,0,0:0:0:0:
200,272,396705,1,0,0:0:0:0:
160,32,396882,1,0,0:0:0:0:
368,56,397235,5,0,0:0:0:0:
368,56,397411,1,0,0:0:0:0:
144,176,397588,1,0,0:0:0:0:
432,224,397764,1,0,0:0:0:0:
152,256,397941,1,0,0:0:0:0:
440,304,398117,1,0,0:0:0:0:
296,344,398293,6,0,L|384:328,1,70
272,48,398646,2,0,L|192:56,1,70
112,328,398999,1,0,0:0:0:0:
64,160,399175,1,0,0:0:0:0:
216,72,399351,1,0,0:0:0:0:
376,144,399528,1,0,0:0:0:0:
256,272,399704,1,0,0:0:0:0:
96,200,399881,1,0,0:0:0:0:
200,56,400057,5,0,0:0:0:0:
224,232,400234,1,0,0:0:0:0:
352,56,400410,1,0,0:0:0:0:
408,224,400587,1,0,0:0:0:0:
464,56,400763,2,0,L|456:32,8,17.5
480,192,401293,1,0,0:0:0:0:
104,320,401822,5,0,0:0:0:0:
160,152,401999,1,0,0:0:0:0:
272,288,402175,1,0,0:0:0:0:
424,208,402351,1,0,0:0:0:0:
376,40,402528,1,0,0:0:0:0:
200,64,402704,2,0,L|136:120,1,70
128,288,403057,5,0,0:0:0:0:
296,232,403234,1,0,0:0:0:0:
440,328,403410,1,0,0:0:0:0:
464,152,403587,1,0,0:0:0:0:
336,40,403763,1,0,0:0:0:0:
168,96,403940,6,0,P|192:104|160:80,1,140
120,88,404381,1,0,0:0:0:0:
120,144,404469,1,0,0:0:0:0:
152,184,404557,1,0,0:0:0:0:
200,192,404646,5,0,0:0:0:0:
112,320,404822,1,0,0:0:0:0:
288,336,404999,1,0,0:0:0:0:
256,160,405175,1,0,0:0:0:0:
392,88,405351,1,0,0:0:0:0:
448,256,405528,1,0,0:0:0:0:
288,328,405704,5,0,0:0:0:0:
136,240,405881,1,0,0:0:0:0:
184,72,406057,1,0,0:0:0:0:
360,64,406234,1,0,0:0:0:0:
432,224,406410,1,0,0:0:0:0:
432,224,406499,1,0,0:0:0:0:
432,224,406587,1,0,0:0:0:0:
432,224,406675,1,0,0:0:0:0:
432,224,406763,2,0,L|344:184,1,70
120,72,407469,5,0,0:0:0:0:
224,216,407646,1,0,0:0:0:0:
40,232,407822,1,0,0:0:0:0:
168,352,407999,1,0,0:0:0:0:
144,176,408175,1,0,0:0:0:0:
280,216,408528,5,0,0:0:0:0:
384,360,408704,1,0,0:0:0:0:
360,184,408881,1,0,0:0:0:0:
456,40,409057,1,0,0:0:0:0:
296,104,409234,1,0,0:0:0:0:
128,104,409587,6,0,L|200:144,1,70
328,176,409940,2,0,L|248:224,1,70
128,248,410293,1,0,0:0:0:0:
72,160,410469,1,0,0:0:0:0:
112,64,410646,1,0,0:0:0:0:
320,56,410999,2,0,P|288:96|288:120,1,70
296,216,411351,1,0,0:0:0:0:
328,320,411528,1,0,0:0:0:0:
296,216,411704,1,0,0:0:0:0:
104,288,412410,6,0,L|176:232,1,70
264,256,412763,2,0,L|208:192,1,70
136,136,413116,2,0,L|208:120,1,70
296,176,413469,1,0,0:0:0:0:
456,40,413822,1,0,0:0:0:0:
400,128,413999,1,0,0:0:0:0:
320,192,414175,1,0,0:0:0:0:
216,184,414351,1,0,0:0:0:0:
152,96,414528,5,0,0:0:0:0:
240,344,414881,1,0,0:0:0:0:
376,64,415234,2,0,L|320:112,1,70
224,152,415587,2,0,L|144:176,1,70
56,208,415940,2,0,L|96:280,1,70
184,312,416293,1,0,0:0:0:0:
288,304,416469,1,0,0:0:0:0:
392,288,416646,6,0,P|440:272|464:232,1,70
464,152,416999,1,0,0:0:0:0:
360,168,417175,1,0,0:0:0:0:
400,72,417351,2,0,P|344:64|328:72,1,70
376,168,417704,2,0,P|312:160|288:144,1,70
248,72,418057,2,0,P|216:112|360:208,1,280
384,120,418940,1,0,0:0:0:0:
288,72,419116,1,0,0:0:0:0:
184,80,419293,1,0,0:0:0:0:
120,160,419469,1,0,0:0:0:0:
104,264,419646,1,0,0:0:0:0:
192,320,419822,1,0,0:0:0:0:
296,312,419999,1,0,0:0:0:0:
392,264,420175,5,0,0:0:0:0:
40,184,420528,1,0,0:0:0:0:
320,48,420881,2,0,P|312:104|360:184,2,140
416,96,421940,1,0,0:0:0:0:
208,72,422293,1,0,0:0:0:0:
176,176,422469,1,0,0:0:0:0:
224,272,422646,1,0,0:0:0:0:
432,304,423000,1,0,0:0:0:0:
64,96,423352,1,0,0:0:0:0:
400,88,423705,5,0,0:0:0:0:
144,144,424058,1,0,0:0:0:0:
248,328,424411,1,0,0:0:0:0:
144,144,424764,1,0,0:0:0:0:
352,120,425117,1,0,0:0:0:0:
296,208,425294,1,0,0:0:0:0:
376,272,425470,1,0,0:0:0:0:
96,352,425823,1,0,0:0:0:0:
448,344,426176,1,0,0:0:0:0:
88,224,426529,6,0,P|120:168|184:96,1,140
376,64,427235,2,0,P|400:144|416:200,1,140
232,296,427941,1,0,0:0:0:0:
232,296,428117,1,0,0:0:0:0:
232,296,428294,1,0,0:0:0:0:
232,296,428647,1,0,0:0:0:0:
160,176,429000,1,0,0:0:0:0:
216,32,429352,5,0,0:0:0:0:
392,152,429705,1,0,0:0:0:0:
96,88,430058,1,0,0:0:0:0:
152,336,430411,1,0,0:0:0:0:
360,328,430764,6,0,L|288:288,1,70
400,272,431117,1,0,0:0:0:0:
440,64,431470,1,0,0:0:0:0:
96,264,431822,1,0,0:0:0:0:
448,312,432176,6,0,L|352:296,1,70
280,280,432529,2,0,L|184:256,1,70
152,176,432882,2,0,L|232:192,1,70
328,208,433235,2,0,L|408:224,1,70
440,128,433588,1,0,0:0:0:0:
344,80,433764,1,0,0:0:0:0:
240,80,433941,1,0,0:0:0:0:
64,192,434294,1,0,0:0:0:0:
256,280,434647,1,0,0:0:0:0:
448,192,435000,5,0,0:0:0:0:
352,160,435176,1,0,0:0:0:0:
248,144,435352,1,0,0:0:0:0:
144,144,435529,1,0,0:0:0:0:
80,232,435705,1,0,0:0:0:0:
184,240,435882,1,0,0:0:0:0:
288,224,436058,1,0,0:0:0:0:
384,264,436235,1,0,0:0:0:0:
464,336,436411,6,0,P|400:320|320:312,1,140
120,280,437117,1,0,0:0:0:0:
440,216,437470,1,0,0:0:0:0:
88,112,437823,6,0,L|168:112,1,70
120,208,438176,2,0,L|200:200,1,70
232,296,438529,2,0,L|280:224,1,70
368,280,438882,2,0,L|336:192,1,70
416,136,439235,6,0,L|344:104,1,70
264,160,439588,1,0,0:0:0:0:
72,72,439941,2,0,P|56:200|64:208,2,140
176,72,440823,1,0,0:0:0:0:
280,72,441000,1,0,0:0:0:0:
384,104,441176,1,0,0:0:0:0:
400,208,441352,6,0,L|320:248,1,70
248,184,441705,2,0,L|320:144,1,70
320,256,442058,2,0,L|232:248,1,70
192,160,442411,2,0,L|272:184,1,70
408,272,442764,1,0,0:0:0:0:
104,240,443117,1,0,0:0:0:0:
288,56,443470,6,0,P|336:88|360:176,1,140
352,272,444000,1,0,0:0:0:0:
144,280,444352,1,0,0:0:0:0:
96,64,444882,6,0,L|264:96,1,140
336,120,445411,1,0,0:0:0:0:
336,120,445764,1,0,0:0:0:0:
437,316,445941,1,0,0:0:0:0:
336,304,446294,6,0,L|176:280,1,140
96,264,446823,1,0,0:0:0:0:
96,264,447176,1,0,0:0:0:0:
137,55,447352,1,0,0:0:0:0:
224,72,447705,6,0,L|368:112,1,140
392,208,448235,1,0,0:0:0:0:
392,208,448588,1,0,0:0:0:0:
64,237,448764,1,0,0:0:0:0:
112,320,449117,6,0,L|264:296,1,140
352,272,449647,1,0,0:0:0:0:
424,192,450000,1,0,0:0:0:0:
64,151,450176,1,0,0:0:0:0:
72,48,450529,6,0,L|200:120,1,140
168,216,451058,1,0,0:0:0:0:
312,128,451411,1,0,0:0:0:0:
131,315,451588,1,0,0:0:0:0:
296,280,451941,6,0,P|296:288|280:256,1,140
395,134,452470,1,0,0:0:0:0:
240,320,452823,1,0,0:0:0:0:
395,134,453000,1,0,0:0:0:0:
312,48,453352,6,0,P|256:48|288:104,1,140
376,152,453882,1,0,0:0:0:0:
408,56,454235,1,0,0:0:0:0:
104,72,454410,1,0,0:0:0:0:
104,72,454764,5,0,0:0:0:0:
56,168,454941,1,0,0:0:0:0:
96,184,455029,1,0,0:0:0:0:
136,200,455117,1,0,0:0:0:0:
221,231,455293,5,0,0:0:0:0:
243,191,455381,1,0,0:0:0:0:
265,151,455469,1,0,0:0:0:0:
317,67,455646,5,0,0:0:0:0:
355,96,455734,1,0,0:0:0:0:
394,126,455822,1,0,0:0:0:0:
474,195,455999,5,0,0:0:0:0:
436,231,456087,1,0,0:0:0:0:
398,268,456175,1,0,0:0:0:0:
318,334,456351,5,0,0:0:0:0:
274,298,456439,1,0,0:0:0:0:
231,262,456527,1,0,0:0:0:0:
150,174,456704,5,0,0:0:0:0:
198,139,456792,1,0,0:0:0:0:
247,105,456880,1,0,0:0:0:0:
373,107,457057,5,0,0:0:0:0:
353,166,457145,1,0,0:0:0:0:
334,226,457233,1,0,0:0:0:0:
287,344,457410,5,0,0:0:0:0:
220,344,457498,1,0,0:0:0:0:
154,344,457586,1,0,0:0:0:0:
48,272,457763,5,0,0:0:0:0:
48,202,457851,1,0,0:0:0:0:
48,132,457939,1,0,0:0:0:0:
160,32,458116,5,0,0:0:0:0:
211,83,458204,1,0,0:0:0:0:
263,135,458292,1,0,0:0:0:0:
376,240,458469,5,0,0:0:0:0:
421,178,458557,1,0,0:0:0:0:
467,116,458645,1,0,0:0:0:0:
312,72,458822,5,0,0:0:0:0:
263,136,458910,1,0,0:0:0:0:
214,200,458998,1,0,0:0:0:0:
112,336,459175,5,0,0:0:0:0:
162,269,459263,1,0,0:0:0:0:
213,202,459351,1,0,0:0:0:0:
320,64,459528,5,0,0:0:0:0:
232,64,459616,1,0,0:0:0:0:
145,64,459704,1,0,0:0:0:0:
136,240,459881,5,0,0:0:0:0:
227,240,459969,1,0,0:0:0:0:
318,240,460057,1,0,0:0:0:0:
128,208,460235,5,0,0:0:0:0:
176,288,460323,1,0,0:0:0:0:
264,320,460411,2,0,P|320:320|352:304,1,70
464,184,460764,2,0,P|432:144|400:136,1,70
232,104,461117,2,0,P|245:66|288:40,1,70
456,32,461470,2,0,P|480:64|496:112,1,70
369,305,461823,5,0,0:0:0:0:
142,305,462000,1,0,0:0:0:0:
142,78,462176,1,0,0:0:0:0:
369,78,462352,1,0,0:0:0:0:
416,192,462529,1,0,0:0:0:0:
256,31,462705,1,0,0:0:0:0:
95,191,462882,1,0,0:0:0:0:
256,352,463058,1,0,0:0:0:0:
192,328,463235,5,0,0:0:0:0:
189,282,463323,1,0,0:0:0:0:
173,239,463411,1,0,0:0:0:0:
144,204,463499,1,0,0:0:0:0:
109,174,463587,1,0,0:0:0:0:
74,145,463676,1,0,0:0:0:0:
51,106,463764,1,0,0:0:0:0:
78,72,463852,1,0,0:0:0:0:
122,62,463940,5,0,0:0:0:0:
168,62,464029,1,0,0:0:0:0:
213,70,464117,1,0,0:0:0:0:
256,86,464205,1,0,0:0:0:0:
294,111,464293,1,0,0:0:0:0:
324,145,464382,1,0,0:0:0:0:
338,189,464470,1,0,0:0:0:0:
337,234,464558,1,0,0:0:0:0:
324,278,464646,1,0,0:0:0:0:
256,336,464823,6,0,L|184:320,1,70
40,256,465176,2,0,L|120:240,1,70
296,232,465529,1,0,0:0:0:0:
136,136,465705,2,0,L|64:144,1,70
216,264,466058,6,0,P|192:272|240:288,1,140
88,96,466764,1,0,0:0:0:0:
408,304,467117,1,0,0:0:0:0:
280,64,467470,1,0,0:0:0:0:
280,64,467647,1,0,0:0:0:0:
280,64,467823,1,0,0:0:0:0:
24,344,468176,1,0,0:0:0:0:
400,304,468529,1,0,0:0:0:0:
397,48,468882,6,0,P|325:88|293:144,1,140
240,336,469588,1,0,0:0:0:0:
296,136,469941,1,0,0:0:0:0:
48,312,470294,1,0,0:0:0:0:
176,168,470470,1,0,0:0:0:0:
352,88,470647,1,0,0:0:0:0:
64,336,471000,5,0,0:0:0:0:
248,40,471352,5,0,0:0:0:0:
440,352,471705,5,0,0:0:0:0:
88,208,472058,1,0,0:0:0:0:
448,88,472411,1,0,0:0:0:0:
296,352,472764,1,0,0:0:0:0:
104,328,473117,1,0,0:0:0:0:
200,168,473294,1,0,0:0:0:0:
80,24,473470,1,0,0:0:0:0:
280,344,473822,1,0,0:0:0:0:
472,16,474175,1,0,0:0:0:0:
456,344,474528,6,0,L|272:240,1,210
96,136,475234,1,0,0:0:0:0:
440,336,475587,1,0,0:0:0:0:
144,40,475940,1,0,0:0:0:0:
272,176,476116,1,0,0:0:0:0:
144,40,476293,1,0,0:0:0:0:
336,320,476646,6,0,L|248:312,1,70
56,168,476999,6,0,L|144:168,1,70
376,80,477351,6,0,L|304:80,1,70
120,80,477704,1,0,0:0:0:0:
216,320,478057,1,0,0:0:0:0:
336,64,478410,1,0,0:0:0:0:
392,336,478763,1,0,0:0:0:0:
216,264,478940,1,0,0:0:0:0:
40,328,479116,1,0,0:0:0:0:
392,336,479469,1,0,0:0:0:0:
40,328,479822,1,0,0:0:0:0:
296,48,480175,5,0,0:0:0:0:
40,328,480528,1,0,0:0:0:0:
416,352,480881,1,0,0:0:0:0:
152,80,481234,1,0,0:0:0:0:
416,352,481587,1,0,0:0:0:0:
368,168,481763,1,0,0:0:0:0:
272,328,481940,1,0,0:0:0:0:
120,88,482293,2,0,L|256:176,1,140
352,304,482999,6,0,P|336:304|376:280,1,140
176,328,483704,1,0,0:0:0:0:
448,64,484057,1,0,0:0:0:0:
80,160,484410,1,0,0:0:0:0:
240,256,484587,1,0,0:0:0:0:
240,64,484763,1,0,0:0:0:0:
424,152,485116,1,0,0:0:0:0:
288,336,485469,1,0,0:0:0:0:
104,320,485822,6,0,B|232:232|224:240,1,140
376,136,486351,1,0,0:0:0:0:
192,160,486528,1,0,0:0:0:0:
192,160,486881,1,0,0:0:0:0:
408,184,487234,1,0,0:0:0:0:
224,232,487410,1,0,0:0:0:0:
408,272,487587,1,0,0:0:0:0:
136,312,487940,5,0,0:0:0:0:
264,32,488293,5,0,0:0:0:0:
160,176,488646,6,0,P|120:192|176:216,1,140
248,168,489175,1,0,0:0:0:0:
392,48,489351,1,0,0:0:0:0:
432,232,489528,1,0,0:0:0:0:
288,112,489704,1,0,0:0:0:0:
480,120,489881,1,0,0:0:0:0:
320,224,490057,5,0,0:0:0:0:
168,336,490234,1,0,0:0:0:0:
168,144,490410,1,0,0:0:0:0:
272,304,490587,1,0,0:0:0:0:
88,248,490763,1,0,0:0:0:0:
256,168,490940,1,0,0:0:0:0:
400,40,491116,2,0,P|464:48|464:120,1,140
176,56,491822,5,0,0:0:0:0:
240,112,492175,1,0,0:0:0:0:
200,184,492528,1,0,0:0:0:0:
280,216,492881,1,0,0:0:0:0:
296,296,493234,1,0,0:0:0:0:
376,320,493587,5,0,0:0:0:0:
48,216,493940,5,0,0:0:0:0:
464,112,494293,5,0,0:0:0:0:
344,48,494646,2,0,L|264:72,1,70
136,312,494999,2,0,L|208:336,1,70
464,216,495351,2,0,L|480:128,1,70
56,152,495704,2,0,L|104:208,1,70
416,352,496057,2,0,L|448:280,1,70
128,48,496410,2,0,P|83:39|152:104,1,280
320,40,497469,5,0,0:0:0:0:
432,192,497646,1,0,0:0:0:0:
320,40,497822,1,0,0:0:0:0:
152,304,498175,1,0,0:0:0:0:
72,64,498528,1,0,0:0:0:0:
248,120,498704,1,0,0:0:0:0:
408,72,498881,1,0,0:0:0:0:
432,328,499234,5,0,0:0:0:0:
256,216,499587,5,0,0:0:0:0:
160,208,499940,6,0,P|120:192|176:168,1,140
352,232,500469,1,0,0:0:0:0:
200,344,500645,1,0,0:0:0:0:
40,240,500822,1,0,0:0:0:0:
112,64,500998,1,0,0:0:0:0:
304,64,501175,1,0,0:0:0:0:
128,120,501351,5,0,0:0:0:0:
320,120,501528,1,0,0:0:0:0:
160,216,501704,1,0,0:0:0:0:
352,216,501881,1,0,0:0:0:0:
192,320,502057,1,0,0:0:0:0:
384,320,502234,1,0,0:0:0:0:
192,328,502410,2,0,L|32:328,1,140
176,328,503116,5,0,0:0:0:0:
240,272,503469,1,0,0:0:0:0:
200,200,503822,1,0,0:0:0:0:
280,168,504175,1,0,0:0:0:0:
296,88,504528,1,0,0:0:0:0:
376,64,504881,5,0,0:0:0:0:
48,168,505234,5,0,0:0:0:0:
464,272,505587,5,0,0:0:0:0:
344,336,505940,2,0,L|264:312,1,70
136,72,506293,2,0,L|208:48,1,70
464,168,506645,2,0,L|480:256,1,70
56,232,506998,2,0,L|104:176,1,70
416,32,507351,2,0,L|448:104,1,70
128,336,507704,2,0,P|83:344|152:280,1,280
320,344,508763,5,0,0:0:0:0:
320,344,508940,1,0,0:0:0:0:
320,344,509116,1,0,0:0:0:0:
152,80,509469,1,0,0:0:0:0:
72,320,509822,1,0,0:0:0:0:
248,256,509998,1,0,0:0:0:0:
424,328,510175,1,0,0:0:0:0:
432,56,510528,5,0,0:0:0:0:
256,168,510881,5,0,0:0:0:0:
224,56,511234,6,0,P|176:88|152:176,1,140
160,272,511764,1,0,0:0:0:0:
368,280,512116,1,0,0:0:0:0:
416,64,512646,6,0,L|248:96,1,140
176,120,513175,1,0,0:0:0:0:
176,120,513528,1,0,0:0:0:0:
128,208,513705,1,0,0:0:0:0:
176,304,514058,6,0,L|336:280,1,140
416,264,514587,1,0,0:0:0:0:
416,264,514940,1,0,0:0:0:0:
456,168,515116,1,0,0:0:0:0:
288,72,515469,6,0,L|144:112,1,140
120,208,515999,1,0,0:0:0:0:
120,208,516352,1,0,0:0:0:0:
120,208,516528,1,0,0:0:0:0:
400,320,516881,6,0,L|248:296,1,140
160,272,517411,1,0,0:0:0:0:
88,192,517764,1,0,0:0:0:0:
48,96,517940,1,0,0:0:0:0:
440,48,518293,6,0,L|312:120,1,140
344,216,518822,1,0,0:0:0:0:
200,128,519175,1,0,0:0:0:0:
344,216,519352,1,0,0:0:0:0:
216,280,519705,6,0,P|216:288|232:256,1,140
168,216,520234,1,0,0:0:0:0:
272,320,520587,1,0,0:0:0:0:
272,320,520764,1,0,0:0:0:0:
200,48,521116,6,0,P|256:48|224:104,1,140
136,152,521646,1,0,0:0:0:0:
104,56,521999,1,0,0:0:0:0:
200,96,522175,1,0,0:0:0:0:
408,72,522528,5,0,0:0:0:0:
405,260,522704,2,0,L|320:312,1,70
256,320,522881,1,0,0:0:0:0:
120,312,523057,6,0,P|144:264|208:232,1,70
248,216,523234,1,0,0:0:0:0:
312,304,523410,6,0,B|349:294|366:267|357:214,1,70
368,152,523587,1,0,0:0:0:0:
256,144,523763,6,0,B|257:192|257:192|336:200,1,70
392,216,523940,1,0,0:0:0:0:
400,312,524116,6,0,B|416:296|416:296|448:304|448:304|488:304,1,70
440,352,524293,1,0,0:0:0:0:
320,336,524469,6,0,L|344:224,1,70
368,144,524646,1,0,0:0:0:0:
344,40,524822,6,0,P|272:80|240:64,1,70
160,48,524999,1,0,0:0:0:0:
80,152,525175,5,0,0:0:0:0:
128,288,525263,2,0,L|216:328,1,70
384,320,525528,5,0,0:0:0:0:
256,248,525616,2,0,L|176:208,1,70
152,88,525881,5,0,0:0:0:0:
296,144,525969,2,0,P|304:72|288:64,1,70
88,296,526234,5,0,0:0:0:0:
248,336,526322,2,0,L|336:336,1,70
456,256,526587,5,0,0:0:0:0:
464,88,526675,2,0,P|440:72|400:88,1,70
224,48,526940,5,0,0:0:0:0:
112,184,527028,2,0,P|96:216|128:272,1,70
304,336,527293,5,0,0:0:0:0:
272,160,527381,2,0,L|264:240,1,70
120,208,527646,5,0,0:0:0:0:
272,96,527734,2,0,P|328:120|344:160,1,70
352,232,527999,5,0,0:0:0:0:
320,264,528087,1,0,0:0:0:0:
272,272,528175,2,0,P|216:272|176:256,1,70
128,240,528528,2,0,P|160:200|200:192,1,70
248,184,528881,2,0,P|235:146|184:112,1,70
136,112,529234,2,0,P|112:144|96:192,1,70
143,305,529587,5,0,0:0:0:0:
370,305,529764,1,0,0:0:0:0:
370,78,529940,1,0,0:0:0:0:
143,78,530116,1,0,0:0:0:0:
256,352,530293,1,0,0:0:0:0:
417,191,530469,1,0,0:0:0:0:
256,31,530646,1,0,0:0:0:0:
96,192,530822,1,0,0:0:0:0:
104,336,530999,5,0,0:0:0:0:
183,337,531087,1,0,0:0:0:0:
260,320,531175,1,0,0:0:0:0:
297,256,531263,1,0,0:0:0:0:
257,193,531351,1,0,0:0:0:0:
178,193,531440,1,0,0:0:0:0:
112,160,531528,1,0,0:0:0:0:
117,85,531616,1,0,0:0:0:0:
184,46,531704,5,0,0:0:0:0:
263,40,531793,1,0,0:0:0:0:
342,52,531881,1,0,0:0:0:0:
410,89,531969,1,0,0:0:0:0:
451,157,532057,1,0,0:0:0:0:
465,234,532146,1,0,0:0:0:0:
446,309,532234,1,0,0:0:0:0:
383,356,532322,1,0,0:0:0:0:
192,328,532543,6,0,P|163:302|136:256,1,70
424,248,532896,2,0,P|372:205|352:200,1,87.5
96,200,533293,1,0,0:0:0:0:
328,72,533469,2,0,L|400:80,1,70
160,288,533822,6,0,P|152:312|136:264,1,140
472,88,534351,1,0,0:0:0:0:
408,264,534528,1,0,0:0:0:0:
232,336,534704,1,0,0:0:0:0:
40,336,534881,1,0,0:0:0:0:
352,64,535234,5,0,0:0:0:0:
352,64,535411,1,0,0:0:0:0:
352,64,535587,1,0,0:0:0:0:
352,336,535940,1,0,0:0:0:0:
96,200,536293,1,0,0:0:0:0:
112,48,536646,6,0,P|184:88|216:144,1,140
336,272,537175,1,0,0:0:0:0:
112,48,537528,1,0,0:0:0:0:
336,272,537704,1,0,0:0:0:0:
336,272,538057,1,0,0:0:0:0:
208,136,538234,1,0,0:0:0:0:
72,0,538411,1,0,0:0:0:0:
424,320,538764,5,0,0:0:0:0:
184,40,539116,5,0,0:0:0:0:
160,344,539469,5,0,0:0:0:0:
280,208,539822,1,0,0:0:0:0:
136,88,539999,1,0,0:0:0:0:
280,208,540351,1,0,0:0:0:0:
104,280,540528,1,0,0:0:0:0:
296,280,540881,1,0,0:0:0:0:
464,200,541058,1,0,0:0:0:0:
296,120,541234,1,0,0:0:0:0:
296,120,541586,1,0,0:0:0:0:
56,184,541939,1,0,0:0:0:0:
168,328,542293,6,0,L|304:248,1,140
376,336,542822,1,0,0:0:0:0:
456,224,542998,1,0,0:0:0:0:
184,304,543351,1,0,0:0:0:0:
280,200,543528,1,0,0:0:0:0:
400,120,543704,1,0,0:0:0:0:
280,200,543880,1,0,0:0:0:0:
400,120,544057,1,0,0:0:0:0:
176,320,544410,6,0,L|264:312,1,70
456,168,544763,6,0,L|368:168,1,70
136,80,545116,6,0,L|208:80,1,70
344,80,545468,1,0,0:0:0:0:
440,184,545646,1,0,0:0:0:0:
384,312,545821,1,0,0:0:0:0:
288,208,545999,1,0,0:0:0:0:
224,88,546174,1,0,0:0:0:0:
160,296,546527,1,0,0:0:0:0:
296,312,546704,1,0,0:0:0:0:
288,176,546880,1,0,0:0:0:0:
416,328,547233,1,0,0:0:0:0:
232,312,547586,1,0,0:0:0:0:
408,264,547939,5,0,0:0:0:0:
376,88,548292,1,0,0:0:0:0:
192,120,548469,1,0,0:0:0:0:
304,280,548822,1,0,0:0:0:0:
112,272,548998,1,0,0:0:0:0:
216,128,549351,1,0,0:0:0:0:
368,240,549527,1,0,0:0:0:0:
208,144,549704,1,0,0:0:0:0:
272,40,550057,2,0,L|136:128,1,140
160,304,550763,6,0,P|176:304|136:280,1,140
312,320,551293,1,0,0:0:0:0:
128,328,551646,1,0,0:0:0:0:
248,80,551821,1,0,0:0:0:0:
448,320,552174,1,0,0:0:0:0:
280,96,552351,1,0,0:0:0:0:
128,328,552527,1,0,0:0:0:0:
80,40,552880,1,0,0:0:0:0:
128,328,553233,1,0,0:0:0:0:
328,312,553587,6,0,B|200:224|208:232,1,140
328,192,554115,1,0,0:0:0:0:
464,336,554469,1,0,0:0:0:0:
216,40,554645,1,0,0:0:0:0:
96,176,554999,5,0,0:0:0:0:
96,176,555087,1,0,0:0:0:0:
96,176,555175,1,0,0:0:0:0:
96,176,555263,1,0,0:0:0:0:
96,176,555351,1,0,0:0:0:0:
96,176,555440,1,0,0:0:0:0:
96,176,555528,1,0,0:0:0:0:
96,176,555616,1,0,0:0:0:0:
96,176,555704,5,0,0:0:0:0:
121,199,555792,1,0,0:0:0:0:
147,223,555880,1,0,0:0:0:0:
173,247,555968,1,0,0:0:0:0:
198,270,556056,1,0,0:0:0:0:
227,252,556145,1,0,0:0:0:0:
255,231,556233,1,0,0:0:0:0:
283,211,556321,1,0,0:0:0:0:
328,192,556410,6,0,P|368:208|312:232,1,140
96,56,556939,1,0,0:0:0:0:
376,72,557115,1,0,0:0:0:0:
224,312,557292,1,0,0:0:0:0:
224,32,557468,1,0,0:0:0:0:
384,264,557645,1,0,0:0:0:0:
112,216,557821,5,0,0:0:0:0:
368,336,557998,1,0,0:0:0:0:
192,120,558174,1,0,0:0:0:0:
456,208,558351,1,0,0:0:0:0:
240,32,558527,1,0,0:0:0:0:
192,312,558704,1,0,0:0:0:0:
408,136,558881,2,0,P|400:72|328:72,1,140
336,56,559586,5,0,0:0:0:0:
272,112,559940,1,0,0:0:0:0:
312,184,560292,1,0,0:0:0:0:
232,216,560645,1,0,0:0:0:0:
216,296,560998,1,0,0:0:0:0:
136,320,561351,5,0,0:0:0:0:
464,216,561704,1,0,0:0:0:0:
48,112,562057,5,0,0:0:0:0:
168,48,562410,2,0,L|248:72,1,70
360,320,562763,1,0,0:0:0:0:
400,40,562940,1,0,0:0:0:0:
48,216,563116,2,0,L|32:128,1,70
256,320,563469,1,0,0:0:0:0:
280,40,563646,1,0,0:0:0:0:
96,352,563822,2,0,L|64:280,1,70
384,48,564175,2,0,P|428:39|360:104,1,280
192,40,565233,5,0,0:0:0:0:
136,112,565410,1,0,0:0:0:0:
120,200,565586,1,0,0:0:0:0:
216,304,565763,1,0,0:0:0:0:
360,304,565939,1,0,0:0:0:0:
264,120,566468,1,0,0:0:0:0:
104,72,566645,1,0,0:0:0:0:
80,328,567175,5,0,0:0:0:0:
256,216,567351,1,0,0:0:0:0:
352,208,567704,6,0,P|392:192|336:168,1,140
264,216,568233,1,0,0:0:0:0:
320,288,568409,1,0,0:0:0:0:
400,248,568586,1,0,0:0:0:0:
408,160,568762,1,0,0:0:0:0:
320,144,568939,1,0,0:0:0:0:
176,128,569115,5,0,0:0:0:0:
80,120,569292,1,0,0:0:0:0:
216,208,569468,1,0,0:0:0:0:
48,208,569645,1,0,0:0:0:0:
176,288,569821,1,0,0:0:0:0:
88,288,569998,1,0,0:0:0:0:
272,104,570175,2,0,P|336:112|336:184,1,140
336,328,570881,5,0,0:0:0:0:
272,272,571234,1,0,0:0:0:0:
312,200,571586,1,0,0:0:0:0:
232,168,571939,1,0,0:0:0:0:
216,88,572292,1,0,0:0:0:0:
136,64,572646,5,0,0:0:0:0:
464,168,572999,1,0,0:0:0:0:
48,272,573351,5,0,0:0:0:0:
168,336,573704,2,0,L|248:312,1,70
376,72,574057,2,0,L|304:48,1,70
48,168,574410,2,0,L|32:256,1,70
456,232,574763,2,0,L|408:176,1,70
96,32,575116,2,0,L|64:104,1,70
384,336,575469,2,0,P|428:344|360:280,1,280
192,344,576527,5,0,0:0:0:0:
136,272,576704,1,0,0:0:0:0:
120,184,576880,1,0,0:0:0:0:
360,80,577233,1,0,0:0:0:0:
440,320,577586,1,0,0:0:0:0:
264,264,577762,1,0,0:0:0:0:
104,312,577939,1,0,0:0:0:0:
80,56,578292,5,0,0:0:0:0:
256,168,578645,5,0,0:0:0:0:
424,56,578998,5,0,0:0:0:0:
104,104,590653,6,0,P|160:72|224:64,1,105.000004005432
288,240,591028,1,0,2:0:0:0:
120,296,591403,1,0,2:0:0:0:
56,136,591778,1,0,0:0:0:0:
320,64,592153,2,0,P|264:128|272:168,1,105.000004005432
288,280,592528,1,0,2:0:0:0:
408,344,592903,1,0,2:0:0:0:
136,320,593278,5,0,0:0:0:0:
48,232,593653,2,0,P|88:184|128:176,1,105.000004005432
264,184,594028,1,0,2:0:0:0:
392,240,594403,1,0,2:0:0:0:
256,344,594778,5,0,0:0:0:0:
88,128,595153,1,0,0:0:0:0:
200,208,595340,1,0,0:0:0:0:
304,296,595528,1,0,2:0:0:0:
448,64,595903,1,0,2:0:0:0:
176,112,596278,5,0,0:0:0:0:
48,352,596653,1,0,0:0:0:0:
184,320,596840,1,0,0:0:0:0:
320,320,597028,1,0,2:0:0:0:
456,88,597403,1,0,2:0:0:0:
432,264,597778,1,0,0:0:0:0:
408,104,598153,6,0,P|352:72|288:64,1,105.000004005432
224,240,598528,1,0,2:0:0:0:
392,296,598903,1,0,2:0:0:0:
456,136,599278,1,0,0:0:0:0:
192,64,599653,2,0,P|248:128|240:168,1,105.000004005432
224,280,600028,1,0,2:0:0:0:
104,344,600403,1,0,2:0:0:0:
376,320,600778,5,0,0:0:0:0:
464,232,601153,2,0,P|424:184|384:176,1,105.000004005432
248,184,601528,1,0,2:0:0:0:
152,216,601809,2,0,L|144:272,1,52.5000020027161
240,344,602278,1,0,0:0:0:0:
416,320,602653,6,0,P|368:264|336:240,1,105.000004005432
216,200,603028,1,0,0:0:0:0:
120,56,603403,1,0,0:0:0:0:
120,56,603590,1,0,2:0:0:0:
120,56,603778,1,0,0:0:0:0:
248,104,603965,1,0,0:0:0:0:
376,56,604153,5,0,0:0:0:0:
376,56,604340,1,0,2:0:0:0:
376,56,604528,1,0,0:0:0:0:
336,328,604903,1,0,0:0:0:0:
168,264,605278,1,0,2:0:0:0:
168,264,605371,1,0,2:0:0:0:
168,264,605465,1,0,2:0:0:0:
168,264,605559,1,0,2:0:0:0:
168,264,605653,6,0,P|232:272|272:272,1,105.000004005432
408,256,606028,1,0,0:0:0:0:
344,104,606403,1,0,0:0:0:0:
96,160,606965,5,0,0:0:0:0:
264,336,607528,1,0,0:0:0:0:
408,272,607903,1,0,0:0:0:0:
320,224,608090,1,0,0:0:0:0:
408,176,608278,1,0,2:0:0:0:
408,176,608371,1,0,2:0:0:0:
408,176,608465,1,0,2:0:0:0:
408,176,608559,1,0,2:0:0:0:
408,176,608653,6,0,P|416:112|416:72,1,105.000004005432
312,232,609028,1,0,0:0:0:0:
248,80,609403,1,0,0:0:0:0:
96,160,609965,5,0,0:0:0:0:
264,336,610528,1,0,0:0:0:0:
408,272,610903,1,0,0:0:0:0:
320,224,611090,1,0,0:0:0:0:
408,208,611278,1,0,2:0:0:0:
408,208,611371,1,0,2:0:0:0:
408,208,611465,1,0,2:0:0:0:
408,208,611559,1,0,2:0:0:0:
408,208,611653,6,0,P|416:272|416:312,1,105.000004005432
296,120,612215,1,0,0:0:0:0:
232,272,612403,1,0,0:0:0:0:
80,336,612778,1,0,0:0:0:0:
96,224,612965,5,0,0:0:0:0:
160,104,613153,2,0,L|264:136,1,105.000004005432
408,112,613528,1,0,0:0:0:0:
432,248,613715,1,0,0:0:0:0:
336,344,613903,2,0,P|216:344|136:280,1,210.000008010865
56,168,615028,5,0,0:0:0:0:
192,40,615403,1,0,0:0:0:0:
168,224,615778,1,0,0:0:0:0:
288,80,616153,1,0,0:0:0:0:
248,264,616528,1,0,0:0:0:0:
368,112,616903,1,0,0:0:0:0:
344,296,617278,1,0,0:0:0:0:
344,296,617371,1,0,0:0:0:0:
344,296,617465,1,0,0:0:0:0:
344,296,617559,1,0,0:0:0:0:
344,296,617653,5,0,0:0:0:0:
408,120,618028,1,0,0:0:0:0:
224,96,618403,1,0,0:0:0:0:
320,256,618778,1,0,0:0:0:0:
144,328,619153,1,0,0:0:0:0:
32,176,619528,1,0,0:0:0:0:
192,80,619903,1,0,0:0:0:0:
368,144,620278,1,0,0:0:0:0:
368,144,620371,1,0,0:0:0:0:
368,144,620465,1,0,0:0:0:0:
368,144,620559,1,0,0:0:0:0:
368,144,620653,6,0,L|400:240,1,52.5000020027161
360,264,620840,2,0,L|304:272,1,52.5000020027161
240,304,621028,2,0,L|296:352,1,52.5000020027161
352,344,621215,2,0,L|360:280,1,52.5000020027161
328,224,621403,2,0,L|264:208,1,52.5000020027161
208,240,621590,2,0,L|176:176,1,52.5000020027161
112,192,621778,2,0,L|80:120,1,52.5000020027161
48,88,621965,2,0,L|112:56,1,52.5000020027161
256,48,622153,6,0,L|216:96,1,52.5000020027161
200,160,622340,2,0,L|224:208,1,52.5000020027161
264,272,622528,2,0,L|336:288,1,52.5000020027161
376,240,622715,2,0,L|312:216,1,52.5000020027161
280,168,622903,2,0,L|328:144,1,52.5000020027161
400,160,623090,2,0,L|392:96,1,52.5000020027161
328,72,623278,2,0,L|376:32,1,52.5000020027161
440,48,623465,2,0,L|472:96,1,52.5000020027161
480,120,623653,5,0,0:0:0:0:
475,181,623746,1,0,0:0:0:0:
456,240,623840,1,0,0:0:0:0:
417,287,623934,1,0,0:0:0:0:
360,310,624028,1,0,0:0:0:0:
298,307,624121,1,0,0:0:0:0:
244,279,624215,1,0,0:0:0:0:
209,229,624309,1,0,0:0:0:0:
215,169,624403,5,0,0:0:0:0:
263,131,624496,1,0,0:0:0:0:
323,131,624590,1,0,0:0:0:0:
365,173,624684,1,0,0:0:0:0:
347,231,624778,1,0,0:0:0:0:
299,269,624871,1,0,0:0:0:0:
242,293,624965,1,0,0:0:0:0:
181,306,625059,1,0,0:0:0:0:
119,311,625153,5,0,0:0:0:0:
56,176,625340,2,0,B|64:96|176:80,1,157.500006008148
160,256,626653,5,0,0:0:0:0:
256,336,627028,2,0,P|320:328|312:208,1,210.000008010865
176,40,627965,1,0,0:0:0:0:
96,136,628152,1,0,0:0:0:0:
96,248,628340,1,0,0:0:0:0:
176,344,628528,2,0,P|256:344|400:344,1,210.000008010865
448,272,629278,5,0,0:0:0:0:
400,184,629465,1,0,0:0:0:0:
312,144,629653,1,0,0:0:0:0:
216,144,629840,1,0,0:0:0:0:
120,144,630028,2,0,B|67:129|67:129|24:80,2,105.000004005432
312,144,630778,5,0,0:0:0:0:
368,224,630965,1,0,0:0:0:0:
312,304,631153,2,0,P|224:344|112:304,1,210.000008010865
88,128,631903,1,0,0:0:0:0:
280,136,632278,2,0,P|288:144|256:128,1,210.000008010865
264,56,633028,5,0,0:0:0:0:
352,224,633403,1,0,0:0:0:0:
312,240,633496,1,0,0:0:0:0:
264,248,633590,1,0,0:0:0:0:
176,216,633778,1,0,0:0:0:0:
256,160,633965,1,0,0:0:0:0:
256,64,634528,5,0,0:0:0:0:
224,96,634621,1,0,0:0:0:0:
208,136,634715,1,0,0:0:0:0:
264,216,634903,5,0,0:0:0:0:
232,184,634996,1,0,0:0:0:0:
216,144,635090,1,0,0:0:0:0:
208,136,635278,1,0,0:0:0:0:
208,136,635465,1,0,0:0:0:0:
376,80,636028,6,0,P|336:120|336:160,1,52.5000020027161
360,256,636403,1,0,0:0:0:0:
320,272,636496,1,0,0:0:0:0:
272,280,636590,1,0,0:0:0:0:
176,280,636778,1,0,0:0:0:0:
80,272,636965,1,0,0:0:0:0:
136,192,637528,5,0,0:0:0:0:
184,184,637621,1,0,0:0:0:0:
232,200,637715,1,0,0:0:0:0:
312,248,637903,1,0,0:0:0:0:
384,192,638090,1,0,0:0:0:0:
416,104,638278,2,0,P|392:112|408:56,1,105.000004005432
480,40,638653,6,0,B|480:144|480:144|384:216,1,210.000008010865
200,328,639965,1,0,0:0:0:0:
128,264,640153,1,0,0:0:0:0:
176,184,640340,1,0,0:0:0:0:
248,248,640528,2,0,B|312:272|232:264|232:264|344:336,1,210.000008010865
432,240,641278,5,0,0:0:0:0:
392,112,641465,1,0,0:0:0:0:
320,224,641653,1,0,0:0:0:0:
232,72,642215,1,0,0:0:0:0:
160,240,642778,1,0,0:0:0:0:
272,312,642965,1,0,0:0:0:0:
400,272,643153,2,0,P|360:216|296:200,1,105.000004005432
200,152,643528,2,0,P|287:104|416:96,1,210.000008010865
424,192,644278,2,0,P|488:200|424:152,1,210.000008010865
208,312,645028,6,0,L|272:312,1,52.5000020027161
456,264,645403,1,0,0:0:0:0:
392,264,645496,1,0,0:0:0:0:
336,304,645590,1,0,0:0:0:0:
200,304,645778,1,0,0:0:0:0:
264,184,645965,1,0,0:0:0:0:
96,72,646528,5,0,0:0:0:0:
96,72,646621,1,0,0:0:0:0:
96,72,646715,1,0,0:0:0:0:
232,288,646903,1,0,0:0:0:0:
232,288,646996,1,0,0:0:0:0:
232,288,647090,1,0,0:0:0:0:
304,176,647278,1,0,0:0:0:0:
216,72,647465,1,0,0:0:0:0:
112,160,647653,5,0,0:0:0:0:
248,336,648215,5,0,0:0:0:0:
232,96,648778,5,0,0:0:0:0:
352,256,649340,5,0,0:0:0:0:
224,312,649528,1,0,0:0:0:0:
224,312,649621,1,0,0:0:0:0:
224,312,649715,1,0,0:0:0:0:
120,224,649903,1,0,0:0:0:0:
192,112,650090,1,0,0:0:0:0:
296,208,650278,5,0,0:0:0:0:
440,56,650653,5,0,0:0:0:0:
104,112,651028,5,0,0:0:0:0:
392,328,651403,6,0,P|288:304|328:208,1,210.000008010865
432,192,651965,1,0,0:0:0:0:
360,72,652153,2,0,B|256:48|256:48|200:136,1,210.000008010865
88,336,652903,1,0,0:0:0:0:
40,208,653278,1,0,0:0:0:0:
120,96,653465,1,0,0:0:0:0:
256,64,653653,5,0,0:0:0:0:
360,152,653840,1,0,0:0:0:0:
392,288,654028,1,0,0:0:0:0:
240,320,654403,2,0,B|296:240|296:240|216:232|216:232|208:192,1,210.000008010865
200,64,654965,1,0,0:0:0:0:
336,72,655153,2,0,B|416:144|416:144|392:256,1,210.000008010865
240,320,655903,1,0,0:0:0:0:
232,248,656278,2,0,P|224:240|256:256,1,210.000008010865
248,328,657028,5,0,0:0:0:0:
160,160,657403,1,0,0:0:0:0:
200,144,657496,1,0,0:0:0:0:
248,136,657590,1,0,0:0:0:0:
336,168,657778,1,0,0:0:0:0:
256,224,657965,1,0,0:0:0:0:
256,320,658528,5,0,0:0:0:0:
288,288,658621,1,0,0:0:0:0:
304,248,658715,1,0,0:0:0:0:
176,192,658903,5,0,0:0:0:0:
144,160,658996,1,0,0:0:0:0:
128,120,659090,1,0,0:0:0:0:
264,120,659278,1,0,0:0:0:0:
264,120,659465,1,0,0:0:0:0:
136,304,660028,6,0,P|176:264|176:224,1,52.5000020027161
152,128,660403,1,0,0:0:0:0:
192,112,660496,1,0,0:0:0:0:
240,104,660590,1,0,0:0:0:0:
336,104,660778,1,0,0:0:0:0:
432,112,660965,1,0,0:0:0:0:
376,192,661528,5,0,0:0:0:0:
328,200,661621,1,0,0:0:0:0:
280,184,661715,1,0,0:0:0:0:
200,136,661903,1,0,0:0:0:0:
128,192,662090,1,0,0:0:0:0:
96,280,662278,2,0,P|120:272|104:328,1,105.000004005432
32,344,662653,1,0,0:0:0:0:
168,264,663028,6,0,B|168:160|168:160|72:88,1,210.000008010865
312,56,663965,1,0,0:0:0:0:
384,120,664153,1,0,0:0:0:0:
336,200,664340,1,0,0:0:0:0:
264,136,664528,2,0,B|224:104|264:32|264:32|160:48,1,210.000008010865
80,144,665278,5,0,0:0:0:0:
120,272,665465,1,0,0:0:0:0:
192,160,665653,1,0,0:0:0:0:
280,312,666215,1,0,0:0:0:0:
352,144,666778,1,0,0:0:0:0:
240,72,666965,1,0,0:0:0:0:
112,112,667153,2,0,P|152:168|216:184,1,105.000004005432
312,232,667528,2,0,P|224:279|96:288,1,210.000008010865
112,192,668278,2,0,P|48:184|112:232,1,210.000008010865
304,72,669028,6,0,L|240:72,1,52.5000020027161
56,120,669403,1,0,0:0:0:0:
120,120,669496,1,0,0:0:0:0:
176,80,669590,1,0,0:0:0:0:
312,80,669778,1,0,0:0:0:0:
248,200,669965,1,0,0:0:0:0:
416,312,670528,5,0,0:0:0:0:
416,312,670621,1,0,0:0:0:0:
416,312,670715,1,0,0:0:0:0:
280,96,670903,1,0,0:0:0:0:
280,96,670996,1,0,0:0:0:0:
280,96,671090,1,0,0:0:0:0:
208,208,671278,1,0,0:0:0:0:
296,312,671465,1,0,0:0:0:0:
400,224,671653,1,0,0:0:0:0:
264,48,672028,5,0,0:0:0:0:
120,192,672403,1,0,0:0:0:0:
120,192,672496,1,0,0:0:0:0:
120,192,672590,1,0,0:0:0:0:
232,272,672778,1,0,0:0:0:0:
352,208,672965,1,0,0:0:0:0:
160,104,673153,6,0,L|264:136,1,105.000004005432
408,112,673528,1,0,0:0:0:0:
432,248,673715,1,0,0:0:0:0:
344,296,673903,2,0,P|272:288|144:352,1,210.000008010865
120,64,686653,6,0,P|256:48|400:72,1,280
480,144,687778,2,0,P|304:176|192:152,1,280
128,224,688903,1,0,0:0:0:0:
168,320,689278,1,0,0:0:0:0:
296,336,689653,6,0,P|256:200|368:216,1,280
304,256,690778,2,0,P|408:248|352:120,1,280
184,152,691903,1,0,0:0:0:0:
152,240,692090,1,0,0:0:0:0:
152,240,692184,1,0,0:0:0:0:
152,240,692278,1,0,0:0:0:0:
216,304,692465,1,0,0:0:0:0:
304,304,692653,6,0,B|312:224|312:224|392:304|392:304|432:208,1,280
416,40,693778,2,0,B|368:64|368:64|368:112|368:112|320:128|320:128|328:192|328:192|256:200,1,280
104,288,694903,1,0,0:0:0:0:
280,328,695278,1,0,0:0:0:0:
272,144,695653,2,0,B|200:176|200:176|192:320|48:240,1,280
320,56,697153,5,0,0:0:0:0:
432,200,697528,1,0,0:0:0:0:
304,328,697903,1,0,0:0:0:0:
224,296,698090,1,0,0:0:0:0:
224,296,698184,1,0,0:0:0:0:
224,296,698278,1,0,0:0:0:0:
160,232,698465,1,0,0:0:0:0:
144,144,698653,6,0,P|176:72|304:160,1,280
136,224,699778,2,0,B|200:280|232:200|232:200|312:256|376:176,1,280
256,40,700903,1,0,0:0:0:0:
128,168,701278,1,0,0:0:0:0:
240,312,701653,2,0,B|264:248|152:248|152:248|320:248,1,280
360,64,703153,5,0,0:0:0:0:
192,144,703528,1,0,0:0:0:0:
368,200,703903,1,0,0:0:0:0:
288,240,704090,1,0,0:0:0:0:
288,240,704184,1,0,0:0:0:0:
288,240,704278,1,0,0:0:0:0:
208,288,704465,1,0,0:0:0:0:
128,248,704653,6,0,L|168:176,1,70
240,232,705028,2,0,L|216:152,1,70
136,128,705403,2,0,L|192:64,1,70
264,112,705778,2,0,L|224:48,1,70
320,56,706153,1,0,0:0:0:0:
320,56,706528,1,0,0:0:0:0:
424,208,706903,1,0,0:0:0:0:
424,208,707278,1,0,0:0:0:0:
272,312,707653,5,0,0:0:0:0:
184,304,707840,1,0,0:0:0:0:
104,264,708028,1,0,0:0:0:0:
40,200,708215,1,0,0:0:0:0:
96,120,708403,1,0,0:0:0:0:
160,184,708590,1,0,0:0:0:0:
240,224,708778,1,0,0:0:0:0:
328,232,708965,1,0,0:0:0:0:
392,168,709153,5,0,0:0:0:0:
344,160,709246,1,0,0:0:0:0:
296,152,709340,1,0,0:0:0:0:
248,144,709434,1,0,0:0:0:0:
200,136,709528,1,0,0:0:0:0:
160,128,709621,1,0,0:0:0:0:
112,120,709715,1,0,0:0:0:0:
64,112,709809,1,0,0:0:0:0:
16,104,709903,5,0,0:0:0:0:
48,192,710090,1,0,0:0:0:0:
72,232,710184,1,0,0:0:0:0:
96,272,710278,1,0,0:0:0:0:
184,304,710465,1,0,0:0:0:0:
352,296,710653,6,0,L|392:328,8,35
368,112,711778,2,0,L|432:56,4,70
272,264,712903,1,0,0:0:0:0:
160,216,713653,6,0,L|120:240,8,35
336,280,714778,2,0,P|373:260|400:224,4,70
272,264,715903,1,0,0:0:0:0:
184,144,716090,1,0,0:0:0:0:
328,112,716278,1,0,0:0:0:0:
416,232,716465,1,0,0:0:0:0:
320,344,716653,6,0,P|328:320|344:304,8,35
120,128,717778,2,0,P|135:95|184:72,4,70
304,64,718903,1,0,0:0:0:0:
104,184,719653,6,0,L|144:216,8,35
368,112,720778,2,0,L|432:56,2,70
128,280,721528,1,0,0:0:0:0:
368,112,721903,1,0,0:0:0:0:
128,280,722278,1,0,0:0:0:0:
104,48,722653,5,0,0:0:0:0:
138,49,722746,1,0,0:0:0:0:
172,59,722840,1,0,0:0:0:0:
203,75,722934,1,0,0:0:0:0:
230,97,723028,1,0,0:0:0:0:
252,124,723121,1,0,0:0:0:0:
267,156,723215,1,0,0:0:0:0:
276,190,723309,1,0,0:0:0:0:
277,224,723403,1,0,0:0:0:0:
280,312,723778,5,0,0:0:0:0:
210,308,723965,1,0,0:0:0:0:
148,276,724153,1,0,0:0:0:0:
104,223,724340,1,0,0:0:0:0:
84,156,724528,1,0,0:0:0:0:
95,88,724715,1,0,0:0:0:0:
141,37,724903,1,0,0:0:0:0:
224,288,725653,5,0,0:0:0:0:
190,279,725746,1,0,0:0:0:0:
156,271,725840,1,0,0:0:0:0:
131,258,725934,1,0,0:0:0:0:
150,229,726028,1,0,0:0:0:0:
169,200,726121,1,0,0:0:0:0:
188,170,726215,1,0,0:0:0:0:
207,141,726309,1,0,0:0:0:0:
226,112,726403,1,0,0:0:0:0:
424,136,726778,5,0,0:0:0:0:
363,172,726965,1,0,0:0:0:0:
303,208,727153,1,0,0:0:0:0:
274,271,727340,1,0,0:0:0:0:
230,310,727528,1,0,0:0:0:0:
160,307,727715,1,0,0:0:0:0:
90,304,727903,5,0,0:0:0:0:
56,160,728090,1,0,0:0:0:0:
176,80,728278,1,0,0:0:0:0:
184,224,728465,1,0,0:0:0:0:
400,40,728653,5,0,0:0:0:0:
398,74,728746,1,0,0:0:0:0:
388,108,728840,1,0,0:0:0:0:
372,139,728934,1,0,0:0:0:0:
350,166,729028,1,0,0:0:0:0:
323,188,729121,1,0,0:0:0:0:
291,203,729215,1,0,0:0:0:0:
257,212,729309,1,0,0:0:0:0:
223,213,729403,1,0,0:0:0:0:
280,312,729778,5,0,0:0:0:0:
210,308,729965,1,0,0:0:0:0:
148,276,730153,1,0,0:0:0:0:
104,223,730340,1,0,0:0:0:0:
84,156,730528,1,0,0:0:0:0:
95,88,730715,1,0,0:0:0:0:
141,37,730903,1,0,0:0:0:0:
160,224,731653,5,0,0:0:0:0:
168,257,731746,1,0,0:0:0:0:
176,291,731840,1,0,0:0:0:0:
189,316,731934,1,0,0:0:0:0:
218,297,732028,1,0,0:0:0:0:
247,278,732121,1,0,0:0:0:0:
277,259,732215,1,0,0:0:0:0:
306,240,732309,1,0,0:0:0:0:
335,221,732403,1,0,0:0:0:0:
72,88,732778,6,0,L|160:136,1,70
272,176,733153,1,0,0:0:0:0:
72,88,733528,1,0,0:0:0:0:
96,256,733903,1,0,0:0:0:0:
280,328,734090,1,0,0:0:0:0:
344,144,734278,1,0,0:0:0:0:
160,72,734465,1,0,0:0:0:0:
208,264,734653,5,0,0:0:0:0:
208,264,735028,1,0,0:0:0:0:
80,64,735403,1,0,0:0:0:0:
272,72,735590,1,0,0:0:0:0:
440,168,735778,1,0,0:0:0:0:
432,360,735965,1,0,0:0:0:0:
208,264,736153,5,0,0:0:0:0:
208,264,736528,1,0,0:0:0:0:
80,64,736903,1,0,0:0:0:0:
272,72,737090,1,0,0:0:0:0:
440,168,737278,1,0,0:0:0:0:
432,360,737465,1,0,0:0:0:0:
208,264,737653,5,0,0:0:0:0:
208,264,738028,1,0,0:0:0:0:
80,64,738403,1,0,0:0:0:0:
272,72,738590,1,0,0:0:0:0:
440,168,738778,1,0,0:0:0:0:
432,360,738965,1,0,0:0:0:0:
208,264,739153,5,0,0:0:0:0:
208,264,739528,1,0,0:0:0:0:
80,64,739903,1,0,0:0:0:0:
272,72,740090,1,0,0:0:0:0:
440,168,740278,1,0,0:0:0:0:
432,360,740465,1,0,0:0:0:0:
280,328,740653,6,0,L|328:256,1,70
408,112,741028,1,0,0:0:0:0:
104,320,741403,2,0,L|168:288,1,70
408,112,741778,1,0,0:0:0:0:
48,240,742153,2,0,L|128:264,1,70
408,112,742528,1,0,0:0:0:0:
16,152,742903,2,0,L|104:112,1,70
408,112,743278,1,0,0:0:0:0:
408,112,743653,5,0,0:0:0:0:
408,112,743840,1,0,0:0:0:0:
408,112,744028,1,0,0:0:0:0:
408,112,744215,1,0,0:0:0:0:
232,328,744403,5,0,0:0:0:0:
232,328,744590,1,0,0:0:0:0:
232,328,744778,1,0,0:0:0:0:
232,328,744965,1,0,0:0:0:0:
64,224,745153,6,0,B|128:208|128:208|120:128,1,140
272,80,745903,1,0,0:0:0:0:
408,216,746090,1,0,0:0:0:0:
408,216,746184,1,0,0:0:0:0:
408,216,746278,2,0,P|320:256|256:272,1,140
144,112,747778,2,0,L|80:56,4,70
240,264,748903,1,0,0:0:0:0:
352,216,749653,6,0,L|392:240,8,35
176,280,750778,2,0,P|138:260|112:224,4,70
240,264,751903,1,0,0:0:0:0:
136,96,752090,1,0,0:0:0:0:
336,88,752278,1,0,0:0:0:0:
192,216,752465,1,0,0:0:0:0:
384,200,752653,6,0,P|376:176|360:160,8,35
216,328,753778,2,0,P|200:295|152:272,4,70
328,136,754903,1,0,0:0:0:0:
408,184,755653,6,0,L|368:216,8,35
144,112,756778,2,0,L|80:56,2,70
384,280,757528,1,0,0:0:0:0:
144,112,757903,1,0,0:0:0:0:
384,280,758278,1,0,0:0:0:0:
408,48,758653,5,0,0:0:0:0:
373,49,758746,1,0,0:0:0:0:
339,59,758840,1,0,0:0:0:0:
308,75,758934,1,0,0:0:0:0:
281,97,759028,1,0,0:0:0:0:
259,124,759121,1,0,0:0:0:0:
244,156,759215,1,0,0:0:0:0:
235,190,759309,1,0,0:0:0:0:
234,224,759403,1,0,0:0:0:0:
232,312,759778,5,0,0:0:0:0:
301,308,759965,1,0,0:0:0:0:
363,276,760153,1,0,0:0:0:0:
407,223,760340,1,0,0:0:0:0:
427,156,760528,1,0,0:0:0:0:
416,88,760715,1,0,0:0:0:0:
370,37,760903,1,0,0:0:0:0:
288,288,761653,5,0,0:0:0:0:
321,279,761746,1,0,0:0:0:0:
355,271,761840,1,0,0:0:0:0:
380,258,761934,1,0,0:0:0:0:
361,229,762028,1,0,0:0:0:0:
342,200,762121,1,0,0:0:0:0:
323,170,762215,1,0,0:0:0:0:
304,141,762309,1,0,0:0:0:0:
285,112,762403,1,0,0:0:0:0:
88,136,762778,5,0,0:0:0:0:
148,172,762965,1,0,0:0:0:0:
208,208,763153,1,0,0:0:0:0:
237,271,763340,1,0,0:0:0:0:
281,310,763528,1,0,0:0:0:0:
351,307,763715,1,0,0:0:0:0:
421,304,763903,5,0,0:0:0:0:
224,320,764090,1,0,0:0:0:0:
408,256,764278,1,0,0:0:0:0:
344,72,764465,1,0,0:0:0:0:
112,40,764653,5,0,0:0:0:0:
113,74,764746,1,0,0:0:0:0:
123,108,764840,1,0,0:0:0:0:
139,139,764934,1,0,0:0:0:0:
161,166,765028,1,0,0:0:0:0:
188,188,765121,1,0,0:0:0:0:
220,203,765215,1,0,0:0:0:0:
254,212,765309,1,0,0:0:0:0:
288,213,765403,1,0,0:0:0:0:
232,312,765778,5,0,0:0:0:0:
301,308,765965,1,0,0:0:0:0:
363,276,766153,1,0,0:0:0:0:
407,223,766340,1,0,0:0:0:0:
427,156,766528,1,0,0:0:0:0:
416,88,766715,1,0,0:0:0:0:
370,37,766903,1,0,0:0:0:0:
352,224,767653,5,0,0:0:0:0:
343,257,767746,1,0,0:0:0:0:
335,291,767840,1,0,0:0:0:0:
322,316,767934,1,0,0:0:0:0:
293,297,768028,1,0,0:0:0:0:
264,278,768121,1,0,0:0:0:0:
234,259,768215,1,0,0:0:0:0:
205,240,768309,1,0,0:0:0:0:
176,221,768403,1,0,0:0:0:0:
72,88,768778,6,0,L|160:136,1,70
272,176,769153,1,0,0:0:0:0:
72,88,769528,1,0,0:0:0:0:
96,256,769903,1,0,0:0:0:0:
280,328,770090,1,0,0:0:0:0:
344,144,770278,1,0,0:0:0:0:
160,72,770465,1,0,0:0:0:0:
120,264,770653,6,0,P|232:280|168:192,1,280
408,64,771778,2,0,L|384:152,1,70
256,248,772528,2,0,L|248:168,1,70
128,200,772903,1,0,0:0:0:0:
256,336,773278,2,0,L|328:304,1,70
440,152,773653,5,0,0:0:0:0:
56,72,774028,2,0,L|112:120,1,70
128,312,774403,1,0,0:0:0:0:
456,336,774778,2,0,L|376:288,1,70
104,112,775528,2,0,L|192:136,1,70
360,72,775903,1,0,0:0:0:0:
64,328,776278,2,0,L|144:296,1,70
320,256,776653,5,0,0:0:0:0:
176,192,777028,2,0,L|272:192,1,70
392,56,777403,1,0,0:0:0:0:
120,96,777778,2,0,L|184:144,1,70
320,312,778528,2,0,L|304:232,1,70
152,120,778903,1,0,0:0:0:0:
200,272,779278,2,0,L|248:200,1,70
248,136,779653,5,0,0:0:0:0:
128,304,780028,2,0,L|176:232,1,70
360,216,780403,1,0,0:0:0:0:
144,48,780778,2,0,L|208:96,1,70
296,312,781528,2,0,L|240:248,1,70
72,168,781903,1,0,0:0:0:0:
448,72,782278,2,0,L|368:112,1,70
256,192,804393,12,0,807393,0:0:0:0:
112,72,807862,5,0,0:0:0:0:
296,128,808275,1,0,0:0:0:0:
128,224,808689,1,0,0:0:0:0:
184,40,809103,1,0,0:0:0:0:
376,64,809517,2,0,B|352:136|352:136|288:176,1,140
272,88,810344,2,0,B|216:128|216:128|208:224,1,140
304,176,810965,1,0,0:0:0:0:
304,176,811172,5,0,0:0:0:0:
304,176,811586,1,0,0:0:0:0:
472,272,811999,2,0,L|384:288,1,70
304,296,812413,2,0,L|208:296,1,70
136,280,812827,2,0,P|104:256|168:272,1,210
192,336,813655,1,0,0:0:0:0:
376,296,814068,1,0,0:0:0:0:
440,224,814275,1,0,0:0:0:0:
440,128,814482,5,0,0:0:0:0:
440,128,814896,1,0,0:0:0:0:
264,40,815310,2,0,P|224:48|192:80,1,70
272,136,815724,1,0,0:0:0:0:
304,232,815930,2,0,B|376:224|376:224|408:160,1,140
408,64,816551,1,0,0:0:0:0:
312,64,816758,2,0,L|224:96,1,70
168,144,817172,2,0,L|256:160,1,70
320,208,817586,6,0,L|232:232,1,70
152,240,818206,1,0,0:0:0:0:
152,240,818620,1,0,0:0:0:0:
280,296,818827,1,0,0:0:0:0:
328,168,819034,1,0,0:0:0:0:
200,104,819241,1,0,0:0:0:0:
200,104,819655,2,0,P|288:104|280:208,2,210
112,208,821103,5,0,0:0:0:0:
112,208,821517,1,0,0:0:0:0:
160,336,821930,1,0,0:0:0:0:
352,336,822344,1,0,0:0:0:0:
456,248,822758,2,0,L|456:88,1,140
344,40,823586,1,0,0:0:0:0:
240,48,823999,1,0,0:0:0:0:
336,152,824206,1,0,0:0:0:0:
336,296,824413,5,0,0:0:0:0:
336,296,824827,1,0,0:0:0:0:
56,296,825241,1,0,0:0:0:0:
208,56,825655,1,0,0:0:0:0:
208,56,826068,2,0,B|360:56|360:56|432:192,1,280
416,288,827310,1,0,0:0:0:0:
288,344,827517,1,0,0:0:0:0:
149,279,827724,5,0,0:0:0:0:
149,279,828137,1,0,0:0:0:0:
149,279,828551,1,0,0:0:0:0:
200,144,828758,1,0,0:0:0:0:
288,256,828965,1,0,0:0:0:0:
288,256,829172,2,0,L|144:280,1,140
149,279,829793,1,0,0:0:0:0:
149,279,829999,2,0,L|152:176,1,70
240,96,830413,1,0,0:0:0:0:
336,200,830620,1,0,0:0:0:0:
232,296,830827,6,0,L|136:288,1,70
162,290,831448,1,0,0:0:0:0:
128,160,831862,1,0,0:0:0:0:
232,72,832068,1,0,0:0:0:0:
360,128,832275,1,0,0:0:0:0:
368,264,832482,2,0,L|272:296,1,70
256,192,832896,12,0,834137,0:0:0:0:
120,280,834344,5,0,0:0:0:0:
296,64,834758,2,0,L|344:152,1,70
416,240,835172,1,0,0:0:0:0:
352,256,835275,1,0,0:0:0:0:
288,272,835379,1,0,0:0:0:0:
224,288,835482,1,0,0:0:0:0:
160,304,835586,1,0,0:0:0:0:
160,304,835793,1,0,0:0:0:0:
120,168,835999,5,0,0:0:0:0:
384,64,836413,1,0,0:0:0:0:
456,184,836620,1,0,0:0:0:0:
392,304,836827,2,0,L|344:288,1,35
304,184,837034,2,0,L|256:208,1,35
224,296,837241,2,0,L|160:256,1,70
64,160,837655,5,0,0:0:0:0:
64,160,838068,1,0,0:0:0:0:
136,280,838275,1,0,0:0:0:0:
256,344,838482,1,0,0:0:0:0:
280,296,838586,1,0,0:0:0:0:
336,304,838689,1,0,0:0:0:0:
352,256,838793,1,0,0:0:0:0:
408,240,838896,1,0,0:0:0:0:
408,240,839103,1,0,0:0:0:0:
456,112,839310,5,0,0:0:0:0:
280,336,839724,1,0,0:0:0:0:
368,232,839930,1,0,0:0:0:0:
176,312,840137,2,0,L|232:288,1,35
472,280,840344,2,0,L|416:280,1,35
198,225,840551,1,0,0:0:0:0:
444,345,840758,1,0,0:0:0:0:
465,118,840965,5,0,0:0:0:0:
420,145,841068,1,0,0:0:0:0:
368,156,841172,1,0,0:0:0:0:
315,159,841275,1,0,0:0:0:0:
262,156,841379,2,0,P|213:149|176:151,1,70
89,170,841793,5,0,0:0:0:0:
72,219,841896,1,0,0:0:0:0:
76,271,841999,1,0,0:0:0:0:
97,319,842103,1,0,0:0:0:0:
138,350,842206,2,0,P|191:354|228:344,1,70
305,312,842620,6,0,L|359:334,1,35
230,230,842827,2,0,L|186:215,1,35
335,324,843034,1,0,0:0:0:0:
195,217,843241,1,0,0:0:0:0:
334,78,843448,6,0,L|366:127,1,35
202,321,843655,2,0,L|161:299,1,35
52,172,843862,1,0,0:0:0:0:
332,78,844068,1,0,0:0:0:0:
424,126,844275,5,0,0:0:0:0:
432,159,844378,1,0,0:0:0:0:
433,194,844481,1,0,0:0:0:0:
424,228,844585,1,0,0:0:0:0:
402,255,844688,1,0,0:0:0:0:
369,263,844792,1,0,0:0:0:0:
336,251,844895,1,0,0:0:0:0:
309,229,844999,1,0,0:0:0:0:
285,204,845102,5,0,0:0:0:0:
262,177,845206,1,0,0:0:0:0:
238,152,845309,1,0,0:0:0:0:
211,130,845412,1,0,0:0:0:0:
177,123,845516,1,0,0:0:0:0:
149,143,845619,1,0,0:0:0:0:
133,173,845723,1,0,0:0:0:0:
121,206,845826,1,0,0:0:0:0:
117,246,845930,6,0,P|115:291|125:337,1,70
328,338,846344,1,0,0:0:0:0:
118,316,846551,2,0,P|115:284|117:235,2,70
392,312,847172,1,0,0:0:0:0:
120,320,847379,1,0,0:0:0:0:
56,120,847586,6,0,L|120:72,1,70
320,64,847999,1,0,0:0:0:0:
320,64,848206,1,0,0:0:0:0:
376,264,848413,1,0,0:0:0:0:
176,312,848620,1,0,0:0:0:0:
48,144,848827,2,0,P|64:96|104:72,1,70
77,83,849241,1,0,0:0:0:0:
80,88,849655,1,0,0:0:0:0:
80,88,850068,1,0,0:0:0:0:
264,192,850275,1,0,0:0:0:0:
448,296,850482,2,0,P|448:352|408:312,1,140
160,264,851310,5,0,0:0:0:0:
72,72,851517,1,0,0:0:0:0:
280,72,851724,1,0,0:0:0:0:
400,248,851930,1,0,0:0:0:0:
192,280,852137,2,0,P|220:293|272:304,1,70
408,336,852551,5,0,0:0:0:0:
224,48,852965,1,0,0:0:0:0:
160,312,853379,1,0,0:0:0:0:
384,240,853793,2,0,L|328:240,1,35
48,304,853999,2,0,L|96:264,1,35
272,120,854206,6,0,P|288:112|280:144,1,70
80,80,854620,1,0,0:0:0:0:
288,48,854827,1,0,0:0:0:0:
80,80,855034,1,0,0:0:0:0:
224,232,855241,1,0,0:0:0:0:
288,48,855448,2,0,L|264:120,1,70
224,232,855862,5,0,0:0:0:0:
224,232,856275,1,0,0:0:0:0:
288,48,856689,1,0,0:0:0:0:
80,80,856896,1,0,0:0:0:0:
224,232,857103,1,0,0:0:0:0:
352,72,857517,6,0,B|312:88|312:88|312:96|312:96|304:112|304:112|312:128|312:128|296:128|296:128|296:168,1,140
304,304,858137,1,0,0:0:0:0:
168,272,858344,1,0,0:0:0:0:
288,200,858551,1,0,0:0:0:0:
232,328,858758,1,0,0:0:0:0:
96,80,859172,5,0,0:0:0:0:
416,240,859586,5,0,0:0:0:0:
328,56,859999,5,0,0:0:0:0:
312,87,860102,1,0,0:0:0:0:
296,118,860205,1,0,0:0:0:0:
281,149,860309,1,0,0:0:0:0:
265,181,860412,1,0,0:0:0:0:
295,182,860516,1,0,0:0:0:0:
330,180,860619,1,0,0:0:0:0:
365,179,860723,1,0,0:0:0:0:
408,176,860827,6,0,P|448:208|392:192,1,140
272,32,861448,1,0,0:0:0:0:
120,176,861655,1,0,0:0:0:0:
328,168,861862,1,0,0:0:0:0:
208,336,862068,1,0,0:0:0:0:
208,336,862275,1,0,0:0:0:0:
56,184,862482,6,0,L|136:152,1,70
400,272,862896,2,0,L|336:240,1,70
208,72,863310,1,0,0:0:0:0:
200,280,863517,1,0,0:0:0:0:
312,104,863724,2,0,B|268:100|252:128|252:128|266:154|246:168|246:168|208:163|208:200,1,140
352,304,864551,5,0,0:0:0:0:
144,272,864758,1,0,0:0:0:0:
352,304,864965,1,0,0:0:0:0:
144,272,865172,1,0,0:0:0:0:
144,64,865379,1,0,0:0:0:0:
144,64,865586,1,0,0:0:0:0:
352,88,865793,2,0,L|312:176,1,70
192,312,866206,2,0,L|272:296,1,70
104,152,866620,2,0,P|96:128|144:160,1,140
144,192,867241,1,0,0:0:0:0:
344,248,867448,6,0,B|344:176|344:176|416:176|416:176|424:192|432:192,1,140
416,248,868068,1,0,0:0:0:0:
232,344,868275,1,0,0:0:0:0:
112,168,868482,1,0,0:0:0:0:
288,56,868689,2,0,L|304:136,2,70
128,256,869517,1,0,0:0:0:0:
352,264,869930,2,0,P|328:224|336:176,1,70
304,136,870344,2,0,P|360:136|392:216,1,140
48,208,871172,6,0,L|112:136,1,70
232,40,871586,2,0,L|144:80,1,70
296,232,871999,2,0,L|168:144,1,140
180,152,872827,5,0,0:0:0:0:
180,152,873241,5,0,0:0:0:0:
180,152,873655,5,0,0:0:0:0:
180,152,873862,1,0,0:0:0:0:
392,152,874068,2,0,L|352:216,1,70
160,288,874482,1,0,0:0:0:0:
368,320,874689,1,0,0:0:0:0:
208,184,874896,1,0,0:0:0:0:
400,112,875103,1,0,0:0:0:0:
304,152,875206,1,0,0:0:0:0:
400,112,875413,5,0,0:0:0:0:
304,152,875517,1,0,0:0:0:0:
120,256,875724,2,0,P|88:304|88:344,1,70
184,344,876034,1,0,0:0:0:0:
288,344,876137,1,0,0:0:0:0:
288,344,876344,1,0,0:0:0:0:
368,248,876551,5,0,0:0:0:0:
338,228,876654,1,0,0:0:0:0:
309,209,876757,1,0,0:0:0:0:
280,189,876861,1,0,0:0:0:0:
184,232,876965,1,0,0:0:0:0:
194,198,877068,1,0,0:0:0:0:
204,165,877171,1,0,0:0:0:0:
215,131,877275,1,0,0:0:0:0:
304,80,877379,6,0,P|360:72|336:128,1,140
184,232,877999,1,0,0:0:0:0:
384,304,878206,1,0,0:0:0:0:
144,312,878413,1,0,0:0:0:0:
95,247,878516,1,0,0:0:0:0:
91,167,878724,1,0,0:0:0:0:
132,97,878828,1,0,0:0:0:0:
336,40,879034,5,0,0:0:0:0:
456,216,879241,1,0,0:0:0:0:
416,312,879344,1,0,0:0:0:0:
312,328,879448,1,0,0:0:0:0:
312,328,879655,1,0,0:0:0:0:
312,328,879862,5,0,0:0:0:0:
416,312,879965,1,0,0:0:0:0:
488,232,880068,1,0,0:0:0:0:
488,128,880172,1,0,0:0:0:0:
488,128,880275,2,0,L|432:112,1,35
368,56,880482,2,0,L|416:48,1,35
368,152,880689,6,0,P|328:128|360:176,1,140
416,216,881310,1,0,0:0:0:0:
256,344,881517,1,0,0:0:0:0:
112,192,881724,2,0,L|160:176,1,35
344,248,882034,2,0,L|304:208,1,35
168,80,882344,5,0,0:0:0:0:
416,72,882551,1,0,0:0:0:0:
416,128,882655,1,0,0:0:0:0:
416,184,882758,1,0,0:0:0:0:
416,240,882965,1,0,0:0:0:0:
416,296,883172,5,0,0:0:0:0:
381,296,883275,1,0,0:0:0:0:
346,296,883378,1,0,0:0:0:0:
311,296,883482,1,0,0:0:0:0:
311,296,883586,1,0,0:0:0:0:
346,296,883689,1,0,0:0:0:0:
381,296,883792,1,0,0:0:0:0:
416,296,883896,1,0,0:0:0:0:
472,296,883999,6,0,L|320:296,1,140
232,264,884620,1,0,0:0:0:0:
200,80,885034,1,0,0:0:0:0:
200,80,885137,1,0,0:0:0:0:
304,112,885344,1,0,0:0:0:0:
304,112,885448,1,0,0:0:0:0:
256,192,885655,5,0,0:0:0:0:
256,192,886068,5,0,0:0:0:0:
256,192,886482,5,0,0:0:0:0:
305,210,886586,1,0,0:0:0:0:
353,229,886689,1,0,0:0:0:0:
402,248,886793,1,0,0:0:0:0:
320,311,886896,5,0,0:0:0:0:
272,288,886999,1,0,0:0:0:0:
224,264,887103,1,0,0:0:0:0:
176,240,887206,1,0,0:0:0:0:
128,216,887310,2,0,P|104:168|184:144,1,140
415,254,888137,5,0,0:0:0:0:
280,288,888344,1,0,0:0:0:0:
200,312,888447,1,0,0:0:0:0:
72,248,888655,2,0,L|104:304,1,35
216,224,888965,5,0,0:0:0:0:
280,96,889172,1,0,0:0:0:0:
336,136,889275,1,0,0:0:0:0:
376,192,889379,1,0,0:0:0:0:
344,328,889586,1,0,0:0:0:0:
200,328,889793,5,0,0:0:0:0:
152,280,889896,1,0,0:0:0:0:
104,232,889999,1,0,0:0:0:0:
56,184,890103,1,0,0:0:0:0:
112,144,890206,1,0,0:0:0:0:
160,192,890310,1,0,0:0:0:0:
208,248,890413,1,0,0:0:0:0:
256,304,890517,1,0,0:0:0:0:
312,344,890620,6,0,P|368:344|320:304,1,140
208,248,891241,1,0,0:0:0:0:
320,168,891448,1,0,0:0:0:0:
424,80,891655,1,0,0:0:0:0:
360,56,891758,1,0,0:0:0:0:
224,88,891965,1,0,0:0:0:0:
280,48,892068,1,0,0:0:0:0:
320,168,892275,1,0,0:0:0:0:
152,40,892482,1,0,0:0:0:0:
88,64,892585,1,0,0:0:0:0:
72,136,892689,1,0,0:0:0:0:
208,152,892896,1,0,0:0:0:0:
88,280,893103,5,0,0:0:0:0:
152,248,893206,1,0,0:0:0:0:
216,280,893310,1,0,0:0:0:0:
280,248,893413,1,0,0:0:0:0:
344,280,893517,1,0,0:0:0:0:
408,248,893724,1,0,0:0:0:0:
448,320,893930,6,0,P|392:336|432:296,1,140
472,248,894551,1,0,0:0:0:0:
416,120,894758,1,0,0:0:0:0:
280,72,894965,2,0,L|240:96,1,35
224,232,895275,2,0,L|176:240,1,35
96,136,895586,1,0,0:0:0:0:
200,40,895793,2,0,P|256:40|256:40,2,35
224,176,896206,1,0,0:0:0:0:
120,264,896413,6,0,L|176:264,1,35
216,304,896620,2,0,L|256:304,1,35
384,272,896827,2,0,L|352:232,1,35
400,184,897034,2,0,L|360:176,1,35
296,160,897241,5,0,0:0:0:0:
112,88,897655,1,0,0:0:0:0:
152,224,897862,1,0,0:0:0:0:
264,304,898068,1,0,0:0:0:0:
304,168,898275,1,0,0:0:0:0:
304,168,898379,1,0,0:0:0:0:
216,56,898586,1,0,0:0:0:0:
216,56,898689,1,0,0:0:0:0:
256,192,898896,5,0,0:0:0:0:
256,192,899310,5,0,0:0:0:0:
256,192,899724,5,0,0:0:0:0:
320,72,900137,5,0,0:0:0:0:
256,192,900344,1,0,0:0:0:0:
256,192,900551,12,0,906551,0:0:0:0:
176,64,906758,5,0,0:0:0:0:
248,184,906965,1,0,0:0:0:0:
144,280,907172,2,0,B|221:248|304:280|304:280|295:209|360:160,1,280
88,64,908413,1,0,0:0:0:0:
144,192,908620,2,0,B|232:168|272:224|272:224|320:136|417:141|432:208,1,350
248,312,910068,1,0,0:0:0:0:
112,272,910275,1,0,0:0:0:0:
160,144,910482,6,0,L|248:168,1,70
408,96,910896,2,0,L|368:176,1,70
408,296,911310,2,0,L|312:320,1,70
104,328,911724,2,0,L|192:304,1,70
96,128,912137,2,0,L|160:184,1,70
168,56,912551,2,0,L|224:128,1,70
136,320,912965,5,0,0:0:0:0:
280,320,913172,1,0,0:0:0:0:
136,320,913379,1,0,0:0:0:0:
280,320,913586,1,0,0:0:0:0:
400,248,913793,2,0,P|384:136|304:160,2,210
264,280,915241,1,0,0:0:0:0:
112,248,915448,2,0,P|128:136|208:160,2,210
256,112,916896,1,0,0:0:0:0:
368,192,917103,6,0,L|320:264,1,70
208,328,917517,2,0,L|296:320,1,70
160,240,917930,2,0,L|96:200,1,70
232,144,918344,2,0,L|304:120,1,70
432,168,918758,2,0,L|368:224,1,70
304,328,919172,2,0,L|248:264,1,70
288,136,919586,2,0,P|273:78|224:112,1,140
208,248,920206,6,0,L|304:272,1,70
376,168,920620,1,0,0:0:0:0:
456,280,920827,1,0,0:0:0:0:
312,272,921034,2,0,B|264:264|264:264|288:216|288:216|312:272,1,140
160,272,921655,1,0,0:0:0:0:
104,144,921862,2,0,L|192:136,2,70
216,64,922482,1,0,0:0:0:0:
216,64,922896,1,0,0:0:0:0:
448,224,923310,5,0,0:0:0:0:
344,312,923517,2,0,L|200:336,1,140
240,200,924137,1,0,0:0:0:0:
168,80,924344,2,0,L|320:96,1,140
392,208,924965,1,0,0:0:0:0:
328,328,925172,2,0,P|248:304|256:272,1,140
392,208,925793,1,0,0:0:0:0:
416,72,925999,2,0,P|392:48|408:96,1,140
472,144,926620,1,0,0:0:0:0:
464,280,926827,1,0,0:0:0:0:
328,304,927034,6,0,P|272:320|200:288,2,140
432,184,928275,1,0,0:0:0:0:
312,112,928482,2,0,B|252:86|252:86|160:104|160:104|96:152,2,210
288,248,929930,1,0,0:0:0:0:
192,176,930137,1,0,0:0:0:0:
152,264,930344,2,0,P|200:72|208:272,2,560
216,296,933862,5,0,0:0:0:0:
288,312,934068,1,0,0:0:0:0:
360,312,934275,1,0,0:0:0:0:
432,296,934482,1,0,0:0:0:0:
432,296,934896,1,0,0:0:0:0:
432,296,935310,1,0,0:0:0:0:
424,224,935517,1,0,0:0:0:0:
376,168,935724,1,0,0:0:0:0:
312,136,935930,1,0,0:0:0:0:
248,112,936137,2,0,P|208:104|152:88,1,70
48,152,936551,2,0,L|128:184,1,70
240,240,936965,5,0,0:0:0:0:
240,240,937379,1,0,0:0:0:0:
240,240,937793,1,0,0:0:0:0:
368,304,938206,1,0,0:0:0:0:
408,96,938620,2,0,P|320:80|272:128,1,140
352,168,939241,1,0,0:0:0:0:
352,168,939448,1,0,0:0:0:0:
352,168,939862,1,0,0:0:0:0:
224,224,940068,1,0,0:0:0:0:
312,336,940275,5,0,0:0:0:0:
312,336,940689,1,0,0:0:0:0:
312,336,941103,1,0,0:0:0:0:
408,232,941310,1,0,0:0:0:0:
288,160,941517,1,0,0:0:0:0:
400,72,941724,1,0,0:0:0:0:
400,72,942137,5,0,0:0:0:0:
240,64,942344,1,0,0:0:0:0:
280,200,942551,1,0,0:0:0:0:
144,176,942758,1,0,0:0:0:0:
240,64,942965,1,0,0:0:0:0:
280,200,943172,1,0,0:0:0:0:
320,336,943379,1,0,0:0:0:0:
320,336,943586,1,0,0:0:0:0:
320,336,943999,1,0,0:0:0:0:
320,336,944413,6,0,L|224:328,1,70
144,240,944827,1,0,0:0:0:0:
264,168,945034,1,0,0:0:0:0:
467,346,945448,2,0,L|291:218,1,210
112,208,946482,1,0,0:0:0:0:
112,208,946896,5,0,0:0:0:0:
112,208,947310,1,0,0:0:0:0:
160,48,947723,1,0,0:0:0:0:
352,48,948137,1,0,0:0:0:0:
456,136,948551,2,0,L|456:296,1,140
184,192,949379,1,0,0:0:0:0:
240,48,949792,1,0,0:0:0:0:
336,152,949999,1,0,0:0:0:0:
336,296,950206,5,0,0:0:0:0:
336,296,950620,1,0,0:0:0:0:
56,296,951034,1,0,0:0:0:0:
208,56,951448,1,0,0:0:0:0:
208,56,951861,2,0,B|232:192|232:192|384:192,1,280
416,96,953103,1,0,0:0:0:0:
288,40,953310,1,0,0:0:0:0:
149,105,953517,5,0,0:0:0:0:
149,105,953930,1,0,0:0:0:0:
149,105,954344,1,0,0:0:0:0:
288,136,954551,1,0,0:0:0:0:
288,280,954758,1,0,0:0:0:0:
288,280,954965,2,0,L|144:304,1,140
144,160,955586,1,0,0:0:0:0:
144,160,955792,2,0,L|216:104,1,70
304,16,956206,1,0,0:0:0:0:
336,152,956413,1,0,0:0:0:0:
264,272,956620,6,0,L|168:264,1,70
194,266,957241,1,0,0:0:0:0:
128,160,957655,1,0,0:0:0:0:
232,72,957861,1,0,0:0:0:0:
360,128,958068,1,0,0:0:0:0:
368,264,958275,2,0,L|272:296,1,70
256,192,958689,12,0,959930,0:0:0:0:
344,72,960137,5,0,0:0:0:0:
112,232,960551,1,0,0:0:0:0:
136,96,960758,1,0,0:0:0:0:
272,88,960965,1,0,0:0:0:0:
305,98,961068,1,0,0:0:0:0:
338,109,961171,1,0,0:0:0:0:
372,119,961275,1,0,0:0:0:0:
405,130,961378,1,0,0:0:0:0:
392,272,961586,1,0,0:0:0:0:
256,312,961793,5,0,0:0:0:0:
400,56,962206,1,0,0:0:0:0:
264,88,962413,1,0,0:0:0:0:
152,168,962620,1,0,0:0:0:0:
137,199,962723,1,0,0:0:0:0:
123,231,962826,1,0,0:0:0:0:
109,263,962930,1,0,0:0:0:0:
95,295,963033,1,0,0:0:0:0:
95,295,963241,1,0,0:0:0:0:
232,320,963448,5,0,0:0:0:0:
232,320,963862,1,0,0:0:0:0:
232,320,964068,1,0,0:0:0:0:
232,320,964275,1,0,0:0:0:0:
243,286,964378,1,0,0:0:0:0:
254,253,964481,1,0,0:0:0:0:
265,220,964585,1,0,0:0:0:0:
276,187,964688,1,0,0:0:0:0:
376,88,964896,1,0,0:0:0:0:
240,56,965103,5,0,0:0:0:0:
112,304,965517,1,0,0:0:0:0:
392,288,965724,1,0,0:0:0:0:
400,152,965930,1,0,0:0:0:0:
375,127,966033,1,0,0:0:0:0:
350,102,966136,1,0,0:0:0:0:
325,77,966240,1,0,0:0:0:0:
301,53,966343,1,0,0:0:0:0:
200,144,966551,1,0,0:0:0:0:
144,264,966758,5,0,0:0:0:0:
177,272,966865,1,0,0:0:0:0:
211,280,966972,1,0,0:0:0:0:
245,289,967079,1,0,0:0:0:0:
279,297,967186,1,0,0:0:0:0:
320,304,967293,2,0,L|376:304,2,35
304,240,967615,5,0,0:0:0:0:
176,184,967829,1,0,0:0:0:0:
80,80,968043,2,0,L|48:48,2,35
216,96,968472,1,0,0:0:0:0:
336,168,968686,1,0,0:0:0:0:
424,272,968900,2,0,L|456:320,2,35
280,264,969329,1,0,0:0:0:0:
144,216,969543,1,0,0:0:0:0:
96,80,969758,2,0,L|144:112,2,35
232,40,970186,5,0,0:0:0:0:
262,56,970293,1,0,0:0:0:0:
293,73,970400,1,0,0:0:0:0:
248,208,970615,1,0,0:0:0:0:
218,189,970722,1,0,0:0:0:0:
188,170,970829,1,0,0:0:0:0:
346,174,971043,5,0,0:0:0:0:
377,191,971150,1,0,0:0:0:0:
408,208,971258,1,0,0:0:0:0:
296,336,971472,1,0,0:0:0:0:
264,320,971579,1,0,0:0:0:0:
233,304,971686,1,0,0:0:0:0:
192,88,972758,5,0,0:0:0:0:
171,116,972865,1,0,0:0:0:0:
150,144,972972,1,0,0:0:0:0:
320,88,973186,1,0,0:0:0:0:
341,116,973293,1,0,0:0:0:0:
362,144,973400,1,0,0:0:0:0:
256,232,973615,6,0,L|192:272,1,70
72,328,974043,1,0,0:0:0:0:
104,192,974258,1,0,0:0:0:0:
176,312,974472,1,0,0:0:0:0:
392,136,974900,1,0,0:0:0:0:
304,240,975115,1,0,0:0:0:0:
440,272,975329,1,0,0:0:0:0:
456,136,975543,5,0,0:0:0:0:
456,136,975650,1,0,0:0:0:0:
456,136,975758,1,0,0:0:0:0:
456,136,976186,2,0,L|384:160,1,70
248,136,976615,2,0,L|280:208,1,70
136,184,977043,6,0,P|112:144|168:160,1,140
128,296,977686,1,0,0:0:0:0:
248,216,977900,1,0,0:0:0:0:
208,40,978329,1,0,0:0:0:0:
88,112,978543,1,0,0:0:0:0:
208,184,978758,1,0,0:0:0:0:
304,88,978972,5,0,0:0:0:0:
360,128,979079,1,0,0:0:0:0:
384,192,979186,1,0,0:0:0:0:
112,248,979615,2,0,L|200:272,1,70
456,264,980043,2,0,L|392:280,2,35
440,128,980472,6,0,L|376:184,1,70
264,232,980900,1,0,0:0:0:0:
136,296,981115,1,0,0:0:0:0:
56,184,981329,1,0,0:0:0:0:
296,40,981758,1,0,0:0:0:0:
472,40,981972,1,0,0:0:0:0:
408,192,982186,1,0,0:0:0:0:
320,296,982400,6,0,L|312:336,2,35
200,40,983043,1,0,0:0:0:0:
144,168,983258,1,0,0:0:0:0:
280,208,983472,1,0,0:0:0:0:
216,328,983686,1,0,0:0:0:0:
80,344,983900,6,0,L|40:272,1,70
56,144,984329,1,0,0:0:0:0:
256,72,984543,1,0,0:0:0:0:
448,176,984758,1,0,0:0:0:0:
208,320,985186,5,0,0:0:0:0:
208,320,985400,1,0,0:0:0:0:
208,320,985615,1,0,0:0:0:0:
208,320,986043,2,0,P|160:304|184:312,1,70
320,296,986472,2,0,P|336:288|296:288,1,140
288,312,987008,1,0,0:0:0:0:
288,312,987115,1,0,0:0:0:0:
368,200,987329,5,0,0:0:0:0:
232,176,987543,1,0,0:0:0:0:
352,104,987758,1,0,0:0:0:0:
320,240,987972,1,0,0:0:0:0:
448,192,988186,1,0,0:0:0:0:
176,120,988615,1,0,0:0:0:0:
280,216,988829,1,0,0:0:0:0:
384,304,989043,1,0,0:0:0:0:
384,304,989258,1,0,0:0:0:0:
384,304,989472,2,0,P|360:264|408:296,1,140
288,336,990115,5,0,0:0:0:0:
144,288,990329,1,0,0:0:0:0:
72,168,990543,1,0,0:0:0:0:
104,32,990758,1,0,0:0:0:0:
104,32,990972,2,0,P|104:72|136:48,1,70
256,32,991400,1,0,0:0:0:0:
376,104,991615,1,0,0:0:0:0:
304,224,992043,5,0,0:0:0:0:
168,256,992258,1,0,0:0:0:0:
304,224,992472,1,0,0:0:0:0:
304,224,992686,1,0,0:0:0:0:
304,224,992900,2,0,P|336:176|344:232,1,140
312,264,993543,1,0,0:0:0:0:
176,296,993758,1,0,0:0:0:0:
144,304,993865,1,0,0:0:0:0:
176,296,993972,1,0,0:0:0:0:
72,200,994186,6,0,P|80:152|112:144,1,70
224,192,994615,1,0,0:0:0:0:
344,128,994829,1,0,0:0:0:0:
456,48,995043,1,0,0:0:0:0:
456,48,995472,1,0,0:0:0:0:
320,56,995686,1,0,0:0:0:0:
184,56,995900,1,0,0:0:0:0:
120,184,996115,1,0,0:0:0:0:
120,184,996222,1,0,0:0:0:0:
120,184,996329,1,0,0:0:0:0:
384,96,996758,5,0,0:0:0:0:
272,176,996972,1,0,0:0:0:0:
360,280,997186,1,0,0:0:0:0:
472,192,997400,1,0,0:0:0:0:
384,96,997615,2,0,P|432:56|448:56,2,70
328,224,998258,1,0,0:0:0:0:
216,304,998472,1,0,0:0:0:0:
80,320,998900,1,0,0:0:0:0:
152,200,999115,1,0,0:0:0:0:
216,328,999329,2,0,P|256:328|240:304,1,70
216,240,999758,2,0,P|224:224|264:240,1,70
400,264,1000186,5,0,0:0:0:0:
368,200,1000293,1,0,0:0:0:0:
336,136,1000400,1,0,0:0:0:0:
288,264,1000615,1,0,0:0:0:0:
256,200,1000722,1,0,0:0:0:0:
224,136,1000829,1,0,0:0:0:0:
104,56,1001043,5,0,0:0:0:0:
152,192,1001258,1,0,0:0:0:0:
224,312,1001472,1,0,0:0:0:0:
360,272,1001686,1,0,0:0:0:0:
424,152,1001900,2,0,P|344:136|304:176,1,140
216,280,1002543,1,0,0:0:0:0:
112,184,1002758,5,0,0:0:0:0:
224,96,1002972,1,0,0:0:0:0:
272,232,1003186,1,0,0:0:0:0:
152,304,1003400,1,0,0:0:0:0:
192,168,1003615,2,0,P|256:152|328:184,1,140
288,312,1004258,1,0,0:0:0:0:
408,240,1004472,5,0,0:0:0:0:
288,312,1004686,1,0,0:0:0:0:
152,304,1004900,1,0,0:0:0:0:
72,192,1005115,1,0,0:0:0:0:
152,304,1005329,2,0,P|240:328|304:304,1,140
392,224,1005972,1,0,0:0:0:0:
400,88,1006186,5,0,0:0:0:0:
408,224,1006400,1,0,0:0:0:0:
400,80,1006615,1,0,0:0:0:0:
264,40,1006829,1,0,0:0:0:0:
192,160,1007043,2,0,P|244:196|320:184,1,140
376,152,1007579,1,0,0:0:0:0:
440,120,1007686,1,0,0:0:0:0:
448,224,1007900,6,0,P|392:280|376:280,1,70
336,288,1008222,1,0,0:0:0:0:
264,272,1008329,2,0,P|216:240|176:240,1,70
136,264,1008650,1,0,0:0:0:0:
72,288,1008758,2,0,P|32:256|40:232,1,70
80,192,1009079,1,0,0:0:0:0:
144,176,1009186,2,0,P|192:160|224:128,1,70
264,104,1009508,1,0,0:0:0:0:
264,104,1009615,5,0,0:0:0:0:
344,216,1009829,1,0,0:0:0:0:
264,104,1010043,1,0,0:0:0:0:
400,88,1010258,1,0,0:0:0:0:
264,104,1010472,1,0,0:0:0:0:
184,216,1010686,1,0,0:0:0:0:
264,104,1010900,1,0,0:0:0:0:
136,56,1011115,1,0,0:0:0:0:
264,104,1011329,5,0,0:0:0:0:
206,117,1011436,1,0,0:0:0:0:
150,137,1011543,1,0,0:0:0:0:
100,168,1011650,1,0,0:0:0:0:
66,215,1011757,1,0,0:0:0:0:
61,273,1011864,1,0,0:0:0:0:
85,326,1011971,1,0,0:0:0:0:
137,345,1012078,1,0,0:0:0:0:
196,346,1012186,5,0,0:0:0:0:
255,341,1012293,1,0,0:0:0:0:
312,328,1012400,1,0,0:0:0:0:
363,298,1012507,1,0,0:0:0:0:
382,245,1012614,1,0,0:0:0:0:
344,203,1012721,1,0,0:0:0:0:
286,198,1012828,1,0,0:0:0:0:
229,214,1012936,1,0,0:0:0:0:
176,240,1013043,6,0,L|144:264,1,35
96,304,1013258,2,0,P|120:320|152:336,1,35
224,320,1013686,1,0,0:0:0:0:
136,208,1013900,1,0,0:0:0:0:
56,328,1014186,1,0,0:0:0:0:
152,336,1014329,2,0,L|200:352,2,35
64,224,1014758,5,0,0:0:0:0:
104,88,1014972,1,0,0:0:0:0:
192,200,1015186,1,0,0:0:0:0:
128,328,1015400,2,0,L|208:344,1,70
472,288,1016043,1,0,0:0:0:0:
336,272,1016258,1,0,0:0:0:0:
360,136,1016472,5,0,0:0:0:0:
288,128,1016579,1,0,0:0:0:0:
216,136,1016686,1,0,0:0:0:0:
152,152,1016793,1,0,0:0:0:0:
96,192,1016900,1,0,0:0:0:0:
96,192,1017115,1,0,0:0:0:0:
88,328,1017329,2,0,P|136:288|144:256,1,70
192,152,1017758,1,0,0:0:0:0:
280,40,1017972,1,0,0:0:0:0:
376,136,1018186,6,0,L|344:208,1,70
256,304,1018615,1,0,0:0:0:0:
120,280,1018829,1,0,0:0:0:0:
176,344,1018936,1,0,0:0:0:0:
256,304,1019043,1,0,0:0:0:0:
152,136,1019472,1,0,0:0:0:0:
200,264,1019686,1,0,0:0:0:0:
336,296,1019900,5,0,0:0:0:0:
384,240,1020008,1,0,0:0:0:0:
352,176,1020115,1,0,0:0:0:0:
408,136,1020222,1,0,0:0:0:0:
368,80,1020329,2,0,L|304:88,1,35
280,136,1020543,1,0,0:0:0:0:
240,80,1020650,1,0,0:0:0:0:
200,136,1020758,2,0,L|136:192,1,70
88,304,1021186,5,0,0:0:0:0:
88,304,1021293,1,0,0:0:0:0:
88,304,1021400,1,0,0:0:0:0:
224,320,1021615,2,0,L|168:272,1,70
72,168,1022043,1,0,0:0:0:0:
160,56,1022258,1,0,0:0:0:0:
216,184,1022472,2,0,P|232:120|248:176,1,140
264,208,1023115,1,0,0:0:0:0:
128,240,1023329,5,0,0:0:0:0:
192,272,1023436,1,0,0:0:0:0:
256,296,1023543,1,0,0:0:0:0:
320,320,1023650,1,0,0:0:0:0:
384,344,1023758,1,0,0:0:0:0:
472,232,1023972,1,0,0:0:0:0:
456,96,1024186,2,0,L|408:160,1,70
288,96,1024615,1,0,0:0:0:0:
320,232,1024829,1,0,0:0:0:0:
184,264,1025043,6,0,B|136:256|128:208,1,70
176,88,1025472,1,0,0:0:0:0:
288,168,1025686,1,0,0:0:0:0:
232,128,1025793,1,0,0:0:0:0:
176,88,1025900,1,0,0:0:0:0:
176,88,1026329,1,0,0:0:0:0:
40,40,1026543,1,0,0:0:0:0:
72,184,1026758,5,0,0:0:0:0:
120,240,1026865,1,0,0:0:0:0:
184,280,1026972,1,0,0:0:0:0:
256,280,1027079,1,0,0:0:0:0:
328,280,1027186,1,0,0:0:0:0:
392,240,1027293,1,0,0:0:0:0:
440,184,1027400,2,0,P|464:144|464:96,1,70
480,32,1027829,1,0,0:0:0:0:
344,40,1028043,1,0,0:0:0:0:
328,176,1028258,1,0,0:0:0:0:
328,312,1028472,5,0,0:0:0:0:
464,344,1028686,1,0,0:0:0:0:
328,312,1028900,2,0,L|168:336,1,140
32,352,1029758,1,0,0:0:0:0:
192,336,1029972,1,0,0:0:0:0:
64,320,1030186,5,0,0:0:0:0:
64,248,1030293,1,0,0:0:0:0:
64,176,1030400,1,0,0:0:0:0:
64,104,1030508,1,0,0:0:0:0:
64,32,1030615,1,0,0:0:0:0:
200,32,1030829,1,0,0:0:0:0:
200,168,1031043,1,0,0:0:0:0:
280,280,1031258,1,0,0:0:0:0:
392,200,1031472,2,0,L|376:288,1,70
256,336,1031900,6,0,L|168:320,1,70
80,232,1032329,2,0,P|72:176|80:160,1,70
104,104,1032650,1,0,0:0:0:0:
160,64,1032758,2,0,P|208:40|304:40,1,140
400,128,1033400,2,0,L|336:80,1,70
312,152,1033722,5,0,0:0:0:0:
240,136,1033829,1,0,0:0:0:0:
208,200,1033936,1,0,0:0:0:0:
136,192,1034043,2,0,L|96:240,1,35
48,192,1034258,1,0,0:0:0:0:
40,264,1034365,1,0,0:0:0:0:
104,288,1034472,2,0,L|136:296,6,17.5
136,352,1034900,1,0,0:0:0:0:
208,344,1035008,1,0,0:0:0:0:
280,344,1035115,1,0,0:0:0:0:
352,344,1035222,1,0,0:0:0:0:
416,328,1035329,5,0,0:0:0:0:
288,272,1035543,1,0,0:0:0:0:
152,248,1035758,2,0,P|112:208|160:224,1,140
408,88,1036615,1,0,0:0:0:0:
408,224,1036829,1,0,0:0:0:0:
272,264,1037043,5,0,0:0:0:0:
216,216,1037150,1,0,0:0:0:0:
168,168,1037258,1,0,0:0:0:0:
112,128,1037365,1,0,0:0:0:0:
56,88,1037472,1,0,0:0:0:0:
72,224,1037686,1,0,0:0:0:0:
208,208,1037900,1,0,0:0:0:0:
184,72,1038115,1,0,0:0:0:0:
320,56,1038329,1,0,0:0:0:0:
336,192,1038543,1,0,0:0:0:0:
216,272,1038758,6,0,L|296:304,1,70
416,264,1039186,2,0,L|328:232,1,70
280,216,1039508,1,0,0:0:0:0:
240,160,1039615,2,0,P|274:148|328:160,2,70
176,288,1040258,1,0,0:0:0:0:
312,304,1040472,5,0,0:0:0:0:
350,310,1040579,1,0,0:0:0:0:
384,294,1040686,1,0,0:0:0:0:
403,260,1040793,1,0,0:0:0:0:
397,221,1040900,1,0,0:0:0:0:
371,193,1041007,1,0,0:0:0:0:
332,187,1041114,1,0,0:0:0:0:
298,204,1041221,1,0,0:0:0:0:
288,240,1041329,2,0,L|272:320,1,70
136,328,1041758,5,0,0:0:0:0:
136,328,1041865,1,0,0:0:0:0:
136,328,1041972,1,0,0:0:0:0:
256,192,1042186,12,0,1043043,0:0:0:0:
136,80,1043472,6,0,L|224:96,1,70
384,248,1044115,1,0,0:0:0:0:
264,328,1044329,1,0,0:0:0:0:
80,112,1044758,1,0,0:0:0:0:
360,104,1045186,1,0,0:0:0:0:
304,232,1045400,1,0,0:0:0:0:
192,320,1045615,5,0,0:0:0:0:
128,80,1046472,1,0,0:0:0:0:
384,184,1046900,1,0,0:0:0:0:
296,248,1047543,1,0,0:0:0:0:
160,272,1047758,1,0,0:0:0:0:
320,48,1048186,1,0,0:0:0:0:
40,88,1048615,1,0,0:0:0:0:
72,152,1048829,1,0,0:0:0:0:
104,216,1049043,6,0,L|200:232,1,70
312,248,1049472,2,0,L|248:176,1,70
184,88,1049900,2,0,L|264:120,1,70
384,136,1050329,1,0,0:0:0:0:
352,272,1050543,1,0,0:0:0:0:
224,328,1050758,2,0,L|136:288,1,70
80,184,1051186,2,0,L|168:184,1,70
288,216,1051615,2,0,P|256:192|256:136,1,70
360,80,1052043,1,0,0:0:0:0:
360,80,1052258,1,0,0:0:0:0:
424,208,1052472,6,0,L|352:272,1,70
232,280,1052900,2,0,L|288:208,1,70
136,232,1053329,2,0,L|72:176,1,70
152,64,1053758,2,0,L|232:64,1,70
352,120,1054186,2,0,L|360:208,1,70
232,296,1054615,1,0,0:0:0:0:
104,248,1054829,1,0,0:0:0:0:
104,112,1055043,1,0,0:0:0:0:
232,56,1055258,1,0,0:0:0:0:
368,96,1055472,5,0,0:0:0:0:
368,96,1055579,1,0,0:0:0:0:
368,96,1055686,1,0,0:0:0:0:
376,232,1055900,1,0,0:0:0:0:
96,224,1056329,1,0,0:0:0:0:
360,320,1056758,1,0,0:0:0:0:
400,40,1057186,1,0,0:0:0:0:
288,128,1057400,1,0,0:0:0:0:
152,88,1057615,2,0,P|112:144|168:200,1,140
336,256,1058472,1,0,0:0:0:0:
120,72,1058900,5,0,0:0:0:0:
400,80,1059329,1,0,0:0:0:0:
128,144,1059758,1,0,0:0:0:0:
408,160,1060186,1,0,0:0:0:0:
136,216,1060615,1,0,0:0:0:0:
272,224,1060829,1,0,0:0:0:0:
408,248,1061043,1,0,0:0:0:0:
192,72,1061472,1,0,0:0:0:0:
64,320,1061900,1,0,0:0:0:0:
344,336,1062329,1,0,0:0:0:0:
176,112,1062758,6,0,L|336:88,1,140
56,192,1063615,1,0,0:0:0:0:
328,240,1064043,2,0,L|240:264,1,70
128,304,1064472,2,0,L|176:160,2,140
408,328,1065758,1,0,0:0:0:0:
320,64,1066186,1,0,0:0:0:0:
176,304,1066615,1,0,0:0:0:0:
344,80,1067043,1,0,0:0:0:0:
72,152,1067472,1,0,0:0:0:0:
192,224,1067686,1,0,0:0:0:0:
328,272,1067900,5,0,0:0:0:0:
362,267,1068007,1,0,0:0:0:0:
387,243,1068114,1,0,0:0:0:0:
393,210,1068221,1,0,0:0:0:0:
378,179,1068328,1,0,0:0:0:0:
347,163,1068435,1,0,0:0:0:0:
313,168,1068542,1,0,0:0:0:0:
289,192,1068650,1,0,0:0:0:0:
284,226,1068757,1,0,0:0:0:0:
208,296,1069186,5,0,0:0:0:0:
208,296,1069293,1,0,0:0:0:0:
208,296,1069400,1,0,0:0:0:0:
112,56,1083232,5,0,0:0:0:0:
160,112,1083513,1,0,0:0:0:0:
208,168,1083795,1,0,0:0:0:0:
224,304,1084499,1,0,0:0:0:0:
400,264,1084922,1,0,0:0:0:0:
336,144,1085203,1,0,0:0:0:0:
224,56,1085485,1,0,0:0:0:0:
248,248,1086189,1,0,0:0:0:0:
128,72,1086612,5,0,0:0:0:0:
408,80,1086893,1,0,0:0:0:0:
128,72,1087175,1,0,0:0:0:0:
128,72,1087879,1,0,0:0:0:0:
144,160,1088302,2,0,L|264:176,1,93.3333333333333
368,184,1088936,1,0,0:0:0:0:
160,256,1089570,1,0,0:0:0:0:
208,56,1089992,5,0,0:0:0:0:
208,56,1090274,1,0,0:0:0:0:
208,56,1090626,1,0,0:0:0:0:
368,192,1091260,1,0,0:0:0:0:
368,192,1091682,5,0,0:0:0:0:
368,192,1091964,1,0,0:0:0:0:
368,192,1092316,1,0,0:0:0:0:
176,248,1092950,1,0,0:0:0:0:
352,56,1093372,5,0,0:0:0:0:
352,56,1093654,1,0,0:0:0:0:
352,56,1094006,1,0,0:0:0:0:
352,56,1094640,1,0,0:0:0:0:
112,112,1095062,1,0,0:0:0:0:
392,144,1095344,1,0,0:0:0:0:
120,224,1095696,1,0,0:0:0:0:
400,256,1096330,1,0,0:0:0:0:
104,88,1096753,6,0,P|173:81|188:83,1,70
242,91,1097034,1,0,0:0:0:0:
328,120,1097175,1,0,0:0:0:0:
208,184,1097386,1,0,0:0:0:0:
40,312,1097598,1,0,0:0:0:0:
120,248,1097809,1,0,0:0:0:0:
184,336,1098020,1,0,0:0:0:0:
248,256,1098232,1,0,0:0:0:0:
392,104,1098443,6,0,L|320:103,1,70
254,119,1098724,1,0,0:0:0:0:
168,152,1098865,1,0,0:0:0:0:
368,208,1099077,1,0,0:0:0:0:
184,304,1099288,1,0,0:0:0:0:
288,120,1099499,1,0,0:0:0:0:
376,312,1099710,1,0,0:0:0:0:
200,200,1099922,1,0,0:0:0:0:
400,136,1100133,5,0,0:0:0:0:
336,56,1100344,2,0,L|296:112,1,35
336,184,1100555,1,0,0:0:0:0:
176,320,1100767,1,0,0:0:0:0:
48,152,1100978,1,0,0:0:0:0:
256,184,1101189,1,0,0:0:0:0:
88,56,1101401,1,0,0:0:0:0:
152,256,1101612,1,0,0:0:0:0:
344,328,1101823,5,0,0:0:0:0:
136,320,1102034,2,0,L|96:288,1,35
72,200,1102246,1,0,0:0:0:0:
280,176,1102457,1,0,0:0:0:0:
416,336,1102668,1,0,0:0:0:0:
216,272,1102879,1,0,0:0:0:0:
200,64,1103091,1,0,0:0:0:0:
216,272,1103302,1,0,0:0:0:0:
416,328,1103513,6,0,L|400:192,1,105
304,200,1103936,1,0,0:0:0:0:
96,216,1104147,1,0,0:0:0:0:
272,328,1104358,1,0,0:0:0:0:
224,120,1104570,1,0,0:0:0:0:
272,328,1104781,1,0,0:0:0:0:
224,120,1104992,1,0,0:0:0:0:
424,48,1105203,6,0,L|288:48,1,105
384,136,1105626,1,0,0:0:0:0:
192,232,1105837,1,0,0:0:0:0:
392,296,1106048,2,0,L|336:216,1,70
168,344,1106471,2,0,L|264:320,1,70
128,144,1106893,6,0,L|248:136,1,105
128,144,1107316,1,0,0:0:0:0:
312,248,1107527,1,0,0:0:0:0:
312,48,1107739,1,0,0:0:0:0:
312,48,1107951,1,0,0:0:0:0:
304,256,1108162,1,0,0:0:0:0:
304,256,1108373,1,0,0:0:0:0:
168,96,1108584,6,0,P|104:120|112:136,1,105
192,192,1109006,1,0,0:0:0:0:
344,336,1109217,1,0,0:0:0:0:
144,264,1109429,1,0,0:0:0:0:
352,240,1109640,1,0,0:0:0:0:
144,264,1109851,1,0,0:0:0:0:
352,240,1110062,1,0,0:0:0:0:
112,96,1123795,5,0,0:0:0:0:
256,192,1124217,5,0,0:0:0:0:
256,192,1124640,5,0,0:0:0:0:
256,192,1125062,5,0,0:0:0:0:
128,80,1125274,1,0,0:0:0:0:
128,288,1125485,5,0,0:0:0:0:
128,288,1125908,5,0,0:0:0:0:
128,288,1126330,5,0,0:0:0:0:
128,288,1126753,5,0,0:0:0:0:
256,288,1126964,1,0,0:0:0:0:
384,288,1127175,5,0,0:0:0:0:
384,288,1127598,5,0,0:0:0:0:
384,288,1128020,5,0,0:0:0:0:
384,288,1128443,5,0,0:0:0:0:
120,88,1128654,1,0,0:0:0:0:
384,88,1128865,5,0,0:0:0:0:
120,88,1129288,1,0,0:0:0:0:
128,288,1129499,1,0,0:0:0:0:
384,288,1129710,1,0,0:0:0:0:
256,192,1129922,1,0,0:0:0:0:
384,88,1130133,1,0,0:0:0:0:
384,88,1130555,5,0,0:0:0:0:
384,88,1130978,5,0,0:0:0:0:
384,88,1131401,5,0,0:0:0:0:
384,88,1131823,5,0,0:0:0:0:
120,296,1132034,1,0,0:0:0:0:
256,192,1132246,1,0,0:0:0:0:
256,192,1132668,1,0,0:0:0:0:
256,192,1133091,1,0,0:0:0:0:
256,192,1133513,1,0,0:0:0:0:
256,192,1133936,5,0,0:0:0:0:
256,192,1134358,1,0,0:0:0:0:
256,192,1134570,1,0,0:0:0:0:
256,192,1135203,1,0,0:0:0:0:
256,192,1135415,1,0,0:0:0:0:
256,192,1135837,1,0,0:0:0:0:
256,192,1136260,1,0,0:0:0:0:
256,192,1136682,1,0,0:0:0:0:
256,192,1136893,1,0,0:0:0:0:
104,104,1137316,6,0,L|168:88,1,35
272,144,1137739,2,0,L|248:176,1,35
184,320,1138161,2,0,L|232:288,1,35
424,272,1138584,2,0,L|368:296,1,35
64,96,1139006,6,0,L|64:56,1,35
432,288,1139429,2,0,L|432:352,1,35
144,112,1139851,2,0,L|144:64,1,35
360,272,1140274,2,0,L|360:328,1,35
144,248,1140696,5,0,0:0:0:0:
232,64,1141119,1,0,0:0:0:0:
392,304,1141541,1,0,0:0:0:0:
88,328,1141964,1,0,0:0:0:0:
400,88,1142386,1,0,0:0:0:0:
104,312,1142809,1,0,0:0:0:0:
184,120,1143020,1,0,0:0:0:0:
256,320,1143232,1,0,0:0:0:0:
88,200,1143443,1,0,0:0:0:0:
296,200,1143654,1,0,0:0:0:0:
424,64,1144077,5,0,0:0:0:0:
396,85,1144182,1,0,0:0:0:0:
368,106,1144288,1,0,0:0:0:0:
340,127,1144393,1,0,0:0:0:0:
312,149,1144499,1,0,0:0:0:0:
285,170,1144605,1,0,0:0:0:0:
257,191,1144710,1,0,0:0:0:0:
229,213,1144816,1,0,0:0:0:0:
201,234,1144922,5,0,0:0:0:0:
174,256,1145027,1,0,0:0:0:0:
152,282,1145133,1,0,0:0:0:0:
153,315,1145238,1,0,0:0:0:0:
182,333,1145344,1,0,0:0:0:0:
216,342,1145450,1,0,0:0:0:0:
251,345,1145555,1,0,0:0:0:0:
286,344,1145661,1,0,0:0:0:0:
320,339,1145767,5,0,0:0:0:0:
353,326,1145872,1,0,0:0:0:0:
367,297,1145978,1,0,0:0:0:0:
347,269,1146084,1,0,0:0:0:0:
319,247,1146189,1,0,0:0:0:0:
291,226,1146295,1,0,0:0:0:0:
263,206,1146400,1,0,0:0:0:0:
234,185,1146506,1,0,0:0:0:0:
206,164,1146612,5,0,0:0:0:0:
178,144,1146717,1,0,0:0:0:0:
150,123,1146823,1,0,0:0:0:0:
121,102,1146929,1,0,0:0:0:0:
93,82,1147034,1,0,0:0:0:0:
65,61,1147140,1,0,0:0:0:0:
72,48,1147246,1,0,0:0:0:0:
107,42,1147351,1,0,0:0:0:0:
142,38,1147457,5,0,0:0:0:0:
176,36,1147562,1,0,0:0:0:0:
211,35,1147668,1,0,0:0:0:0:
246,36,1147774,1,0,0:0:0:0:
281,38,1147879,1,0,0:0:0:0:
316,42,1147985,1,0,0:0:0:0:
351,48,1148091,1,0,0:0:0:0:
385,55,1148196,1,0,0:0:0:0:
419,64,1148302,5,0,0:0:0:0:
452,75,1148407,1,0,0:0:0:0:
458,106,1148513,1,0,0:0:0:0:
459,141,1148619,1,0,0:0:0:0:
460,176,1148724,1,0,0:0:0:0:
461,211,1148830,1,0,0:0:0:0:
462,246,1148936,1,0,0:0:0:0:
462,281,1149041,1,0,0:0:0:0:
152,320,1149358,5,0,0:0:0:0:
392,296,1149781,1,0,0:0:0:0:
40,72,1150203,2,0,L|128:112,1,70
456,328,1150837,6,0,L|368:320,1,70
144,304,1151260,2,0,L|216:272,1,70
416,232,1151682,1,0,0:0:0:0:
264,88,1151893,1,0,0:0:0:0:
136,256,1152105,1,0,0:0:0:0:
312,368,1152316,1,0,0:0:0:0:
440,200,1152527,6,0,P|416:136|392:128,1,70
216,200,1152950,2,0,P|232:256|264:272,1,70
440,320,1153372,1,0,0:0:0:0:
232,336,1153584,1,0,0:0:0:0:
240,128,1153795,1,0,0:0:0:0:
32,120,1154006,1,0,0:0:0:0:
128,304,1154217,6,0,P|144:256|176:224,1,70
344,336,1154640,2,0,P|368:288|360:256,1,70
368,64,1155062,1,0,0:0:0:0:
176,144,1155274,1,0,0:0:0:0:
312,304,1155485,1,0,0:0:0:0:
104,344,1155696,1,0,0:0:0:0:
96,136,1155908,6,0,P|96:64|80:56,1,70
312,80,1156330,2,0,P|296:120|328:144,1,70
448,296,1156753,1,0,0:0:0:0:
448,296,1156964,1,0,0:0:0:0:
240,312,1157175,1,0,0:0:0:0:
240,312,1157386,1,0,0:0:0:0:
200,104,1157598,6,0,P|192:120|232:120,1,70
440,104,1158020,1,0,0:0:0:0:
312,272,1158232,1,0,0:0:0:0:
296,64,1158443,1,0,0:0:0:0:
432,224,1158654,1,0,0:0:0:0:
232,176,1158865,1,0,0:0:0:0:
232,176,1159077,1,0,0:0:0:0:
88,328,1159288,6,0,L|40:240,1,70
256,328,1159710,2,0,L|336:344,1,70
424,120,1160133,1,0,0:0:0:0:
192,192,1160344,1,0,0:0:0:0:
424,120,1160555,1,0,0:0:0:0:
192,192,1160767,1,0,0:0:0:0:
400,320,1160978,6,0,B|432:368|440:304,1,70
328,88,1161401,2,0,P|296:80|304:112,1,70
440,304,1161823,1,0,0:0:0:0:
200,280,1162034,1,0,0:0:0:0:
256,40,1162246,1,0,0:0:0:0:
480,136,1162457,1,0,0:0:0:0:
320,320,1162668,6,0,B|304:288|304:288|280:312,1,70
112,136,1163091,2,0,B|144:144|144:144|168:104,1,70
400,64,1163513,1,0,0:0:0:0:
208,216,1163724,1,0,0:0:0:0:
456,200,1163936,1,0,0:0:0:0:
256,336,1164147,1,0,0:0:0:0:
336,104,1164358,6,0,P|328:72|312:96,1,70
176,248,1164781,1,0,0:0:0:0:
352,248,1164992,1,0,0:0:0:0:
128,248,1165203,1,0,0:0:0:0:
400,248,1165415,1,0,0:0:0:0:
80,248,1165626,1,0,0:0:0:0:
448,248,1165837,1,0,0:0:0:0:
128,168,1166048,6,0,L|184:104,1,70
224,96,1166365,1,0,0:0:0:0:
272,104,1166471,1,0,0:0:0:0:
320,128,1166577,1,0,0:0:0:0:
344,176,1166682,1,0,0:0:0:0:
328,224,1166788,1,0,0:0:0:0:
304,272,1166893,2,0,L|216:280,1,70
184,272,1167210,2,0,L|200:192,1,70
216,152,1167527,6,0,L|312:168,1,70
336,208,1167844,1,0,0:0:0:0:
368,264,1167950,1,0,0:0:0:0:
424,280,1168055,1,0,0:0:0:0:
480,248,1168161,1,0,0:0:0:0:
488,184,1168267,1,0,0:0:0:0:
480,120,1168372,1,0,0:0:0:0:
440,72,1168478,1,0,0:0:0:0:
376,64,1168584,2,0,L|288:80,1,70
344,128,1168901,2,0,L|272:144,1,70
320,184,1169217,6,0,L|248:208,1,70
184,240,1169534,1,0,0:0:0:0:
160,312,1169640,1,0,0:0:0:0:
216,360,1169746,1,0,0:0:0:0:
288,352,1169851,1,0,0:0:0:0:
352,320,1169957,1,0,0:0:0:0:
376,248,1170062,1,0,0:0:0:0:
360,176,1170168,1,0,0:0:0:0:
336,104,1170274,2,0,P|304:104|256:120,1,70
296,176,1170591,2,0,P|272:208|232:176,1,70
248,104,1170908,6,0,P|232:64|184:56,2,70
176,136,1171436,1,0,0:0:0:0:
144,208,1171541,1,0,0:0:0:0:
192,272,1171647,1,0,0:0:0:0:
272,288,1171753,1,0,0:0:0:0:
344,256,1171858,1,0,0:0:0:0:
384,184,1171964,2,0,P|384:136|376:112,1,70
304,160,1172281,2,0,P|312:200|360:224,1,70
384,160,1172598,6,0,P|432:160|456:200,1,70
472,264,1172915,1,0,0:0:0:0:
424,336,1173020,1,0,0:0:0:0:
328,344,1173126,1,0,0:0:0:0:
232,344,1173232,1,0,0:0:0:0:
144,312,1173337,1,0,0:0:0:0:
88,232,1173443,1,0,0:0:0:0:
88,136,1173548,1,0,0:0:0:0:
152,64,1173654,2,0,L|248:64,1,70
272,144,1173971,2,0,L|352:144,1,70
376,232,1174288,6,0,L|456:232,1,70
344,232,1174605,1,0,0:0:0:0:
240,232,1174710,1,0,0:0:0:0:
136,232,1174816,1,0,0:0:0:0:
32,232,1174922,1,0,0:0:0:0:
88,144,1175027,1,0,0:0:0:0:
192,144,1175133,1,0,0:0:0:0:
296,144,1175239,1,0,0:0:0:0:
400,144,1175344,2,0,L|480:144,1,70
368,144,1175661,2,0,L|288:144,1,70
192,144,1175978,6,0,L|112:144,1,70
72,272,1176295,1,0,0:0:0:0:
192,312,1176401,2,0,L|232:272,1,35
336,288,1176612,2,0,L|360:328,1,35
488,272,1176823,2,0,L|448:232,1,35
472,152,1177034,2,0,P|464:112|424:88,1,70
328,168,1177351,2,0,P|360:200|392:200,1,70
376,64,1177668,2,0,P|328:32|304:40,1,70
256,192,1204922,5,0,0:0:0:0:
