osu file format v14

[General]
AudioFilename: audio.mp3
AudioLeadIn: 0
PreviewTime: 159553
Countdown: 0
SampleSet: Soft
StackLeniency: 0.2
Mode: 0
LetterboxInBreaks: 0
WidescreenStoryboard: 0

[Editor]
Bookmarks: 197927,208234
DistanceSpacing: 0.5
BeatDivisor: 4
GridSize: 32
TimelineZoom: 4.099998

[Metadata]
Title:Boiling Blood
TitleUnicode:Boiling Blood
Artist:Monster Siren Records
ArtistUnicode:塞壬唱片-MSR
Creator:Yugu
Version:Welcome to Rhodes Island.
Source:明日方舟
Tags:English Dnb Arknights アークナイツ DreaM117er m1223961117 [Mahua] EP Cristina Vee Jason Walsh
BeatmapID:2286284
BeatmapSetID:1093948

[Difficulty]
HPDrainRate:6
CircleSize:4.5
OverallDifficulty:8.5
ApproachRate:9.3
SliderMultiplier:2.2
SliderTickRate:1

[Events]
//Background and Video events
0,0,"75520296_p0.jpg",0,0
//Break Periods
//Storyboard Layer 0 (Background)
//Storyboard Layer 1 (Fail)
//Storyboard Layer 2 (Pass)
//Storyboard Layer 3 (Foreground)
//Storyboard Layer 4 (Overlay)
//Storyboard Sound Samples

[TimingPoints]
5063,368.098159509202,4,2,1,65,1,0
5707,-100,4,2,1,40,0,0
5799,-100,4,2,1,65,0,0
6535,-100,4,2,3,65,0,0
7455,-100,4,2,1,65,0,0
11596,-100,4,2,1,40,0,0
11688,-100,4,2,1,65,0,0
14541,-100,4,2,1,40,0,0
14633,-100,4,2,1,65,0,0
17394,-100,4,2,1,50,0,0
17578,-100,4,2,1,40,0,0
17946,-100,4,2,1,35,0,0
18314,-100,4,2,1,65,0,0
19050,-66.6666666666667,4,2,3,65,0,0
19234,-100,4,2,1,65,0,0
21627,-100,4,2,1,65,0,0
21719,-100,4,2,1,45,0,0
21811,-100,4,2,1,65,0,0
22179,-100,4,2,1,65,0,0
22271,-100,4,2,1,45,0,0
22363,-100,4,2,1,65,0,0
22731,-93.4579439252336,4,2,1,65,0,0
24204,-100,4,2,1,65,0,0
28253,-66.6666666666667,4,2,2,65,0,0
28621,-57.1428571428571,4,2,1,85,0,0
29173,-83.3333333333333,4,2,1,85,0,0
30093,-133.333333333333,4,2,1,85,0,0
30645,-83.3333333333333,4,2,1,85,0,0
31750,-83.3333333333333,4,2,52,85,0,0
31842,-83.3333333333333,4,2,1,85,0,0
34510,-57.1428571428571,4,2,1,85,0,0
35062,-83.3333333333333,4,2,1,85,0,0
35983,-133.333333333333,4,2,1,85,0,0
36535,-83.3333333333333,4,2,1,85,0,0
37639,-83.3333333333333,4,2,52,85,0,0
37731,-83.3333333333333,4,2,1,85,0,0
40032,-57.1428571428571,4,2,4,85,0,0
40400,-83.3333333333333,4,2,1,85,0,0
48682,-83.3333333333333,4,2,51,85,0,0
48774,-83.3333333333333,4,2,1,85,0,0
48866,-83.3333333333333,4,2,51,85,0,0
48958,-83.3333333333333,4,2,1,85,0,0
50155,-83.3333333333333,4,2,51,85,0,0
50247,-83.3333333333333,4,2,1,85,0,0
50707,-83.3333333333333,4,2,51,85,0,0
50799,-83.3333333333333,4,2,1,85,0,0
51995,-83.3333333333333,4,2,3,85,0,0
52087,-83.3333333333333,4,2,1,85,0,0
60461,-83.3333333333333,4,2,51,85,0,0
60553,-83.3333333333333,4,2,1,85,0,0
60645,-83.3333333333333,4,2,51,85,0,0
60737,-83.3333333333333,4,2,1,85,0,0
61934,-83.3333333333333,4,2,51,85,0,0
62026,-83.3333333333333,4,2,1,85,0,0
62486,-83.3333333333333,4,2,51,85,0,0
62578,-83.3333333333333,4,2,1,85,0,0
63958,-50,4,2,1,95,0,0
64326,-83.3333333333333,4,2,1,95,0,0
65247,-83.3333333333333,4,2,52,95,0,0
65339,-83.3333333333333,4,2,1,95,0,0
65431,-50,4,2,1,95,0,0
65799,-83.3333333333333,4,2,1,95,0,0
66535,-83.3333333333333,4,2,3,75,0,0
66903,-50,4,2,1,95,0,0
67087,-50,4,2,52,95,0,0
67179,-50,4,2,1,95,0,0
67271,-83.3333333333333,4,2,1,95,0,0
68191,-83.3333333333333,4,2,52,95,0,0
68283,-83.3333333333333,4,2,1,95,0,0
68375,-50,4,2,1,95,0,0
68743,-83.3333333333333,4,2,1,95,0,0
69480,-83.3333333333333,4,2,2,95,0,0
69664,-83.3333333333333,4,2,1,95,0,0
69848,-50,4,2,1,95,0,0
70216,-83.3333333333333,4,2,1,95,0,0
71136,-83.3333333333333,4,2,52,95,0,0
71228,-83.3333333333333,4,2,1,95,0,0
71320,-50,4,2,1,95,0,0
71688,-83.3333333333333,4,2,1,95,0,0
72424,-83.3333333333333,4,2,3,80,0,0
72793,-50,4,2,1,95,0,0
72977,-50,4,2,52,95,0,0
73069,-50,4,2,1,95,0,0
73161,-83.3333333333333,4,2,1,95,0,0
75461,-166.666666666667,4,2,1,95,0,0
75737,-125,4,2,1,65,0,0
76289,-166.666666666667,4,2,1,65,0,0
76842,-125,4,2,1,65,0,0
77210,-100,4,2,1,75,0,0
81627,-125,4,2,1,65,0,0
82179,-166.666666666667,4,2,1,65,0,0
82731,-125,4,2,1,65,0,0
83099,-100,4,2,1,75,0,0
87516,-125,4,2,1,65,0,0
88068,-166.666666666667,4,2,1,65,0,0
88621,-125,4,2,1,65,0,0
88989,-100,4,2,1,75,0,0
93406,-125,4,2,1,65,0,0
93958,-166.666666666667,4,2,1,65,0,0
94510,-125,4,2,1,65,0,0
94878,-100,4,2,1,75,0,0
99664,-100,4,2,1,55,0,0
100768,-50,4,2,1,85,0,0
101136,-83.3333333333333,4,2,1,85,0,0
105001,-83.3333333333333,4,2,3,85,0,0
105185,-83.3333333333333,4,2,1,85,0,0
106658,-50,4,2,1,85,0,0
107026,-83.3333333333333,4,2,1,85,0,0
111075,-57.1428571428571,4,2,1,85,0,0
112547,-83.3333333333333,4,2,1,85,0,0
116228,-133.333333333333,4,2,1,85,0,0
116412,-153.846153846154,4,2,1,85,0,0
116596,-181.818181818182,4,2,1,85,0,0
116780,-222.222222222222,4,2,1,85,0,0
116964,-285.714285714286,4,2,1,85,0,0
117516,-83.3333333333333,4,2,1,85,0,0
118437,-57.1428571428571,4,2,1,85,0,0
118989,-83.3333333333333,4,2,1,85,0,0
120277,-66.6666666666667,4,2,1,85,0,0
120461,-83.3333333333333,4,2,1,85,0,0
122670,-83.3333333333333,4,2,52,85,0,0
122762,-83.3333333333333,4,2,1,85,0,0
124326,-125,4,2,1,75,0,0
124878,-166.666666666667,4,2,1,75,0,0
125431,-1000,4,2,1,75,0,0
127179,-1000,4,2,1,20,0,0
127363,-1000,4,2,1,75,0,0
130216,-125,4,2,1,75,0,0
130768,-166.666666666667,4,2,1,75,0,0
131321,-1000,4,2,1,75,0,0
133069,-1000,4,2,1,20,0,0
133253,-1000,4,2,1,75,0,0
135369,-133.333333333333,4,3,0,55,0,0
136105,-83.3333333333333,4,2,1,85,0,0
137394,-83.3333333333333,4,2,52,85,0,0
137486,-83.3333333333333,4,2,1,85,0,0
138866,-83.3333333333333,4,2,52,85,0,0
138958,-83.3333333333333,4,2,1,85,0,0
140339,-83.3333333333333,4,2,52,85,0,0
140431,-83.3333333333333,4,2,1,85,0,0
140707,-83.3333333333333,4,2,52,85,0,0
140799,-83.3333333333333,4,2,1,85,0,0
141811,-83.3333333333333,4,2,52,85,0,0
141903,-83.3333333333333,4,2,1,85,0,0
143283,-83.3333333333333,4,2,52,85,0,0
143375,-83.3333333333333,4,2,1,85,0,0
144756,-83.3333333333333,4,2,52,85,0,0
144848,-83.3333333333333,4,2,1,85,0,0
149173,-83.3333333333333,4,2,52,85,0,0
149265,-83.3333333333333,4,2,1,85,0,0
150645,-83.3333333333333,4,2,52,85,0,0
150737,-83.3333333333333,4,2,1,85,0,0
152118,-83.3333333333333,4,2,52,85,0,0
152210,-83.3333333333333,4,2,1,85,0,0
152486,-83.3333333333333,4,2,52,85,0,0
152578,-83.3333333333333,4,2,1,85,0,0
153590,-83.3333333333333,4,2,52,85,0,0
153682,-83.3333333333333,4,2,1,85,0,0
155062,-83.3333333333333,4,2,52,85,0,0
155155,-83.3333333333333,4,2,1,85,0,0
159664,-83.3333333333333,4,2,1,95,0,0
159756,-83.3333333333333,4,2,1,95,0,0
160216,-83.3333333333333,4,2,1,95,0,0
160308,-83.3333333333333,4,2,1,95,0,0
160768,-83.3333333333333,4,2,1,95,0,0
162609,-83.3333333333333,4,2,1,95,0,0
162701,-83.3333333333333,4,2,1,95,0,0
163713,-83.3333333333333,4,2,1,95,0,0
163805,-83.3333333333333,4,2,1,95,0,0
165001,-83.3333333333333,4,2,1,95,0,0
165093,-83.3333333333333,4,2,1,95,0,0
165185,-83.3333333333333,4,2,1,95,0,0
165277,-83.3333333333333,4,2,1,95,0,0
165553,-83.3333333333333,4,2,1,95,0,0
165645,-83.3333333333333,4,2,1,95,0,0
165829,-100,4,2,1,95,0,0
165921,-100,4,2,54,95,0,0
166013,-100,4,2,1,95,0,0
166105,-62.5,4,2,1,95,0,0
166289,-83.3333333333333,4,2,1,95,0,0
166566,-100,4,2,1,95,0,0
166658,-100,4,2,54,95,0,0
166750,-100,4,2,1,95,0,0
166842,-62.5,4,2,1,95,0,0
167026,-83.3333333333333,4,2,1,95,0,0
167302,-100,4,2,1,95,0,0
167394,-100,4,2,54,95,0,0
167486,-100,4,2,1,95,0,0
167578,-62.5,4,2,1,95,0,0
168498,-83.3333333333333,4,2,1,95,0,0
168590,-83.3333333333333,4,2,1,95,0,0
170339,-83.3333333333333,4,2,1,95,0,0
170431,-83.3333333333333,4,2,1,95,0,0
171075,-83.3333333333333,4,2,1,95,0,0
171167,-83.3333333333333,4,2,1,95,0,0
171259,-83.3333333333333,4,2,1,95,0,0
171351,-83.3333333333333,4,2,1,95,0,0
171443,-83.3333333333333,4,2,1,95,0,0
171535,-83.3333333333333,4,2,1,95,0,0
171995,-83.3333333333333,4,2,1,95,0,0
172087,-83.3333333333333,4,2,1,95,0,0
172547,-83.3333333333333,4,2,1,95,0,0
172639,-83.3333333333333,4,2,1,95,0,0
174388,-83.3333333333333,4,2,1,95,0,0
174480,-83.3333333333333,4,2,1,95,0,0
175492,-83.3333333333333,4,2,1,95,0,0
175584,-83.3333333333333,4,2,1,95,0,0
176780,-83.3333333333333,4,2,1,95,0,0
176872,-83.3333333333333,4,2,1,95,0,0
176964,-83.3333333333333,4,2,1,95,0,0
177056,-83.3333333333333,4,2,1,95,0,0
177332,-83.3333333333333,4,2,1,95,0,0
177424,-83.3333333333333,4,2,1,95,0,0
178437,-83.3333333333333,4,2,1,95,0,0
178529,-83.3333333333333,4,2,1,95,0,0
180277,-83.3333333333333,4,2,1,95,0,0
180369,-83.3333333333333,4,2,1,95,0,0
182118,-83.3333333333333,4,2,1,95,0,0
182210,-83.3333333333333,4,2,1,95,0,0
182854,-200,4,2,1,95,0,0
182946,-200,4,2,1,95,0,0
183038,-200,4,2,1,95,0,0
183222,-50,4,2,1,85,0,0
183590,-83.3333333333333,4,2,1,85,0,0
184510,-83.3333333333333,4,2,52,85,0,0
184602,-83.3333333333333,4,2,1,85,0,0
184694,-50,4,2,1,85,0,0
185062,-83.3333333333333,4,2,1,85,0,0
185799,-83.3333333333333,4,2,3,85,0,0
186167,-50,4,2,1,85,0,0
186351,-50,4,2,52,85,0,0
186443,-50,4,2,1,85,0,0
186535,-83.3333333333333,4,2,1,85,0,0
187639,-50,4,2,1,85,0,0
188007,-83.3333333333333,4,2,1,85,0,0
189112,-50,4,2,1,85,0,0
189480,-83.3333333333333,4,2,1,85,0,0
190400,-83.3333333333333,4,2,52,85,0,0
190492,-83.3333333333333,4,2,1,85,0,0
190584,-50,4,2,1,85,0,0
190952,-83.3333333333333,4,2,1,85,0,0
191688,-83.3333333333333,4,2,3,85,0,0
192056,-50,4,2,1,85,0,0
192424,-83.3333333333333,4,2,1,85,0,0
194725,-166.666666666667,4,2,1,85,0,0
197946,-363.636363636364,4,2,1,75,0,0
198038,-363.636363636364,4,2,50,65,0,0
206780,-363.636363636364,4,2,1,5,0,0

[Colours]
Combo1 : 176,176,176
Combo2 : 152,206,250
Combo3 : 234,137,123

[HitObjects]
120,128,5063,6,0,B|136:23|136:23|194:62|194:62|158:284,1,385,4|0,1:1|0:0,0:0:0:0:
158,285,5799,1,0,0:0:0:0:
81,331,6535,5,0,0:0:0:0:
208,365,6719,2,0,P|224:366|205:360,1,55,2|0,0:0|0:0,0:0:0:0:
216,357,6903,2,0,P|232:358|213:352,1,55,2|0,0:0|0:0,0:0:0:0:
224,349,7087,2,0,P|240:350|221:344,1,55,2|0,0:0|0:0,0:0:0:0:
232,341,7271,2,0,P|248:342|229:336,1,55,0|0,0:0|0:0,0:0:0:0:
348,352,7455,6,0,L|499:331,1,110,0|0,1:0|0:0,0:0:0:0:
507,286,7731,2,0,L|486:135,1,110,4|0,0:0|0:0,0:0:0:0:
441,127,8007,6,0,B|308:145|308:145|256:104|256:104|69:132,1,385,4|0,0:1|0:0,0:0:0:0:
13,90,8743,2,0,P|37:105|52:128,1,55,0|0,1:0|0:0,0:0:0:0:
164,222,8928,1,0,0:0:0:0:
164,222,9020,2,0,P|187:207|202:184,1,55,0|0,1:0|0:0,0:0:0:0:
238,32,9204,1,0,0:0:0:0:
238,32,9296,1,2,0:3:0:0:
238,32,9388,1,2,0:3:0:0:
238,31,9480,6,0,P|315:48|344:122,1,165,4|0,0:1|0:0,0:0:0:0:
287,165,9848,1,10,0:3:0:0:
424,222,10032,6,0,P|346:238|317:312,1,165,0|0,0:0|0:0,0:0:0:0:
375,355,10400,1,10,0:3:0:0:
243,279,10584,2,0,P|241:333|276:380,1,110,4|0,0:1|0:0,0:0:0:0:
272,377,10952,6,0,B|251:297|153:326|153:326|112:384|112:384|7:394|-7:288,1,385,4|0,1:1|0:0,0:0:0:0:
3,283,11688,1,0,0:0:0:0:
110,215,12424,6,0,L|122:151,1,55,10|0,0:3|0:0,0:0:0:0:
20,36,12609,2,0,L|-1:76,1,27.5,0|0,1:0|0:0,0:0:0:0:
31,48,12701,2,0,L|64:24,1,27.5,0|0,1:0|0:0,0:0:0:0:
42,60,12793,2,0,L|21:100,1,27.5,2|0,2:3|0:0,0:0:0:0:
53,72,12885,2,0,L|86:48,1,27.5,0|0,1:0|0:0,0:0:0:0:
64,84,12977,6,0,B|49:112|49:112|354:20|354:20|337:50,1,385,4|0,1:0|0:0,0:0:0:0:
379,107,13713,2,0,L|405:184,1,55,8|0,0:0|0:0,0:0:0:0:
311,316,13897,6,0,P|412:199|441:351,1,385,4|0,0:1|0:0,0:0:0:0:
428,360,14633,1,0,0:0:0:0:
390,282,15369,5,10,0:3:0:0:
195,360,15645,1,10,0:3:0:0:
181,351,15737,2,0,L|195:270,1,55,0|0,1:0|0:0,0:0:0:0:
132,114,15921,5,4,0:0:0:0:
118,123,16289,2,0,L|132:204,1,55,10|0,0:3|0:0,0:0:0:0:
69,360,16474,5,12,0:0:0:0:
55,346,16842,6,0,B|65:258|193:244|193:244|321:231|326:125,1,385,4|0,1:0|0:0,0:0:0:0:
321,110,17578,1,0,0:0:0:0:
254,52,17946,1,0,0:0:0:0:
171,82,18314,6,0,P|155:81|174:87,1,55,0|0,1:0|0:0,0:0:0:0:
163,90,18498,2,0,P|147:89|166:95,1,55,0|0,0:0|0:0,0:0:0:0:
155,98,18682,2,0,P|139:97|158:103,1,55,0|0,0:0|0:0,0:0:0:0:
147,106,18866,2,0,P|131:105|150:111,1,55,0|0,0:0|0:0,0:0:0:0:
12,40,19050,6,0,L|94:35,1,82.5000031471254,2|0,1:2|0:0,0:0:0:0:
180,189,19234,5,0,0:0:0:0:
191,200,19326,2,0,L|245:196,1,55,0|0,1:0|0:0,0:0:0:0:
310,121,19510,1,0,0:0:0:0:
321,110,19602,2,0,L|375:113,1,55,0|0,1:0|0:0,0:0:0:0:
499,340,19786,6,0,B|443:155|443:155|282:261,1,385,4|0,0:1|0:0,0:0:0:0:
351,309,20523,6,0,L|405:299,1,55,0|0,1:0|0:0,0:0:0:0:
209,363,20707,1,0,0:0:0:0:
209,363,20799,2,0,L|154:353,1,55,0|0,1:0|0:0,0:0:0:0:
41,379,20983,5,2,0:3:0:0:
35,352,21075,1,2,0:3:0:0:
54,332,21167,1,0,0:0:0:0:
60,305,21259,6,0,P|37:232|105:198,1,165,4|0,0:1|0:0,0:0:0:0:
166,161,21627,1,0,1:0:0:0:
174,174,21719,1,0,1:0:0:0:
177,217,21811,6,0,P|206:286|280:269,1,165,4|0,0:1|0:0,0:0:0:0:
348,247,22179,1,0,1:0:0:0:
356,234,22271,1,0,1:0:0:0:
396,212,22363,6,0,L|506:203,1,110,4|0,0:1|0:0,0:0:0:0:
506,203,22731,2,0,B|507:96|388:116|417:16|417:16|383:114|303:39|256:153|256:153|208:39|128:114|94:16|94:16|123:116|4:96|5:203,1,882.749973060609,4|0,1:0|0:0,0:0:0:0:
56,248,24204,6,0,L|71:322,1,55,10|0,0:3|0:0,0:0:0:0:
192,342,24388,2,0,L|201:386,1,27.5,10|0,0:3|0:0,0:0:0:0:
208,344,24480,2,0,L|217:304,1,27.5,10|0,0:3|0:0,0:0:0:0:
224,346,24572,2,0,L|233:390,1,27.5,10|0,0:3|0:0,0:0:0:0:
240,348,24664,2,0,L|249:308,1,27.5,10|0,0:3|0:0,0:0:0:0:
256,350,24756,6,0,B|262:381|262:381|281:307|281:307|296:372|296:372|314:314|314:314|329:362|329:362|343:319|343:319|355:353|355:353|363:322|363:322|372:347|372:347|377:323|377:323|382:337|382:337|437:324,1,495,4|0,1:0|0:0,0:0:0:0:
473,281,25676,6,0,B|525:213|451:166|451:166|370:110|425:22|425:22|492:67,1,385,4|0,1:1|0:0,0:0:0:0:
496,83,26412,1,0,0:0:0:0:
429,140,26780,1,0,0:0:0:0:
346,110,27148,6,0,B|262:51|191:115|191:115|236:156,1,220,4|0,0:1|0:0,0:0:0:0:
289,271,27701,2,0,B|315:291|315:291|307:189|307:189|287:211,1,165,4|0,1:0|0:0,0:0:0:0:
222,247,28069,1,0,0:0:0:0:
485,192,28253,2,0,L|478:245,1,41.2500015735627,8|0,0:0|0:0,0:0:0:0:
480,175,28621,6,0,B|425:181|383:157|371:116|392:78|326:32|254:67|254:67|295:96,1,288.750002753735,4|0,0:0|0:0,0:0:0:0:
301,133,28989,1,8,1:3:0:0:
479,37,29173,2,0,P|476:69|459:97,1,65.9999979858399,0|0,0:0|0:0,0:0:0:0:
142,100,29357,5,0,0:0:0:0:
183,80,29449,1,0,0:0:0:0:
229,80,29541,1,0,0:0:0:0:
271,99,29633,1,0,0:0:0:0:
301,133,29725,2,0,L|295:222,1,65.9999979858399,8|0,0:0|0:0,0:0:0:0:
383,284,29909,2,0,P|415:284|446:271,1,65.9999979858399,0|0,0:0|0:0,0:0:0:0:
215,250,30093,6,0,L|144:261,1,41.2500015735627,0|0,0:0|0:0,0:0:0:0:
204,259,30277,2,0,L|163:265,1,41.2500015735627,0|0,0:0|0:0,0:0:0:0:
193,268,30461,2,0,L|122:279,1,41.2500015735627,8|0,1:3|0:0,0:0:0:0:
28,374,30645,5,0,0:0:0:0:
18,328,30737,1,0,0:0:0:0:
33,283,30829,2,0,P|53:258|66:228,1,65.9999979858399,0|0,0:0|0:0,0:0:0:0:
125,119,31013,2,0,P|113:88|93:61,1,65.9999979858399,0|0,0:0|0:0,0:0:0:0:
0,21,31197,5,8,0:0:0:0:
13,18,31289,1,0,0:0:0:0:
58,29,31382,1,0,0:0:0:0:
71,26,31474,1,0,0:0:0:0:
116,37,31566,6,0,B|266:19|266:19|312:81,1,197.99999395752,0|0,0:0|0:0,0:0:0:0:
371,73,31934,1,8,1:3:0:0:
205,157,32118,2,0,L|232:97,1,65.9999979858399,0|0,0:0|0:0,0:0:0:0:
484,198,32302,5,0,0:0:0:0:
438,192,32394,1,0,0:0:0:0:
392,186,32486,1,0,0:0:0:0:
346,180,32578,1,0,0:0:0:0:
300,174,32670,2,0,L|327:233,1,65.9999979858399,8|0,0:0|0:0,0:0:0:0:
214,336,32854,2,0,L|241:276,1,65.9999979858399,0|0,0:0|0:0,0:0:0:0:
365,27,33038,5,0,0:0:0:0:
367,39,33130,1,0,0:0:0:0:
368,50,33222,1,0,0:0:0:0:
370,62,33314,1,0,0:0:0:0:
371,73,33406,1,8,1:3:0:0:
416,2,33590,5,0,0:0:0:0:
410,48,33682,1,0,0:0:0:0:
404,94,33774,1,0,0:0:0:0:
398,140,33866,1,0,0:0:0:0:
392,186,33958,2,0,L|406:268,1,65.9999979858399,0|0,0:0|0:0,0:0:0:0:
457,349,34142,2,0,P|444:270|390:328,1,197.99999395752,8|0,0:0|0:0,0:0:0:0:
469,367,34510,6,0,P|450:250|370:336,1,288.750002753735,4|0,0:0|0:0,0:0:0:0:
431,313,34878,1,8,1:3:0:0:
276,221,35062,2,0,L|286:309,1,65.9999979858399,0|0,0:0|0:0,0:0:0:0:
148,371,35247,5,0,0:0:0:0:
102,376,35339,1,0,0:0:0:0:
59,360,35431,1,0,0:0:0:0:
29,326,35523,1,0,0:0:0:0:
19,282,35615,2,0,L|107:272,1,65.9999979858399,8|0,0:0|0:0,0:0:0:0:
189,102,35799,2,0,L|181:167,1,65.9999979858399,0|0,0:0|0:0,0:0:0:0:
64,123,35983,6,0,L|75:194,1,41.2500015735627,0|0,0:0|0:0,0:0:0:0:
73,134,36167,2,0,L|79:175,1,41.2500015735627,0|0,0:0|0:0,0:0:0:0:
82,145,36351,2,0,L|93:216,1,41.2500015735627,8|0,1:3|0:0,0:0:0:0:
233,20,36535,5,0,0:0:0:0:
278,26,36627,1,0,0:0:0:0:
318,48,36719,2,0,P|340:71|352:102,1,65.9999979858399,0|0,0:0|0:0,0:0:0:0:
314,214,36903,2,0,L|213:196,1,65.9999979858399,0|0,0:0|0:0,0:0:0:0:
467,246,37087,5,8,0:0:0:0:
460,258,37179,1,0,0:0:0:0:
414,264,37271,1,0,0:0:0:0:
407,276,37363,1,0,0:0:0:0:
361,282,37455,6,0,B|367:324|330:341|330:341|269:360|274:310|197:330,1,197.99999395752,0|0,0:0|0:0,0:0:0:0:
139,365,37823,1,8,1:3:0:0:
193,246,38007,2,0,P|162:258|139:282,1,65.9999979858399,0|0,0:0|0:0,0:0:0:0:
32,384,38191,5,0,0:0:0:0:
8,342,38283,1,0,0:0:0:0:
0,297,38375,1,0,0:0:0:0:
4,251,38467,1,0,0:0:0:0:
23,209,38559,2,0,L|103:217,1,65.9999979858399,8|0,0:0|0:0,0:0:0:0:
237,155,38743,2,0,L|157:163,1,65.9999979858399,0|0,0:0|0:0,0:0:0:0:
64,0,38928,6,0,B|94:23|94:23|82:143,1,131.99999597168,0|0,1:0|0:0,0:0:0:0:
7,101,39204,1,0,1:0:0:0:
11,133,39296,1,10,0:3:0:0:
174,203,39480,6,0,B|167:268,1,65.9999979858399,0|0,1:0|0:0,0:0:0:0:
90,252,39664,1,0,1:0:0:0:
94,284,39756,1,2,0:3:0:0:
98,316,39848,1,2,0:3:0:0:
256,384,40032,6,0,L|256:64,1,288.750002753735,10|0,0:0|0:0,0:0:0:0:
256,24,40400,5,0,0:0:0:0:
340,108,40584,1,0,0:0:0:0:
256,192,40768,1,8,1:2:0:0:
172,108,40952,1,0,0:0:0:0:
424,24,41136,6,0,L|407:169,2,131.99999597168,0|0|2,0:0|0:0|1:3,0:0:0:0:
256,192,41688,1,0,0:0:0:0:
88,24,41872,2,0,L|105:169,2,131.99999597168,0|0|8,0:0|0:0|1:2,0:0:0:0:
14,169,42424,6,0,L|6:234,1,65.9999979858399,0|0,0:0|0:0,0:0:0:0:
88,186,42609,2,0,L|80:251,1,65.9999979858399,0|0,0:0|0:0,0:0:0:0:
164,371,42793,5,0,0:0:0:0:
238,354,42977,1,8,1:2:0:0:
256,360,43345,5,0,0:0:0:0:
340,276,43529,1,0,0:0:0:0:
256,192,43713,1,8,1:2:0:0:
172,276,43897,1,0,0:0:0:0:
424,360,44081,6,0,L|407:215,2,131.99999597168,0|0|2,0:0|0:0|1:3,0:0:0:0:
256,192,44633,1,0,0:0:0:0:
88,360,44817,2,0,L|105:215,2,131.99999597168,0|0|8,0:0|0:0|1:2,0:0:0:0:
6,138,45369,5,2,1:3:0:0:
52,142,45461,1,0,0:0:0:0:
98,146,45553,1,0,0:0:0:0:
144,150,45645,1,0,0:0:0:0:
190,154,45737,2,0,L|173:9,1,131.99999597168,2|10,1:3|1:3,0:0:0:0:
322,154,46105,5,0,0:0:0:0:
322,154,46197,1,0,0:0:0:0:
322,154,46289,6,0,L|333:52,1,65.9999979858399,0|0,0:0|0:0,0:0:0:0:
332,65,46474,2,0,L|343:-36,1,65.9999979858399,0|0,0:0|0:0,0:0:0:0:
448,111,46658,1,8,1:2:0:0:
452,131,46842,6,0,L|463:232,1,65.9999979858399,0|0,0:0|0:0,0:0:0:0:
408,262,47026,1,0,0:0:0:0:
408,262,47118,1,0,0:0:0:0:
408,262,47210,2,0,L|419:363,1,65.9999979858399,8|0,1:3|0:0,0:0:0:0:
487,369,47394,1,8,1:2:0:0:
487,369,47578,1,0,0:0:0:0:
325,289,47762,6,0,L|139:259,2,131.99999597168,0|0|8,1:0|0:0|1:2,0:0:0:0:
159,353,48314,1,0,0:0:0:0:
139,356,48406,1,0,0:0:0:0:
108,321,48498,6,0,B|53:345|-1:301|-3:238|39:198|90:189|125:227|125:227|146:249|190:260|236:216|226:158|174:132|138:152,1,461.999985900879,0|0,0:0|0:0,0:0:0:0:
79,109,49234,5,0,0:0:0:0:
156,22,49418,1,0,0:0:0:0:
356,22,49602,1,8,1:2:0:0:
433,109,49786,1,0,0:0:0:0:
284,251,49970,6,0,P|308:334|381:290,1,197.99999395752,0|0,0:0|0:0,0:0:0:0:
355,214,50339,2,0,L|460:197,1,65.9999979858399,8|0,1:2|0:0,0:0:0:0:
127,199,50523,2,0,P|151:116|224:160,1,197.99999395752,0|0,0:0|0:0,0:0:0:0:
197,236,50892,2,0,L|302:253,1,65.9999979858399,0|0,0:0|0:0,0:0:0:0:
20,368,51075,5,8,1:2:0:0:
4,326,51167,1,0,0:0:0:0:
21,285,51259,1,0,0:0:0:0:
61,265,51351,1,0,0:0:0:0:
104,278,51443,1,0,0:0:0:0:
127,317,51535,1,0,0:0:0:0:
171,332,51627,2,0,L|276:315,1,65.9999979858399,0|0,0:0|0:0,0:0:0:0:
370,240,51811,5,8,1:2:0:0:
365,312,51903,1,2,1:3:0:0:
360,384,51995,2,0,L|255:367,1,65.9999979858399,2|0,1:2|0:0,0:0:0:0:
329,80,52179,5,0,0:0:0:0:
474,111,52363,1,0,0:0:0:0:
443,256,52547,1,8,1:2:0:0:
298,225,52731,1,0,0:0:0:0:
187,61,52915,6,0,B|123:45|123:45|59:61,2,131.99999597168,0|0|2,0:0|0:0|1:3,0:0:0:0:
0,123,53467,1,0,0:0:0:0:
187,185,53651,2,0,B|123:201|123:201|59:185,2,131.99999597168,0|0|8,1:0|0:0|1:2,0:0:0:0:
20,249,54204,6,0,B|84:265,1,65.9999979858399,0|0,0:0|0:0,0:0:0:0:
226,249,54388,2,0,B|162:265,1,65.9999979858399,0|0,0:0|0:0,0:0:0:0:
84,367,54572,5,0,0:0:0:0:
161,367,54756,1,8,1:2:0:0:
149,352,55124,5,0,0:0:0:0:
4,321,55308,1,0,0:0:0:0:
35,176,55492,1,8,1:2:0:0:
180,207,55676,1,0,0:0:0:0:
291,371,55860,6,0,B|355:387|355:387|419:371,2,131.99999597168,0|0|2,0:0|0:0|1:3,0:0:0:0:
478,309,56412,1,0,0:0:0:0:
291,247,56596,2,0,B|355:231|355:231|419:247,2,131.99999597168,0|0|8,1:0|0:0|1:2,0:0:0:0:
445,97,57148,5,0,0:0:0:0:
400,108,57240,1,0,0:0:0:0:
355,119,57332,1,0,0:0:0:0:
310,107,57424,1,0,0:0:0:0:
265,96,57516,2,0,B|201:80|201:80|137:96,1,131.99999597168,0|8,1:0|1:2,0:0:0:0:
265,288,57885,5,0,0:0:0:0:
265,288,57977,1,0,0:0:0:0:
265,288,58069,6,0,B|201:304,1,65.9999979858399,0|0,1:0|0:0,0:0:0:0:
179,298,58253,2,0,B|115:282,1,65.9999979858399,0|0,0:0|0:0,0:0:0:0:
0,192,58437,1,8,1:2:0:0:
26,192,58621,6,0,L|132:192,1,65.9999979858399,0|0,0:0|0:0,0:0:0:0:
177,192,58805,1,0,0:0:0:0:
177,192,58897,1,0,0:0:0:0:
177,192,58989,2,0,L|283:192,1,65.9999979858399,0|0,1:0|0:0,0:0:0:0:
328,192,59173,1,8,1:2:0:0:
328,192,59357,1,0,0:0:0:0:
475,286,59541,6,0,L|315:286,2,131.99999597168,0|0|8,1:0|0:0|1:2,0:0:0:0:
443,65,60093,1,0,0:0:0:0:
451,47,60185,1,0,0:0:0:0:
475,97,60277,6,0,B|381:97|381:97|350:66|350:66|161:66|161:66|130:97|130:97|36:97,1,461.999985900879,0|0,0:0|0:0,0:0:0:0:
73,25,61013,5,0,0:0:0:0:
193,136,61197,1,0,0:0:0:0:
319,136,61382,1,8,1:2:0:0:
439,25,61566,1,0,0:0:0:0:
256,245,61750,6,0,B|215:259|215:259|215:371|215:371|256:381,1,197.99999395752,0|0,0:0|0:0,0:0:0:0:
326,345,62118,2,0,P|336:314|326:283,1,65.9999979858399,8|0,1:2|0:0,0:0:0:0:
156,207,62302,2,0,B|115:192|115:192|115:80|115:80|156:70,1,197.99999395752,0|0,0:0|0:0,0:0:0:0:
226,107,62670,2,0,P|236:137|226:168,1,65.9999979858399,0|0,0:0|0:0,0:0:0:0:
44,224,62854,1,8,1:2:0:0:
228,29,63038,5,0,1:0:0:0:
273,34,63130,1,0,1:0:0:0:
318,39,63222,1,0,0:0:0:0:
340,80,63314,1,2,1:3:0:0:
362,121,63406,1,2,1:3:0:0:
407,126,63498,1,0,0:0:0:0:
452,131,63590,1,8,0:2:0:0:
464,115,63958,6,2,B|458:78|458:78|416:184|416:184|424:200|424:200|380:309|380:309|376:263,1,330,2|0,0:1|0:0,0:1:0:0:
299,253,64326,6,0,B|293:187,1,65.9999979858399,8|0,1:2|0:0,0:0:0:0:
464,303,64510,1,0,0:0:0:0:
464,303,64602,1,0,0:0:0:0:
464,303,64694,2,0,B|458:368,1,65.9999979858399,0|0,0:0|0:0,0:0:0:0:
242,304,64878,2,0,B|203:249,1,65.9999979858399,0|0,1:0|0:0,0:0:0:0:
280,372,65062,2,0,B|217:384|217:384|159:348|159:348|218:376,1,197.99999395752,8|0,1:2|0:0,0:0:0:0:
240,175,65431,6,2,B|268:132|268:132|147:149|72:245|72:245|123:242,1,330,2|0,0:1|0:0,0:1:0:0:
308,216,65799,6,0,P|340:222|368:238,1,65.9999979858399,8|0,1:2|0:0,0:0:0:0:
308,66,65983,1,0,0:0:0:0:
308,66,66075,1,0,0:0:0:0:
308,66,66167,2,0,P|340:59|368:43,1,65.9999979858399,0|0,0:0|0:0,0:0:0:0:
494,141,66351,2,0,L|398:141,1,65.9999979858399,0|0,0:0|0:0,0:0:0:0:
162,39,66535,6,0,P|144:54|136:70,1,32.99999899292,2|0,0:0|0:0,0:0:0:0:
131,47,66627,2,0,P|117:67|114:84,1,32.99999899292,2|0,0:0|0:0,0:0:0:0:
103,65,66719,2,0,P|96:88|100:106,1,32.99999899292,0|0,0:0|0:0,0:0:0:0:
83,91,66811,2,0,P|84:115|93:130,1,32.99999899292,2|0,0:0|0:0,0:0:0:0:
72,121,66903,6,2,P|115:238|14:166,1,330,2|0,0:1|0:0,0:1:0:0:
192,114,67271,6,0,P|206:143|212:175,1,65.9999979858399,8|0,1:2|0:0,0:0:0:0:
62,321,67455,1,0,0:0:0:0:
62,321,67547,1,0,0:0:0:0:
62,321,67639,2,0,P|29:314|-4:296,1,65.9999979858399,0|0,0:0|0:0,0:0:0:0:
282,199,67823,2,0,P|279:231|268:262,1,65.9999979858399,0|0,1:0|0:0,0:0:0:0:
120,373,68007,2,0,B|150:322|222:318|248:333|248:333|207:330|175:363,1,197.99999395752,8|0,1:3|0:0,0:0:0:0:
384,318,68375,6,2,B|357:322|330:316|330:316|359:336|403:341|434:319|469:298|474:247|462:211|462:211|467:243|457:265,1,330,2|0,0:1|0:0,0:1:0:0:
487,363,68743,5,8,1:2:0:0:
393,233,68928,2,0,L|387:155,1,65.9999979858399,0|0,0:0|0:0,0:0:0:0:
497,97,69112,1,0,0:0:0:0:
497,97,69204,1,0,0:0:0:0:
497,97,69296,2,0,L|419:103,1,65.9999979858399,0|0,0:0|0:0,0:0:0:0:
298,39,69480,1,8,1:2:0:0:
286,32,69664,1,0,1:0:0:0:
505,23,69848,6,2,B|382:33|382:33|350:109|350:109|200:120,1,330,2|0,0:1|0:0,0:1:0:0:
157,79,70216,6,0,L|144:-2,1,65.9999979858399,8|0,1:2|0:0,0:0:0:0:
256,195,70400,2,0,L|243:276,1,65.9999979858399,0|0,0:0|0:0,0:0:0:0:
77,85,70584,1,0,0:0:0:0:
77,85,70676,1,0,0:0:0:0:
77,85,70768,2,0,L|64:4,1,65.9999979858399,0|0,1:0|0:0,0:0:0:0:
176,201,70952,2,0,B|156:324|156:324|87:296,1,197.99999395752,8|0,1:2|0:0,0:0:0:0:
3,254,71320,6,2,B|200:332|200:332|78:293,1,330,2|0,0:1|0:0,0:1:0:0:
25,180,71688,6,0,B|1:113,1,65.9999979858399,8|0,1:2|0:0,0:0:0:0:
167,96,71872,1,0,0:0:0:0:
167,96,71964,1,0,0:0:0:0:
167,96,72056,2,0,B|161:25,1,65.9999979858399,0|0,0:0|0:0,0:0:0:0:
345,96,72240,2,0,B|350:25,1,65.9999979858399,0|0,1:0|0:0,0:0:0:0:
487,180,72424,6,0,B|506:126,1,32.99999899292,2|0,0:0|0:0,0:0:0:0:
471,223,72516,2,0,B|490:169,1,32.99999899292,2|0,0:0|0:0,0:0:0:0:
456,267,72609,2,0,B|475:213,1,32.99999899292,0|0,0:0|0:0,0:0:0:0:
441,311,72701,2,0,B|460:257,1,32.99999899292,2|0,0:0|0:0,0:0:0:0:
426,355,72793,6,2,B|283:188|283:188|498:147,1,330,2|0,0:1|0:0,0:1:0:0:
508,117,73161,6,0,B|487:180,1,65.9999979858399,8|0,1:2|0:0,0:0:0:0:
317,338,73345,1,0,0:0:0:0:
317,338,73437,1,0,0:0:0:0:
317,338,73529,2,0,B|274:287,1,65.9999979858399,0|0,0:0|0:0,0:0:0:0:
222,61,73713,2,0,B|286:48,1,65.9999979858399,0|0,0:0|0:0,0:0:0:0:
364,34,73897,1,8,1:2:0:0:
222,228,74081,1,2,1:3:0:0:
124,8,74265,5,2,1:3:0:0:
142,0,74449,1,2,1:3:0:0:
25,266,74633,6,0,L|91:232,1,65.9999979858399,0|0,1:0|0:0,0:0:0:0:
117,109,74817,5,0,0:0:0:0:
122,128,74909,2,0,L|192:150,1,65.9999979858399,0|0,1:0|0:0,0:0:0:0:
252,265,75093,5,0,0:0:0:0:
257,246,75185,2,0,L|330:236,1,65.9999979858399,2|0,1:3|0:0,0:0:0:0:
402,147,75369,5,0,3:0:0:0:
421,149,75461,6,0,L|494:158,1,65.9999979858399,0|0,1:0|0:0,0:0:0:0:
510,224,75737,6,0,P|465:316|364:297,1,220,4|0,1:0|0:0,0:0:0:0:
299,270,76289,6,0,P|223:256|189:325,1,164.9999949646,4|0,1:0|0:0,0:0:0:0:
117,326,76842,6,0,P|90:381|29:370,1,132,4|0,1:0|0:0,0:0:0:0:
28,262,77210,6,0,B|60:234|54:188|54:188|79:227|122:227,1,165,4|0,1:0|0:0,0:0:0:0:
123,153,77578,2,0,P|97:105|48:83,2,110,8|0|0,1:2|1:0|0:0,0:0:0:0:
299,210,78130,1,8,1:2:0:0:
256,280,78498,5,0,1:3:0:0:
256,280,78682,1,2,1:3:0:0:
388,153,79050,6,0,P|414:105|463:83,2,110,8|0|0,1:2|1:0|0:0,0:0:0:0:
213,210,79602,1,8,1:2:0:0:
256,280,79970,5,0,1:3:0:0:
256,280,80155,1,2,1:3:0:0:
256,40,80523,6,0,L|256:150,1,110,8|0,1:2|0:0,0:0:0:0:
256,280,80799,2,0,L|256:225,1,55,2|2,0:3|1:3,0:0:0:0:
256,40,81075,1,8,1:2:0:0:
331,13,81443,5,0,1:0:0:0:
180,12,81627,6,0,P|102:39|99:122,1,176,4|8,1:0|1:2,0:0:0:0:
99,122,82179,2,0,P|157:145|164:207,1,131.99999597168,4|8,1:0|1:2,0:0:0:0:
163,208,82731,2,0,P|119:233|109:317,1,132,4|0,1:0|0:0,0:0:0:0:
177,337,83099,6,0,L|346:322,1,165,4|0,1:0|0:0,0:0:0:0:
405,363,83467,2,0,P|416:310|390:263,1,110,8|0,1:2|0:0,0:0:0:0:
327,218,83743,2,0,L|336:136,1,55,0|0,1:0|0:0,0:0:0:0:
467,54,84020,1,8,1:2:0:0:
403,2,84388,5,0,1:3:0:0:
403,2,84572,1,2,1:3:0:0:
155,116,84940,6,0,P|100:118|50:97,2,110,8|0|0,1:2|1:0|0:0,0:0:0:0:
94,277,85492,1,8,1:2:0:0:
153,222,85860,5,0,1:0:0:0:
153,222,86044,1,2,1:3:0:0:
256,384,86412,6,0,P|271:331|309:292,1,110,8|0,1:2|0:0,0:0:0:0:
367,241,86688,2,0,L|440:254,1,55,0|0,1:0|0:0,0:0:0:0:
264,134,86964,5,8,1:2:0:0:
262,117,87056,1,0,0:0:0:0:
260,100,87148,1,0,0:0:0:0:
259,83,87240,1,0,0:0:0:0:
258,66,87332,1,0,0:0:0:0:
257,49,87424,1,0,0:0:0:0:
256,32,87516,6,0,L|235:271,1,220,4|0,1:0|0:0,0:0:0:0:
316,180,88069,2,0,L|349:369,1,164.9999949646,4|0,1:0|0:0,0:0:0:0:
406,265,88621,2,0,L|462:386,1,132,4|0,1:0|0:0,0:0:0:0:
344,342,88989,6,0,P|263:332|188:366,1,165,4|0,1:0|0:0,0:0:0:0:
119,332,89357,1,8,1:2:0:0:
145,186,89541,2,0,P|186:221|204:272,1,110,0|0,1:0|0:0,0:0:0:0:
0,245,89909,1,8,1:2:0:0:
22,166,90277,5,0,1:0:0:0:
22,166,90461,1,2,1:3:0:0:
300,197,90829,5,8,1:2:0:0:
274,51,91013,2,0,P|232:86|214:137,1,110,0|0,1:0|0:0,0:0:0:0:
431,94,91382,1,8,1:2:0:0:
491,149,91750,5,0,1:3:0:0:
491,149,91934,1,2,1:3:0:0:
431,308,92302,2,0,P|411:257|420:203,1,110,8|0,1:2|0:0,0:0:0:0:
491,149,92578,2,0,L|502:222,1,55,0|0,1:0|0:0,0:0:0:0:
311,320,92854,1,8,1:2:0:0:
256,256,93222,5,0,1:0:0:0:
132,374,93406,6,0,B|55:329|55:329|99:253,1,176,4|8,1:0|1:2,0:0:0:0:
99,253,93958,6,0,B|131:195|131:195|74:162,1,131.99999597168,4|8,1:0|1:2,0:0:0:0:
74,162,94510,6,0,B|16:128|16:128|48:71,1,132,4|0,1:0|0:0,0:0:0:0:
117,39,94878,6,0,P|173:52|204:165,1,165,4|0,1:0|0:0,0:0:0:0:
282,168,95247,2,0,P|303:217|353:235,1,110,8|0,1:2|0:0,0:0:0:0:
401,294,95523,2,0,P|428:299|451:314,1,55,0|0,1:0|0:0,0:0:0:0:
136,341,95799,1,8,1:2:0:0:
212,370,96167,5,0,1:0:0:0:
212,370,96351,1,2,1:3:0:0:
353,117,96719,6,0,L|365:-10,2,110,8|0|0,1:2|1:0|0:0,0:0:0:0:
162,29,97271,1,8,1:2:0:0:
238,58,97639,5,0,1:0:0:0:
238,58,97823,1,2,1:3:0:0:
40,275,98191,2,0,P|27:222|48:172,1,110,8|0,1:2|0:0,0:0:0:0:
119,140,98467,2,0,L|201:152,1,55,0|0,1:0|0:0,0:0:0:0:
297,240,98743,5,8,1:2:0:0:
299,256,98836,1,0,0:0:0:0:
301,272,98928,1,0,0:0:0:0:
303,288,99020,1,0,0:0:0:0:
305,304,99112,2,0,L|316:381,1,55,0|0,1:0|0:0,0:0:0:0:
193,378,99664,5,8,0:0:0:0:
112,368,99940,1,0,0:0:0:0:
112,368,100032,1,0,0:0:0:0:
31,358,100124,1,0,0:0:0:0:
31,358,100216,1,8,0:0:0:0:
183,267,100400,5,0,0:0:0:0:
199,264,100492,1,0,0:0:0:0:
239,246,100584,1,0,0:0:0:0:
255,243,100676,1,0,0:0:0:0:
295,225,100768,6,0,B|330:215|330:215|72:180|72:180|104:171,1,330,4|0,0:0|0:0,0:0:0:0:
151,108,101136,2,0,L|140:24,1,65.9999979858399,8|0,1:2|0:0,0:0:0:0:
386,10,101320,5,0,0:0:0:0:
405,14,101412,1,0,0:0:0:0:
385,55,101504,5,0,0:0:0:0:
390,100,101596,1,0,0:0:0:0:
396,146,101688,1,0,0:0:0:0:
402,192,101780,1,0,0:0:0:0:
408,238,101872,6,0,L|419:154,1,65.9999979858399,8|0,1:2|0:0,0:0:0:0:
426,384,102056,2,0,L|434:318,1,65.9999979858399,0|0,0:0|0:0,0:0:0:0:
485,129,102240,5,0,1:0:0:0:
307,163,102424,1,0,0:0:0:0:
396,146,102609,1,8,1:2:0:0:
178,87,102793,5,0,0:0:0:0:
158,83,102885,1,0,0:0:0:0:
193,53,102977,6,0,P|202:84|200:117,1,65.9999979858399,0|0,0:0|0:0,0:0:0:0:
65,216,103161,2,0,P|33:208|5:190,1,65.9999979858399,0|0,0:0|0:0,0:0:0:0:
153,185,103345,6,0,P|143:216|145:249,1,65.9999979858399,8|0,1:2|0:0,0:0:0:0:
281,347,103529,2,0,P|312:339|340:321,1,65.9999979858399,0|0,0:0|0:0,0:0:0:0:
70,352,103713,5,0,1:0:0:0:
131,283,103897,1,0,0:0:0:0:
160,370,104081,1,8,1:2:0:0:
404,263,104265,5,0,0:0:0:0:
423,265,104357,1,0,0:0:0:0:
404,307,104449,5,0,0:0:0:0:
382,266,104541,1,0,0:0:0:0:
379,220,104633,1,0,0:0:0:0:
395,178,104725,1,0,0:0:0:0:
428,145,104817,6,0,P|445:117|448:85,1,65.9999979858399,8|0,1:2|0:0,0:0:0:0:
277,93,105001,2,0,P|280:60|297:33,1,65.9999979858399,2|0,0:0|0:0,0:0:0:0:
500,2,105185,5,0,1:0:0:0:
510,186,105369,1,0,0:0:0:0:
505,94,105553,1,8,1:2:0:0:
289,226,105737,5,0,0:0:0:0:
294,245,105829,1,0,0:0:0:0:
265,220,105921,5,0,0:0:0:0:
277,265,106013,1,0,0:0:0:0:
254,247,106105,2,0,L|173:268,1,65.9999979858399,0|0,0:0|0:0,0:0:0:0:
0,288,106289,6,0,L|81:309,1,65.9999979858399,8|0,1:2|0:0,0:0:0:0:
141,325,106474,2,0,L|222:346,1,65.9999979858399,0|0,0:0|0:0,0:0:0:0:
40,172,106658,6,0,B|11:126|19:61|96:19|156:46|179:96|179:96|146:69|103:73,1,330,4|0,0:0|0:0,0:0:0:0:
103,221,107026,2,0,P|116:191|118:158,1,65.9999979858399,8|0,1:2|0:0,0:0:0:0:
235,25,107210,5,0,0:0:0:0:
254,27,107302,1,0,0:0:0:0:
294,4,107394,5,0,0:0:0:0:
307,48,107486,1,0,0:0:0:0:
300,94,107578,1,0,0:0:0:0:
274,131,107670,1,0,0:0:0:0:
234,153,107762,6,0,P|266:157|295:172,1,65.9999979858399,8|0,1:2|0:0,0:0:0:0:
438,229,107946,2,0,P|470:225|499:210,1,65.9999979858399,0|0,0:0|0:0,0:0:0:0:
295,366,108130,5,0,1:0:0:0:
356,297,108314,1,0,0:0:0:0:
385,384,108498,1,8,1:2:0:0:
244,232,108682,5,0,0:0:0:0:
249,250,108774,1,0,0:0:0:0:
276,287,108866,6,0,L|186:259,1,65.9999979858399,0|0,0:0|0:0,0:0:0:0:
113,319,109050,2,0,L|93:382,1,65.9999979858399,0|0,0:0|0:0,0:0:0:0:
308,180,109234,6,0,L|398:152,1,65.9999979858399,8|0,1:2|0:0,0:0:0:0:
471,212,109418,2,0,L|490:275,1,65.9999979858399,0|0,0:0|0:0,0:0:0:0:
256,64,109602,5,2,1:3:0:0:
349,64,109786,1,0,0:0:0:0:
163,64,109970,1,8,1:2:0:0:
70,220,110155,5,0,0:0:0:0:
50,216,110247,1,0,0:0:0:0:
28,173,110339,5,0,0:0:0:0:
72,165,110431,1,0,0:0:0:0:
116,180,110523,1,0,0:0:0:0:
146,213,110615,1,0,0:0:0:0:
157,258,110707,6,0,L|140:343,1,65.9999979858399,8|0,1:2|0:0,0:0:0:0:
354,258,110891,2,0,L|372:343,1,65.9999979858399,0|0,0:0|0:0,0:0:0:0:
256,96,111075,6,0,B|272:128|272:128|240:160|240:160|264:192|264:192|248:224|248:224|256:256|256:256|256:272,1,192.500001835823,4|0,0:0|0:0,0:0:0:0:
256,337,111351,1,0,0:0:0:0:
256,337,111443,1,10,0:3:0:0:
381,0,111627,6,0,P|350:36|337:82,1,96.2500009179115,4|0,1:2|0:0,0:0:0:0:
392,151,111811,1,0,0:0:0:0:
392,151,111903,1,2,1:3:0:0:
392,151,111995,1,0,1:0:0:0:
130,0,112179,6,0,P|161:36|175:82,1,96.2500009179115,4|0,1:2|0:0,0:0:0:0:
120,151,112363,1,0,1:0:0:0:
389,247,112547,6,0,P|308:197|310:102,1,197.99999395752,4|0,0:1|0:0,0:0:0:0:
392,55,112915,1,2,1:3:0:0:
392,55,113007,1,0,0:0:0:0:
392,55,113099,1,0,0:0:0:0:
424,60,113191,1,0,0:0:0:0:
453,76,113283,1,0,0:0:0:0:
475,101,113375,1,0,0:0:0:0:
487,131,113467,1,0,0:0:0:0:
488,164,113559,1,0,0:0:0:0:
477,195,113651,2,0,P|447:229|416:242,1,65.9999979858399,8|0,0:0|0:0,0:0:0:0:
308,195,113836,2,0,P|337:229|368:242,1,65.9999979858399,0|0,0:0|0:0,0:0:0:0:
392,151,114020,5,0,0:0:0:0:
256,288,114204,1,0,0:0:0:0:
120,151,114388,1,8,1:2:0:0:
30,362,114572,5,0,0:0:0:0:
75,351,114664,1,0,0:0:0:0:
108,319,114756,2,0,P|112:284|93:238,1,65.9999979858399,0|0,0:0|0:0,0:0:0:0:
36,131,114940,2,0,P|32:96|51:50,1,65.9999979858399,0|0,0:0|0:0,0:0:0:0:
179,19,115124,5,8,1:2:0:0:
191,15,115216,1,0,0:0:0:0:
234,29,115308,1,0,0:0:0:0:
246,25,115400,1,0,0:0:0:0:
289,39,115492,5,0,1:0:0:0:
256,192,115676,1,0,0:0:0:0:
289,345,115860,1,8,1:2:0:0:
476,295,116044,5,0,0:0:0:0:
443,262,116136,1,0,0:0:0:0:
395,258,116228,6,0,L|403:313,1,41.2500015735627,0|0,0:0|0:0,0:0:0:0:
317,268,116412,2,0,L|324:322,1,35.749998363495,0|0,0:0|0:0,0:0:0:0:
238,277,116596,2,0,L|245:331,1,30.2500009231568,8|0,1:2|0:0,0:0:0:0:
159,286,116780,2,0,L|163:324,1,24.74999924469,10|0,0:3|0:0,0:0:0:0:
80,295,116964,2,0,L|83:322,5,19.2499994125366,0|0|0|0|8|0,1:0|0:0|0:0|0:0|1:2|0:0,0:0:0:0:
61,280,117516,5,0,0:0:0:0:
50,234,117609,1,0,0:0:0:0:
77,196,117701,1,0,0:0:0:0:
88,150,117793,1,0,0:0:0:0:
61,112,117885,2,0,L|-4:102,1,65.9999979858399,0|0,0:0|0:0,0:0:0:0:
195,100,118069,2,0,L|130:90,1,65.9999979858399,8|0,1:2|0:0,0:0:0:0:
329,88,118253,2,0,L|264:78,1,65.9999979858399,10|0,0:3|0:0,0:0:0:0:
477,254,118437,6,0,P|460:136|368:211,1,288.750002753735,4|0,0:1|0:0,0:0:0:0:
435,200,118805,1,8,1:2:0:0:
299,246,118989,5,0,0:0:0:0:
319,271,119081,1,0,0:0:0:0:
325,303,119173,1,0,0:0:0:0:
316,334,119265,1,0,0:0:0:0:
293,358,119357,1,0,0:0:0:0:
262,368,119449,1,0,0:0:0:0:
228,361,119541,2,0,P|199:346|167:340,1,65.9999979858399,8|0,1:2|0:0,0:0:0:0:
85,307,119725,2,0,P|53:316|26:335,1,65.9999979858399,0|0,0:0|0:0,0:0:0:0:
132,237,119909,5,0,0:0:0:0:
20,112,120093,1,0,0:0:0:0:
145,0,120277,2,0,B|184:-12|184:-12|208:20,1,82.5000031471254,8|0,1:2|0:0,0:0:0:0:
257,125,120461,5,0,0:0:0:0:
258,171,120553,1,0,0:0:0:0:
302,184,120645,2,0,B|333:193|333:193|353:167,1,65.9999979858399,0|0,0:0|0:0,0:0:0:0:
448,113,120829,2,0,B|479:103|479:103|499:129,1,65.9999979858399,0|0,0:0|0:0,0:0:0:0:
414,251,121013,2,0,P|416:218|426:187,1,65.9999979858399,8|0,1:2|0:0,0:0:0:0:
360,27,121197,2,0,P|369:58|371:91,1,65.9999979858399,0|0,0:0|0:0,0:0:0:0:
476,309,121382,5,0,1:0:0:0:
256,256,121566,1,0,0:0:0:0:
36,309,121750,1,8,1:2:0:0:
256,362,121934,5,0,0:0:0:0:
225,327,122026,1,0,0:0:0:0:
179,320,122118,2,0,P|150:303|139:273,1,65.9999979858399,0|0,0:0|0:0,0:0:0:0:
29,205,122302,2,0,P|28:172|49:147,1,65.9999979858399,0|0,0:0|0:0,0:0:0:0:
8,9,122486,2,0,P|102:29|160:106,1,197.99999395752,8|0,1:2|0:0,0:0:0:0:
225,152,122854,6,0,L|355:133,1,131.99999597168,4|0,1:2|0:0,0:0:0:0:
407,74,123130,1,0,1:0:0:0:
419,43,123222,1,10,0:3:0:0:
496,264,123406,6,0,L|430:254,1,65.9999979858399,4|0,1:2|0:0,0:0:0:0:
379,195,123590,1,0,0:0:0:0:
367,164,123682,1,0,1:0:0:0:
355,133,123774,1,10,1:3:0:0:
170,336,123958,2,0,B|187:353|187:353|238:353|238:353|256:370|256:370|273:353|273:353|324:353|324:353|342:336,1,197.99999395752,4|0,1:2|0:0,0:0:0:0:
335,262,124326,6,0,B|274:262|274:262|254:241|254:241|234:262|234:262|174:262,1,176,4|0,1:2|0:0,0:0:0:0:
315,262,124878,6,0,B|269:262|269:262|254:277|254:277|239:262|239:262|194:262,1,131.99999597168,4|0,1:2|0:0,0:0:0:0:
305,262,125431,6,0,B|267:262|267:262|255:249|255:249|243:262|243:262|206:262,1,110,4|0,1:2|0:0,0:0:0:0:
335,122,130216,6,0,B|274:122|274:122|254:142|254:142|234:122|234:122|174:122,1,176,4|0,1:2|0:0,0:0:0:0:
315,122,130768,6,0,B|269:122|269:122|254:106|254:106|239:122|239:122|194:122,1,131.99999597168,4|0,1:2|0:0,0:0:0:0:
305,122,131321,6,0,B|267:122|267:122|255:134|255:134|243:122|243:122|206:122,1,110,4|0,1:2|0:0,0:0:0:0:
256,192,135369,6,0,L|274:284,1,82.5000031471254,0|0,0:0|0:0,0:0:0:0:
85,339,135737,2,0,L|46:267,1,82.5000031471254,0|0,0:0|0:0,0:0:0:0:
122,152,136105,6,0,L|189:338,1,197.99999395752,2|0,1:3|0:0,0:0:0:0:
256,377,136474,1,8,1:2:0:0:
390,152,136658,6,0,L|349:264,1,65.9999979858399,0|0,0:0|0:0,0:0:0:0:
340,288,136842,1,4,0:1:0:0:
256,192,137026,1,0,0:0:0:0:
256,377,137210,2,0,B|286:331|256:284|256:284|225:238|256:192,1,197.99999395752,8|0,1:2|0:0,0:0:0:0:
351,126,137578,6,0,B|278:149|255:53|231:149|159:126,1,197.99999395752,2|0,1:3|0:0,0:0:0:0:
256,32,137946,1,8,1:2:0:0:
440,166,138130,5,0,0:0:0:0:
446,120,138222,1,0,0:0:0:0:
461,76,138314,1,4,0:1:0:0:
483,36,138406,1,0,0:0:0:0:
512,0,138498,2,0,L|503:80,1,65.9999979858399,0|0,0:0|0:0,0:0:0:0:
452,182,138682,2,0,L|474:378,1,197.99999395752,8|0,1:2|0:0,0:0:0:0:
350,339,139050,6,0,B|255:307|255:307|161:339,1,197.99999395752,2|0,1:3|0:0,0:0:0:0:
256,383,139418,1,8,1:2:0:0:
38,378,139602,2,0,L|49:280,1,65.9999979858399,0|0,0:0|0:0,0:0:0:0:
54,233,139786,2,0,L|65:135,1,65.9999979858399,4|0,0:1|0:0,0:0:0:0:
70,88,139970,1,0,0:0:0:0:
200,173,140155,2,0,P|177:84|86:93,1,197.99999395752,8|0,1:2|0:0,0:0:0:0:
127,203,140523,6,0,L|332:188,1,197.99999395752,4|0,0:1|0:0,0:0:0:0:
403,183,140891,1,0,0:0:0:0:
329,66,141075,2,0,L|263:61,1,65.9999979858399,0|0,0:0|0:0,0:0:0:0:
184,56,141259,1,4,0:1:0:0:
408,71,141443,1,0,0:0:0:0:
361,251,141627,2,0,P|454:244|478:155,1,197.99999395752,8|0,1:2|0:0,0:0:0:0:
403,183,141995,6,0,B|381:151|352:180|352:180|341:146|313:168|313:168|298:145|278:157|278:157|266:140|251:150|251:150|205:137,1,197.99999395752,4|0,1:1|0:0,0:0:0:0:
175,192,142363,1,8,1:2:0:0:
79,47,142547,2,0,P|77:79|89:110,1,65.9999979858399,0|0,0:0|0:0,0:0:0:0:
37,169,142731,1,0,0:1:0:0:
199,0,142915,1,0,0:0:0:0:
153,183,143099,2,0,P|200:97|199:0,1,197.99999395752,8|0,1:2|0:0,0:0:0:0:
102,243,143467,6,0,P|99:308|132:363,1,131.99999597168,2|0,1:3|0:0,0:0:0:0:
311,251,143836,1,8,1:2:0:0:
211,350,144020,5,0,0:0:0:0:
253,331,144112,1,0,0:0:0:0:
298,329,144204,1,4,0:1:0:0:
342,344,144296,1,0,0:0:0:0:
377,373,144388,1,0,0:0:0:0:
508,250,144572,2,0,P|429:215|409:300,1,197.99999395752,8|0,1:2|0:0,0:0:0:0:
483,325,144940,5,4,1:0:0:0:
512,147,145124,1,0,1:0:0:0:
477,350,145308,1,8,0:0:0:0:
427,103,145492,2,0,L|415:3,1,65.9999979858399,0|0,0:0|0:0,0:0:0:0:
352,292,145676,2,0,L|360:227,1,65.9999979858399,4|0,0:1|0:0,0:0:0:0:
325,155,145860,1,0,0:0:0:0:
225,377,146044,1,8,1:2:0:0:
123,281,146228,1,0,0:0:0:0:
123,281,146320,1,0,0:0:0:0:
122,281,146412,6,0,P|155:282|187:291,1,65.9999979858399,4|0,1:2|0:0,0:0:0:0:
0,192,146596,1,0,1:0:0:0:
0,192,146780,1,10,1:3:0:0:
122,102,146964,6,0,P|155:101|187:92,1,65.9999979858399,4|0,1:2|0:0,0:0:0:0:
0,192,147148,1,0,1:0:0:0:
0,192,147332,1,2,1:3:0:0:
389,192,147516,5,12,0:0:0:0:
322,192,147609,1,0,0:0:0:0:
256,192,147701,1,0,0:0:0:0:
190,192,147793,1,0,0:0:0:0:
124,192,147885,6,0,P|115:280|236:343,1,197.99999395752,4|0,1:2|0:0,0:0:0:0:
256,384,148253,1,8,1:2:0:0:
389,192,148437,2,0,P|402:230|399:271,1,65.9999979858399,0|0,0:0|0:0,0:0:0:0:
364,325,148621,1,4,0:1:0:0:
430,117,148805,1,0,0:0:0:0:
467,303,148989,2,0,P|473:205|430:117,1,197.99999395752,8|0,1:2|0:0,0:0:0:0:
472,49,149357,6,0,P|401:42|358:82,1,131.99999597168,2|0,1:3|0:0,0:0:0:0:
256,160,149725,1,8,1:2:0:0:
103,39,149909,2,0,P|132:54|153:80,1,65.9999979858399,0|0,0:0|0:0,0:0:0:0:
256,160,150093,2,0,P|266:191|262:223,1,65.9999979858399,4|0,0:1|0:0,0:0:0:0:
256,384,150277,1,0,0:0:0:0:
108,320,150461,2,0,P|189:340|180:256,1,197.99999395752,8|0,1:2|0:0,0:0:0:0:
116,209,150829,6,0,P|34:229|43:145,1,197.99999395752,2|0,1:3|0:0,0:0:0:0:
82,76,151197,1,8,1:2:0:0:
218,245,151382,6,0,P|231:215|227:182,1,65.9999979858399,0|0,0:0|0:0,0:0:0:0:
179,121,151566,2,0,P|165:91|169:58,1,65.9999979858399,4|0,0:1|0:0,0:0:0:0:
226,3,151750,1,0,0:0:0:0:
291,288,151934,2,0,P|310:192|276:100,1,197.99999395752,8|0,1:2|0:0,0:0:0:0:
218,245,152302,6,0,P|220:339|307:374,1,197.99999395752,4|0,1:1|0:0,0:0:0:0:
371,326,152670,1,8,1:2:0:0:
449,200,152854,2,0,P|479:188|518:192,1,65.9999979858399,0|0,0:0|0:0,0:0:0:0:
493,266,153038,1,4,0:1:0:0:
337,181,153222,1,0,0:0:0:0:
505,0,153406,2,0,P|485:93|398:134,1,197.99999395752,8|0,1:2|0:0,0:0:0:0:
324,105,153774,6,0,B|271:94|235:125|230:130|225:134|190:165|137:155,1,197.99999395752,4|0,1:0|0:0,0:0:0:0:
59,144,154142,1,8,1:2:0:0:
76,0,154326,2,0,L|69:65,1,65.9999979858399,0|0,0:0|0:0,0:0:0:0:
59,144,154510,1,4,0:1:0:0:
76,0,154694,1,0,0:0:0:0:
59,144,154878,2,0,B|112:133|148:164|153:169|158:173|193:204|246:194,1,197.99999395752,8|0,1:2|0:0,0:0:0:0:
304,248,155247,6,0,L|508:231,1,197.99999395752,0|0,1:0|0:0,0:0:0:0:
509,310,155615,1,8,1:2:0:0:
355,147,155799,2,0,P|386:138|414:120,1,65.9999979858399,0|0,0:0|0:0,0:0:0:0:
371,338,155983,2,0,P|403:340|433:353,1,65.9999979858399,4|0,0:1|0:0,0:0:0:0:
494,150,156167,1,0,0:0:0:0:
237,307,156351,2,0,L|33:290,1,197.99999395752,8|0,1:2|0:0,0:0:0:0:
12,216,156719,5,6,1:3:0:0:
207,167,156903,1,10,0:3:0:0:
0,115,157087,1,8,1:2:0:0:
232,161,157271,6,0,L|240:59,1,65.9999979858399,8|0,1:2|0:0,0:0:0:0:
217,366,157455,2,0,L|212:301,1,65.9999979858399,0|0,0:0|0:0,0:0:0:0:
258,236,157639,1,0,0:0:0:0:
156,0,157823,6,0,L|164:102,1,65.9999979858399,8|0,1:2|0:0,0:0:0:0:
380,170,158007,1,0,0:0:0:0:
380,170,158099,1,0,0:0:0:0:
380,170,158191,6,0,L|386:105,2,65.9999979858399,6|10|0,1:3|0:3|1:0,0:0:0:0:
393,25,158559,1,8,1:2:0:0:
183,274,158743,6,0,L|178:209,1,65.9999979858399,0|0,0:0|0:0,0:0:0:0:
170,129,158928,1,0,0:0:0:0:
256,384,159112,1,2,1:3:0:0:
411,186,159296,6,0,L|405:251,1,65.9999979858399,8|0,0:0|0:0,0:0:0:0:
101,186,159480,2,0,L|106:251,1,65.9999979858399,0|0,1:0|0:0,0:0:0:0:
345,356,159664,5,0,1:0:0:0:
183,274,159848,1,0,0:0:0:0:
167,356,160032,1,8,1:2:0:0:
329,274,160216,1,0,0:0:0:0:
199,163,160400,5,0,0:0:0:0:
175,121,160492,1,0,0:0:0:0:
179,73,160584,1,0,1:0:0:0:
209,35,160676,1,0,0:0:0:0:
256,21,160768,1,8,0:0:0:0:
302,35,160860,1,0,0:0:0:0:
332,73,160952,1,0,0:0:0:0:
336,121,161044,1,0,0:0:0:0:
312,163,161136,5,0,1:0:0:0:
288,205,161228,1,0,0:0:0:0:
292,253,161320,1,2,0:0:0:0:
322,291,161412,1,0,0:0:0:0:
369,305,161504,1,8,1:2:0:0:
415,291,161596,1,0,0:0:0:0:
445,253,161688,1,2,0:0:0:0:
449,205,161780,1,2,0:0:0:0:
425,162,161872,6,0,L|337:176,1,65.9999979858399,2|0,0:0|0:0,0:0:0:0:
137,208,162056,2,0,L|49:222,1,65.9999979858399,0|0,1:0|0:0,0:0:0:0:
357,242,162240,6,0,L|269:256,1,65.9999979858399,8|0,1:2|0:0,0:0:0:0:
69,288,162424,2,0,L|-19:302,1,65.9999979858399,2|0,0:0|0:0,0:0:0:0:
191,374,162609,6,0,L|205:286,1,65.9999979858399,0|0,1:0|0:0,0:0:0:0:
214,230,162793,2,0,L|228:142,1,65.9999979858399,2|0,0:0|0:0,0:0:0:0:
103,0,162977,6,0,L|117:88,1,65.9999979858399,8|0,1:2|0:0,0:0:0:0:
126,143,163161,2,0,L|137:209,1,65.9999979858399,2|0,0:0|0:0,0:0:0:0:
409,0,163345,6,0,L|395:88,1,65.9999979858399,2|0,0:0|0:0,0:0:0:0:
385,143,163529,2,0,L|375:209,1,65.9999979858399,0|0,1:0|0:0,0:0:0:0:
282,287,163713,6,0,L|348:277,1,65.9999979858399,8|0,1:2|0:0,0:0:0:0:
492,254,163897,2,0,L|404:268,1,65.9999979858399,2|0,0:0|0:0,0:0:0:0:
256,94,164081,6,0,L|256:160,1,65.9999979858399,0|0,1:0|0:0,0:0:0:0:
56,384,164265,5,2,0:0:0:0:
18,370,164357,1,0,0:0:0:0:
0,335,164449,1,8,1:2:0:0:
10,296,164541,1,0,0:0:0:0:
44,274,164633,1,0,1:0:0:0:
84,281,164725,1,0,1:0:0:0:
108,313,164817,5,2,0:0:0:0:
153,333,164909,1,0,1:0:0:0:
201,325,165001,1,0,1:2:0:0:
238,292,165093,1,0,0:0:0:0:
250,244,165185,5,8,1:2:0:0:
193,230,165277,1,0,0:0:0:0:
137,216,165369,1,2,0:0:0:0:
81,202,165461,1,0,0:0:0:0:
25,188,165553,6,0,L|49:5,1,131.99999597168,0|0,1:0|0:0,0:0:0:0:
109,19,165829,6,0,L|123:128,1,110
191,153,166105,6,0,L|207:24,1,88,2|0,0:0|0:0,0:0:0:0:
469,57,166289,6,0,L|487:188,1,131.99999597168,0|0,0:0|1:0,0:0:0:0:
388,128,166566,6,0,L|403:19,1,110,0|0,0:0|0:0,0:0:0:0:
309,65,166842,6,0,L|321:153,1,88,2|0,0:0|0:0,0:0:0:0:
319,227,167026,6,0,B|256:243|256:243|192:227,1,131.99999597168,0|0,1:0|0:0,0:0:0:0:
202,302,167302,6,0,B|255:315|255:315|309:302,1,110,0|0,0:0|0:0,0:0:0:0:
298,375,167578,6,0,B|256:385|256:385|214:375,1,88,2|0,0:0|1:0,0:0:0:0:
94,227,167762,5,2,0:0:0:0:
418,227,168038,5,0,0:0:0:0:
256,128,168314,5,2,0:0:0:0:
256,325,168498,5,0,1:0:0:0:
282,307,168590,1,0,0:0:0:0:
293,277,168682,1,2,0:0:0:0:
283,246,168774,1,0,0:0:0:0:
256,227,168866,1,8,1:2:0:0:
228,208,168958,1,0,0:0:0:0:
218,177,169050,1,2,0:0:0:0:
229,147,169142,1,0,0:0:0:0:
256,129,169234,6,0,L|334:114,1,65.9999979858399,2|0,0:0|0:0,0:0:0:0:
186,68,169418,2,0,L|264:53,1,65.9999979858399,0|0,1:0|0:0,0:0:0:0:
133,289,169602,6,0,L|211:274,1,65.9999979858399,8|0,1:2|0:0,0:0:0:0:
63,229,169786,2,0,L|141:214,1,65.9999979858399,2|0,0:0|0:0,0:0:0:0:
32,28,169970,6,0,L|19:92,1,65.9999979858399,0|0,1:0|0:0,0:0:0:0:
109,48,170155,2,0,L|96:112,1,65.9999979858399,2|0,0:0|0:0,0:0:0:0:
303,346,170339,5,8,1:2:0:0:
348,337,170431,1,8,0:0:0:0:
393,328,170523,2,0,L|471:313,1,65.9999979858399,2|8,0:0|0:0,0:0:0:0:
512,65,170707,5,2,0:0:0:0:
453,35,170799,1,8,0:0:0:0:
389,45,170891,1,0,1:0:0:0:
343,91,170983,1,0,0:0:0:0:
332,155,171075,1,8,1:2:0:0:
321,219,171167,1,2,0:0:0:0:
275,265,171259,1,8,0:0:0:0:
211,275,171351,1,0,0:0:0:0:
152,245,171443,6,0,L|2:229,1,131.99999597168,0|0,1:0|0:0,0:0:0:0:
50,98,171719,1,0,0:0:0:0:
68,90,171811,2,0,P|84:118|88:150,1,65.9999979858399,8|0,1:2|0:0,0:0:0:0:
73,334,171995,6,0,P|94:273|152:245,1,131.99999597168,2|0,0:0|0:0,0:0:0:0:
245,187,172271,1,0,0:0:0:0:
260,174,172363,2,0,L|338:182,1,65.9999979858399,0|0,1:0|0:0,0:0:0:0:
421,368,172547,6,0,L|389:239,1,131.99999597168,8|2,1:2|0:0,0:0:0:0:
397,138,172823,1,0,0:0:0:0:
408,155,172915,2,0,L|446:101,1,65.9999979858399,0|0,1:0|0:0,0:0:0:0:
455,247,173099,6,0,L|390:240,1,65.9999979858399,2|0,0:0|0:0,0:0:0:0:
171,162,173283,1,8,1:2:0:0:
256,320,173467,1,2,0:0:0:0:
256,339,173559,1,0,1:0:0:0:
256,358,173651,1,2,0:0:0:0:
376,238,173836,1,0,1:0:0:0:
134,344,174020,2,0,P|126:311|110:283,1,65.9999979858399,8|0,1:2|0:0,0:0:0:0:
0,185,174204,5,2,0:0:0:0:
0,185,174296,1,2,0:0:0:0:
0,185,174388,5,0,1:0:0:0:
76,210,174480,1,0,0:0:0:0:
122,145,174572,1,2,0:0:0:0:
76,81,174664,1,0,0:0:0:0:
0,106,174756,1,8,1:2:0:0:
173,277,174940,5,2,0:0:0:0:
236,280,175032,1,0,0:0:0:0:
258,220,175124,1,0,0:0:0:0:
209,180,175216,1,0,0:0:0:0:
156,215,175308,1,0,1:0:0:0:
343,323,175492,5,8,1:2:0:0:
391,311,175584,1,0,0:0:0:0:
396,260,175676,1,2,0:0:0:0:
350,239,175768,1,0,0:0:0:0:
316,278,175860,6,0,L|378:297,1,65.9999979858399,0|0,1:0|0:0,0:0:0:0:
450,364,176044,2,0,L|512:383,1,65.9999979858399,2|0,0:0|0:0,0:0:0:0:
316,106,176228,6,0,L|378:86,1,65.9999979858399,8|0,1:2|0:0,0:0:0:0:
450,20,176412,2,0,L|512:0,1,65.9999979858399,2|0,0:0|1:0,0:0:0:0:
196,278,176596,6,0,L|133:297,1,65.9999979858399,2|0,0:0|1:0,0:0:0:0:
62,20,176780,2,0,L|0:0,1,65.9999979858399,0|0,1:2|0:0,0:0:0:0:
62,364,176964,6,0,L|0:383,1,65.9999979858399,8|0,1:2|0:0,0:0:0:0:
196,106,177148,2,0,L|133:86,1,65.9999979858399,2|2,0:0|0:0,0:0:0:0:
17,252,177332,5,0,1:2:0:0:
11,295,177424,1,0,0:0:0:0:
30,334,177516,1,0,0:0:0:0:
70,351,177609,1,0,0:0:0:0:
112,343,177701,1,8,1:2:0:0:
141,310,177793,1,0,0:0:0:0:
145,268,177885,1,0,0:0:0:0:
122,231,177977,1,0,0:0:0:0:
86,212,178069,5,2,0:0:0:0:
131,230,178161,1,2,0:0:0:0:
157,271,178253,1,0,1:0:0:0:
153,319,178345,1,0,0:0:0:0:
120,355,178437,1,8,1:2:0:0:
72,366,178529,1,0,0:0:0:0:
28,345,178621,1,2,0:0:0:0:
6,303,178713,1,0,0:0:0:0:
8,257,178805,5,0,1:0:0:0:
0,311,178897,1,0,0:0:0:0:
26,358,178989,1,2,0:0:0:0:
75,381,179081,1,0,0:0:0:0:
128,370,179173,1,8,1:2:0:0:
165,330,179265,1,0,0:0:0:0:
169,276,179357,1,2,0:0:0:0:
141,229,179449,1,0,1:0:0:0:
91,209,179541,5,2,0:0:0:0:
136,255,179633,1,0,0:0:0:0:
198,278,179725,1,0,1:0:0:0:
263,273,179817,1,0,0:0:0:0:
319,239,179909,1,8,1:2:0:0:
356,185,180001,1,0,0:0:0:0:
366,121,180093,1,2,0:0:0:0:
347,58,180185,1,0,0:0:0:0:
304,9,180277,5,0,1:2:0:0:
208,375,180461,1,2,0:0:0:0:
213,68,180645,5,8,1:2:0:0:
299,316,180829,1,2,0:0:0:0:
73,144,181013,5,2,0:0:0:0:
439,240,181197,1,0,1:0:0:0:
132,235,181382,5,8,1:2:0:0:
380,149,181566,1,2,0:0:0:0:
256,319,181750,6,0,P|272:291|277:258,1,65.9999979858399,6|0,1:3|0:0,0:0:0:0:
145,128,181934,2,0,P|161:156|187:176,1,65.9999979858399,0|0,1:0|0:0,0:0:0:0:
366,127,182118,2,0,P|334:128|303:140,1,65.9999979858399,8|0,1:2|0:0,0:0:0:0:
201,180,182302,5,2,0:0:0:0:
273,245,182394,1,0,1:0:0:0:
293,150,182486,1,2,0:0:0:0:
229,200,182578,5,0,1:0:0:0:
276,210,182670,1,0,1:0:0:0:
261,164,182762,1,2,0:0:0:0:
256,192,182854,6,0,L|256:288,1,82.5,8|0,1:2|0:0,0:0:0:0:
164,313,183222,6,0,B|134:344|134:344|256:374|377:344|377:344|347:313,1,330,0|0,0:0|0:0,0:0:0:0:
113,260,183590,6,0,B|58:314,1,65.9999979858399,8|0,1:2|0:0,0:0:0:0:
399,260,183774,1,0,0:0:0:0:
399,260,183866,1,0,0:0:0:0:
399,260,183958,2,0,B|453:314,1,65.9999979858399,0|0,0:0|0:0,0:0:0:0:
256,126,184142,2,0,L|256:192,1,65.9999979858399,0|0,1:0|0:0,0:0:0:0:
256,268,184326,2,0,B|262:221|262:221|250:170|250:170|265:123|265:123|256:74,1,197.99999395752,8|0,1:2|0:0,0:0:0:0:
256,0,184694,6,0,L|256:352,1,330,0|0,0:0|0:0,0:0:0:0:
164,379,185062,6,0,L|164:313,1,65.9999979858399,8|0,1:2|0:0,0:0:0:0:
348,225,185247,1,0,0:0:0:0:
348,225,185339,1,0,0:0:0:0:
348,225,185431,2,0,L|348:159,1,65.9999979858399,0|0,0:2|0:0,0:0:0:0:
164,71,185615,2,0,L|164:5,1,65.9999979858399,0|0,1:0|0:0,0:0:0:0:
0,192,185799,6,0,L|31:217,1,32.99999899292,2|0,0:0|0:0,0:0:0:0:
32,192,185891,2,0,L|63:217,1,32.99999899292,2|0,0:0|0:0,0:0:0:0:
64,192,185983,2,0,L|95:217,1,32.99999899292,0|0,0:0|0:0,0:0:0:0:
96,192,186075,2,0,L|127:217,1,32.99999899292,2|0,0:0|0:0,0:0:0:0:
128,192,186167,6,0,B|155:214|155:214|420:173|420:173|444:192,1,330,0|0,0:0|0:0,0:0:0:0:
499,245,186535,6,0,P|494:277|477:305,1,65.9999979858399,8|0,1:2|0:0,0:0:0:0:
311,110,186719,1,0,0:0:0:0:
311,110,186811,1,0,0:0:0:0:
311,110,186903,2,0,P|301:78|280:53,1,65.9999979858399,0|0,0:0|0:0,0:0:0:0:
152,342,187087,2,0,P|130:317|121:285,1,65.9999979858399,0|0,1:0|0:0,0:0:0:0:
57,23,187271,5,8,1:2:0:0:
74,64,187363,1,0,0:0:0:0:
70,110,187455,1,0,0:0:0:0:
49,150,187547,1,0,0:0:0:0:
11,177,187639,6,0,B|-5:138|24:100|68:99|96:128|103:164|76:188|76:188|61:203|53:234|84:266|124:259|142:223|128:197,1,330,0|0,0:0|0:0,0:0:0:0:
99,213,188007,5,8,1:2:0:0:
205,192,188191,2,0,P|208:224|199:256,1,65.9999979858399,0|0,0:0|0:0,0:0:0:0:
307,357,188375,1,0,0:0:0:0:
307,357,188467,1,0,0:0:0:0:
307,357,188559,2,0,P|298:325|301:292,1,65.9999979858399,0|0,1:0|0:0,0:0:0:0:
413,213,188743,1,8,1:2:0:0:
425,210,188928,1,10,0:3:0:0:
228,359,189112,6,0,B|209:271|267:206|267:206|327:142|304:54,1,330,0|0,0:0|0:0,0:0:0:0:
232,18,189480,6,0,P|225:50|231:82,1,65.9999979858399,8|0,1:2|0:0,0:0:0:0:
326,284,189664,1,0,0:0:0:0:
326,284,189756,1,0,0:0:0:0:
326,284,189848,2,0,P|332:316|326:348,1,65.9999979858399,0|0,0:0|0:0,0:0:0:0:
187,192,190032,2,0,L|121:192,1,65.9999979858399,0|0,1:0|0:0,0:0:0:0:
41,192,190216,2,0,B|113:192|113:192|137:204|137:204|161:192|161:192|234:192,1,197.99999395752,0|0,1:2|0:0,0:0:0:0:
385,226,190584,6,0,B|486:182|480:52|427:8|328:9|325:117|375:141|396:155,1,330,0|0,0:0|0:0,0:0:0:0:
475,262,190952,6,0,P|489:291|490:324,1,65.9999979858399,8|0,1:2|0:0,0:0:0:0:
376,137,191136,1,0,0:0:0:0:
376,137,191228,1,0,0:0:0:0:
376,137,191320,2,0,P|377:104|391:74,1,65.9999979858399,0|0,0:0|0:0,0:0:0:0:
414,312,191504,2,0,L|326:306,1,65.9999979858399,0|0,1:0|0:0,0:0:0:0:
53,270,191688,6,0,L|65:232,1,32.99999899292,2|0,0:0|0:0,0:0:0:0:
60,300,191780,2,0,L|39:263,1,32.99999899292,2|0,0:0|0:0,0:0:0:0:
84,323,191872,2,0,L|41:299,1,32.99999899292,0|0,0:0|0:0,0:0:0:0:
108,345,191964,2,0,L|78:294,1,32.99999899292,2|0,0:0|0:0,0:0:0:0:
115,376,192056,6,0,B|103:279|186:242|192:240|199:239|282:202|270:105,1,330,0|0,0:0|0:0,0:0:0:0:
217,47,192424,6,0,L|91:19,1,65.9999979858399,8|0,1:2|0:0,0:0:0:0:
413,167,192609,1,0,0:0:0:0:
413,167,192701,1,0,0:0:0:0:
413,167,192793,2,0,L|287:139,1,65.9999979858399,0|0,0:0|0:0,0:0:0:0:
52,178,192977,2,0,L|116:192,1,65.9999979858399,0|0,1:0|0:0,0:0:0:0:
193,210,193161,1,8,1:2:0:0:
7,97,193345,1,0,0:0:0:0:
115,376,193529,5,6,1:3:0:0:
119,357,193713,1,10,0:3:0:0:
204,0,193897,2,0,L|216:66,1,65.9999979858399,8|0,1:2|0:0,0:0:0:0:
337,63,194081,5,0,0:0:0:0:
318,68,194173,2,0,L|295:129,1,65.9999979858399,0|0,1:0|0:3,0:0:0:0:
165,150,194357,5,10,0:3:0:0:
184,155,194449,2,0,L|217:211,1,65.9999979858399,0|0,1:0|0:0,0:0:0:0:
357,231,194633,5,0,0:0:0:0:
338,236,194725,6,0,L|295:286,1,65.9999979858399,6|0,1:3|0:0,0:0:0:0:
256,352,195001,5,4,0:1:0:0:
3,382,195553,1,4,0:1:0:0:
509,382,196105,1,4,0:1:0:0:
133,315,196658,1,4,0:1:0:0:
379,315,197210,1,4,0:1:0:0:
256,128,197578,1,0,0:0:0:0:
2,382,197946,6,0,B|34:374|57:374|57:374|81:330|81:330|113:318|133:314|133:314|168:124|168:124|153:120|137:112|137:112|145:96|145:96|121:100|121:100|129:21|129:21|153:13|160:17|160:17|168:65|168:65|208:57|228:57|228:57|232:1|232:1|256:-2|279:1|279:1|283:57|283:57|303:57|343:65|343:65|351:17|351:17|358:13|382:21|382:21|390:100|390:100|366:96|366:96|374:112|374:112|357:121|343:124|343:124|378:314|378:314|398:318|430:330|430:330|454:374|454:374|477:374|509:382,1,1452.00004431153,4|0,0:1|0:0,0:0:0:0:
