osu file format v14

[General]
AudioFilename: audio.mp3
AudioLeadIn: 0
PreviewTime: 159553
Countdown: 0
SampleSet: Soft
StackLeniency: 0.5
Mode: 0
LetterboxInBreaks: 0
WidescreenStoryboard: 1

[Editor]
Bookmarks: 197927,208234
DistanceSpacing: 2.2
BeatDivisor: 8
GridSize: 32
TimelineZoom: 4.099998

[Metadata]
Title:Boiling Blood
TitleUnicode:Boiling Blood
Artist:Monster Siren Records
ArtistUnicode:塞壬唱片-MSR
Creator:Yugu
Version:Insane
Source:明日方舟
Tags:English Dnb Arknights アークナイツ DreaM117er m1223961117 [Mahua] EP Cristina Vee Jason Walsh
BeatmapID:2293343
BeatmapSetID:1093948

[Difficulty]
HPDrainRate:6
CircleSize:4.2
OverallDifficulty:8
ApproachRate:9
SliderMultiplier:1.8
SliderTickRate:1

[Events]
//Background and Video events
0,0,"75520296_p0.jpg",0,0
//Break Periods
//Storyboard Layer 0 (Background)
//Storyboard Layer 1 (Fail)
//Storyboard Layer 2 (Pass)
//Storyboard Layer 3 (Foreground)
//Storyboard Layer 4 (Overlay)
//Storyboard Sound Samples

[TimingPoints]
5063,368.098159509202,4,2,1,65,1,0
5063,-200,4,2,1,65,0,0
6535,-200,4,2,3,65,0,0
7455,-200,4,2,1,65,0,0
8743,-100,4,2,1,65,0,0
9480,-200,4,2,1,65,0,0
19050,-200,4,2,3,65,0,0
19234,-100,4,2,1,65,0,0
19786,-200,4,2,1,65,0,0
22731,-200,4,2,1,65,0,0
28253,-100,4,2,2,65,0,0
28621,-83.3333333333333,4,2,1,85,0,0
29173,-100,4,2,1,85,0,0
30093,-100,4,2,1,85,0,0
30645,-100,4,2,1,85,0,0
31750,-100,4,2,52,85,0,0
31842,-100,4,2,1,85,0,0
34510,-83.3333333333333,4,2,1,85,0,0
35062,-100,4,2,1,85,0,0
35983,-100,4,2,1,85,0,0
36535,-100,4,2,1,85,0,0
37639,-100,4,2,52,85,0,0
37731,-100,4,2,1,85,0,0
40032,-83.3333333333333,4,2,4,85,0,0
40400,-100,4,2,1,85,0,0
48682,-100,4,2,51,85,0,0
48774,-100,4,2,1,85,0,0
48866,-100,4,2,51,85,0,0
48958,-100,4,2,1,85,0,0
51995,-100,4,2,3,85,0,0
52179,-100,4,2,1,85,0,0
60461,-100,4,2,51,85,0,0
60553,-100,4,2,1,85,0,0
60645,-100,4,2,51,85,0,0
60737,-100,4,2,1,85,0,0
63958,-83.3333333333333,4,2,1,95,0,0
64326,-100,4,2,1,95,0,0
65247,-100,4,2,52,95,0,0
65339,-100,4,2,1,95,0,0
65431,-83.3333333333333,4,2,1,95,0,0
65799,-100,4,2,1,95,0,0
66535,-100,4,2,3,95,0,0
66903,-83.3333333333333,4,2,1,95,0,0
67087,-83.3333333333333,4,2,52,95,0,0
67179,-83.3333333333333,4,2,1,95,0,0
67271,-100,4,2,1,95,0,0
68191,-83.3333333333333,4,2,52,95,0,0
68283,-83.3333333333333,4,2,1,95,0,0
68375,-83.3333333333333,4,2,1,95,0,0
68743,-100,4,2,1,95,0,0
69480,-100,4,2,2,95,0,0
69664,-100,4,2,1,95,0,0
69848,-83.3333333333333,4,2,1,95,0,0
70216,-100,4,2,1,95,0,0
71136,-83.3333333333333,4,2,52,95,0,0
71228,-83.3333333333333,4,2,1,95,0,0
71320,-83.3333333333333,4,2,1,95,0,0
71688,-100,4,2,1,95,0,0
72424,-100,4,2,3,95,0,0
72793,-83.3333333333333,4,2,1,95,0,0
72977,-83.3333333333333,4,2,52,95,0,0
73069,-83.3333333333333,4,2,1,95,0,0
73161,-100,4,2,1,95,0,0
75461,-100,4,2,1,95,0,0
75737,-125,4,2,1,65,0,0
77210,-100,4,2,1,75,0,0
81627,-125,4,2,1,65,0,0
83099,-100,4,2,1,75,0,0
87516,-125,4,2,1,65,0,0
88068,-100,4,2,1,65,0,0
88621,-100,4,2,1,65,0,0
88989,-100,4,2,1,75,0,0
93406,-125,4,2,1,65,0,0
93958,-125,4,2,1,65,0,0
94511,-125,4,2,1,65,0,0
94878,-100,4,2,1,75,0,0
99664,-100,4,2,1,55,0,0
100768,-83.3333333333333,4,2,1,85,0,0
101136,-100,4,2,1,85,0,0
105001,-100,4,2,3,85,0,0
105185,-100,4,2,1,85,0,0
106658,-83.3333333333333,4,2,1,85,0,0
107026,-100,4,2,1,85,0,0
111075,-100,4,2,1,85,0,0
112179,-83.3333333333333,4,2,1,85,0,0
112547,-83.3333333333333,4,2,1,85,0,0
113099,-100,4,2,1,85,0,0
116228,-100,4,2,1,85,0,0
116412,-100,4,2,1,85,0,0
116596,-100,4,2,1,85,0,0
116780,-100,4,2,1,85,0,0
116964,-100,4,2,1,85,0,0
117516,-100,4,2,1,85,0,0
118437,-83.3333333333333,4,2,1,85,0,0
118989,-100,4,2,1,85,0,0
120277,-100,4,2,1,85,0,0
120461,-100,4,2,1,85,0,0
123958,-83.3333333333333,4,2,1,85,0,0
124326,-125,4,2,1,75,0,0
124878,-100,4,2,1,75,0,0
125431,-100,4,2,1,75,0,0
130216,-125,4,2,1,75,0,0
130768,-100,4,2,1,75,0,0
131321,-100,4,2,1,75,0,0
135369,-100,4,2,1,55,0,0
136105,-100,4,2,1,85,0,0
137394,-100,4,2,52,85,0,0
137486,-100,4,2,1,85,0,0
138866,-100,4,2,52,85,0,0
138958,-100,4,2,1,85,0,0
141811,-100,4,2,52,85,0,0
141903,-100,4,2,1,85,0,0
143283,-100,4,2,52,85,0,0
143375,-100,4,2,1,85,0,0
149173,-100,4,2,52,85,0,0
149265,-100,4,2,1,85,0,0
150645,-100,4,2,52,85,0,0
150737,-100,4,2,1,85,0,0
153590,-100,4,2,52,85,0,0
153682,-100,4,2,1,85,0,0
155062,-100,4,2,52,85,0,0
155154,-100,4,2,1,85,0,0
159664,-83.3333333333333,4,2,1,95,0,0
159756,-83.3333333333333,4,2,1,95,0,0
165829,-83.3333333333333,4,2,1,95,0,0
165921,-83.3333333333333,4,2,54,95,0,0
166013,-83.3333333333333,4,2,1,95,0,0
166289,-100,4,2,1,95,0,0
166566,-83.3333333333333,4,2,1,95,0,0
166658,-83.3333333333333,4,2,54,95,0,0
166750,-83.3333333333333,4,2,1,95,0,0
167026,-125,4,2,1,95,0,0
167302,-83.3333333333333,4,2,1,95,0,0
167394,-83.3333333333333,4,2,54,95,0,0
167486,-83.3333333333333,4,2,1,95,0,0
167762,-166.666666666667,4,2,1,95,0,0
168038,-83.3333333333333,4,2,1,95,0,0
168130,-83.3333333333333,4,2,54,95,0,0
168222,-83.3333333333333,4,2,1,95,0,0
168498,-100,4,2,1,95,0,0
169970,-83.3333333333333,4,2,1,95,0,0
182854,-100,4,2,1,95,0,0
183222,-83.3333333333333,4,2,1,85,0,0
183590,-100,4,2,1,85,0,0
184510,-100,4,2,52,85,0,0
184602,-100,4,2,1,85,0,0
184694,-83.3333333333333,4,2,1,85,0,0
185062,-100,4,2,1,85,0,0
185799,-100,4,2,3,85,0,0
186167,-83.3333333333333,4,2,1,85,0,0
186351,-100,4,2,52,85,0,0
186443,-100,4,2,1,85,0,0
186535,-100,4,2,1,85,0,0
187639,-83.3333333333333,4,2,1,85,0,0
188007,-100,4,2,1,85,0,0
189112,-83.3333333333333,4,2,1,85,0,0
189480,-100,4,2,1,85,0,0
190400,-100,4,2,52,85,0,0
190492,-100,4,2,1,85,0,0
190584,-83.3333333333333,4,2,1,85,0,0
190952,-100,4,2,1,85,0,0
191688,-100,4,2,3,85,0,0
192056,-83.3333333333333,4,2,1,85,0,0
192424,-100,4,2,1,85,0,0
194725,-100,4,2,1,85,0,0
197946,-100,4,2,1,75,0,0
199418,-100,4,2,1,65,0,0
200891,-100,4,2,1,55,0,0
202363,-100,4,2,1,45,0,0
203836,-100,4,2,1,35,0,0
205308,-100,4,2,1,25,0,0
206780,-100,4,2,1,5,0,0

[Colours]
Combo1 : 176,176,176
Combo2 : 152,206,250
Combo3 : 234,137,123

[HitObjects]
36,146,5063,6,0,L|216:121,1,180,4|0,1:1|0:0,0:0:0:0:
324,20,6535,2,0,B|341:50|336:60|336:60|311:72|305:95|305:95|334:110|334:131|334:131|304:140|304:159|304:159|329:181,1,202.5,0|0,0:0|0:0,0:0:0:0:
328,196,7455,6,0,L|337:276,2,67.5,0|4|4,1:0|0:0|0:1,0:0:0:0:
126,346,8743,1,0,1:0:0:0:
126,346,8928,2,0,L|117:292,1,45,0|0,0:0|1:0,0:0:0:0:
25,195,9204,2,0,L|16:141,2,45,0|2|2,0:0|0:3|0:3,0:0:0:0:
10,212,9480,6,0,P|53:204|97:215,1,90,4|10,0:1|0:3,0:0:0:0:
178,254,10032,2,0,P|221:262|265:251,1,90,0|10,0:0|0:3,0:0:0:0:
331,190,10584,2,0,P|363:181|396:187,1,67.5,4|0,0:1|0:0,0:0:0:0:
421,224,10952,6,0,L|442:35,1,180,4|0,1:1|0:0,0:0:0:0:
247,19,12424,1,10,0:3:0:0:
183,88,12609,1,0,1:0:0:0:
183,88,12701,1,0,1:0:0:0:
183,88,12793,1,2,2:3:0:0:
183,88,12885,1,0,1:0:0:0:
183,88,12977,2,0,P|234:162|246:250,1,180,4|8,1:0|0:0,0:0:0:0:
199,354,13897,6,0,L|20:326,1,180,4|0,0:1|0:0,0:0:0:0:
340,254,15369,2,0,L|352:337,1,67.5,10|10,0:3|0:3,0:0:0:0:
377,341,15737,1,0,1:0:0:0:
490,285,15921,1,4,0:0:0:0:
490,285,16289,1,10,0:3:0:0:
357,235,16474,1,12,0:0:0:0:
357,235,16842,6,0,P|370:149|448:112,1,180,4|0,1:0|0:0,0:0:0:0:
316,44,17946,1,0,0:0:0:0:
202,129,18314,2,0,B|191:154|193:180|193:180|226:174|237:188|237:188|214:215|214:228|214:228|241:236|256:252,1,180,0|2,1:0|1:2,0:0:0:0:
187,316,19234,6,0,L|185:365,1,45,0|0,0:0|1:0,0:0:0:0:
96,283,19510,2,0,L|94:332,1,45,0|0,0:0|1:0,0:0:0:0:
5,250,19786,6,0,P|25:193|135:146,1,180,4|0,0:1|1:0,0:0:0:0:
249,127,20707,1,0,0:0:0:0:
249,127,20799,1,0,1:0:0:0:
249,127,20891,1,0,0:0:0:0:
249,127,20983,1,2,0:3:0:0:
249,127,21075,1,2,0:3:0:0:
249,127,21167,1,0,0:0:0:0:
249,127,21259,6,0,P|294:129|335:111,1,90,4|0,0:1|1:0,0:0:0:0:
357,86,21719,1,0,1:0:0:0:
357,86,21811,2,0,L|354:165,1,67.5,4|0,0:1|0:0,0:0:0:0:
374,180,22179,1,0,1:0:0:0:
374,180,22271,2,0,P|418:178|459:196,1,90,0|0,1:0|0:0,0:0:0:0:
480,241,22731,6,0,P|456:323|371:337,1,180,4|0,1:0|0:0,0:0:0:0:
256,224,23836,1,0,0:0:0:0:
141,337,24204,1,10,0:3:0:0:
49,294,24388,1,10,0:3:0:0:
49,294,24480,1,10,0:3:0:0:
49,294,24572,1,10,0:3:0:0:
49,294,24664,1,10,0:3:0:0:
49,294,24756,2,0,P|82:228|80:147,1,135,4|0,1:0|0:0,0:0:0:0:
19,37,25676,6,0,L|207:53,1,180,4|0,1:1|0:0,0:0:0:0:
256,192,26780,1,0,0:0:0:0:
314,52,27148,2,0,P|363:43|442:97,1,135,4|4,0:1|1:0,0:0:0:0:
462,306,28069,1,0,0:0:0:0:
443,177,28253,6,0,P|391:217|387:282,1,135,8|0,0:0|0:0,0:0:0:0:
462,306,28621,6,0,B|272:286|272:286|292:323,1,215.999993408203,4|8,0:0|1:3,0:0:0:0:
98,134,29173,2,0,L|87:187,1,45,0|0,0:0|0:0,0:0:0:0:
59,200,29357,1,0,0:0:0:0:
103,199,29449,1,0,0:0:0:0:
144,218,29541,1,0,0:0:0:0:
173,251,29633,1,0,0:0:0:0:
186,294,29725,2,0,L|66:310,1,90,8|0,0:0|0:0,0:0:0:0:
256,192,30093,5,0,0:0:0:0:
256,192,30277,1,0,0:0:0:0:
256,192,30461,1,8,1:3:0:0:
436,184,30645,5,0,0:0:0:0:
392,185,30737,1,0,0:0:0:0:
351,166,30829,1,0,0:0:0:0:
322,133,30921,1,0,0:0:0:0:
309,90,31013,1,0,0:0:0:0:
442,63,31197,5,8,0:0:0:0:
455,61,31289,1,0,0:0:0:0:
468,60,31382,1,0,0:0:0:0:
481,59,31474,1,0,0:0:0:0:
494,58,31566,6,0,L|293:44,1,180,0|8,0:0|1:3,0:0:0:0:
133,1,32118,1,0,0:0:0:0:
139,45,32210,1,0,0:0:0:0:
146,90,32302,1,0,0:0:0:0:
152,134,32394,1,0,0:0:0:0:
159,179,32486,2,0,L|150:237,1,45,0|0,0:0|0:0,0:0:0:0:
141,297,32670,2,0,L|132:355,3,45,8|0|0|0,0:0|0:0|0:0|0:0,0:0:0:0:
206,384,33038,5,0,0:0:0:0:
206,384,33222,1,0,0:0:0:0:
206,384,33406,1,8,1:3:0:0:
325,310,33590,5,0,0:0:0:0:
340,267,33682,1,0,0:0:0:0:
369,233,33774,1,0,0:0:0:0:
408,212,33866,1,0,0:0:0:0:
452,206,33958,1,0,0:0:0:0:
495,79,34142,2,0,L|373:61,1,90,8|0,0:0|0:0,0:0:0:0:
261,21,34510,6,0,B|241:-2|241:-2|252:199,1,215.999993408203,4|8,0:0|1:3,0:0:0:0:
75,353,35062,2,0,L|4:342,1,45,0|0,0:0|0:0,0:0:0:0:
0,315,35247,1,0,0:0:0:0:
3,270,35339,1,0,0:0:0:0:
32,237,35431,1,0,0:0:0:0:
75,228,35523,1,0,0:0:0:0:
114,246,35615,2,0,P|157:252|196:231,1,90,8|0,0:0|0:0,0:0:0:0:
54,90,35983,5,0,0:0:0:0:
54,90,36167,1,0,0:0:0:0:
54,90,36351,1,8,1:3:0:0:
151,16,36535,5,0,0:0:0:0:
148,60,36627,1,0,0:0:0:0:
170,99,36719,1,0,0:0:0:0:
209,119,36811,1,0,0:0:0:0:
253,116,36903,1,0,0:0:0:0:
349,61,37087,5,8,0:0:0:0:
362,59,37179,1,0,0:0:0:0:
375,58,37271,1,0,0:0:0:0:
388,57,37363,1,0,0:0:0:0:
401,56,37455,6,0,L|389:252,1,180,0|8,0:0|1:3,0:0:0:0:
457,364,38007,1,0,0:0:0:0:
428,329,38099,1,0,0:0:0:0:
388,308,38191,1,0,0:0:0:0:
344,305,38283,1,0,0:0:0:0:
301,318,38375,2,0,P|283:331|262:338,1,45,0|0,0:0|0:0,0:0:0:0:
175,326,38559,2,0,L|65:311,1,90,8|0,0:0|0:0,0:0:0:0:
8,100,38928,5,0,1:0:0:0:
68,169,39112,2,0,L|121:161,2,45,0|0|10,0:0|1:0|0:3,0:0:0:0:
239,247,39480,5,0,1:0:0:0:
299,178,39664,2,0,L|352:186,2,45,0|2|2,1:0|0:3|0:3,0:0:0:0:
495,84,40032,2,0,L|324:102,1,161.999995056153,10|0,0:0|0:0,0:0:0:0:
322,79,40400,6,0,P|280:67|248:36,1,90,0|0,0:0|0:0,0:0:0:0:
155,107,40768,2,0,P|112:119|80:150,1,90,8|0,1:2|0:0,0:0:0:0:
21,317,41136,2,0,L|11:189,2,90,0|0|2,0:0|0:0|1:3,0:0:0:0:
116,274,41688,2,0,B|202:241|222:323|222:323|284:377|342:306|342:306|376:276|419:303|419:303|444:323|471:308|471:308|499:297|519:309,1,450,0|0,0:0|0:0,0:0:0:0:
386,373,42793,1,0,0:0:0:0:
456,195,42977,1,8,1:2:0:0:
456,195,43345,6,0,P|418:174|401:133,1,90,0|0,0:0|0:0,0:0:0:0:
305,37,43713,2,0,L|407:28,1,90,8|0,1:2|0:0,0:0:0:0:
256,124,44081,2,0,L|154:115,2,90,0|0|2,0:0|0:0|1:3,0:0:0:0:
175,191,44633,2,0,P|90:108|189:44,1,270,0|8,0:0|1:2,0:0:0:0:
282,195,45369,1,2,1:3:0:0:
282,195,45461,2,0,L|264:255,1,45,0|0,0:0|0:0,0:0:0:0:
223,296,45645,2,0,L|241:356,1,45,0|2,0:0|1:3,0:0:0:0:
61,281,45921,2,0,L|161:305,1,90,10|0,1:3|0:0,0:0:0:0:
341,370,46289,5,0,0:0:0:0:
341,370,46474,2,0,P|385:364|422:339,1,90,0|8,0:0|1:2,0:0:0:0:
481,214,46842,2,0,L|486:304,1,90,0|0,0:0|0:0,0:0:0:0:
475,142,47210,2,0,L|468:12,1,90,8|8,1:3|1:2,0:0:0:0:
355,6,47578,2,0,B|341:148|341:148|346:155|346:155|333:279|333:279|340:286|340:286|331:374,1,360,0|0,0:0|0:0,0:0:0:0:
179,359,48498,2,0,B|172:286|172:286|179:279|179:279|166:155|166:155|171:148|171:148|160:50,1,315,0|0,0:0|0:0,0:0:0:0:
135,25,49234,6,0,L|11:8,1,90,0|0,0:0|0:0,0:0:0:0:
89,136,49602,2,0,L|-35:119,1,90,8|0,1:2|0:0,0:0:0:0:
248,178,49970,2,0,L|372:161,2,90,0|0|8,0:0|1:0|1:2,0:0:0:0:
341,268,50523,2,0,P|383:282|414:314,1,90,0|0,0:0|0:0,0:0:0:0:
503,174,50891,6,0,L|488:279,1,90,0|8,0:0|1:2,0:0:0:0:
506,304,51167,1,0,0:0:0:0:
480,341,51259,1,0,0:0:0:0:
440,360,51351,1,0,0:0:0:0:
396,355,51443,2,0,L|331:346,2,45,0|0|0,0:0|0:0|0:0,0:0:0:0:
243,287,51811,1,8,1:2:0:0:
198,292,51903,1,2,1:3:0:0:
153,298,51995,1,2,1:2:0:0:
52,189,52179,6,0,P|59:145|85:109,1,90,0|0,0:0|0:0,0:0:0:0:
183,20,52547,2,0,L|195:126,1,90,8|0,1:2|0:0,0:0:0:0:
318,109,52915,2,0,L|329:20,2,90,0|0|2,0:0|0:0|1:3,0:0:0:0:
303,192,53467,2,0,B|256:223|240:270|224:317|224:317|224:364|256:380|256:380|287:364|287:317|287:317|271:270|256:223|208:192,1,450,0|0,0:0|0:0,0:0:0:0:
159,257,54572,1,0,0:0:0:0:
353,257,54756,1,8,1:2:0:0:
353,257,55124,6,0,P|388:230|431:217,1,90,0|0,0:0|0:0,0:0:0:0:
501,103,55492,2,0,L|395:85,1,90,8|0,1:2|0:0,0:0:0:0:
242,116,55860,2,0,L|136:98,2,90,0|0|2,0:0|0:0|1:3,0:0:0:0:
404,14,56412,2,0,B|327:13|330:102|330:102|333:198|253:196,1,270,0|8,0:0|1:2,0:0:0:0:
147,240,57148,1,0,0:0:0:0:
147,240,57240,2,0,L|165:300,1,45,0|0,0:0|0:0,0:0:0:0:
206,341,57424,2,0,L|188:401,1,45,0|0,0:0|1:0,0:0:0:0:
368,326,57701,2,0,L|268:350,1,90,8|0,1:2|0:0,0:0:0:0:
51,371,58069,5,0,1:0:0:0:
51,371,58253,2,0,L|73:267,1,90,0|8,0:0|1:2,0:0:0:0:
69,101,58621,2,0,L|51:13,1,90,0|0,0:0|0:0,0:0:0:0:
128,192,58989,2,0,L|224:192,1,90,0|8,1:0|1:2,0:0:0:0:
157,7,59357,2,0,B|184:86|171:148|171:148|166:155|166:155|157:245|179:279|179:279|172:286|172:286|207:301|214:338,1,360,0|0,0:0|0:0,0:0:0:0:
297,338,60277,2,0,B|305:301|340:286|340:286|333:279|333:279|355:245|346:155|346:155|341:148|341:148|328:86|359:23,1,315,0|0,0:0|0:0,0:0:0:0:
375,27,61013,6,0,P|419:33|455:59,1,90,0|0,0:0|0:0,0:0:0:0:
441,192,61382,2,0,P|457:233|452:277,1,90,8|0,1:2|0:0,0:0:0:0:
297,338,61750,2,0,L|191:328,2,90,0|0|8,0:0|1:0|1:2,0:0:0:0:
430,371,62302,2,0,P|411:325|375:275,1,90,0|0,0:0|1:0,0:0:0:0:
125,265,62670,2,0,P|94:298|70:336,1,90,0|8,0:0|1:2,0:0:0:0:
30,357,62946,1,0,0:0:0:0:
74,351,63038,1,0,1:0:0:0:
119,346,63130,1,0,1:0:0:0:
164,341,63222,2,0,L|228:353,1,45,0|2,0:0|1:3,0:0:0:0:
267,291,63406,2,0,L|330:302,1,45,2|0,1:3|0:0,0:0:0:0:
369,240,63590,1,8,0:2:0:0:
369,240,63958,6,2,P|397:180|426:277,1,215.999993408203,2|8,0:1|1:2,0:1:0:0:
229,115,64510,1,0,0:0:0:0:
229,115,64602,1,0,0:0:0:0:
229,115,64694,1,0,0:0:0:0:
264,4,64878,1,0,1:0:0:0:
342,89,65062,2,0,P|381:49|395:104,1,135,8|0,1:2|0:0,0:0:0:0:
403,129,65431,6,2,P|375:189|346:92,1,215.999993408203,2|8,0:1|1:2,0:1:0:0:
227,217,65983,2,0,P|196:203|169:197,1,45,0|0,0:0|0:0,0:0:0:0:
101,143,66167,2,0,P|67:146|40:154,1,45,0|0,0:0|0:0,0:0:0:0:
0,236,66351,1,0,0:0:0:0:
142,306,66535,2,0,L|131:357,1,45,2|2,0:0|0:0,0:0:0:0:
152,316,66719,2,0,L|141:367,1,45,0|2,0:0|0:0,0:0:0:0:
246,301,66903,6,2,P|274:361|303:264,1,215.999993408203,2|8,0:1|1:2,0:1:0:0:
398,151,67455,2,0,P|398:174|393:196,1,45,0|0,0:0|0:0,0:0:0:0:
437,52,67639,2,0,P|448:71|454:92,1,45,0|0,0:0|0:0,0:0:0:0:
326,17,67823,1,0,1:0:0:0:
448,33,68007,2,0,B|406:27|406:27|348:40|348:40|315:35,1,135,8|0,1:3|0:0,0:0:0:0:
291,47,68375,6,2,P|263:107|234:10,1,215.999993408203,2|8,0:1|1:2,0:1:0:0:
24,127,68928,1,0,0:0:0:0:
24,127,69020,1,0,0:0:0:0:
24,127,69112,1,0,0:0:0:0:
59,238,69296,1,0,0:0:0:0:
137,153,69480,1,8,1:2:0:0:
137,153,69664,1,0,1:0:0:0:
345,262,69848,6,2,P|324:348|260:285,1,215.999993408203,2|8,0:1|1:2,0:1:0:0:
493,154,70400,1,0,0:0:0:0:
493,154,70492,1,0,0:0:0:0:
493,154,70584,1,0,0:0:0:0:
458,265,70768,1,0,1:0:0:0:
380,180,70952,2,0,P|341:140|327:195,1,135,8|0,1:2|0:0,0:0:0:0:
319,220,71320,6,2,P|347:280|376:183,1,215.999993408203,2|8,0:1|1:2,0:1:0:0:
247,89,71872,2,0,L|182:80,1,45,0|0,0:0|0:0,0:0:0:0:
114,140,72056,2,0,L|49:149,1,45,0|0,0:0|0:0,0:0:0:0:
0,74,72240,1,0,1:0:0:0:
123,0,72424,2,0,L|117:47,1,45,2|2,0:0|0:0,0:0:0:0:
136,10,72609,2,0,L|130:57,1,45,0|2,0:0|0:0,0:0:0:0:
160,210,72793,6,2,P|139:296|75:233,1,215.999993408203,2|8,0:1|1:2,0:1:0:0:
204,365,73345,2,0,P|235:361|253:352,1,45,0|0,0:0|0:0,0:0:0:0:
331,291,73529,2,0,P|362:295|380:304,1,45,0|0,0:0|0:0,0:0:0:0:
464,344,73713,1,0,0:0:0:0:
471,181,73897,2,0,P|410:212|386:161,1,135,8|0,1:2|0:0,0:0:0:0:
410,128,74265,5,2,1:3:0:0:
335,271,74449,1,2,1:3:0:0:
348,65,74633,5,0,1:0:0:0:
273,208,74817,1,0,0:0:0:0:
273,208,74909,2,0,L|213:195,1,45,0|0,1:0|0:0,0:0:0:0:
149,141,75093,1,0,0:0:0:0:
149,141,75185,2,0,L|89:154,3,45,2|0|0|0,1:3|0:0|3:0|1:0,0:0:0:0:
15,362,75737,6,0,P|110:312|217:309,2,216,4|4|4,1:0|1:0|1:0,0:0:0:0:
274,243,77210,6,0,P|339:258|393:298,1,135,4|0,1:0|0:0,0:0:0:0:
406,341,77578,2,0,L|423:236,1,90,8|0,1:2|1:0,0:0:0:0:
420,252,77946,1,0,0:0:0:0:
509,195,78130,2,0,L|475:-12,1,180,8|0,1:2|1:3,0:0:0:0:
358,76,78682,5,2,1:3:0:0:
358,76,79050,2,0,P|308:81|241:52,1,90,8|0,1:2|1:0,0:0:0:0:
270,70,79418,1,0,0:0:0:0:
161,4,79602,2,0,L|127:211,1,180,8|0,1:2|1:3,0:0:0:0:
20,234,80155,5,2,1:3:0:0:
20,234,80523,2,0,P|62:247|94:279,1,90,8|0,1:2|0:0,0:0:0:0:
90,323,80799,1,2,0:3:0:0:
90,323,80891,1,2,1:3:0:0:
208,301,81075,2,0,P|259:299|349:200,1,180,8|0,1:2|1:0,0:0:0:0:
254,101,81627,6,0,L|97:82,1,144,4|8,1:0|1:2,0:0:0:0:
291,28,82179,2,0,L|134:9,1,144,4|8,1:0|1:2,0:0:0:0:
23,110,82731,2,0,P|14:162|30:213,1,108,4|0,1:0|0:0,0:0:0:0:
70,234,83099,6,0,L|57:379,1,135,4|0,1:0|0:0,0:0:0:0:
101,355,83467,5,8,1:2:0:0:
256,282,83743,1,0,1:0:0:0:
411,355,84020,2,0,L|394:170,1,180,8|0,1:2|1:3,0:0:0:0:
475,66,84572,5,2,1:3:0:0:
475,66,84940,2,0,P|425:62|378:49,1,90,8|0,1:2|1:0,0:0:0:0:
296,12,85308,1,0,0:0:0:0:
240,120,85492,2,0,P|198:192|120:165,1,180,8|0,1:2|1:0,0:0:0:0:
0,91,86044,5,2,1:3:0:0:
0,91,86412,1,8,1:2:0:0:
100,262,86688,1,0,1:0:0:0:
97,64,86964,2,0,P|162:75|286:78,1,180,8|0,1:2|0:0,0:0:0:0:
396,8,87516,6,0,P|413:42|295:56,2,216,4|4|4,1:0|1:0|1:0,0:0:0:0:
446,188,88989,6,0,P|408:251|406:318,1,135,4|0,1:0|0:0,0:0:0:0:
439,338,89357,2,0,L|325:321,1,90,8|0,1:2|1:0,0:0:0:0:
349,324,89725,1,0,0:0:0:0:
242,261,89909,2,0,L|53:285,1,180,8|0,1:2|1:0,0:0:0:0:
13,135,90461,5,2,1:3:0:0:
13,135,90829,2,0,P|60:157|119:155,1,90,8|0,1:2|1:0,0:0:0:0:
97,159,91197,1,0,0:0:0:0:
229,179,91382,2,0,P|303:132|330:48,1,180,8|0,1:2|1:3,0:0:0:0:
134,4,91934,5,2,1:3:0:0:
134,4,92302,2,0,P|150:45|156:90,1,90,8|0,1:2|0:0,0:0:0:0:
137,131,92578,1,0,1:0:0:0:
137,131,92670,1,0,0:0:0:0:
52,228,92854,2,0,P|28:311|79:382,1,180,8|0,1:2|1:0,0:0:0:0:
245,342,93406,6,0,L|402:323,1,144,4|8,1:0|1:2,0:0:0:0:
252,265,93958,2,0,L|409:246,1,144,4|8,1:0|1:2,0:0:0:0:
259,188,94510,2,0,L|368:174,1,108,4|0,1:0|0:0,0:0:0:0:
410,169,94878,6,0,P|442:107|422:34,1,135,4|0,1:0|0:0,0:0:0:0:
399,11,95247,5,8,1:2:0:0:
256,112,95523,1,0,1:0:0:0:
112,11,95799,6,0,P|69:86|100:168,1,180,8|0,1:2|1:0,0:0:0:0:
177,262,96351,5,2,1:3:0:0:
177,262,96719,2,0,P|182:306|172:350,1,90,8|0,1:2|1:0,0:0:0:0:
84,370,97087,1,0,0:0:0:0:
271,311,97271,2,0,L|467:332,1,180,8|0,1:2|1:0,0:0:0:0:
512,147,97823,5,2,1:3:0:0:
512,147,98191,1,8,1:2:0:0:
294,186,98467,1,0,1:0:0:0:
171,45,98743,2,0,P|259:56|328:112,1,180,8|0,1:2|1:0,0:0:0:0:
328,112,99664,5,8,0:0:0:0:
232,278,99940,5,0,0:0:0:0:
205,274,100032,1,0,0:0:0:0:
178,270,100124,1,0,0:0:0:0:
151,266,100216,1,8,0:0:0:0:
259,294,100400,5,0,0:0:0:0:
214,287,100492,1,0,0:0:0:0:
170,280,100584,1,0,0:0:0:0:
126,274,100676,1,0,0:0:0:0:
75,293,100768,6,0,P|62:195|158:174,1,215.999993408203,4|8,0:0|1:2,0:0:0:0:
272,10,101320,2,0,L|264:74,1,45,0|0,0:0|0:0,0:0:0:0:
238,77,101504,1,0,0:0:0:0:
272,107,101596,1,0,0:0:0:0:
316,113,101688,1,0,0:0:0:0:
356,93,101780,1,0,0:0:0:0:
378,55,101872,2,0,P|415:30|459:27,1,90,8|0,1:2|0:0,0:0:0:0:
512,192,102240,5,0,1:0:0:0:
512,192,102424,1,0,0:0:0:0:
512,192,102609,1,8,1:2:0:0:
378,328,102793,5,0,0:0:0:0:
356,290,102885,1,0,0:0:0:0:
316,270,102977,2,0,L|257:279,1,45,0|0,0:0|0:0,0:0:0:0:
174,291,103161,2,0,L|115:300,1,45,0|0,0:0|0:0,0:0:0:0:
233,209,103345,2,0,L|173:217,1,45,8|0,1:2|0:0,0:0:0:0:
91,230,103529,2,0,L|31:238,1,45,0|0,0:0|0:0,0:0:0:0:
31,38,103713,6,0,L|54:147,2,90,0|0|8,1:0|0:0|1:2,0:0:0:0:
190,0,104265,2,0,L|173:76,1,45,0|0,0:0|0:0,0:0:0:0:
153,67,104449,1,0,0:0:0:0:
197,59,104541,1,0,0:0:0:0:
240,69,104633,1,0,0:0:0:0:
276,96,104725,1,0,0:0:0:0:
299,134,104817,2,0,L|314:232,1,90,8|2,1:2|0:0,0:0:0:0:
256,384,105185,5,0,1:0:0:0:
256,384,105369,1,0,0:0:0:0:
256,384,105553,1,8,1:2:0:0:
74,330,105737,5,0,0:0:0:0:
60,287,105829,1,0,0:0:0:0:
66,243,105921,1,0,0:0:0:0:
91,206,106013,1,0,0:0:0:0:
130,184,106105,1,0,0:0:0:0:
296,264,106289,2,0,L|406:251,1,90,8|0,1:2|0:0,0:0:0:0:
476,130,106658,6,0,B|491:154|491:154|293:132,1,215.999993408203,4|8,0:0|1:2,0:0:0:0:
130,184,107210,2,0,L|59:173,1,45,0|0,0:0|0:0,0:0:0:0:
55,146,107394,1,0,0:0:0:0:
58,101,107486,1,0,0:0:0:0:
87,68,107578,1,0,0:0:0:0:
130,59,107670,1,0,0:0:0:0:
169,77,107762,2,0,P|212:83|251:62,1,90,8|0,1:2|0:0,0:0:0:0:
256,224,108130,5,0,1:0:0:0:
256,224,108314,1,0,0:0:0:0:
256,224,108498,1,8,1:2:0:0:
383,104,108682,5,0,0:0:0:0:
394,145,108774,1,0,0:0:0:0:
428,174,108866,2,0,L|483:169,1,45,0|0,0:0|0:0,0:0:0:0:
414,252,109050,2,0,L|469:247,1,45,0|0,0:0|0:0,0:0:0:0:
351,300,109234,2,0,L|296:295,1,45,8|0,1:2|0:0,0:0:0:0:
365,378,109418,2,0,L|310:373,1,45,0|0,0:0|0:0,0:0:0:0:
124,347,109602,6,0,P|79:339|40:317,2,90,2|0|8,1:3|0:0|1:2,0:0:0:0:
206,223,110155,2,0,L|255:210,1,45,0|0,0:0|0:0,0:0:0:0:
270,181,110339,1,0,0:0:0:0:
246,144,110431,1,0,0:0:0:0:
208,120,110523,1,0,0:0:0:0:
164,113,110615,1,0,0:0:0:0:
121,125,110707,2,0,L|1:108,1,90,8|0,1:2|0:0,0:0:0:0:
215,22,111075,5,4,0:0:0:0:
316,61,111259,2,0,L|326:112,2,45,0|0|10,0:0|0:0|0:3,0:0:0:0:
483,140,111627,5,4,1:2:0:0:
382,179,111811,2,0,L|372:230,2,45,0|2|0,0:0|1:3|1:0,0:0:0:0:
242,324,112179,2,0,L|362:290,1,107.999996704102,4|0,1:2|1:0,0:0:0:0:
41,289,112547,6,0,L|255:310,1,215.999993408203,4|2,0:1|1:3,0:0:0:0:
414,134,113099,2,0,L|425:187,1,45,0|0,0:0|0:0,0:0:0:0:
453,200,113283,1,0,0:0:0:0:
409,199,113375,1,0,0:0:0:0:
368,218,113467,1,0,0:0:0:0:
339,251,113559,1,0,0:0:0:0:
326,294,113651,2,0,L|446:310,1,90,8|0,0:0|0:0,0:0:0:0:
256,192,114020,5,0,0:0:0:0:
256,192,114204,1,0,0:0:0:0:
256,192,114388,1,8,1:2:0:0:
76,184,114572,5,0,0:0:0:0:
120,185,114664,1,0,0:0:0:0:
161,166,114756,1,0,0:0:0:0:
190,133,114848,1,0,0:0:0:0:
203,90,114940,1,0,0:0:0:0:
70,63,115124,5,8,1:2:0:0:
57,61,115216,1,0,0:0:0:0:
44,60,115308,1,0,0:0:0:0:
31,59,115400,1,0,0:0:0:0:
17,57,115492,6,0,P|106:49|184:5,1,180,0|8,1:0|1:2,0:0:0:0:
379,1,116044,1,0,0:0:0:0:
373,45,116136,1,0,0:0:0:0:
366,90,116228,1,0,0:0:0:0:
360,134,116320,1,0,0:0:0:0:
353,179,116412,2,0,L|362:237,1,45,0|0,0:0|0:0,0:0:0:0:
371,297,116596,2,0,L|380:355,3,45,8|0|10|0,1:2|0:0|0:3|0:0,0:0:0:0:
306,384,116964,5,0,1:0:0:0:
306,384,117148,1,0,0:0:0:0:
306,384,117332,1,8,1:2:0:0:
187,310,117516,5,0,0:0:0:0:
172,267,117609,1,0,0:0:0:0:
143,233,117701,1,0,0:0:0:0:
104,212,117793,1,0,0:0:0:0:
60,206,117885,1,0,0:0:0:0:
17,79,118069,2,0,L|139:61,1,90,8|10,1:2|0:3,0:0:0:0:
251,21,118437,6,0,B|271:-2|271:-2|260:199,1,215.999993408203,4|8,0:1|1:2,0:0:0:0:
437,353,118989,2,0,L|508:342,1,45,0|0,0:0|0:0,0:0:0:0:
512,315,119173,1,0,0:0:0:0:
509,270,119265,1,0,0:0:0:0:
480,237,119357,1,0,0:0:0:0:
437,228,119449,1,0,0:0:0:0:
398,246,119541,2,0,P|355:252|316:231,1,90,8|0,1:2|0:0,0:0:0:0:
458,90,119909,5,0,0:0:0:0:
458,90,120093,1,0,0:0:0:0:
458,90,120277,1,8,1:2:0:0:
361,16,120461,5,0,0:0:0:0:
364,60,120553,1,0,0:0:0:0:
342,99,120645,1,0,0:0:0:0:
303,119,120737,1,0,0:0:0:0:
259,116,120829,1,0,0:0:0:0:
181,0,121013,5,8,1:2:0:0:
111,56,121197,1,0,0:0:0:0:
111,56,121289,1,0,0:0:0:0:
111,56,121382,6,0,L|123:252,1,180,0|8,1:0|1:2,0:0:0:0:
55,364,121934,1,0,0:0:0:0:
84,329,122026,1,0,0:0:0:0:
124,308,122118,1,0,0:0:0:0:
168,305,122210,1,0,0:0:0:0:
211,318,122302,2,0,P|229:331|250:338,1,45,0|0,0:0|0:0,0:0:0:0:
337,326,122486,2,0,L|447:311,1,90,8|0,1:2|0:0,0:0:0:0:
504,100,122854,5,4,1:2:0:0:
444,169,123038,2,0,L|391:161,2,45,0|0|10,0:0|1:0|0:3,0:0:0:0:
273,247,123406,5,4,1:2:0:0:
213,178,123590,2,0,L|160:186,2,45,0|0|10,0:0|1:0|1:3,0:0:0:0:
17,84,123958,2,0,L|188:102,1,161.999995056153,4|0,1:2|0:0,0:0:0:0:
199,81,124326,6,0,P|235:16|246:110,2,216,4|4|4,1:2|1:2|1:2,0:0:0:0:
374,170,130216,6,0,P|338:105|327:199,2,216,4|4|4,1:2|1:2|1:2,0:0:0:0:
98,240,136105,6,0,P|162:201|168:276,1,180,2|8,1:3|1:2,0:0:0:0:
243,367,136658,1,0,0:0:0:0:
243,367,136750,1,0,0:0:0:0:
243,367,136842,2,0,L|349:350,1,90,4|0,0:1|0:0,0:0:0:0:
437,196,137210,2,0,P|440:260|387:298,1,135,8|0,1:2|0:0,0:0:0:0:
342,279,137578,6,0,P|338:214|391:176,1,135,2|0,1:3|0:0,0:0:0:0:
413,137,137946,1,8,1:2:0:0:
254,184,138130,1,0,0:0:0:0:
209,188,138222,1,0,0:0:0:0:
166,175,138314,1,4,0:1:0:0:
130,148,138406,1,0,0:0:0:0:
107,111,138498,1,0,0:0:0:0:
256,7,138682,2,0,L|236:167,1,135,8|0,1:2|0:0,0:0:0:0:
254,184,139050,6,0,L|228:392,1,180,2|8,1:3|1:2,0:0:0:0:
354,261,139602,2,0,L|344:333,1,45,0|0,0:0|0:0,0:0:0:0:
433,255,139786,2,0,L|423:327,1,45,4|0,0:1|0:0,0:0:0:0:
512,249,139970,1,0,0:0:0:0:
392,370,140155,1,8,1:2:0:0:
388,188,140339,1,0,0:0:0:0:
219,290,140523,6,0,P|174:284|137:259,2,90,4|0|0,0:1|0:0|0:0,0:0:0:0:
302,115,141075,1,0,0:0:0:0:
302,115,141167,1,0,0:0:0:0:
302,115,141259,2,0,L|422:96,1,90,4|0,0:1|0:0,0:0:0:0:
162,18,141627,2,0,P|112:38|49:118,1,135,8|0,1:2|0:0,0:0:0:0:
14,109,141995,6,0,L|28:305,1,180,4|8,1:1|1:2,0:0:0:0:
133,247,142547,1,0,0:0:0:0:
133,247,142639,1,0,0:0:0:0:
133,247,142731,2,0,L|124:364,1,90,0|0,0:1|0:0,0:0:0:0:
249,170,143099,2,0,P|307:137|374:134,1,135,8|0,1:2|0:0,0:0:0:0:
412,110,143467,6,0,P|480:165|488:252,1,180,2|8,1:3|1:2,0:0:0:0:
357,337,144020,2,0,P|337:348|321:364,1,45,0|0,0:0|0:0,0:0:0:0:
256,288,144204,2,0,P|239:273|230:252,1,45,4|0,0:1|0:0,0:0:0:0:
155,337,144388,1,0,0:0:0:0:
34,199,144572,2,0,P|55:238|64:282,1,90,8|0,1:2|0:0,0:0:0:0:
134,112,144940,6,0,L|149:1,1,90,4|0,1:0|1:0,0:0:0:0:
256,192,145308,1,8,0:0:0:0:
365,22,145492,1,0,0:0:0:0:
371,67,145584,1,0,0:0:0:0:
378,112,145676,1,4,0:1:0:0:
384,156,145768,1,0,0:0:0:0:
390,201,145860,1,0,0:0:0:0:
499,344,146044,1,8,1:2:0:0:
329,317,146228,1,0,0:0:0:0:
329,317,146320,1,0,0:0:0:0:
329,317,146412,5,4,1:2:0:0:
368,222,146596,1,0,1:0:0:0:
430,303,146780,1,10,1:3:0:0:
267,236,146964,5,4,1:2:0:0:
306,141,147148,1,0,1:0:0:0:
368,222,147332,1,2,1:3:0:0:
228,331,147516,5,12,0:0:0:0:
182,326,147609,1,0,0:0:0:0:
137,321,147701,1,0,0:0:0:0:
92,316,147793,1,0,0:0:0:0:
47,312,147885,6,0,P|26:227|83:163,1,180,4|8,1:2|1:2,0:0:0:0:
154,58,148437,1,0,0:0:0:0:
154,58,148529,1,0,0:0:0:0:
154,58,148621,2,0,L|41:39,1,90,4|0,0:1|0:0,0:0:0:0:
181,142,148989,2,0,L|350:113,1,135,8|0,1:2|0:0,0:0:0:0:
342,84,149357,6,0,P|362:144|336:222,1,135,2|0,1:3|0:0,0:0:0:0:
306,236,149725,1,8,1:2:0:0:
450,208,149909,1,0,0:0:0:0:
432,249,150001,1,0,0:0:0:0:
430,294,150093,1,4,0:1:0:0:
444,336,150185,1,0,0:0:0:0:
471,372,150277,1,0,0:0:0:0:
327,326,150461,2,0,P|260:329|199:358,1,135,8|0,1:2|0:0,0:0:0:0:
156,342,150829,6,0,P|69:332|13:265,1,180,2|8,1:3|1:2,0:0:0:0:
112,157,151382,2,0,L|152:130,1,45,0|0,0:0|0:0,0:0:0:0:
48,76,151566,2,0,L|31:21,1,45,4|0,0:1|0:0,0:0:0:0:
153,0,151750,1,0,0:0:0:0:
331,43,151934,1,8,1:2:0:0:
220,81,152118,1,0,0:0:0:0:
304,187,152302,6,0,P|315:230|316:275,2,90,4|0|8,1:1|0:0|1:2,0:0:0:0:
425,107,152854,1,0,0:0:0:0:
425,107,152946,1,0,0:0:0:0:
425,107,153038,2,0,L|526:84,1,90,4|0,0:1|0:0,0:0:0:0:
435,216,153406,2,0,L|304:187,1,135,8|0,1:2|0:0,0:0:0:0:
266,161,153774,6,0,P|197:203|180:297,1,180,4|8,1:0|1:2,0:0:0:0:
307,368,154326,1,0,0:0:0:0:
307,368,154418,1,0,0:0:0:0:
307,367,154510,2,0,P|347:346|391:338,1,90,4|0,0:1|0:0,0:0:0:0:
512,268,154878,2,0,P|444:271|380:251,1,135,8|0,1:2|0:0,0:0:0:0:
340,231,155247,6,0,P|251:222|170:259,1,180,0|8,1:0|1:2,0:0:0:0:
58,317,155799,2,0,L|39:376,1,45,0|0,0:0|0:0,0:0:0:0:
68,197,155983,2,0,L|87:256,1,45,4|0,0:1|0:0,0:0:0:0:
44,119,156167,1,0,0:0:0:0:
153,17,156351,2,0,L|136:119,1,90,8|0,1:2|0:0,0:0:0:0:
256,128,156719,5,6,1:3:0:0:
256,256,156903,1,10,0:3:0:0:
352,192,157087,5,8,1:2:0:0:
160,192,157271,2,0,P|150:223|152:247,1,45,8|0,1:2|0:0,0:0:0:0:
93,293,157455,2,0,P|99:324|113:344,1,45,0|0,0:0|0:0,0:0:0:0:
256,384,157639,1,0,0:0:0:0:
419,293,157823,5,8,1:2:0:0:
338,339,158007,1,0,0:0:0:0:
338,339,158099,1,0,0:0:0:0:
338,339,158191,6,0,L|326:273,2,45,6|10|0,1:3|0:3|1:0,0:0:0:0:
419,293,158559,1,8,1:2:0:0:
352,192,158743,6,0,L|364:126,2,45,0|0|0,0:0|0:0|0:0,0:0:0:0:
271,146,159112,1,2,1:3:0:0:
417,4,159296,5,8,0:0:0:0:
459,12,159388,1,0,0:0:0:0:
474,53,159480,1,0,1:0:0:0:
448,86,159572,1,0,0:0:0:0:
405,82,159664,6,0,L|293:59,1,107.999996704102,0|0,1:0|0:0,0:0:0:0:
148,100,160032,2,0,L|36:77,1,107.999996704102,8|0,1:2|0:0,0:0:0:0:
0,189,160400,5,0,0:0:0:0:
4,231,160492,1,0,0:0:0:0:
27,267,160584,1,0,1:0:0:0:
66,283,160676,1,0,0:0:0:0:
108,280,160768,2,0,P|131:296|146:318,1,53.9999983520508,8|0,0:0|0:0,0:0:0:0:
240,316,160952,2,0,P|237:342|226:367,1,53.9999983520508,0|0,0:0|0:0,0:0:0:0:
371,351,161136,5,0,1:0:0:0:
413,343,161228,1,0,0:0:0:0:
449,321,161320,1,2,0:0:0:0:
475,286,161412,1,0,0:0:0:0:
486,245,161504,2,0,L|477:176,1,53.9999983520508,8|0,1:2|0:0,0:0:0:0:
512,71,161688,2,0,L|443:80,1,53.9999983520508,2|2,0:0|0:0,0:0:0:0:
338,45,161872,5,2,0:0:0:0:
294,50,161964,1,0,0:0:0:0:
254,65,162056,2,0,L|240:130,1,53.9999983520508,0|0,1:0|0:0,0:0:0:0:
157,205,162240,5,8,1:2:0:0:
113,200,162332,1,0,0:0:0:0:
73,185,162424,2,0,L|59:120,1,53.9999983520508,2|0,0:0|0:0,0:0:0:0:
18,21,162609,6,0,L|164:45,1,107.999996704102,0|2,1:0|0:0,0:0:0:0:
205,135,162977,2,0,L|351:159,1,107.999996704102,8|2,1:2|0:0,0:0:0:0:
449,215,163345,5,2,0:0:0:0:
389,370,163529,1,0,1:0:0:0:
455,306,163713,1,8,1:2:0:0:
298,363,163897,1,2,0:0:0:0:
244,289,164081,5,0,1:0:0:0:
116,280,164265,1,2,0:0:0:0:
116,280,164357,1,0,0:0:0:0:
115,280,164449,6,0,P|136:264|153:242,1,53.9999983520508,8|0,1:2|0:0,0:0:0:0:
153,141,164633,2,0,P|136:119|115:104,1,53.9999983520508,0|0,1:0|1:0,0:0:0:0:
0,192,164817,2,0,L|64:192,1,53.9999983520508,2|0,0:0|1:0,0:0:0:0:
224,192,165001,2,0,L|288:192,1,53.9999983520508,0|0,1:2|0:0,0:0:0:0:
448,191,165185,5,8,1:2:0:0:
469,143,165277,1,0,0:0:0:0:
462,90,165369,1,2,0:0:0:0:
427,50,165461,1,0,0:0:0:0:
376,35,165553,6,0,L|195:15,2,161.999995056153,0|0|2,1:0|0:0|0:0,0:0:0:0:
215,97,166289,2,0,L|349:112,2,135,0|0|2,0:0|0:0|0:0,0:0:0:0:
320,188,167026,2,0,L|213:176,2,108,0|0|2,1:0|0:0|0:0,0:0:0:0:
210,254,167762,2,0,L|296:264,2,80.9999975280763,2|0|2,0:0|0:0|0:0,0:0:0:0:
117,331,168498,6,0,P|93:351|80:376,3,45,0|0|2|0,1:0|0:0|0:0|0:0,0:0:0:0:
73,247,168866,2,0,P|41:244|15:252,3,45,8|0|2|0,1:2|0:0|0:0|0:0,0:0:0:0:
101,155,169234,1,2,0:0:0:0:
131,123,169326,1,0,0:0:0:0:
171,103,169418,1,0,1:0:0:0:
216,98,169510,1,0,0:0:0:0:
259,108,169602,2,0,L|339:98,1,45,8|0,1:2|0:0,0:0:0:0:
386,91,169786,2,0,L|465:80,1,45,2|0,0:0|0:0,0:0:0:0:
475,231,169970,5,0,1:0:0:0:
437,251,170062,1,0,0:0:0:0:
393,253,170155,2,0,L|331:226,1,53.9999983520508,2|0,0:0|0:0,0:0:0:0:
256,266,170339,5,8,1:2:0:0:
218,246,170431,1,8,0:0:0:0:
174,244,170523,2,0,L|112:271,1,53.9999983520508,2|8,0:0|0:0,0:0:0:0:
46,192,170707,5,2,0:0:0:0:
41,149,170799,1,8,0:0:0:0:
36,106,170891,2,0,L|30:40,1,53.9999983520508,0|0,1:0|0:0,0:0:0:0:
168,22,171075,5,8,1:2:0:0:
163,65,171167,1,2,0:0:0:0:
158,108,171259,2,0,L|152:174,1,53.9999983520508,8|0,0:0|0:0,0:0:0:0:
291,116,171443,6,0,L|459:91,1,161.999995056153,0|0,1:0|0:0,0:0:0:0:
483,63,171811,2,0,L|465:183,1,107.999996704102,8|2,1:2|0:0,0:0:0:0:
348,255,172179,1,0,0:0:0:0:
447,278,172363,2,0,L|465:398,1,107.999996704102,0|10,1:0|1:2,0:0:0:0:
274,356,172731,1,2,0:0:0:0:
274,356,172915,6,0,P|221:346|183:309,1,107.999996704102,0|2,1:0|0:0,0:0:0:0:
30,260,173283,1,8,1:2:0:0:
105,202,173467,1,2,0:0:0:0:
105,202,173559,1,0,1:0:0:0:
105,202,173651,2,0,L|228:223,1,107.999996704102,2|0,0:0|1:0,0:0:0:0:
326,150,174020,2,0,L|520:135,1,161.999995056153,8|2,1:2|0:0,0:0:0:0:
425,67,174388,6,0,L|439:7,1,53.9999983520508,0|0,1:0|0:0,0:0:0:0:
501,96,174572,2,0,L|515:36,2,53.9999983520508,2|0|8,0:0|0:0|1:2,0:0:0:0:
371,291,174940,6,0,L|385:351,1,53.9999983520508,2|0,0:0|0:0,0:0:0:0:
447,262,175124,2,0,L|461:322,2,53.9999983520508,0|0|0,0:0|0:0|1:0,0:0:0:0:
326,150,175492,5,8,1:2:0:0:
326,150,175584,1,0,0:0:0:0:
326,150,175676,2,0,L|253:140,1,53.9999983520508,2|0,0:0|0:0,0:0:0:0:
180,74,175860,6,0,P|126:77|82:107,1,107.999996704102,0|2,1:0|0:0,0:0:0:0:
27,192,176228,2,0,L|48:305,1,107.999996704102,8|2,1:2|0:0,0:0:0:0:
79,325,176504,1,0,1:0:0:0:
120,336,176596,2,0,L|187:323,2,53.9999983520508,2|0|0,0:0|1:0|1:2,0:0:0:0:
248,247,176964,2,0,P|291:258|342:301,1,107.999996704102,8|2,1:2|0:0,0:0:0:0:
452,360,177332,5,0,1:2:0:0:
455,316,177424,1,0,0:0:0:0:
458,272,177516,2,0,L|468:174,5,53.9999983520508,0|0|8|0|0|0,0:0|0:0|1:2|0:0|0:0|0:0,0:0:0:0:
339,297,178069,5,2,0:0:0:0:
342,248,178161,1,2,0:0:0:0:
345,200,178253,2,0,L|351:135,5,53.9999983520508,0|0|8|0|2|0,1:0|0:0|1:2|0:0|0:0|0:0,0:0:0:0:
226,234,178805,5,0,1:0:0:0:
229,177,178897,1,0,0:0:0:0:
232,120,178989,2,0,L|242:22,5,53.9999983520508,2|0|8|0|2|0,0:0|0:0|1:2|0:0|0:0|1:0,0:0:0:0:
149,14,179541,5,2,0:0:0:0:
107,16,179633,1,0,0:0:0:0:
68,34,179725,1,0,1:0:0:0:
40,67,179817,1,0,0:0:0:0:
27,108,179909,2,0,L|37:206,1,53.9999983520508,8|0,1:2|0:0,0:0:0:0:
24,261,180093,2,0,L|34:359,1,53.9999983520508,2|0,0:0|0:0,0:0:0:0:
129,173,180277,6,0,L|116:310,1,107.999996704102,0|2,1:2|0:0,0:0:0:0:
220,372,180645,2,0,L|209:264,1,107.999996704102,8|2,1:2|0:0,0:0:0:0:
320,136,181013,2,0,P|371:122|423:135,1,107.999996704102,2|0,0:0|1:0,0:0:0:0:
423,248,181382,2,0,P|371:261|320:248,1,107.999996704102,8|2,1:2|0:0,0:0:0:0:
256,66,181750,5,6,1:3:0:0:
256,206,181934,1,0,1:0:0:0:
320,136,182118,1,8,1:2:0:0:
192,135,182302,6,0,P|166:144|144:159,1,53.9999983520508,2|0,0:0|1:0,0:0:0:0:
68,136,182486,2,0,P|42:127|20:112,1,53.9999983520508,2|0,0:0|1:0,0:0:0:0:
0,35,182670,1,0,1:0:0:0:
43,32,182762,1,2,0:0:0:0:
78,30,182854,2,0,L|190:24,1,90,8|0,1:2|0:0,0:0:0:0:
143,240,183222,6,0,P|115:180|86:277,1,215.999993408203,0|8,0:0|1:2,0:0:0:0:
283,115,183774,1,0,0:0:0:0:
283,115,183866,1,0,0:0:0:0:
283,115,183958,1,0,0:0:0:0:
248,4,184142,1,0,1:0:0:0:
170,89,184326,2,0,P|131:49|117:104,1,135,8|0,1:2|0:0,0:0:0:0:
109,129,184694,6,0,P|137:189|166:92,1,215.999993408203,0|8,0:0|1:2,0:0:0:0:
285,217,185247,2,0,P|316:203|343:197,1,45
411,143,185431,2,0,P|445:146|472:154,1,45,0|0,0:2|0:0,0:0:0:0:
512,236,185615,1,0,1:0:0:0:
370,306,185799,2,0,L|381:357,1,45,2|2,0:0|0:0,0:0:0:0:
360,316,185983,2,0,L|371:367,1,45,0|2,0:0|0:0,0:0:0:0:
266,301,186167,6,0,P|238:361|209:264,1,215.999993408203,0|8,0:0|1:2,0:0:0:0:
114,151,186719,2,0,P|114:174|119:196,1,45,0|0,0:0|0:0,0:0:0:0:
75,52,186903,2,0,P|64:71|58:92,1,45,0|0,0:0|0:0,0:0:0:0:
186,17,187087,1,0,1:0:0:0:
129,160,187271,2,0,P|166:105|231:101,1,135,8|0,1:2|0:0,0:0:0:0:
250,119,187639,6,0,P|278:179|307:82,1,215.999993408203,0|8,0:0|1:2,0:0:0:0:
488,127,188191,1,0,0:0:0:0:
488,127,188283,1,0,0:0:0:0:
488,127,188375,1,0,0:0:0:0:
453,238,188559,1,0,1:0:0:0:
375,153,188743,1,8,1:2:0:0:
375,153,188928,1,10,0:3:0:0:
167,262,189112,6,0,P|188:348|252:285,1,215.999993408203,0|8,0:0|1:2,0:0:0:0:
19,154,189664,1,0,0:0:0:0:
19,154,189756,1,0,0:0:0:0:
19,154,189848,1,0,0:0:0:0:
54,265,190032,1,0,1:0:0:0:
132,180,190216,2,0,P|171:140|185:195,1,135,0|0,1:2|0:0,0:0:0:0:
193,220,190584,6,0,P|165:280|136:183,1,215.999993408203,0|8,0:0|1:2,0:0:0:0:
265,89,191136,2,0,L|330:80,1,45,0|0,0:0|0:0,0:0:0:0:
398,140,191320,2,0,L|463:149,1,45,0|0,0:0|0:0,0:0:0:0:
512,74,191504,1,0,1:0:0:0:
389,0,191688,2,0,L|395:47,1,45,2|2,0:0|0:0,0:0:0:0:
376,10,191872,2,0,L|382:57,1,45,0|2,0:0|0:0,0:0:0:0:
352,210,192056,6,0,P|373:296|437:233,1,215.999993408203,0|8,0:0|1:2,0:0:0:0:
308,365,192609,2,0,P|277:361|259:352,1,45,0|0,0:0|0:0,0:0:0:0:
181,291,192793,2,0,P|150:295|132:304,1,45,0|0,0:0|0:0,0:0:0:0:
48,344,192977,1,0,1:0:0:0:
41,181,193161,2,0,P|102:212|126:161,1,135,8|0,1:2|0:0,0:0:0:0:
102,128,193529,5,6,1:3:0:0:
177,271,193713,1,10,0:3:0:0:
164,65,193897,5,8,1:2:0:0:
239,208,194081,1,0,0:0:0:0:
239,208,194173,2,0,L|299:195,1,45,0|0,1:0|0:3,0:0:0:0:
363,141,194357,1,10,0:3:0:0:
363,141,194449,2,0,L|423:154,1,45,0|0,1:0|0:0,0:0:0:0:
490,203,194633,1,0,0:0:0:0:
490,203,194725,1,6,1:3:0:0:
256,352,195001,5,4,0:1:0:0:
256,32,195553,1,4,0:1:0:0:
416,192,196105,1,4,0:1:0:0:
96,192,196658,1,4,0:1:0:0:
256,192,197210,5,4,0:1:0:0:
256,192,197578,1,0,0:0:0:0:
256,192,197946,1,4,0:1:0:0:
256,192,198038,12,0,206780,0:0:0:0:
