osu file format v14

[General]
AudioFilename: audio.mp3
AudioLeadIn: 0
PreviewTime: 68630
Countdown: 0
SampleSet: Normal
StackLeniency: 0.8
Mode: 0
LetterboxInBreaks: 0
WidescreenStoryboard: 1

[Editor]
Bookmarks: 41095,54246,95342,130684,156985
DistanceSpacing: 1
BeatDivisor: 4
GridSize: 8
TimelineZoom: 2.4

[Metadata]
Title:...Has Come.
TitleUnicode:......已至。
Artist:Monster Siren Records
ArtistUnicode:塞壬唱片-MSR
Creator:Ellyu
Version:......Normal.
Source:明日方舟
Tags:electronic instrumental Yi Zhi Yi_Zhi Arknights Amiya monster-siren Hypergryph 鹰角网络 ming ri fang zhou mingrifangzhou 秋田真典 Masanori Akita 阿米娅 炉芯终曲 萨卡兹的无终奇语ost original soundtrack ost Sarkaz's sarkaz Furnaceside Fables artcore アークナイツ video game
BeatmapID:5232617
BeatmapSetID:2410025

[Difficulty]
HPDrainRate:4
CircleSize:3
OverallDifficulty:4
ApproachRate:5
SliderMultiplier:1.2
SliderTickRate:1

[Events]
//Background and Video events
0,0,"dac7005e-d5f6-4613-8ab2-e2131fbfc1ec.jpg",0,0
//Break Periods
2,95520,99436
//Storyboard Layer 0 (Background)
//Storyboard Layer 1 (Fail)
//Storyboard Layer 2 (Pass)
//Storyboard Layer 3 (Foreground)
//Storyboard Layer 4 (Overlay)
//Storyboard Sound Samples

[TimingPoints]
-21,410.958904109589,4,1,1,45,1,0
41074,-100,4,1,1,45,0,0
54328,-125,4,2,2,45,0,0
59978,-125,4,2,1,45,0,0
60081,-125,4,2,1,5,0,0
60184,-125,4,2,1,45,0,0
60287,-125,4,2,1,5,0,0
60389,-125,4,2,1,45,0,0
60492,-125,4,2,1,5,0,0
60595,-125,4,2,1,45,0,0
60698,-125,4,2,1,5,0,0
60800,-125,4,2,2,45,0,0
66965,-125,4,2,2,35,0,0
69020,-100,4,2,1,55,0,0
95115,-100,4,2,1,35,0,0
103540,410.958904109589,4,2,1,35,1,0
104362,410.958904109589,4,2,1,35,1,0
104362,-125,4,2,1,35,0,0
130663,-100,4,2,1,55,0,0
156964,-100,4,1,1,25,0,0
158608,-100,4,1,1,45,0,0
171348,-100,4,2,1,45,0,0

[Colours]
Combo1 : 151,157,151
Combo2 : 32,178,170
Combo3 : 60,94,230
Combo4 : 238,60,108
Combo5 : 199,38,217

[HitObjects]
172,106,41074,6,0,L|295:89,2,120,6|8|0,0:0|0:0|0:0,0:0:0:0:
103,204,42307,1,8,0:0:0:0:
193,282,42718,2,0,P|256:292|308:257,1,120,2|8,0:0|0:0,0:0:0:0:
420,286,43540,2,0,L|424:212,1,60,2|2,0:0|0:0,0:0:0:0:
466,184,43951,2,0,L|470:110,1,60,8|0,0:0|0:0,0:0:0:0:
460,64,44362,6,0,P|403:82|331:69,1,120,2|8,0:0|0:0,0:0:0:0:
167,41,45389,1,2,0:0:0:0:
167,41,45595,2,0,L|160:106,1,60,8|0,0:0|0:0,0:0:0:0:
112,137,46006,2,0,P|85:200|112:267,1,120,2|8,0:0|0:0,0:0:0:0:
217,255,46828,2,0,L|281:247,2,60,2|2|8,0:0|0:0|0:0,0:0:0:0:
97,247,47650,6,0,P|85:304|111:357,2,120,6|8|0,0:0|0:0|0:0,0:0:0:0:
132,198,48677,2,0,L|124:121,1,60,2|8,0:0|0:0,0:0:0:0:
168,95,49088,2,0,P|227:78|296:74,1,120,2|0,0:0|0:0,0:0:0:0:
268,196,49910,1,8,0:0:0:0:
268,196,50115,2,0,P|327:213|382:273,1,120,2|8,0:0|0:0,0:0:0:0:
483,223,50937,6,0,L|466:36,2,180,2|0|8,0:0|0:0|0:0,0:0:0:0:
365,198,52581,2,0,P|316:145|196:155,1,180,2|2,0:0|0:0,0:0:0:0:
153,146,53403,2,0,L|159:222,1,60,0|0,0:0|0:0,0:0:0:0:
199,249,53814,2,0,L|186:379,1,120,8|4,0:0|0:0,0:0:0:0:
138,372,54431,5,0,0:0:0:0:
70,304,54842,2,0,L|60:243,1,48,2|0,0:0|0:0,0:0:0:0:
95,166,55458,2,0,L|107:110,1,48,2|0,0:0|0:0,0:0:0:0:
192,80,56074,2,0,L|186:26,2,48,2|0|0,0:0|0:0|0:0,0:0:0:0:
222,117,56691,2,0,L|216:171,2,48,0|0|0,0:0|0:0|0:0,0:0:0:0:
302,64,57513,6,0,L|365:50,1,48,2|0,0:0|0:0,0:0:0:0:
386,141,58129,2,0,L|339:151,1,48,2|0,0:0|0:0,0:0:0:0:
319,245,58746,2,0,L|382:231,1,48,2|0,0:0|0:0,0:0:0:0:
403,322,59362,2,0,L|356:332,1,48,2|0,0:0|0:0,0:0:0:0:
262,351,59978,2,0,L|200:339,1,48,0|0,0:0|0:0,0:0:0:0:
184,304,60389,2,0,L|127:290,1,48,0|0,0:0|0:0,0:0:0:0:
91,279,60800,5,2,0:0:0:0:
94,134,61417,1,2,0:0:0:0:
217,207,62033,1,2,0:0:0:0:
91,279,62650,1,2,0:0:0:0:
93,181,63061,2,0,L|93:121,2,48,2|2|2,0:0|0:0|0:0,0:0:0:0:
256,192,64088,12,2,67992,0:0:0:0:
145,54,69020,6,0,P|142:119|130:177,1,120,6|8,0:0|0:0,0:0:0:0:
73,190,69636,2,0,P|76:255|88:313,1,120,2|2,0:0|0:0,0:0:0:0:
143,329,70252,1,8,0:0:0:0:
200,310,70458,1,0,0:0:0:0:
235,261,70663,2,0,L|362:270,1,120,2|8,0:0|0:0,0:0:0:0:
462,323,71485,1,2,0:0:0:0:
469,203,71896,1,8,0:0:0:0:
432,85,72307,6,0,L|285:68,1,120,2|8,0:0|0:0,0:0:0:0:
269,113,72924,2,0,L|144:137,1,120,2|2,0:0|0:0,0:0:0:0:
98,106,73540,1,8,0:0:0:0:
63,154,73746,1,0,0:0:0:0:
33,205,73951,2,0,L|44:327,1,120,2|8,0:0|0:0,0:0:0:0:
162,346,74773,2,0,L|156:282,1,60,2|2,0:0|0:0,0:0:0:0:
204,249,75184,2,0,L|198:185,1,60,8|0,0:0|0:0,0:0:0:0:
245,151,75595,6,0,P|185:133|142:68,1,120,2|8,0:0|0:0,0:0:0:0:
146,30,76211,1,2,0:0:0:0:
146,30,76417,1,0,0:0:0:0:
265,25,76828,1,8,0:0:0:0:
384,19,77239,2,0,P|403:61|382:136,1,120,2|8,0:0|0:0,0:0:0:0:
340,169,77855,1,0,0:0:0:0:
340,169,78061,1,2,0:0:0:0:
422,256,78472,1,8,0:0:0:0:
322,322,78883,6,0,L|176:315,1,120,2|8,0:0|0:0,0:0:0:0:
146,316,79499,1,2,0:0:0:0:
146,316,79705,2,0,P|136:260|148:189,1,120,0|8,0:0|0:0,0:0:0:0:
213,99,80526,2,0,B|251:114|294:95|317:57|317:57|324:101|360:136|397:135,2,240,6|8|6,0:0|0:0|0:0,0:0:0:0:
210,279,82787,6,0,P|152:304|95:291,1,120,2|2,0:0|0:0,0:0:0:0:
52,253,83403,1,8,0:0:0:0:
63,194,83609,1,0,0:0:0:0:
109,156,83814,2,0,P|127:66|126:11,1,120,2|8,0:0|0:0,0:0:0:0:
247,31,84636,2,0,L|315:23,1,60,2|2,0:0|0:0,0:0:0:0:
360,50,85047,2,0,L|428:58,1,60,8|0,0:0|0:0,0:0:0:0:
479,48,85458,6,0,P|499:97|508:179,1,120,2|8,0:0|0:0,0:0:0:0:
476,213,86074,2,0,L|342:197,1,120,2|2,0:0|0:0,0:0:0:0:
296,193,86691,1,8,0:0:0:0:
239,213,86896,1,0,0:0:0:0:
198,257,87102,2,0,P|180:318|167:379,1,120,2|8,0:0|0:0,0:0:0:0:
46,240,88129,2,0,P|37:271|41:312,2,60,2|8|0,0:0|0:0|0:0,0:0:0:0:
81,191,88746,6,0,L|68:53,1,120,2|8,0:0|0:0,0:0:0:0:
127,47,89362,1,2,0:0:0:0:
127,47,89568,2,0,P|182:70|245:42,1,120,0|8,0:0|0:0,0:0:0:0:
290,87,90184,1,0,0:0:0:0:
290,87,90389,2,0,P|345:81|396:126,1,120,2|8,0:0|0:0,0:0:0:0:
477,205,91211,1,2,0:0:0:0:
424,312,91622,1,8,0:0:0:0:
321,243,92033,6,0,B|262:234|210:277|210:277|169:308|125:305|85:277|65:236|78:173|145:157,1,360,2|8,0:0|0:0,0:0:0:0:
233,119,93677,2,0,B|292:110|344:153|344:153|384:184|429:181|469:153|489:112|475:49|409:33,1,360,2|0,0:0|0:0,0:0:0:0:
374,22,95115,2,0,P|339:26|315:41,1,60,0|8,0:0|0:0,0:0:0:0:
256,192,100869,12,0,103540,0:0:0:0:
48,192,104362,6,0,L|48:40,1,144,0|2,0:0|0:0,0:0:0:0:
96,48,105183,2,0,L|208:48,1,96,0|0,0:0|0:0,0:0:0:0:
288,48,106005,2,0,L|488:48,2,192,0|0|2,0:0|0:0|0:0,0:0:0:0:
288,192,108266,6,0,L|448:192,1,144,2|0,0:0|0:0,0:0:0:0:
432,288,109293,1,0,0:0:0:0:
336,288,109704,2,0,P|296:272|240:288,1,96,0|8,0:0|0:0,0:0:0:0:
216,320,110320,1,2,0:0:0:0:
144,192,110937,6,0,L|288:192,1,144,2|2,0:0|0:0,0:0:0:0:
288,144,111758,2,0,L|288:32,1,96,0|0,0:0|0:0,0:0:0:0:
192,48,112581,2,0,L|48:48,2,144,0|0|0,0:0|0:0|0:0,0:0:0:0:
192,144,114225,2,0,L|88:144,1,96,2|0,0:0|0:0,0:0:0:0:
48,144,114841,2,0,L|48:296,1,144,2|0,0:0|0:0,0:0:0:0:
144,288,115868,1,0,0:0:0:0:
240,288,116279,2,0,P|280:312|328:296,1,96,0|8,0:0|0:0,0:0:0:0:
360,264,116896,1,2,0:0:0:0:
368,120,117512,6,0,L|216:120,1,144,2|2,0:0|0:0,0:0:0:0:
176,120,118334,2,0,L|64:120,1,96,0|0,0:0|0:0,0:0:0:0:
80,216,119156,2,0,L|280:216,1,192,0|0,0:0|0:0,0:0:0:0:
368,216,120389,1,0,0:0:0:0:
368,312,120800,6,0,L|264:312,1,96,2|0,0:0|0:0,0:0:0:0:
232,336,121416,2,0,L|72:336,1,144,2|0,0:0|0:0,0:0:0:0:
32,256,122444,2,0,P|88:200|32:120,1,192,0|8,0:0|0:0,0:0:0:0:
88,48,123677,2,0,L|144:48,1,48,0|0,0:0|0:0,0:0:0:0:
176,72,124088,6,0,L|272:72,1,96,2|0,0:0|0:0,0:0:0:0:
320,72,124704,1,2,0:0:0:0:
320,72,124909,2,0,L|320:176,1,96,0|0,0:0|0:0,0:0:0:0:
416,168,125731,2,0,L|416:368,1,192,0|0,0:0|0:0,0:0:0:0:
320,360,126964,2,0,L|264:360,1,48,0|0,0:0|0:0,0:0:0:0:
232,336,127375,6,0,L|120:336,1,96,2|0,0:0|0:0,0:0:0:0:
98,305,127992,2,0,L|98:161,1,144,2|0,0:0|0:0,0:0:0:0:
176,104,129019,2,0,P|256:96|232:256,1,288
231,372,130663,6,0,L|305:366,1,60,6|0,0:0|0:0,0:0:0:0:
332,323,131074,2,0,P|377:323|460:360,1,120,8|0,0:0|0:0,0:0:0:0:
506,353,131690,1,2,0:0:0:0:
506,353,131896,1,8,0:0:0:0:
485,234,132307,2,0,P|472:182|467:152,1,60,2|0,0:0|0:0,0:0:0:0:
470,115,132718,2,0,P|404:133|345:139,1,120,8|2,0:0|0:0,0:0:0:0:
299,111,133334,1,0,0:0:0:0:
299,111,133540,2,0,L|235:61,1,60,8|0,0:0|0:0,0:0:0:0:
201,40,133951,6,0,L|69:61,1,120,2|8,0:0|0:0,0:0:0:0:
79,178,134772,1,2,0:0:0:0:
79,178,134978,2,0,L|23:159,2,60,2|8|0,0:0|0:0|0:0,0:0:0:0:
88,237,135594,2,0,P|132:214|201:218,1,120,2|8,0:0|0:0,0:0:0:0:
255,192,136211,1,0,0:0:0:0:
255,192,136416,2,0,P|322:204|347:261,1,120,2|8,0:0|0:0,0:0:0:0:
365,364,137238,6,0,L|291:358,1,60,2|0,0:0|0:0,0:0:0:0:
264,315,137649,2,0,P|219:315|136:352,1,120,8|0,0:0|0:0,0:0:0:0:
92,345,138265,1,2,0:0:0:0:
92,345,138471,1,8,0:0:0:0:
55,230,138882,2,0,P|68:178|73:148,1,60,2|0,0:0|0:0,0:0:0:0:
70,111,139293,2,0,P|136:129|195:135,1,120,8|2,0:0|0:0,0:0:0:0:
241,107,139909,1,0,0:0:0:0:
241,107,140115,2,0,L|320:69,1,60,8|0,0:0|0:0,0:0:0:0:
350,58,140526,6,0,P|347:121|349:200,1,120,2|8,0:0|0:0,0:0:0:0:
455,237,141348,1,2,0:0:0:0:
455,237,141553,2,0,P|453:205|449:153,2,60,2|8|0,0:0|0:0|0:0,0:0:0:0:
405,271,142170,2,0,P|368:322|307:326,1,120,2|8,0:0|0:0,0:0:0:0:
192,334,142992,2,0,P|149:300|74:287,1,120,2|8,0:0|0:0,0:0:0:0:
26,292,143608,1,0,0:0:0:0:
25,291,143814,6,0,P|28:224|39:144,1,120,6|8,0:0|0:0,0:0:0:0:
93,180,144430,2,0,P|48:142|50:7,1,180,2|8,0:0|0:0,0:0:0:0:
149,72,145457,2,0,P|203:150|338:142,1,240,2|2,0:0|0:0,0:0:0:0:
263,47,146690,1,8,0:0:0:0:
149,72,147101,6,0,B|104:115|90:175|113:238|161:275|161:275|196:249|225:238|225:238|192:192|184:158|197:146|197:146|232:167|260:172|298:162|298:162|322:211|322:263|309:304|309:304|259:311|241:334,1,720,2|2,0:0|0:0,0:0:0:0:
364,367,149978,2,0,P|400:351|443:361,1,60,8|0,0:0|0:0,0:0:0:0:
472,323,150389,6,0,P|473:265|458:205,1,120,2|8,0:0|0:0,0:0:0:0:
475,147,151005,2,0,L|286:119,1,180,2|8,0:0|0:0,0:0:0:0:
277,239,152033,2,0,P|196:184|199:50,1,240,2|2,0:0|0:0,0:0:0:0:
296,120,153266,1,8,0:0:0:0:
277,239,153677,6,0,B|158:280|158:280|67:163|67:163|159:131,1,360,2|8,0:0|0:0,0:0:0:0:
238,55,155320,6,0,P|289:41|367:69,1,120,2|8,0:0|0:0,0:0:0:0:
349,122,155937,1,2,0:0:0:0:
349,122,156142,2,0,L|353:205,1,60,0|2,0:0|0:0,0:0:0:0:
298,209,156553,2,0,L|302:292,1,60,8|8,0:0|0:0,0:0:0:0:
303,329,156964,6,0,B|422:370|422:370|513:253|513:253|421:221,1,360,0|0,0:0|0:0,0:0:0:0:
359,128,158608,6,0,P|298:158|237:128,2,120,6|8|0,0:0|0:0|0:0,0:0:0:0:
438,37,159841,1,8,0:0:0:0:
318,21,160252,2,0,L|193:47,1,120,2|8,0:0|0:0,0:0:0:0:
80,43,161074,2,0,P|88:84|87:112,1,60,2|2,0:0|0:0,0:0:0:0:
143,125,161485,2,0,P|135:166|136:194,1,60,8|0,0:0|0:0,0:0:0:0:
80,209,161896,6,0,P|84:254|86:350,1,120,2|8,0:0|0:0,0:0:0:0:
266,326,162923,1,2,0:0:0:0:
229,277,163129,2,0,P|240:227|238:200,1,60,8|0,0:0|0:0,0:0:0:0:
207,168,163540,2,0,L|346:161,1,120,2|8,0:0|0:0,0:0:0:0:
373,50,164362,2,0,L|441:53,2,60,2|2|8,0:0|0:0|0:0,0:0:0:0:
326,161,165183,6,0,L|465:168,2,120,6|8|0,0:0|0:0|0:0,0:0:0:0:
295,213,166211,2,0,P|295:240|311:289,1,60,2|8,0:0|0:0,0:0:0:0:
304,332,166622,2,0,P|232:339|168:307,1,120,2|0,0:0|0:0,0:0:0:0:
116,226,167444,1,8,0:0:0:0:
116,226,167649,2,0,P|188:233|252:201,1,120,2|8,0:0|0:0,0:0:0:0:
253,98,168471,2,0,P|189:62|90:99,2,180,2|0|8,0:0|0:0|0:0,0:0:0:0:
371,74,170115,6,0,B|386:116|386:116|378:226|378:226|392:272,1,180,2|2,0:0|0:0,0:0:0:0:
386,310,170937,2,0,L|313:305,1,60,0|0,0:0|0:0,0:0:0:0:
266,300,171348,1,8,0:0:0:0:
266,300,171553,1,8,0:0:0:0:
