osu file format v14

[General]
AudioFilename: audio.mp3
AudioLeadIn: 0
PreviewTime: 68630
Countdown: 0
SampleSet: Normal
StackLeniency: 0
Mode: 0
LetterboxInBreaks: 0
WidescreenStoryboard: 1

[Editor]
Bookmarks: 41095,54246,95342,130684,156985
DistanceSpacing: 0.5
BeatDivisor: 7
GridSize: 8
TimelineZoom: 2.4

[Metadata]
Title:...Has Come.
TitleUnicode:......已至。
Artist:Monster Siren Records
ArtistUnicode:塞壬唱片-MSR
Creator:Ellyu
Version:......Expert.
Source:明日方舟
Tags:electronic instrumental Yi Zhi Yi_Zhi Arknights Amiya monster-siren Hypergryph 鹰角网络 ming ri fang zhou mingrifangzhou 秋田真典 Masanori Akita 阿米娅 炉芯终曲 萨卡兹的无终奇语ost original soundtrack ost Sarkaz's sarkaz Furnaceside Fables artcore アークナイツ video game
BeatmapID:5232612
BeatmapSetID:2410025

[Difficulty]
HPDrainRate:6
CircleSize:4.2
OverallDifficulty:7.5
ApproachRate:9.2
SliderMultiplier:1.8
SliderTickRate:1

[Events]
//Background and Video events
0,0,"dac7005e-d5f6-4613-8ab2-e2131fbfc1ec.jpg",0,0
//Break Periods
2,95726,97792
//Storyboard Layer 0 (Background)
//Storyboard Layer 1 (Fail)
//Storyboard Layer 2 (Pass)
//Storyboard Layer 3 (Foreground)
//Storyboard Layer 4 (Overlay)
//Storyboard Sound Samples

[TimingPoints]
-21,410.958904109589,4,1,1,45,1,0
40663,-66.6666666666667,4,1,1,35,0,0
41074,-62.5,4,1,1,45,0,0
41485,-76.9230769230769,4,1,1,45,0,0
43129,-76.9230769230769,4,1,1,35,0,0
43540,-76.9230769230769,4,1,1,45,0,0
44362,-100,4,1,1,45,0,0
44773,-62.5,4,1,1,45,0,0
45389,-71.4285714285714,4,1,1,45,0,0
46006,-71.4285714285714,4,1,1,45,0,0
47650,-62.5,4,1,1,45,0,0
48061,-76.9230769230769,4,1,1,45,0,0
50937,-62.5,4,1,1,45,0,0
51348,-76.9230769230769,4,1,1,45,0,0
52581,-62.5,4,1,1,45,0,0
53403,-62.5,4,1,1,35,0,0
54225,-166.666666666667,4,2,2,45,0,0
54842,-111.111111111111,4,2,2,45,0,0
55458,-83.3333333333333,4,2,2,45,0,0
56074,-66.6666666666667,4,2,2,45,0,0
56896,-55.5555555555556,4,2,2,45,0,0
57513,-166.666666666667,4,2,2,45,0,0
58130,-111.111111111111,4,2,2,45,0,0
58746,-83.3333333333333,4,2,2,45,0,0
59362,-66.6666666666667,4,2,2,45,0,0
59824,-66.6666666666667,4,2,1,45,0,0
59978,-55.5555555555556,4,2,1,45,0,0
60081,-55.5555555555556,4,2,1,5,0,0
60184,-71.4285714285714,4,2,1,45,0,0
60287,-55.5555555555556,4,2,1,5,0,0
60389,-100,4,2,1,45,0,0
60492,-55.5555555555556,4,2,1,5,0,0
60595,-166.666666666667,4,2,1,45,0,0
60698,-55.5555555555556,4,2,1,5,0,0
60800,-166.666666666667,4,2,2,45,0,0
61417,-111.111111111111,4,2,2,45,0,0
62033,-83.3333333333333,4,2,2,45,0,0
62650,-66.6666666666667,4,2,2,45,0,0
63266,-55.5555555555556,4,2,2,45,0,0
64088,-166.666666666667,4,2,2,45,0,0
64705,-111.111111111111,4,2,2,45,0,0
65321,-83.3333333333333,4,2,2,45,0,0
65937,-66.6666666666667,4,2,2,45,0,0
66553,-55.5555555555556,4,2,2,45,0,0
66965,-166.666666666667,4,2,1,35,0,0
69020,-83.3333333333333,4,2,1,55,0,0
69431,-83.3333333333333,4,2,1,55,0,0
69739,-71.4285714285714,4,2,1,55,0,0
70047,-62.5,4,2,1,55,0,0
70663,-83.3333333333333,4,2,1,55,0,0
71074,-71.4285714285714,4,2,1,55,0,0
71485,-62.5,4,2,1,55,0,0
72718,-83.3333333333333,4,2,1,55,0,0
73026,-71.4285714285714,4,2,1,55,0,0
73335,-62.5,4,2,1,55,0,0
73951,-71.4285714285714,4,2,1,55,0,0
74773,-62.5,4,2,1,55,0,0
75595,-71.4285714285714,4,2,1,55,0,0
76314,-62.5,4,2,1,55,0,0
77239,-71.4285714285714,4,2,1,55,0,0
78061,-62.5,4,2,1,55,0,0
78883,-71.4285714285714,4,2,1,55,0,0
79602,-62.5,4,2,1,55,0,0
80732,-55.5555555555556,4,2,1,55,0,0
82170,-83.3333333333333,4,2,1,55,0,0
82581,-71.4285714285714,4,2,1,55,0,0
82889,-62.5,4,2,1,55,0,0
83814,-83.3333333333333,4,2,1,55,0,0
84225,-71.4285714285714,4,2,1,55,0,0
84636,-62.5,4,2,1,55,0,0
85458,-83.3333333333333,4,2,1,55,0,0
85869,-71.4285714285714,4,2,1,55,0,0
86177,-62.5,4,2,1,55,0,0
87102,-83.3333333333333,4,2,1,55,0,0
87513,-71.4285714285714,4,2,1,55,0,0
88129,-62.5,4,2,1,55,0,0
88746,-71.4285714285714,4,2,1,55,0,0
89465,-62.5,4,2,1,55,0,0
90389,-71.4285714285714,4,2,1,55,0,0
91211,-62.5,4,2,1,55,0,0
92033,-71.4285714285714,4,2,1,55,0,0
92752,-62.5,4,2,1,55,0,0
93677,-71.4285714285714,4,2,1,55,0,0
95115,-125,4,2,1,35,0,0
98609,-166.666666666667,4,2,1,35,0,0
103540,410.958904109589,4,2,1,35,1,0
104362,410.958904109589,4,2,1,35,1,0
104362,-125,4,2,1,35,0,0
118334,-125,4,2,1,25,0,0
119156,-125,4,2,1,35,0,0
124909,-125,4,2,1,25,0,0
125731,-125,4,2,1,35,0,0
130663,-83.3333333333333,4,2,1,55,0,0
131074,-83.3333333333333,4,2,1,55,0,0
131382,-71.4285714285714,4,2,1,55,0,0
131690,-62.5,4,2,1,55,0,0
132306,-83.3333333333333,4,2,1,55,0,0
132717,-71.4285714285714,4,2,1,55,0,0
133128,-62.5,4,2,1,55,0,0
133951,-83.3333333333333,4,2,1,55,0,0
134361,-71.4285714285714,4,2,1,55,0,0
134978,-62.5,4,2,1,55,0,0
135594,-71.4285714285714,4,2,1,55,0,0
136416,-62.5,4,2,1,55,0,0
137238,-71.4285714285714,4,2,1,55,0,0
137957,-62.5,4,2,1,55,0,0
138882,-71.4285714285714,4,2,1,55,0,0
139704,-62.5,4,2,1,55,0,0
140526,-71.4285714285714,4,2,1,55,0,0
141245,-62.5,4,2,1,55,0,0
142170,-83.3333333333333,4,2,1,55,0,0
142581,-71.4285714285714,4,2,1,55,0,0
143403,-111.111111111111,4,2,1,55,0,0
143814,-83.3333333333333,4,2,1,55,0,1
144224,-71.4285714285714,4,2,1,55,0,1
144532,-62.5,4,2,1,55,0,1
145046,-55.5555555555556,4,2,1,55,0,1
145457,-83.3333333333333,4,2,1,55,0,1
145868,-71.4285714285714,4,2,1,55,0,1
146279,-62.5,4,2,1,55,0,1
146690,-55.5555555555556,4,2,1,55,0,1
147101,-83.3333333333333,4,2,1,55,0,1
147512,-71.4285714285714,4,2,1,55,0,1
147820,-62.5,4,2,1,55,0,1
148334,-55.5555555555556,4,2,1,55,0,1
148745,-83.3333333333333,4,2,1,55,0,1
149156,-71.4285714285714,4,2,1,55,0,1
149978,-111.111111111111,4,2,1,55,0,1
150389,-71.4285714285714,4,2,1,55,0,1
151108,-62.5,4,2,1,55,0,1
151622,-55.5555555555556,4,2,1,55,0,1
152032,-83.3333333333333,4,2,1,55,0,1
152444,-71.4285714285714,4,2,1,55,0,1
152854,-62.5,4,2,1,55,0,1
153266,-55.5555555555556,4,2,1,55,0,1
153676,-71.4285714285714,4,2,1,55,0,1
154395,-62.5,4,2,1,55,0,1
154909,-55.5555555555556,4,2,1,55,0,1
155320,-71.4285714285714,4,2,1,55,0,1
156964,-666.666666666667,4,1,1,25,0,0
158608,-62.5,4,1,1,45,0,0
159019,-76.9230769230769,4,1,1,45,0,0
160663,-76.9230769230769,4,1,1,35,0,0
161074,-76.9230769230769,4,1,1,45,0,0
161896,-100,4,1,1,45,0,0
162307,-62.5,4,1,1,45,0,0
163540,-71.4285714285714,4,1,1,45,0,0
165182,-62.5,4,1,1,45,0,0
165591,-76.9230769230769,4,1,1,45,0,0
168471,-62.5,4,1,1,45,0,0
168882,-76.9230769230769,4,1,1,45,0,0
170115,-62.5,4,1,1,45,0,0
170526,-62.5,4,1,1,35,0,0
171348,-62.5,4,2,1,45,0,0

[Colours]
Combo1 : 189,189,189
Combo2 : 32,178,170
Combo3 : 60,94,230
Combo4 : 238,60,108
Combo5 : 199,38,217
Combo6 : 151,157,151

[HitObjects]
17,273,40663,6,0,L|15:221,5,38.5714300428119
72,113,41074,6,0,B|50:137|50:137|80:169|140:172|183:135|183:80,1,216,6|0,0:0|0:0,0:0:0:0:
254,52,41485,2,0,B|268:86|255:118|255:118|244:148|260:184,1,116.999994644165,8|0,0:0|0:0,0:0:0:0:
420,132,41896,1,0,0:0:0:0:
413,132,41999,1,0,0:0:0:0:
338,143,42102,1,2,0:0:0:0:
331,143,42205,1,0,0:0:0:0:
374,212,42307,2,0,B|413:213|436:244|431:285|431:285|411:287,1,116.999994644165,8|0,0:0|0:0,0:0:0:0:
275,303,42615,1,0,0:0:0:0:
265,322,42718,70,0,B|279:300|317:295|345:311|345:311|362:347|387:367|414:365,1,175.499991966248,2|0,0:0|0:0,0:0:0:0:
419,286,43129,2,0,L|457:288,6,29.2499986610413,8|0|0|0|0|0|0,0:0|0:0|0:0|0:0|0:0|0:0|0:0,0:0:0:0:
352,354,43540,2,0,L|434:362,1,58.4999973220826,2|0,0:0|0:0,0:0:0:0:
512,201,43746,2,0,L|450:208,1,58.4999973220826,2|0,0:0|0:0,0:0:0:0:
322,108,43951,1,8,0:0:0:0:
324,94,44054,1,0,0:0:0:0:
327,80,44157,2,0,L|405:88,1,58.4999973220826
475,124,44362,6,0,B|515:100|505:55|478:30|478:30|442:43,1,135,2|0,0:0|0:0,0:0:0:0:
385,85,44773,2,0,B|371:125|373:152|392:181|392:181|377:219|393:264,1,144,8|0,0:0|0:0,0:0:0:0:
381,301,45081,1,0,0:0:0:0:
384,313,45184,1,0,0:0:0:0:
265,207,45389,2,0,B|246:216|246:216|238:274,1,62.9999980773926,2|0,0:0|0:0,0:0:0:0:
96,324,45595,2,0,P|66:288|121:294,1,125.999996154785,8|0,0:0|0:0,0:0:0:0:
168,350,45903,1,0,0:0:0:0:
173,340,46006,70,0,L|154:209,1,125.999996154785,2|0,0:0|0:0,0:0:0:0:
64,142,46314,1,0,0:0:0:0:
66,159,46417,2,0,B|52:192|52:192|59:252|59:252|44:288,1,125.999996154785,8|0,0:0|0:0,0:0:0:0:
133,286,46725,1,0,0:0:0:0:
147,286,46828,2,0,L|140:202,1,62.9999980773926,2|0,0:0|0:0,0:0:0:0:
151,98,47033,2,0,L|155:148,2,31.4999990386963,2|2|2,0:0|0:0|0:0,0:0:0:0:
244,250,47239,1,8,0:0:0:0:
242,212,47341,1,0,0:0:0:0:
238,174,47444,1,0,0:0:0:0:
233,136,47547,1,0,0:0:0:0:
277,74,47650,6,0,B|279:69|308:92|307:130|307:130|357:115|372:41|339:8,1,216,6|0,0:0|0:0,0:0:0:0:
450,49,48061,2,0,B|458:75|458:75|442:130|442:130|454:165,1,116.999994644165,8|0,0:0|0:0,0:0:0:0:
434,335,48472,1,0,0:0:0:0:
438,323,48574,1,0,0:0:0:0:
461,253,48677,1,2,0:0:0:0:
465,241,48779,1,0,0:0:0:0:
452,160,48883,2,0,P|385:231|390:266,1,116.999994644165,8|0,0:0|0:0,0:0:0:0:
321,320,49191,1,0,0:0:0:0:
315,329,49294,70,0,B|290:314|250:322|250:322|240:286|205:272,1,116.999994644165,2|0,0:0|0:0,0:0:0:0:
182,381,49602,2,0,P|177:364|176:342,1,29.2499986610413
176,345,49705,2,0,L|187:226,1,116.999994644165,8|0,0:0|0:0,0:0:0:0:
42,223,50115,1,0,0:0:0:0:
40,212,50218,1,0,0:0:0:0:
5,144,50321,1,2,0:0:0:0:
3,133,50424,1,0,0:0:0:0:
57,61,50526,2,0,L|196:68,1,116.999994644165,8|0,0:0|0:0,0:0:0:0:
333,80,50937,6,0,B|338:44|334:10|303:-6|303:-6|240:8|240:8|255:29|264:42|262:65,1,216,2|0,0:0|0:0,0:0:0:0:
320,160,51348,2,0,B|353:165|353:165|377:150|377:150|408:159|408:159|439:146,1,116.999994644165,8|0,0:0|0:0,0:0:0:0:
489,205,51657,1,0,0:0:0:0:
490,220,51759,1,2,0:0:0:0:
390,354,51965,2,0,L|394:275,1,58.4999973220826,2|0,0:0|0:0,0:0:0:0:
331,211,52170,1,8,0:0:0:0:
295,203,52273,1,0,0:0:0:0:
260,213,52376,1,0,0:0:0:0:
238,241,52479,1,0,0:0:0:0:
278,315,52581,6,0,B|269:328|269:328|278:397,1,72,2|0,0:0|0:0,0:0:0:0:
361,238,52787,2,0,B|370:225|370:225|361:156,1,72
235,126,52992,1,8,0:0:0:0:
225,123,53061,1,0,0:0:0:0:
215,119,53129,1,0,0:0:0:0:
206,115,53198,1,2,0:0:0:0:
196,112,53266,1,0,0:0:0:0:
187,108,53335,1,0,0:0:0:0:
177,104,53403,2,0,L|173:147,6,36
225,81,53814,6,0,L|227:30,1,36,8|0,0:0|0:0,0:0:0:0:
274,110,53917,70,0,L|267:160,1,36
320,79,54020,6,0,L|322:28,1,36
370,108,54123,70,0,L|363:158,1,36
419,78,54225,53,4,0:0:0:0:
433,160,54431,2,0,L|442:217,1,53.9999983520508
333,64,54842,5,2,0:0:0:0:
346,186,55047,2,0,L|357:268,1,80.9999975280763
241,41,55458,69,2,0:0:0:0:
258,211,55663,2,0,L|270:319,1,107.999996704102
146,16,56074,5,2,0:0:0:0:
171,239,56280,2,2,L|191:392,1,135.000005149842,0|0,0:0|0:0,0:0:0:0:
58,364,56691,69,0,0:0:0:0:
107,173,56896,2,2,L|152:-12,2,161.999995056153,0|0|0,0:0|0:0|0:0,0:0:0:0:
171,239,57513,5,2,0:0:0:0:
244,282,57718,2,0,P|254:246|254:221,1,53.9999983520508
366,250,58129,69,2,0:0:0:0:
254,229,58335,2,0,P|270:180|299:154,1,80.9999975280763
196,10,58746,5,2,0:0:0:0:
290,159,58951,2,0,P|335:133|361:61,1,107.999996704102
512,306,59362,69,2,0:0:0:0:
359,84,59568,2,0,P|411:34|494:27,1,135.000005149842
502,53,59842,21,0,0:0:0:0:
468,91,59910,1,0,0:0:0:0:
494,136,59978,6,0,L|502:228,1,80.9999975280763
464,165,60184,70,0,L|505:223,1,62.9999980773926
462,196,60389,6,0,L|502:217,1,45
474,216,60595,70,0,L|500:216,1,26.9999991760254
467,298,60800,53,2,0:0:0:0:
290,196,61006,2,0,L|293:256,1,53.9999983520508
276,357,61417,6,0,L|290:189,1,161.999995056153,2|0,0:0|0:0,0:0:0:0:
161,127,62033,70,0,B|193:107|215:69|211:33|192:8|192:8|191:42|206:72|240:89,1,215.999993408203,2|0,0:0|0:0,0:0:0:0:
455,92,62650,6,0,B|506:48|506:48|438:27,1,135.000005149842,2|0,0:0|0:0,0:0:0:0:
221,77,63061,1,2,0:0:0:0:
466,174,63266,70,0,L|438:7,2,161.999995056153,2|2|0,0:0|0:0|0:0,0:0:0:0:
184,338,64088,6,0,P|147:331|188:311,1,107.999996704102,2|0,0:0|0:0,0:0:0:0:
325,298,64705,70,0,B|346:322|400:332|417:310|440:283|419:248|392:251,1,161.999995056153,2|0,0:0|0:0,0:0:0:0:
147,189,65321,6,0,P|74:198|0:92,1,215.999993408203,2|0,0:0|0:0,0:0:0:0:
374,91,65937,70,0,B|401:83|432:100|432:100|468:118|527:98,1,135.000005149842,2|0,0:0|0:0,0:0:0:0:
469,24,66348,1,2,0:0:0:0:
138,29,66554,6,0,L|147:292,1,242.999992584229,2|0,0:0|0:0,0:0:0:0:
250,296,66965,70,0,B|276:285|276:285|246:275,1,53.9999983520508
146,271,67376,2,0,L|120:269,8,17.9999994506836
191,367,69020,21,6,0:0:0:0:
217,371,69123,1,0,0:0:0:0:
243,366,69226,1,0,0:0:0:0:
261,346,69328,1,0,0:0:0:0:
287,277,69431,2,0,L|295:384,1,107.999996704102,8|0,0:0|0:0,0:0:0:0:
203,260,69739,2,0,B|214:243|211:207|199:196|199:196|218:184|230:166|231:149,1,125.999996154785,2|0,0:0|0:0,0:0:0:0:
163,57,70047,2,0,P|169:92|160:126,1,72,2|0,0:0|0:0,0:0:0:0:
130,285,70252,2,0,B|114:264|114:264|111:219,1,72,8|0,0:0|0:0,0:0:0:0:
79,83,70458,1,0,0:0:0:0:
78,75,70561,1,0,0:0:0:0:
78,66,70663,6,0,B|196:53|196:53|252:92,1,161.999995056153,2|0,0:0|0:0,0:0:0:0:
348,110,71074,2,0,B|266:103|266:103|222:71,1,125.999996154785,8|0,0:0|0:0,0:0:0:0:
297,31,71383,1,0,0:0:0:0:
303,24,71485,2,0,L|390:29,1,72,2|0,0:0|0:0,0:0:0:0:
367,189,71691,2,0,L|295:184,1,72,2|0,0:0|0:0,0:0:0:0:
188,242,71896,2,0,B|176:228|151:225|151:225|176:212|205:215|225:234|225:234|254:267|280:273|318:268,1,216,8|0,0:0|0:0,0:0:0:0:
241,306,72307,69,2,0:0:0:0:
216,321,72410,1,0,0:0:0:0:
187,326,72513,1,0,0:0:0:0:
159,319,72615,1,0,0:0:0:0:
92,267,72718,2,0,P|134:236|195:246,1,107.999996704102,8|0,0:0|0:0,0:0:0:0:
181,373,73026,2,0,B|165:360|165:360|157:307,1,62.9999980773926,2|0,0:0|0:0,0:0:0:0:
264,219,73232,1,0,0:0:0:0:
268,227,73335,2,0,P|260:275|239:303,1,72,2|0,0:0|0:0,0:0:0:0:
302,363,73540,2,0,P|337:311|350:229,1,144,8|0,0:0|0:0,0:0:0:0:
321,97,73848,1,0,0:0:0:0:
250,126,73951,6,0,P|252:62|378:45,1,188.999994232178,2|0,0:0|0:0,0:0:0:0:
413,108,74362,2,0,P|427:156|507:182,1,125.999996154785,8|0,0:0|0:0,0:0:0:0:
488,110,74670,1,0,0:0:0:0:
413,108,74773,1,2,0:0:0:0:
417,138,74875,1,0,0:0:0:0:
434,164,74978,1,2,0:0:0:0:
461,181,75081,1,0,0:0:0:0:
492,184,75184,2,0,L|483:269,1,72,8|0,0:0|0:0,0:0:0:0:
344,307,75389,2,0,L|340:207,1,72
334,111,75595,70,0,B|313:81|274:60|236:72|236:72|228:97|190:123|154:121,1,188.999994232178,2|0,0:0|0:0,0:0:0:0:
117,83,76006,2,0,B|104:76|97:70|97:70|103:94|127:115|153:125|189:116,1,125.999996154785,8|0,0:0|0:0,0:0:0:0:
193,201,76314,2,0,P|108:194|52:158,1,144,2|0,0:0|0:0,0:0:0:0:
76,271,76622,2,0,L|159:288,1,72,2|0,0:0|0:0,0:0:0:0:
131,366,76828,1,8,0:0:0:0:
107,360,76930,1,0,0:0:0:0:
83,356,77033,1,0,0:0:0:0:
59,350,77136,1,0,0:0:0:0:
76,271,77239,6,0,B|137:284|137:284|213:287|213:287|284:305,1,188.999994232178,2|0,0:0|0:0,0:0:0:0:
260,210,77650,2,0,B|324:227|324:227|304:157,1,125.999996154785,8|0,0:0|0:0,0:0:0:0:
389,128,77958,1,0,0:0:0:0:
395,146,78061,2,0,L|417:227,1,72,2|0,0:0|0:0,0:0:0:0:
487,123,78266,2,0,L|500:42,1,72,2|0,0:0|0:0,0:0:0:0:
417,3,78472,2,0,L|394:149,1,144,8|0,0:0|0:0,0:0:0:0:
305,215,78780,1,0,0:0:0:0:
287,207,78883,70,0,B|266:177|280:149|280:149|299:119|289:77|289:77|317:78|337:56|344:34,1,188.999994232178,2|0,0:0|0:0,0:0:0:0:
278,3,79294,2,0,P|226:37|225:108,1,125.999996154785,8|0,0:0|0:0,0:0:0:0:
208,170,79602,2,0,P|270:148|284:63,1,144,2|0,0:0|0:0,0:0:0:0:
135,100,79910,2,0,B|128:127|128:127|134:155|134:155|125:190,1,72,2|0,0:0|0:0,0:0:0:0:
205,272,80115,2,0,B|197:225|197:225|210:166|210:166|202:117,1,144,8|0,0:0|0:0,0:0:0:0:
53,160,80424,1,0,0:0:0:0:
52,172,80526,6,0,B|45:199|45:199|51:227|51:227|42:262,1,72,6|0,0:0|0:0,0:0:0:0:
285,241,80732,2,0,B|291:271|291:271|280:355,2,80.9999975280763,8|0|0,0:0|0:0|0:0,0:0:0:0:
134,223,81040,2,0,B|128:193|128:193|139:109,2,80.9999975280763,8|0|0,0:0|0:0|0:0,0:0:0:0:
124,317,81348,69,8,0:0:0:0:
114,330,81451,1,8,0:0:0:0:
101,340,81554,1,8,0:0:0:0:
63,264,81657,5,0,0:0:0:0:
48,270,81760,1,8,0:0:0:0:
32,269,81863,1,8,0:0:0:0:
54,188,81965,69,8,0:0:0:0:
42,179,82068,1,8,0:0:0:0:
101,112,82170,6,0,B|107:83|107:83|174:53|174:53|252:112,1,161.999995056153,6|0,0:0|0:0,0:0:0:0:
227,261,82581,2,8,B|216:228|191:208|191:208|169:190|165:143,1,125.999996154785,8|0,0:0|0:0,0:0:0:0:
221,88,82889,2,0,B|251:121|251:121|242:168,1,72,2|0,0:0|0:0,0:0:0:0:
144,230,83095,1,0,0:0:0:0:
147,223,83198,2,0,L|166:151,1,72,2|0,0:0|0:0,0:0:0:0:
335,161,83403,2,0,B|325:200|325:200|285:242,1,72,8|0,0:0|0:0,0:0:0:0:
186,384,83609,1,0,0:0:0:0:
188,376,83711,1,0,0:0:0:0:
194,365,83814,70,0,B|200:334|232:319|266:330|266:330|286:352|315:362|364:352,1,161.999995056153,2|0,0:0|0:0,0:0:0:0:
325,281,84225,2,0,B|346:247|346:247|332:136,1,125.999996154785,8|0,0:0|0:0,0:0:0:0:
260,50,84533,1,0,0:0:0:0:
255,60,84636,2,0,B|266:83|266:83|252:158,1,72,2|0,0:0|0:0,0:0:0:0:
198,252,84842,2,0,B|205:228|205:228|191:153,1,72,2|0,0:0|0:0,0:0:0:0:
119,129,85047,2,0,B|107:175|107:175|119:228|119:228|100:290,1,144,8|0,0:0|0:0,0:0:0:0:
133,343,85355,1,0,0:0:0:0:
214,330,85458,6,0,P|261:354|331:338,1,107.999996704102,2|0,0:0|0:0,0:0:0:0:
295,182,85766,1,0,0:0:0:0:
279,189,85869,2,0,P|243:232|304:259,1,125.999996154785,8|0,0:0|0:0,0:0:0:0:
406,325,86177,2,0,L|389:254,1,72,2|0,0:0|0:0,0:0:0:0:
290,265,86383,1,0,0:0:0:0:
298,277,86485,2,0,B|314:348,1,72,2|0,0:0|0:0,0:0:0:0:
438,176,86691,2,0,B|452:98|452:98|382:30,1,144,8|0,0:0|0:0,0:0:0:0:
264,167,86999,1,0,0:0:0:0:
267,153,87102,70,0,B|290:127|290:127|301:94|301:94|296:67|296:67|279:36|279:36|231:11,1,161.999995056153,2|0,0:0|0:0,0:0:0:0:
168,115,87513,2,0,P|218:96|234:70,1,62.9999980773926,8|0,0:0|0:0,0:0:0:0:
161,29,87718,1,0,0:0:0:0:
148,12,87820,1,0,0:0:0:0:
130,1,87923,1,2,0:0:0:0:
110,0,88026,1,0,0:0:0:0:
47,60,88129,2,0,B|35:108|35:108|42:166|42:166|27:224,2,144,2|8|0,0:0|0:0|0:0,0:0:0:0:
85,255,88746,6,0,B|112:279|124:305|123:349|100:379|100:379|109:337|88:315,1,188.999994232178,2|0,0:0|0:0,0:0:0:0:
208,246,89157,2,0,B|193:214|194:190|208:154|208:154|216:180|226:197,1,125.999996154785,8|0,0:0|0:0,0:0:0:0:
297,288,89465,2,0,B|306:324|302:355|278:386|278:386|289:354|278:318,1,144,2|0,0:0|0:0,0:0:0:0:
389,290,89773,2,0,P|395:229|420:206,1,72,2|0,0:0|0:0,0:0:0:0:
441,52,89979,1,8,0:0:0:0:
432,77,90081,1,0,0:0:0:0:
431,104,90184,1,0,0:0:0:0:
437,130,90287,1,0,0:0:0:0:
500,178,90389,70,0,P|524:107|490:-9,1,188.999994232178,2|0,0:0|0:0,0:0:0:0:
441,52,90800,2,0,P|400:86|449:130,1,125.999996154785,8|0,0:0|0:0,0:0:0:0:
382,193,91109,1,0,0:0:0:0:
368,184,91211,2,0,P|334:148|323:112,1,72,2|0,0:0|0:0,0:0:0:0:
327,57,91417,2,0,P|322:109|337:155,1,72,2|0,0:0|0:0,0:0:0:0:
260,195,91622,1,8,0:0:0:0:
251,159,91724,1,0,0:0:0:0:
243,124,91827,1,0,0:0:0:0:
235,89,91930,1,0,0:0:0:0:
157,34,92033,6,0,B|119:32|90:50|71:74|63:116|63:116|83:186,1,188.999994232178,2|0,0:0|0:0,0:0:0:0:
136,235,92444,2,0,B|167:221|177:167|177:167|163:116,1,125.999996154785,8|0,0:0|0:0,0:0:0:0:
65,123,92752,2,0,B|78:165|78:165|50:193|37:240|61:282,1,144,2|0,0:0|0:0,0:0:0:0:
224,254,93061,2,0,P|246:211|248:170,1,72,2|0,0:0|0:0,0:0:0:0:
136,235,93266,2,0,B|129:268|148:306|148:306|162:336|142:380,1,144,8|0,0:0|0:0,0:0:0:0:
312,341,93574,1,0,0:0:0:0:
326,319,93677,70,0,L|317:180,1,125.999996154785,2|0,0:0|0:0,0:0:0:0:
414,169,93985,1,0,0:0:0:0:
418,178,94088,2,0,L|408:245,1,62.9999980773926,8|0,0:0|0:0,0:0:0:0:
237,203,94294,2,0,L|246:140,1,62.9999980773926,2|0,0:0|0:0,0:0:0:0:
393,42,94499,5,0,0:0:0:0:
435,95,94602,1,0,0:0:0:0:
433,147,94705,1,0,0:0:0:0:
418,178,94807,1,0,0:0:0:0:
396,190,94910,1,0,0:0:0:0:
384,191,95013,1,0,0:0:0:0:
377,190,95115,2,8,L|326:184,1,36,0|0,0:0|0:0,0:0:0:0:
375,46,95321,2,0,L|392:42,4,18,8|8|8|8|8,0:0|0:0|0:0|0:0|0:0,0:0:0:0:
200,241,98609,6,0,L|106:323,1,107.999996704102
312,136,99431,2,0,L|352:96,1,53.9999983520508
200,136,99842,2,0,L|120:56,1,107.999996704102
312,248,100663,2,0,L|392:328,1,107.999996704102
256,168,102718,2,0,L|256:232,2,53.9999983520508
256,192,103335,12,2,104362,0:0:0:0:
0,312,104978,5,2,0:0:0:0:
112,312,105183,2,0,L|112:80,1,216
224,88,106005,2,0,L|224:240,1,144
328,232,106622,1,0,0:0:0:0:
224,376,106827,2,0,L|224:216,1,144
448,48,107649,70,0,L|448:200,1,144,2|0,0:0|0:0,0:0:0:0:
352,48,108266,2,0,L|352:200,1,144,2|0,0:0|0:0,0:0:0:0:
256,192,108882,1,0,0:0:0:0:
208,112,109293,2,0,P|256:88|304:112,1,108
304,272,109704,2,0,P|256:296|208:272,1,108
256,192,110115,1,8,0:0:0:0:
144,192,110320,2,0,L|24:192,1,108,2|0,0:0|0:0,0:0:0:0:
0,288,110937,6,0,L|152:288,1,144,2|0,0:0|0:0,0:0:0:0:
144,96,111553,1,2,0:0:0:0:
144,192,111759,2,0,L|0:192,1,144
328,72,112581,2,0,L|472:72,1,144
328,192,113197,2,0,L|472:192,1,144
400,336,113814,2,0,L|401:241,1,72
336,192,114225,70,0,L|192:192,1,144,2|0,0:0|0:0,0:0:0:0:
128,136,114841,2,0,L|128:-16,1,144,2|0,0:0|0:0,0:0:0:0:
32,136,115457,1,0,0:0:0:0:
156,188,115868,2,0,P|214:208|262:185,1,108
354,195,116279,2,0,P|296:175|248:198,1,108
208,135,116690,1,8,0:0:0:0:
305,251,116896,2,0,B|335:287|307:325|307:325|283:359|305:398,1,144,2|0,0:0|0:0,0:0:0:0:
424,192,117512,6,0,L|424:40,1,144,2|0,0:0|0:0,0:0:0:0:
504,48,118129,1,2,0:0:0:0:
344,48,118334,2,0,L|312:48,5,24
344,128,118745,2,0,L|312:128,5,24
344,208,119156,2,0,L|192:208,2,144
104,336,120389,2,0,L|104:240,1,72
24,192,120800,70,0,L|24:40,1,144,2|0,0:0|0:0,0:0:0:0:
104,192,121416,2,0,L|104:336,1,144,2|0,0:0|0:0,0:0:0:0:
184,336,122033,1,0,0:0:0:0:
184,192,122444,2,0,P|184:144|320:208,1,288,0|8,0:0|0:0,0:0:0:0:
256,168,123677,1,0,0:0:0:0:
256,248,123882,1,0,0:0:0:0:
256,328,124088,6,0,L|416:328,1,144,2|0,0:0|0:0,0:0:0:0:
400,248,124704,1,2,0:0:0:0:
400,168,124909,2,0,L|432:168,5,24
424,88,125320,2,0,L|400:88,5,24
320,32,125731,2,0,L|320:176,2,144
64,32,126964,1,0,0:0:0:0:
64,112,127170,1,0,0:0:0:0:
64,192,127375,70,0,L|208:192,1,144,2|0,0:0|0:0,0:0:0:0:
448,192,127992,2,0,L|304:192,1,144,2|0,0:0|0:0,0:0:0:0:
186,126,128608,2,0,L|98:126,1,72
167,53,129019,2,0,P|242:34|306:51,1,144
369,106,129635,1,0,0:0:0:0:
287,131,129841,2,0,P|240:112|168:144,1,108
232,199,130252,54,0,L|224:235,5,24
175,342,130663,6,0,B|204:312|216:279|219:252|213:216|213:216|232:200,1,161.999995056153,6|0,0:0|0:0,0:0:0:0:
126,230,131074,2,0,B|128:221|121:204|121:204|146:226|144:254|127:277,1,107.999996704102,8|0,0:0|0:0,0:0:0:0:
261,379,131382,2,0,P|292:318|295:241,1,125.999996154785,2|0,0:0|0:0,0:0:0:0:
214,130,131690,2,0,P|232:201|227:249,1,72,2|0,0:0|0:0,0:0:0:0:
26,218,131896,2,8,P|45:120|98:76,1,144,8|0,0:0|0:0,0:0:0:0:
149,73,132204,1,0,0:0:0:0:
214,130,132307,70,0,B|334:126|334:126|372:89,1,161.999995056153,2|0,0:0|0:0,0:0:0:0:
500,190,132718,2,8,B|412:172|412:172|372:211,1,125.999996154785,8|0,0:0|0:0,0:0:0:0:
276,278,133026,1,0,0:0:0:0:
277,271,133129,2,0,B|311:254|346:277|346:277|379:295|425:277,1,144,2|0,0:0|0:0,0:0:0:0:
382,370,133437,1,0,0:0:0:0:
373,371,133540,2,8,P|333:365|294:334,1,72,8|0,0:0|0:0,0:0:0:0:
415,280,133745,2,0,P|452:258|469:205,1,72,8|0,0:0|0:0,0:0:0:0:
348,42,133951,6,0,B|362:144|362:144|388:163|397:198|384:239,1,161.999995056153,2|0,0:0|0:0,0:0:0:0:
249,164,134362,2,8,P|341:133|385:174,1,125.999996154785,8|0,0:0|0:0,0:0:0:0:
326,332,134670,2,0,P|305:281|322:193,1,125.999996154785,2|0,0:0|0:0,0:0:0:0:
233,97,134978,2,0,P|252:149|233:187,1,72,2|0,0:0|0:0,0:0:0:0:
159,191,135183,2,0,B|165:153|165:153|136:77,1,72,8|0,0:0|0:0,0:0:0:0:
146,51,135389,2,0,B|141:89|141:89|169:165,1,72
152,228,135594,70,0,B|158:188|158:188|164:151|164:151|141:87|141:87|101:43|101:43,1,188.999994232178,2|0,0:0|0:0,0:0:0:0:
37,109,136005,2,8,B|72:150|72:150|58:232,1,125.999996154785,8|0,0:0|0:0,0:0:0:0:
221,288,136314,1,0,0:0:0:0:
229,270,136416,2,0,L|246:163,1,72,2|0,0:0|0:0,0:0:0:0:
347,169,136622,1,2,0:0:0:0:
343,197,136724,1,0,0:0:0:0:
338,225,136827,1,8,0:0:0:0:
335,253,136930,1,0,0:0:0:0:
332,281,137033,2,0,P|373:259|416:271,1,72,8|0,0:0|0:0,0:0:0:0:
464,205,137238,6,0,B|427:176|385:165|344:174|344:174|330:130|273:113,1,188.999994232178,2|0,0:0|0:0,0:0:0:0:
242,128,137649,2,8,P|306:127|334:156,1,62.9999980773926,8|0,0:0|0:0,0:0:0:0:
377,80,137855,1,0,0:0:0:0:
383,90,137957,2,0,P|307:42|250:43,1,144,2|0,0:0|0:0,0:0:0:0:
138,90,138266,2,0,L|159:198,1,72,2|0,0:0|0:0,0:0:0:0:
240,365,138471,2,8,L|265:223,1,144,8|0,0:0|0:0,0:0:0:0:
108,0,138882,70,0,L|151:222,1,188.999994232178,2|0,0:0|0:0,0:0:0:0:
63,198,139293,2,8,P|76:137|146:103,1,125.999996154785,8|0,0:0|0:0,0:0:0:0:
143,185,139601,1,0,0:0:0:0:
147,198,139704,2,0,L|112:355,1,144,2|0,0:0|0:0,0:0:0:0:
41,372,140012,1,0,0:0:0:0:
31,356,140115,2,8,P|37:304|56:274,1,72,8|0,0:0|0:0,0:0:0:0:
196,313,140320,2,0,P|196:368|177:398,1,72
115,345,140526,6,0,B|106:301|116:256|166:232|166:232|171:205|155:176|129:168,1,188.999994232178,2|0,0:0|0:0,0:0:0:0:
214,130,140937,2,8,P|245:180|252:203,1,62.9999980773926,8|0,0:0|0:0,0:0:0:0:
309,294,141142,1,0,0:0:0:0:
313,311,141245,2,0,L|462:300,1,144,2|0,0:0|0:0,0:0:0:0:
390,336,141553,2,0,L|387:389,2,36,2|0|0,0:0|0:0|0:0,0:0:0:0:
378,208,141759,1,8,0:0:0:0:
381,172,141861,1,0,0:0:0:0:
384,136,141964,1,0,0:0:0:0:
387,100,142067,1,0,0:0:0:0:
360,15,142170,70,0,B|330:-10|273:-8|248:24|248:24|281:33|292:55,1,161.999995056153,2|0,0:0|0:0,0:0:0:0:
226,102,142581,2,8,B|217:136|217:136|226:165|226:165|217:196|217:196|222:235,1,125.999996154785,8|0,0:0|0:0,0:0:0:0:
138,229,142889,1,0,0:0:0:0:
136,218,142992,2,0,B|132:182|132:182|141:149,1,62.9999980773926,2|0,0:0|0:0,0:0:0:0:
306,195,143197,2,0,B|310:231|310:231|297:261,1,62.9999980773926,2|0,0:0|0:0,0:0:0:0:
214,333,143403,22,8,B|203:292|203:292|214:252,1,80.9999975280763,8|0,0:0|0:0,0:0:0:0:
214,333,143814,54,0,B|225:292|225:292|214:252|214:252|183:222|183:222|135:213,1,161.999995056153,6|0,0:0|0:0,0:0:0:0:
17,332,144225,2,8,B|58:337|82:317|82:317|108:297|155:306,1,125.999996154785,8|0,0:0|0:0,0:0:0:0:
148,215,144533,2,0,B|106:210|106:210|60:235,1,72,2|0,0:0|0:0,0:0:0:0:
123,375,144738,1,0,0:0:0:0:
136,376,144841,2,0,L|236:384,1,72,2|0,0:0|0:0,0:0:0:0:
386,342,145046,2,0,B|270:334|270:334|235:302,1,161.999995056153,8|0,0:0|0:0,0:0:0:0:
238,220,145355,1,0,0:0:0:0:
317,196,145457,6,0,B|440:203|440:203|399:240,1,161.999995056153,2|0,0:0|0:0,0:0:0:0:
238,220,145868,2,8,B|141:229|141:229|175:250,1,125.999996154785,8|0,0:0|0:0,0:0:0:0:
321,111,146177,1,0,0:0:0:0:
331,111,146279,2,0,B|387:119|387:119|371:137,1,72,2|0,0:0|0:0,0:0:0:0:
174,76,146485,2,0,B|118:84|118:84|141:93,1,72,2|0,0:0|0:0,0:0:0:0:
246,161,146690,2,8,L|248:0,1,161.999995056153,8|0,0:0|0:0,0:0:0:0:
207,344,147101,70,0,B|231:315|235:275|217:238|217:238|193:223|181:212|174:185,1,161.999995056153,2|0,0:0|0:0,0:0:0:0:
129,309,147512,2,8,P|121:350|137:391,1,62.9999980773926,8|0,0:0|0:0,0:0:0:0:
282,383,147718,1,0,0:0:0:0:
290,373,147820,2,0,P|310:309|302:223,1,144,2|0,0:0|0:0,0:0:0:0:
229,274,148129,2,0,P|213:331|199:355,1,72,2|0,0:0|0:0,0:0:0:0:
400,328,148334,2,8,P|402:270|369:170,1,161.999995056153,8|0,0:0|0:0,0:0:0:0:
164,102,148745,6,0,P|108:117|160:176,1,161.999995056153,2|0,0:0|0:0,0:0:0:0:
220,42,149156,2,0,P|199:26|100:19,1,125.999996154785,8|0,0:0|0:0,0:0:0:0:
154,177,149464,1,0,0:0:0:0:
155,164,149567,2,0,L|165:91,1,62.9999980773926,2|0,0:0|0:0,0:0:0:0:
73,165,149772,2,0,P|76:211|103:246,1,62.9999980773926,2|0,0:0|0:0,0:0:0:0:
187,261,149978,6,0,P|224:226|234:191,1,80.9999975280763,8|0,0:0|0:0,0:0:0:0:
341,212,150389,54,0,B|288:217|233:199|233:199|226:228|213:248|186:261,1,188.999994232178,6|0,0:0|0:0,0:0:0:0:
32,308,150800,2,0,B|67:307|104:295|104:295|114:316|122:331|154:345,1,125.999996154785,8|0,0:0|0:0,0:0:0:0:
205,346,151108,2,0,P|174:349|123:325,1,72,2|0,0:0|0:0,0:0:0:0:
192,164,151314,1,0,0:0:0:0:
186,181,151416,2,0,B|180:226|180:226|191:260,1,72,2|0,0:0|0:0,0:0:0:0:
290,296,151622,2,0,B|262:217|262:217|283:110,1,161.999995056153,8|0,0:0|0:0,0:0:0:0:
368,143,151930,1,0,0:0:0:0:
365,159,152033,6,2,B|355:213|355:213|379:282|379:282|394:235,1,161.999995056153,2|0,0:0|0:0,0:0:0:0:
281,344,152444,2,0,B|292:299|292:299|266:221,1,125.999996154785,8|0,0:0|0:0,0:0:0:0:
193,170,152752,1,0,0:0:0:0:
188,188,152855,2,0,B|178:225|178:225|193:278,1,72,2|0,0:0|0:0,0:0:0:0:
100,170,153060,2,0,B|113:132|113:132|98:68,1,72,2|0,0:0|0:0,0:0:0:0:
187,0,153266,2,0,B|226:1|259:19|282:46|272:91|272:91|224:75,1,161.999995056153,8|0,0:0|0:0,0:0:0:0:
113,92,153574,1,0,0:0:0:0:
106,102,153677,70,0,B|126:96|153:99|171:111|171:111|178:143|207:164|234:169|234:169|208:174|185:193,1,188.999994232178,2|0,0:0|0:0,0:0:0:0:
59,194,154088,2,0,B|80:183|103:183|120:198|120:198|124:222|139:243|180:267,1,125.999996154785,8|0,0:0|0:0,0:0:0:0:
319,291,154396,2,0,B|342:271|342:271|217:283,1,144,2|0,0:0|0:0,0:0:0:0:
152,316,154704,2,0,P|143:281|152:247,1,72,2|0,0:0|0:0,0:0:0:0:
314,195,154909,2,0,B|325:173|325:173|329:109,1,80.9999975280763,8|0,0:0|0:0,0:0:0:0:
91,105,155115,2,0,B|81:88|81:88|78:21,1,80.9999975280763,8|0,0:0|0:0,0:0:0:0:
269,25,155320,5,2,0:0:0:0:
299,52,155422,1,0,0:0:0:0:
300,93,155525,1,0,0:0:0:0:
271,122,155628,1,0,0:0:0:0:
216,256,155731,69,8,0:0:0:0:
162,226,155834,1,0,0:0:0:0:
147,166,155937,1,2,0:0:0:0:
180,114,156039,1,0,0:0:0:0:
271,122,156142,6,0,L|271:210,1,62.9999980773926
302,289,156348,2,0,L|302:377,1,62.9999980773926,2|0,0:0|0:0,0:0:0:0:
370,83,156553,70,0,L|379:168,1,62.9999980773926,8|0,0:0|0:0,0:0:0:0:
140,295,156759,2,0,L|149:380,1,62.9999980773926,8|0,0:0|0:0,0:0:0:0:
179,44,156964,38,0,L|171:130,1,80.9999975280763
0,136,158608,6,0,B|180:159|180:159|166:102,1,216,6|0,0:0|0:0,0:0:0:0:
189,86,159019,2,0,B|185:127|185:127|194:165|194:165|189:207,1,116.999994644165,8|0,0:0|0:0,0:0:0:0:
250,354,159430,1,0,0:0:0:0:
262,354,159533,1,0,0:0:0:0:
347,346,159635,1,2,0:0:0:0:
359,346,159738,1,0,0:0:0:0:
423,280,159841,2,0,P|435:230|407:152,1,116.999994644165,8|0,0:0|0:0,0:0:0:0:
406,89,160149,1,0,0:0:0:0:
416,78,160252,6,0,B|393:79|380:79|361:98|361:98|330:89|306:99|306:99|279:92|264:79|248:47,1,175.499991966248,2|0,0:0|0:0,0:0:0:0:
171,21,160663,2,0,L|125:21,6,29.2499986610413,8|0|0|0|0|0|0,0:0|0:0|0:0|0:0|0:0|0:0|0:0,0:0:0:0:
46,81,161074,2,0,L|57:4,1,58.4999973220826,2|0,0:0|0:0,0:0:0:0:
199,158,161279,2,0,L|190:85,1,58.4999973220826,2|0,0:0|0:0,0:0:0:0:
63,219,161485,1,8,0:0:0:0:
58,218,161588,1,0,0:0:0:0:
53,216,161690,2,0,L|64:150,1,58.4999973220826
141,229,161896,70,0,B|148:252|138:274|138:274|128:297|131:331|131:331|111:315|96:294,1,135,2|0,0:0|0:0,0:0:0:0:
63,159,162307,2,0,B|138:141|138:141|215:167,1,144,8|0,0:0|0:0,0:0:0:0:
281,212,162615,1,0,0:0:0:0:
298,204,162718,1,0,0:0:0:0:
425,115,162923,2,0,B|438:136|438:136|441:191,1,72,2|0,0:0|0:0,0:0:0:0:
396,311,163129,2,0,B|372:307|352:283|354:255|376:236|376:236|393:258|415:271|437:264,1,144,8|0,0:0|0:0,0:0:0:0:
481,328,163437,1,0,0:0:0:0:
481,341,163540,6,0,L|342:355,1,125.999996154785,2|0,0:0|0:0,0:0:0:0:
261,330,163848,1,0,0:0:0:0:
249,320,163951,2,0,P|213:268|243:221,1,125.999996154785,8|0,0:0|0:0,0:0:0:0:
341,185,164259,1,0,0:0:0:0:
347,197,164362,2,0,L|339:274,1,62.9999980773926,2|0,0:0|0:0,0:0:0:0:
198,162,164567,2,0,L|200:120,2,31.4999990386963,2|2|2,0:0|0:0|0:0,0:0:0:0:
374,60,164772,1,8,0:0:0:0:
359,96,164874,1,0,0:0:0:0:
325,113,164977,1,0,0:0:0:0:
288,104,165080,1,0,0:0:0:0:
302,21,165183,70,0,B|273:10|244:21|244:21|210:37|156:20|156:20|178:27|193:36|209:62,1,216,6|0,0:0|0:0,0:0:0:0:
130,106,165594,2,0,B|108:88|108:88|85:117|83:149|103:185,1,116.999994644165,8|0,0:0|0:0,0:0:0:0:
139,324,166005,1,0,0:0:0:0:
147,319,166108,1,0,0:0:0:0:
223,369,166211,1,2,0:0:0:0:
228,360,166314,1,0,0:0:0:0:
316,358,166416,2,0,L|312:230,1,116.999994644165,8|0,0:0|0:0,0:0:0:0:
426,152,166725,1,0,0:0:0:0:
434,164,166827,6,0,B|445:190|435:220|407:243|407:243|380:212,1,116.999994644165,2|0,0:0|0:0,0:0:0:0:
313,242,167135,2,0,L|315:207,1,29.2499986610413
312,192,167238,2,0,B|306:134|306:134|311:121|311:121|305:57,1,116.999994644165,8|0,0:0|0:0,0:0:0:0:
187,113,167649,1,0,0:0:0:0:
174,120,167752,1,0,0:0:0:0:
145,193,167855,1,2,0:0:0:0:
144,207,167958,1,0,0:0:0:0:
205,267,168060,2,0,P|227:319|190:372,1,116.999994644165,8|0,0:0|0:0,0:0:0:0:
31,181,168471,70,0,L|277:158,1,216,2|0,0:0|0:0,0:0:0:0:
343,185,168882,2,0,B|392:149|392:149|330:123,1,116.999994644165,8|0,0:0|0:0,0:0:0:0:
338,49,169190,1,0,0:0:0:0:
337,37,169293,1,0,0:0:0:0:
247,161,169498,2,0,L|251:231,1,58.4999973220826,2|0,0:0|0:0,0:0:0:0:
198,296,169704,1,8,0:0:0:0:
233,294,169807,1,0,0:0:0:0:
267,292,169909,1,0,0:0:0:0:
302,291,170012,1,0,0:0:0:0:
356,221,170115,6,0,L|436:217,1,72,2|0,0:0|0:0,0:0:0:0:
493,74,170320,2,0,L|403:79,1,72
288,109,170526,5,8,0:0:0:0:
277,130,170594,1,0,0:0:0:0:
258,146,170662,1,0,0:0:0:0:
236,154,170731,1,2,0:0:0:0:
212,154,170799,1,0,0:0:0:0:
190,147,170868,1,0,0:0:0:0:
170,128,170937,6,0,P|172:97|180:74,6,36
87,208,171348,69,8,0:0:0:0:
79,241,171451,1,0,0:0:0:0:
40,116,171553,5,8,0:0:0:0:
34,94,171656,1,0,0:0:0:0:
