osu file format v14

[General]
AudioFilename: audio.mp3
AudioLeadIn: 0
PreviewTime: 62998
Countdown: 0
SampleSet: Normal
StackLeniency: 0.8
Mode: 0
LetterboxInBreaks: 0
WidescreenStoryboard: 0

[Editor]
DistanceSpacing: 0.9
BeatDivisor: 4
GridSize: 16
TimelineZoom: 3.499999

[Metadata]
Title:Saikousoku Fall in Love (TV size)
TitleUnicode:Saikousoku Fall in Love (TV size)
Artist:Monster Musume cast
ArtistUnicode:Monster Musume cast
Creator:Weijie01
Version:Insane
Source:Monster Musume no Iru Nichijou
Tags:Monster Musume Op
BeatmapID:1363148
BeatmapSetID:643012

[Difficulty]
HPDrainRate:6
CircleSize:4
OverallDifficulty:5
ApproachRate:8.5
SliderMultiplier:1.4
SliderTickRate:1

[Events]
//Background and Video events
0,0,"bl8llzr1.png",0,0
//Break Periods
//Storyboard Layer 0 (Background)
//Storyboard Layer 1 (Fail)
//Storyboard Layer 2 (Pass)
//Storyboard Layer 3 (Foreground)
//Storyboard Sound Samples

[TimingPoints]
680,454.545454545455,4,1,0,38,1,0
680,-200,4,1,0,38,0,0
9770,-142.857142857143,4,1,0,38,0,0
18861,342.857142857143,4,1,0,40,1,0
18861,-100,4,1,0,40,0,0
52461,-71.4285714285714,4,1,0,40,0,0
64118,-71.4285714285714,4,1,0,65,0,1
70975,-50,4,1,0,65,0,1
72175,-71.4285714285714,4,1,0,65,0,1
73718,-71.4285714285714,4,1,0,35,0,0
74061,-71.4285714285714,4,1,0,42,0,0
74403,-71.4285714285714,4,1,0,50,0,0
75089,-71.4285714285714,4,1,0,65,0,1
81775,-50,4,1,0,65,0,1
83318,-500,4,1,0,55,0,0
87432,-66.6666666666667,4,1,0,38,0,0
87775,-66.6666666666667,4,1,0,44,0,0
88118,-66.6666666666667,4,1,0,50,0,0
88461,-66.6666666666667,4,1,0,56,0,0
88803,-66.6666666666667,4,1,0,65,0,0

[HitObjects]
112,100,2498,6,0,P|120:172|128:184,1,70,4|0,2:2|2:0,2:0:0:0:
185,248,3293,1,0,0:0:0:0:
197,269,3407,1,0,0:0:0:0:
209,247,3520,1,0,0:0:0:0:
197,345,3861,1,0,0:0:0:0:
329,248,4316,6,0,P|355:224|372:193,1,70,0|0,2:0|2:0,2:0:0:0:
401,100,4998,1,0,0:0:0:0:
401,100,5111,1,0,0:0:0:0:
401,100,5225,1,0,2:0:0:0:
394,17,5680,1,0,0:0:0:0:
210,141,6134,5,0,2:0:0:0:
329,248,6589,1,0,2:0:0:0:
157,331,7043,5,0,2:0:0:0:
306,157,7498,1,0,2:0:0:0:
459,114,7952,6,0,P|467:148|465:183,1,70,4|0,2:2|2:2,2:2:0:0:
411,272,8861,1,0,0:0:0:0:
403,306,8975,1,0,0:0:0:0:
395,340,9088,1,0,0:0:0:0:
320,291,9316,1,0,0:0:0:0:
312,325,9430,1,0,0:0:0:0:
304,359,9543,1,0,0:0:0:0:
151,331,9770,6,0,P|93:299|77:263,1,97.9999970092774
102,132,10679,1,0,0:0:0:0:
157,253,11134,1,4,0:0:0:0:
225,67,11589,6,0,P|284:39|323:47,1,97.9999970092774,0|0,2:0|2:0,2:0:0:0:
411,146,12498,1,0,0:1:0:0:
411,146,12952,1,0,0:0:0:0:
348,329,13407,5,0,2:0:0:0:
326,171,13861,1,0,2:0:0:0:
163,282,14315,5,0,2:0:0:0:
389,244,14770,1,0,2:0:0:0:
255,298,15225,6,0,P|189:299|157:276,1,97.9999970092774,0|0,0:3|0:3,0:3:0:0:
114,152,16134,1,0,0:3:0:0:
139,218,17043,6,0,P|51:187|114:81,1,245,4|0,2:2|2:0,2:0:0:0:
114,152,18861,5,0,2:0:0:0:
146,138,18946,1,0,2:0:0:0:
181,138,19032,1,0,2:0:0:0:
213,150,19118,1,0,2:0:0:0:
245,174,19203,1,0,2:0:0:0:
277,188,19288,1,0,2:0:0:0:
312,188,19374,1,0,2:0:0:0:
344,176,19460,1,0,2:0:0:0:
381,163,19546,5,0,2:0:0:0:
395,195,19631,1,0,2:0:0:0:
395,230,19717,1,0,2:0:0:0:
383,262,19803,1,0,2:0:0:0:
360,294,19889,2,0,P|308:284|260:302,1,105,0|0,2:0|2:0,2:0:0:0:
208,244,20232,1,4,2:0:0:0:
92,78,20575,5,0,2:0:0:0:
115,103,20660,1,0,2:0:0:0:
144,123,20746,1,0,2:0:0:0:
177,136,20832,1,0,2:0:0:0:
211,141,20917,1,0,2:0:0:0:
246,138,21003,1,0,2:0:0:0:
279,128,21089,1,0,2:0:0:0:
310,111,21175,1,0,2:0:0:0:
340,91,21261,2,0,P|369:134|371:184,1,105,0|0,2:0|2:0,2:0:0:0:
296,200,21603,1,0,2:0:0:0:
116,301,21946,5,0,2:0:0:0:
94,274,22031,1,0,2:0:0:0:
94,239,22117,1,0,2:0:0:0:
109,208,22203,1,0,2:0:0:0:
125,177,22288,1,0,2:0:0:0:
135,144,22374,1,0,2:0:0:0:
129,109,22460,1,0,2:0:0:0:
110,80,22546,1,0,2:0:0:0:
100,46,22632,2,0,P|151:47|192:76,1,105,0|0,2:0|2:0,2:0:0:0:
207,148,22975,1,0,2:0:0:0:
387,314,23318,5,0,0:0:0:0:
362,289,23403,1,0,0:0:0:0:
332,271,23489,1,0,0:0:0:0:
298,260,23575,1,0,0:0:0:0:
264,258,23660,1,0,0:0:0:0:
229,263,23746,1,0,0:0:0:0:
197,276,23832,1,0,0:0:0:0:
168,296,23918,1,0,0:0:0:0:
145,270,24004,2,0,P|145:216|171:173,1,105,0|0,2:0|2:0,2:0:0:0:
242,187,24346,1,0,2:0:0:0:
60,65,24689,5,0,2:0:0:0:
89,46,24774,1,0,2:0:0:0:
124,51,24860,1,0,2:0:0:0:
153,70,24946,1,0,2:0:0:0:
181,90,25031,1,0,2:0:0:0:
212,104,25117,1,0,2:0:0:0:
247,103,25203,1,0,2:0:0:0:
278,89,25289,1,0,2:0:0:0:
314,84,25375,2,0,P|322:134|301:181,1,105,0|0,2:0|2:0,2:0:0:0:
228,220,25718,6,0,P|163:235|124:220,1,105,4|0,2:2|2:0,2:0:0:0:
263,111,26061,1,0,0:0:0:0:
174,163,26232,1,0,2:0:0:0:
394,35,26403,2,0,L|408:116,1,70
410,351,26746,2,0,L|335:317,1,70
257,281,27089,5,0,2:0:0:0:
248,114,27261,1,0,2:0:0:0:
398,191,27432,1,0,2:0:0:0:
230,200,27603,6,0,P|176:160|161:122,1,105,0|0,2:0|2:0,2:0:0:0:
248,114,27946,6,0,P|302:154|316:192,1,105,0|0,2:0|2:0,2:0:0:0:
339,255,28289,1,0,0:0:0:0:
187,154,28461,1,0,0:0:0:0:
187,154,28632,1,0,0:0:0:0:
342,67,28803,6,0,P|396:107|410:145,1,105,0|0,2:0|2:0,2:0:0:0:
386,211,29146,1,0,0:0:0:0:
231,217,29318,1,0,0:0:0:0:
87,230,29489,2,0,L|153:253,1,70,0|0,2:0|2:0,2:0:0:0:
335,281,29832,6,0,P|318:231|290:187,1,105,0|0,2:0|2:0,2:0:0:0:
223,146,30175,1,0,2:0:0:0:
37,138,30346,6,0,P|54:188|82:232,1,105,0|0,2:0|2:0,2:0:0:0:
149,273,30689,2,0,L|215:296,1,70,0|0,2:0|2:0,2:0:0:0:
352,115,31032,1,0,0:0:0:0:
152,131,31203,5,0,2:0:0:0:
204,221,31375,1,0,2:0:0:0:
204,221,31546,2,0,L|272:205,1,70,0|0,2:0|2:0,2:0:0:0:
466,163,31889,1,0,2:0:0:0:
244,53,32061,1,0,2:0:0:0:
381,259,32232,1,0,2:0:0:0:
417,27,32403,1,0,2:0:0:0:
205,135,32575,6,0,P|242:170|278:179,1,70,0|0,2:0|2:0,2:0:0:0:
490,163,32918,2,0,P|453:128|417:119,1,70,0|0,2:0|2:0,2:0:0:0:
258,72,33261,1,0,2:0:0:0:
225,292,33432,1,0,2:0:0:0:
429,226,33603,1,0,2:0:0:0:
369,123,33775,1,0,2:0:0:0:
128,196,33946,6,0,P|146:227|173:248,1,70,0|0,2:0|2:0,2:0:0:0:
402,281,34289,2,0,P|384:250|357:229,1,70,0|0,2:0|2:0,2:0:0:0:
185,147,34632,1,0,2:0:0:0:
286,199,34803,1,0,0:0:0:0:
62,321,34975,2,0,P|155:336|200:305,1,140,0|0,2:0|2:0,2:0:0:0:
274,109,35489,5,0,2:0:0:0:
274,109,35746,5,0,2:0:0:0:
274,109,36003,6,0,L|169:63,2,105,0|0|0,2:0|2:0|2:0,2:0:0:0:
426,191,36689,5,0,2:0:0:0:
316,256,36861,1,0,2:0:0:0:
316,256,37032,2,0,L|253:287,1,70,4|0,2:0|2:0,2:0:0:0:
57,314,37375,2,0,L|90:250,1,70,0|0,2:0|2:0,2:0:0:0:
185,139,37718,1,0,2:0:0:0:
316,256,37889,1,0,2:0:0:0:
148,312,38061,5,0,2:0:0:0:
267,181,38232,2,0,P|317:170|370:169,1,105,0|0,2:0|2:0,2:0:0:0:
435,247,38575,2,0,P|406:291|369:328,1,105,0|0,2:0|2:0,2:0:0:0:
285,330,38918,2,0,L|240:274,1,70,0|0,2:0|2:0,2:0:0:0:
132,184,39261,1,0,2:0:0:0:
342,74,39432,6,0,P|410:102|418:134,1,105,0|0,2:0|2:0,2:0:0:0:
410,214,39775,1,0,2:0:0:0:
156,248,39946,1,0,2:0:0:0:
156,248,40118,2,0,P|152:176|176:152,1,105,0|0,2:0|2:0,2:0:0:0:
240,104,40461,1,0,2:0:0:0:
412,192,40803,6,0,L|406:132,1,35,0|0,3:0|2:0,2:0:0:0:
369,328,40975,2,0,L|363:387,1,35,0|0,3:0|2:0,2:0:0:0:
328,192,41146,2,0,L|322:132,1,35,0|0,3:0|2:0,2:0:0:0:
285,320,41318,2,0,L|279:379,1,35,0|0,3:0|2:0,2:0:0:0:
244,192,41489,2,0,L|238:132,1,35,0|0,3:0|2:0,2:0:0:0:
201,320,41661,2,0,L|195:379,1,35,0|0,3:0|2:0,2:0:0:0:
160,192,41832,2,0,L|154:132,1,35,0|0,3:0|2:0,2:0:0:0:
117,320,42004,2,0,L|111:379,1,35,0|0,3:0|2:0,2:0:0:0:
71,189,42175,6,0,P|77:114|103:92,1,105,0|0,3:0|2:0,2:0:0:0:
163,61,42518,1,0,2:0:0:0:
325,122,42689,1,0,2:0:0:0:
140,158,42861,1,0,2:0:0:0:
256,53,43032,1,0,2:0:0:0:
256,53,43203,2,0,L|276:124,1,70,0|0,2:0|2:0,2:0:0:0:
346,231,43546,6,0,L|458:285,2,105,0|0|0,2:0|2:0|2:0,2:0:0:0:
181,138,44232,1,0,2:0:0:0:
278,293,44403,1,0,2:0:0:0:
375,144,44575,5,0,2:0:0:0:
178,68,44746,1,0,2:0:0:0:
178,68,44918,2,0,L|180:137,1,70,0|0,2:0|2:0,2:0:0:0:
210,262,45261,5,0,2:0:0:0:
210,262,45346,1,0,2:0:0:0:
210,262,45432,1,0,2:0:0:0:
210,262,45518,1,0,2:0:0:0:
210,262,45603,2,0,L|292:235,1,70,0|0,2:0|2:0,2:0:0:0:
356,61,45946,2,0,P|271:62|233:79,1,105,0|0,2:0|2:0,2:0:0:0:
159,142,46289,6,0,L|224:170,1,70,0|0,2:0|2:0,2:0:0:0:
398,199,46546,1,0,2:0:0:0:
398,199,46632,2,0,P|353:231|329:243,1,70,0|0,2:0|2:0,2:0:0:0:
119,201,46975,2,0,L|255:259,1,140,0|0,2:0|2:0,2:0:0:0:
302,158,47661,2,0,P|279:82|179:64,1,175
222,133,48175,6,0,P|215:179|309:228,1,140
382,133,48689,1,0,2:0:0:0:
382,133,48861,2,0,P|408:182|365:253,1,140,0|0,2:0|3:0,2:0:0:0:
196,291,49718,1,0,3:0:0:0:
429,199,50061,1,0,2:0:0:0:
349,224,50404,2,0,P|372:148|472:130,1,175
429,199,50918,6,0,P|435:245|341:294,1,140
133,198,51432,1,0,2:0:0:0:
133,198,51603,2,0,P|112:250|162:316,1,140,0|0,2:0|3:0,2:0:0:0:
412,119,52461,5,0,2:0:0:0:
412,119,52632,2,0,L|311:158,1,97.9999970092774,0|0,3:0|2:0,2:0:0:0:
166,184,52975,2,0,P|163:292|257:300,1,195.999994018555,0|0,3:0|3:0,2:0:0:0:
290,188,53489,1,0,3:0:0:0:
80,238,53832,5,0,3:0:0:0:
80,238,54003,2,0,L|180:162,1,97.9999970092774,0|0,3:0|2:0,2:0:0:0:
338,64,54346,2,0,P|438:87|435:188,1,195.999994018555,0|0,3:0|3:0,2:0:0:0:
224,235,54861,1,0,3:0:0:0:
88,122,55203,5,0,2:0:0:0:
88,122,55375,2,0,P|160:49|244:105,1,195.999994018555,0|0,3:0|3:0,2:0:0:0:
260,156,55889,1,0,3:0:0:0:
156,260,56232,1,0,3:0:0:0:
363,260,56575,1,0,3:0:0:0:
260,364,56918,1,0,3:0:0:0:
109,339,57261,5,0,3:0:0:0:
403,45,57603,1,0,3:0:0:0:
402,339,57946,1,0,3:0:0:0:
109,45,58289,1,0,3:0:0:0:
256,192,58632,12,0,61032,3:0:0:0:
39,152,61375,5,0,0:0:0:0:
77,129,61460,1,0,0:0:0:0:
120,122,61546,1,0,0:0:0:0:
162,133,61632,1,0,0:0:0:0:
207,132,61718,5,0,0:0:0:0:
248,115,61803,1,0,0:0:0:0:
292,117,61889,1,0,0:0:0:0:
331,135,61975,1,0,0:0:0:0:
366,161,62061,5,0,0:0:0:0:
407,147,62146,1,0,0:0:0:0:
450,156,62232,1,0,0:0:0:0:
483,184,62318,1,0,0:0:0:0:
497,225,62403,5,0,0:0:0:0:
490,268,62489,1,0,0:0:0:0:
463,302,62575,1,0,0:0:0:0:
422,318,62660,1,0,0:0:0:0:
384,293,62746,5,0,0:0:0:0:
350,265,62831,1,0,0:0:0:0:
307,258,62917,1,0,0:0:0:0:
266,272,63003,1,0,0:0:0:0:
243,309,63089,6,0,P|176:268|174:250,1,97.9999970092774,0|0,3:2|3:2,3:2:0:0:
357,195,63432,1,0,2:0:0:0:
35,110,63774,1,0,2:0:0:0:
220,76,64118,5,4,2:0:0:0:
306,262,64288,1,0,2:0:0:0:
159,204,64461,2,0,P|214:221|257:192,1,97.9999970092774,0|0,2:0|2:0,2:0:0:0:
396,27,64802,1,0,2:0:0:0:
203,148,64974,1,0,2:0:0:0:
229,45,65146,2,0,L|315:126,1,97.9999970092774
377,195,65489,6,0,L|287:239,1,97.9999970092774,0|0,2:0|2:0,2:0:0:0:
194,228,65746,2,0,L|105:184,1,97.9999970092774,0|0,2:0|2:0,2:0:0:0:
63,115,66002,1,0,2:0:0:0:
321,124,66174,2,0,P|368:197|357:299,1,146.999995513916,0|0,2:0|2:0,2:0:0:0:
316,316,66517,2,0,P|229:326|142:271,1,146.999995513916,0|0,2:0|2:0,2:0:0:0:
124,240,66861,5,0,2:0:0:0:
211,10,67031,1,0,2:0:0:0:
289,239,67202,1,0,2:0:0:0:
87,108,67374,1,0,2:0:0:0:
341,107,67546,2,0,L|379:208,1,97.9999970092774,0|0,2:0|2:0,2:0:0:0:
210,307,67889,2,0,L|175:215,1,97.9999970092774,0|0,2:0|2:0,2:0:0:0:
175,84,68231,6,0,L|280:52,1,97.9999970092774,0|0,2:0|2:0,2:0:0:0:
347,57,68489,2,0,L|452:89,1,97.9999970092774,0|0,2:0|2:0,2:0:0:0:
466,159,68745,1,0,2:0:0:0:
346,288,68917,2,0,P|291:254|230:151,1,146.999995513916,0|0,2:0|2:0,2:0:0:0:
223,95,69261,1,0,2:0:0:0:
457,82,69431,1,0,2:0:0:0:
309,281,69603,6,0,P|199:273|110:202,1,195.999994018555,0|0,2:0|2:0,2:0:0:0:
294,65,70117,1,0,2:0:0:0:
417,305,70289,2,0,P|322:360|208:351,1,195.999994018555,0|0,2:0|2:0,2:0:0:0:
256,233,70802,1,0,2:0:0:0:
119,304,70975,6,0,P|51:264|138:162,1,210,0|0,2:0|2:0,2:0:0:0:
174,133,71318,2,0,P|260:93|367:143,1,210,0|0,2:0|2:0,2:0:0:0:
438,165,71661,2,0,P|488:247|414:308,1,210,0|0,2:0|2:0,2:0:0:0:
131,322,72174,1,0,2:0:0:0:
131,322,72346,2,0,L|242:302,1,97.9999970092774,0|0,2:0|2:0,2:0:0:0:
396,231,72689,2,0,L|285:211,1,97.9999970092774,0|0,2:0|2:0,2:0:0:0:
114,138,73031,2,0,L|225:118,1,97.9999970092774,0|0,2:0|2:0,2:0:0:0:
422,59,73374,2,0,L|311:39,1,97.9999970092774,0|0,2:0|2:0,2:0:0:0:
148,17,73717,5,0,2:0:0:0:
416,176,74061,1,0,2:0:0:0:
78,300,74403,2,0,B|180:359|180:359|304:184,1,293.999991027832,0|0,2:0|2:0,2:0:0:0:
388,64,75088,5,0,2:0:0:0:
122,139,75261,1,0,2:0:0:0:
401,194,75431,2,0,L|311:122,1,97.9999970092774,0|0,2:0|2:0,2:0:0:0:
140,51,75775,1,0,2:0:0:0:
312,236,75946,1,0,2:0:0:0:
312,236,76118,2,0,L|416:186,1,97.9999970092774,0|0,2:0|2:0,2:0:0:0:
479,102,76461,6,0,L|390:56,1,97.9999970092774,0|0,2:0|2:0,2:0:0:0:
298,64,76718,2,0,L|209:106,1,97.9999970092774,0|0,2:0|2:0,2:0:0:0:
166,175,76974,1,0,2:0:0:0:
313,299,77146,2,0,P|386:295|453:265,1,146.999995513916,0|0,2:0|2:0,2:0:0:0:
371,224,77489,2,0,L|432:134,1,97.9999970092774,0|0,1:0|1:0,1:0:0:0:
495,209,77831,6,0,P|500:136|479:66,1,146.999995513916,0|0,2:0|2:0,2:0:0:0:
425,142,78175,2,0,L|319:107,1,97.9999970092774,0|0,1:0|1:0,1:0:0:0:
296,198,78518,1,0,2:0:0:0:
431,13,78689,1,0,0:0:0:0:
205,73,78861,2,0,L|108:90,1,97.9999970092774,0|0,2:0|2:0,2:0:0:0:
47,165,79203,6,0,L|119:237,1,97.9999970092774,0|0,2:0|2:0,2:0:0:0:
173,284,79461,2,0,L|291:281,1,97.9999970092774,0|0,2:0|2:0,2:0:0:0:
349,274,79717,1,0,2:0:0:0:
189,170,79888,2,0,P|201:240|271:331,1,146.999995513916,0|0,1:0|1:0,1:0:0:0:
295,355,80231,1,0,2:0:0:0:
326,180,80402,1,0,2:0:0:0:
31,263,80575,6,0,P|126:318|240:309,1,195.999994018555,0|0,2:0|2:0,2:0:0:0:
250,166,81088,1,0,2:0:0:0:
335,322,81261,2,0,P|429:299|500:233,1,195.999994018555,0|0,2:0|2:0,2:0:0:0:
250,166,81774,1,0,2:0:0:0:
411,217,81945,1,0,2:0:0:0:
101,217,82288,1,0,2:0:0:0:
256,0,82631,1,0,2:0:0:0:
494,124,82974,2,0,P|427:181|369:203,1,140,0|0,2:0|2:0,2:0:0:0:
256,192,83318,1,4,2:0:0:0:
256,192,83403,12,0,84346,2:0:0:0:
256,192,84689,5,0,2:0:0:0:
256,192,84775,12,0,85718,2:0:0:0:
256,192,86061,5,0,2:0:0:0:
256,192,86146,12,0,87089,2:0:0:0:
289,356,87432,6,0,L|210:288,1,105.000004005432,0|0,3:0|3:0,3:0:0:0:
308,269,87775,2,0,L|412:270,1,105.000004005432,0|0,3:0|3:0,3:0:0:0:
429,109,88118,6,0,L|349:177,1,105.000004005432,0|0,3:0|3:0,3:0:0:0:
282,113,88461,2,0,L|300:9,1,105.000004005432,0|0,3:0|3:0,3:0:0:0:
256,192,88803,5,8,0:0:0:0:
