osu file format v14

[General]
AudioFilename: Saikousoku+Fall+in+Love.mp3
AudioLeadIn: 0
PreviewTime: 63938
Countdown: 0
SampleSet: Normal
StackLeniency: 0.6
Mode: 0
LetterboxInBreaks: 0
WidescreenStoryboard: 1

[Editor]
Bookmarks: 14676,15055
DistanceSpacing: 1.1
BeatDivisor: 4
GridSize: 4
TimelineZoom: 1.7

[Metadata]
Title:Saikousoku Fall in Love
TitleUnicode:最高速 Fall in Love
Artist:Monster Musume Cast
ArtistUnicode:Monster Musume Cast
Creator:Blizs
Version:Normal
Source:モンスター娘のいる日常
Tags:daily life with monster girls musume no iru nichijou opening tv size ミーア Miia 雨宮 天 Amamiya Sora パピ Papi 小澤亜李 Ozawa Ari セントレア Centorea 相川奈都姫 Aikawa Natsuki スー Suu 野村真悠華 Nomura Mayuka メロ Mero 山崎はるか Yamazaki Haruka ラクネラ Rachnera 中村 桜 Nakamura Sakura fantastica MikanTBG
BeatmapID:1352865
BeatmapSetID:637751

[Difficulty]
HPDrainRate:4
CircleSize:3.5
OverallDifficulty:4
ApproachRate:4.4
SliderMultiplier:0.999999999999999
SliderTickRate:1

[Events]
//Background and Video events
0,0,"Centorea.JPG",0,0
//Break Periods
//Storyboard Layer 0 (Background)
//Storyboard Layer 1 (Fail)
//Storyboard Layer 2 (Pass)
//Storyboard Layer 3 (Foreground)
//Storyboard Sound Samples

[TimingPoints]
586,454.545454545455,4,2,0,40,1,0
813,-100,4,2,0,45,0,0
1040,-100,4,2,0,50,0,0
1267,-100,4,2,0,55,0,0
1495,-100,4,2,0,60,0,0
1722,-100,4,2,0,65,0,0
1949,-100,4,2,0,70,0,0
2404,-100,4,2,0,75,0,0
9676,-100,4,2,0,80,0,0
12934,-100,4,2,0,50,0,0
13313,-100,4,2,0,80,0,0
15131,-100,4,2,0,85,0,0
16949,-100,4,2,0,90,0,0
18767,342.857142857143,4,1,1,65,1,0
20138,-100,4,1,1,85,0,0
20824,-100,4,1,1,65,0,0
24252,-100,4,1,1,75,0,0
25624,-100,4,1,1,85,0,0
25967,-100,4,1,1,65,0,0
31109,-100,4,1,1,85,0,0
31452,-100,4,1,1,65,0,0
36595,-100,4,1,1,50,0,0
36938,-100,4,1,1,85,0,0
37109,-100,4,1,1,70,0,0
42081,-100,4,1,1,85,0,0
42424,-100,4,1,1,70,0,0
46195,-100,4,1,1,75,0,0
46881,-100,4,1,1,80,0,0
47567,-100,4,1,1,65,0,0
52881,-100,4,1,1,70,0,0
53395,-100,4,1,1,85,0,0
53567,-100,4,1,1,70,0,0
54767,-100,4,1,1,85,0,0
54938,-100,4,1,1,70,0,0
61281,-100,4,1,1,50,0,0
62652,-100,4,1,1,70,0,0
64024,-100,4,1,1,90,0,1
73624,-100,4,1,1,90,0,0
74309,-100,4,1,1,70,0,0
74995,-100,4,1,1,90,0,1
85967,-100,4,1,1,50,0,0
87338,-100,4,1,1,50,0,0
87681,-100,4,1,1,60,0,0
87852,-100,4,1,1,65,0,0
88024,-100,4,1,1,70,0,0
88195,-100,4,1,1,75,0,0
88367,-100,4,1,1,80,0,0
88538,-100,4,1,1,85,0,0
88709,-100,4,1,1,90,0,0

[Colours]
Combo1 : 128,0,255
Combo2 : 255,128,128
Combo3 : 128,128,255
Combo4 : 255,255,157
Combo5 : 168,255,168
Combo6 : 255,128,255

[HitObjects]
256,192,586,12,4,2404,1:0:0:0:
378,269,3313,5,2,0:0:0:0:
185,321,4222,1,2,0:0:0:0:
133,128,5131,1,2,0:0:0:0:
325,76,6040,6,0,P|375:73|423:88,1,99.9999999999999,4|4,1:2|1:2,0:0:0:0:
484,167,6949,2,0,L|474:271,1,99.9999999999999,4|4,1:2|1:2,0:0:0:0:
394,326,7858,2,0,B|349:299|297:316|297:316|248:333|201:313,1,200,4|2,1:0|0:0,0:0:0:0:
251,226,9222,1,2,0:0:0:0:
200,138,9676,6,0,P|189:90|200:42,1,99.9999999999999,4|4,1:0|1:2,0:0:0:0:
301,43,10586,2,0,P|312:91|302:140,1,99.9999999999999,0|4,1:0|1:2,0:0:0:0:
251,226,11495,2,0,L|452:233,1,200,0|8,1:0|0:3,0:0:0:0:
429,330,12858,1,0,1:0:0:0:
329,326,13313,6,0,L|229:323,1,99.9999999999999,4|4,1:2|1:2,0:0:0:0:
128,319,14222,2,0,P|138:270|134:220,1,99.9999999999999,4|4,1:2|1:2,0:0:0:0:
41,181,15131,2,0,P|137:171|196:93,2,200,4|4|4,1:2|1:2|1:0,0:0:0:0:
41,181,18767,6,0,L|46:242,2,50,8|8|8,0:0|0:0|0:0,0:0:0:0:
122,107,19452,2,0,L|127:46,2,50,8|8|8,0:0|0:0|0:3,0:0:0:0:
207,176,20138,6,0,L|318:166,1,99.9999999999999,4|8,0:0|0:0,0:0:0:0:
351,198,20652,1,0,0:0:0:0:
391,235,20824,2,0,P|399:286|388:339,1,99.9999999999999,2|8,0:0|0:0,0:0:0:0:
283,359,21509,2,0,L|172:369,1,99.9999999999999,2|8,0:0|0:0,0:0:0:0:
139,337,22024,2,0,P|131:286|142:233,1,99.9999999999999,0|0,0:0|0:0,0:0:0:0:
177,198,22538,1,8,0:0:0:0:
99,119,22881,6,0,L|0:127,1,99.9999999999999,2|8,0:0|0:0,0:0:0:0:
41,25,23567,2,0,L|140:16,1,99.9999999999999,2|8,0:0|0:0,0:0:0:0:
209,103,24252,2,0,B|263:119|304:87|304:87|346:55|399:73,1,200,2|2,0:0|0:0,0:0:0:0:
473,152,25281,1,8,0:0:0:0:
427,251,25624,6,0,P|387:223|366:177,1,99.9999999999999,4|8,0:0|0:0,0:0:0:0:
257,190,26309,2,0,P|252:239|223:279,1,99.9999999999999,2|8,0:0|0:0,0:0:0:0:
149,200,26995,2,0,L|144:150,2,50,2|0|8,0:0|0:2|0:0,0:0:0:0:
109,238,27509,2,0,L|-4:228,1,99.9999999999999,0|0,0:0|0:0,0:0:0:0:
50,331,28195,1,0,0:0:0:0:
99,355,28367,70,0,L|212:364,1,99.9999999999999,2|8,0:0|0:0,0:0:0:0:
218,254,29052,2,0,L|331:263,1,99.9999999999999,2|8,0:0|0:0,0:0:0:0:
385,177,29738,2,0,P|375:131|381:65,1,99.9999999999999,2|8,0:0|0:0,0:0:0:0:
401,28,30252,2,0,P|327:41|252:40,1,150,0|8,0:2|0:0,0:0:0:0:
198,31,30938,1,0,0:0:0:0:
149,57,31109,6,0,P|138:103|144:169,1,99.9999999999999,2|8,0:0|0:0,0:0:0:0:
251,139,31795,2,0,P|254:188|243:237,1,99.9999999999999,2|8,0:0|0:0,0:0:0:0:
232,347,32481,2,0,L|338:336,1,99.9999999999999,2|8,0:0|0:0,0:0:0:0:
386,333,32995,1,0,0:0:0:0:
440,327,33167,2,0,L|446:380,2,50,2|0|8,0:0|0:0|0:0,0:0:0:0:
469,221,33852,70,0,P|463:172|458:122,1,99.9999999999999,2|8,0:0|0:0,0:0:0:0:
348,138,34538,2,0,P|343:88|337:38,1,99.9999999999999,2|8,0:0|0:0,0:0:0:0:
245,98,35224,1,0,0:0:0:0:
208,138,35395,2,0,P|135:151|74:111,2,150,8|2|8,0:0|0:0|0:0,0:0:0:0:
245,98,36595,22,0,P|250:148|256:198,1,99.9999999999999,4|12,0:3|0:0,0:0:0:0:
284,304,37281,2,0,L|388:295,1,99.9999999999999,2|8,0:0|0:0,0:0:0:0:
487,259,37967,2,0,P|489:283|492:308,2,50,2|0|8,0:0|0:0|0:0,0:0:0:0:
465,208,38481,2,0,L|474:104,1,99.9999999999999,0|0,0:0|0:0,0:0:0:0:
451,57,38995,1,8,0:0:0:0:
363,123,39338,6,0,L|259:114,1,99.9999999999999,2|8,0:0|0:0,0:0:0:0:
211,95,39852,1,0,0:0:0:0:
165,64,40024,2,0,P|172:122|167:176,1,99.9999999999999,2|8,0:0|0:0,0:0:0:0:
75,207,40709,2,0,L|23:202,2,50,2|0|8,0:0|0:0|0:0,0:0:0:0:
160,266,41395,2,0,L|155:318,2,50,2|0|8,0:0|0:0|0:0,0:0:0:0:
259,226,42081,70,0,L|363:235,1,99.9999999999999,0|8,0:0|0:0,0:0:0:0:
425,146,42767,2,0,L|326:138,1,99.9999999999999,2|8,0:0|0:0,0:0:0:0:
237,72,43452,2,0,L|137:80,1,99.9999999999999,2|8,0:0|0:0,0:0:0:0:
102,123,43967,2,0,P|111:171|102:220,1,99.9999999999999,0|0,0:2|0:0,0:0:0:0:
73,267,44481,1,8,0:0:0:0:
171,316,44824,5,2,0:0:0:0:
256,247,45167,2,0,L|256:197,2,50,8|0|2,0:0|0:0|0:0,0:0:0:0:
341,316,45852,1,8,0:0:0:0:
439,266,46195,2,0,P|454:219|450:170,1,99.9999999999999,2|8,0:0|0:0,0:0:0:0:
403,142,46709,1,0,0:0:0:0:
349,155,46881,2,0,P|345:105|360:58,1,99.9999999999999,2|8,0:0|0:0,0:0:0:0:
262,8,47567,6,0,P|220:35|172:46,1,99.9999999999999,4|0,0:0|0:0,0:0:0:0:
62,47,48252,1,8,0:0:0:0:
88,95,48424,2,0,L|74:297,1,200,0|0,0:0|0:0,0:0:0:0:
111,335,49281,1,0,0:0:0:0:
212,276,49624,1,8,0:0:0:0:
190,225,49795,2,0,L|197:124,1,99.9999999999999,0|8,0:0|0:0,0:0:0:0:
244,96,50309,6,0,P|289:114|339:112,1,99.9999999999999,0|0,0:0|0:0,0:0:0:0:
403,21,50995,1,8,0:0:0:0:
437,63,51167,2,0,B|449:139|449:139|425:179|425:179|437:255,1,200,0|0,0:0|0:0,0:0:0:0:
467,300,52024,1,0,0:0:0:0:
362,335,52367,2,0,B|354:384,2,50,8|0|8,0:0|0:0|0:0,0:0:0:0:
332,289,52881,70,0,B|215:307,1,99.9999999999999,4|0,0:0|0:0,0:0:0:0:
189,271,53395,1,12,0:0:0:0:
130,177,53738,1,2,0:0:0:0:
92,217,53909,2,0,P|78:264|85:313,2,99.9999999999999,0|0|0,0:0|0:0|0:0,0:0:0:0:
130,177,54767,2,0,L|120:74,1,99.9999999999999,12|2,0:0|0:0,0:0:0:0:
137,24,55281,1,8,0:3:0:0:
245,40,55624,1,0,0:0:0:0:
232,93,55795,6,0,P|281:98|329:87,1,99.9999999999999,2|8,0:0|0:0,0:0:0:0:
415,155,56481,2,0,P|410:204|421:252,1,99.9999999999999,2|8,0:0|0:0,0:0:0:0:
353,338,57167,2,0,P|303:333|255:344,1,99.9999999999999,2|8,0:0|0:0,0:0:0:0:
170,276,57852,2,0,P|174:226|163:178,1,99.9999999999999,2|8,0:0|0:0,0:0:0:0:
256,192,58538,12,0,61281,0:0:0:0:
194,316,62995,5,8,0:0:0:0:
172,207,63338,1,4,0:3:0:0:
150,98,63681,1,8,0:0:0:0:
234,25,64024,6,0,P|265:24|301:35,2,50,4|2|8,0:2|0:0|0:0,0:0:0:0:
255,134,64709,1,0,0:0:0:0:
362,106,65052,1,8,0:0:0:0:
440,27,65395,2,0,P|466:68|472:117,1,99.9999999999999,0|8,0:0|0:0,0:0:0:0:
459,172,65909,1,2,0:0:0:0:
489,218,66081,2,0,L|482:324,1,99.9999999999999,0|8,0:0|0:0,0:0:0:0:
378,355,66767,6,0,P|336:327|287:320,1,99.9999999999999,0|8,0:0|0:0,0:0:0:0:
235,340,67281,1,2,0:0:0:0:
185,363,67452,2,0,L|181:310,2,50,0|2|8,0:0|0:0|0:0,0:0:0:0:
76,380,68138,2,0,L|69:274,1,99.9999999999999,0|8,0:0|0:0,0:0:0:0:
114,249,68652,1,2,0:0:0:0:
143,202,68824,2,0,P|189:182|238:184,1,99.9999999999999,0|8,0:0|0:0,0:0:0:0:
347,171,69509,6,0,P|341:220|315:262,1,99.9999999999999,4|8,0:0|0:0,0:0:0:0:
271,363,70195,2,0,P|231:333|207:289,1,99.9999999999999,0|8,0:0|0:0,0:0:0:0:
143,202,70881,2,0,P|189:182|238:184,2,99.9999999999999,0|8|0,0:0|0:0|0:0,0:0:0:0:
99,302,71909,2,0,L|49:300,1,50,4|2,0:3|0:0,0:0:0:0:
0,326,72252,6,0,L|3:226,1,99.9999999999999,0|8,0:0|0:0,0:0:0:0:
59,131,72938,2,0,P|98:100|146:91,1,99.9999999999999,0|8,0:0|0:0,0:0:0:0:
230,162,73624,2,0,P|191:193|143:202,2,99.9999999999999,0|0|0,0:0|0:0|0:0,0:0:0:0:
424,59,74995,6,0,L|421:5,2,50,4|2|8,0:2|0:0|0:0,0:0:0:0:
506,131,75681,1,0,0:2:0:0:
403,167,76024,1,8,0:0:0:0:
485,239,76367,2,0,L|478:349,1,99.9999999999999,0|8,0:2|0:0,0:0:0:0:
428,360,76881,1,2,0:0:0:0:
379,334,77052,2,0,P|328:320|265:334,1,99.9999999999999,0|8,0:0|0:0,0:0:0:0:
202,249,77738,6,0,P|151:263|88:249,1,99.9999999999999,0|8,0:2|0:0,0:0:0:0:
65,223,78252,1,2,0:0:0:0:
39,173,78424,2,0,L|33:117,2,50,0|2|8,0:0|0:0|0:0,0:0:0:0:
146,149,79109,2,0,L|134:43,1,99.9999999999999,0|8,0:0|0:0,0:0:0:0:
184,24,79624,1,2,0:0:0:0:
232,50,79795,2,0,P|280:58|329:48,1,99.9999999999999,0|8,0:0|0:0,0:0:0:0:
438,32,80481,6,0,P|429:80|439:129,1,99.9999999999999,4|8,0:0|0:0,0:0:0:0:
456,238,81167,2,0,P|407:229|358:239,1,99.9999999999999,0|8,0:0|0:0,0:0:0:0:
250,256,81852,2,0,P|258:207|248:158,2,99.9999999999999,0|8|0,0:0|0:0|0:0,0:0:0:0:
151,306,82881,2,0,L|96:301,1,50,8|2,0:0|0:0,0:0:0:0:
47,287,83224,6,0,L|38:178,1,99.9999999999999,4|8,0:2|0:0,0:0:0:0:
86,160,83738,1,2,0:0:0:0:
135,136,83909,2,0,L|126:27,1,99.9999999999999,0|8,0:0|0:0,0:0:0:0:
235,52,84595,2,0,L|244:161,1,99.9999999999999,0|8,0:0|0:0,0:0:0:0:
286,186,85109,1,2,0:0:0:0:
338,168,85281,2,0,P|387:171|431:194,1,99.9999999999999,0|8,0:0|0:0,0:0:0:0:
450,302,85967,6,0,B|397:309|357:277|357:277|313:309|263:301|263:301|223:269|169:275,1,300,0|0,0:0|0:0,0:0:0:0:
63,307,87338,6,0,L|72:202,1,99.9999999999999,0|8,0:0|0:0,0:0:0:0:
156,136,88024,2,0,L|152:83,2,50,8|8|8,0:0|0:0|0:0,0:0:0:0:
241,208,88709,1,4,0:0:0:0:
