osu file format v14

[General]
AudioFilename: Saikousoku+Fall+in+Love.mp3
AudioLeadIn: 0
PreviewTime: 63938
Countdown: 0
SampleSet: Normal
StackLeniency: 0.6
Mode: 0
LetterboxInBreaks: 0
WidescreenStoryboard: 1

[Editor]
DistanceSpacing: 1.1
BeatDivisor: 8
GridSize: 4
TimelineZoom: 1.7

[Metadata]
Title:Saikousoku Fall in Love
TitleUnicode:最高速 Fall in Love
Artist:Monster Musume Cast
ArtistUnicode:Monster Musume Cast
Creator:Blizs
Version:Insane
Source:モンスター娘のいる日常
Tags:daily life with monster girls musume no iru nichijou opening tv size ミーア Miia 雨宮 天 Amamiya Sora パピ Papi 小澤亜李 Ozawa Ari セントレア Centorea 相川奈都姫 Aikawa Natsuki スー Suu 野村真悠華 Nomura Mayuka メロ Mero 山崎はるか Yamazaki Haruka ラクネラ Rachnera 中村 桜 Nakamura Sakura fantastica MikanTBG
BeatmapID:1352864
BeatmapSetID:637751

[Difficulty]
HPDrainRate:6
CircleSize:4
OverallDifficulty:7
ApproachRate:8
SliderMultiplier:1.6
SliderTickRate:1

[Events]
//Background and Video events
0,0,"Rachnera.jpg",0,0
//Break Periods
//Storyboard Layer 0 (Background)
//Storyboard Layer 1 (Fail)
//Storyboard Layer 2 (Pass)
//Storyboard Layer 3 (Foreground)
//Storyboard Sound Samples

[TimingPoints]
586,454.545454545455,4,2,0,40,1,0
813,-100,4,2,0,45,0,0
1040,-100,4,2,0,50,0,0
1267,-100,4,2,0,55,0,0
1495,-100,4,2,0,60,0,0
1722,-100,4,2,0,65,0,0
1949,-100,4,2,0,70,0,0
2404,-100,4,2,0,75,0,0
9676,-100,4,2,0,80,0,0
12934,-100,4,2,0,50,0,0
13313,-90.9090909090909,4,2,0,80,0,0
15131,-100,4,2,0,85,0,0
16949,-100,4,2,0,90,0,0
18767,342.857142857143,4,1,1,65,1,0
20138,-100,4,1,1,85,0,0
20824,-100,4,1,1,65,0,0
24252,-100,4,1,1,75,0,0
25624,-90.9090909090909,4,1,1,85,0,0
25967,-100,4,1,1,65,0,0
31109,-90.9090909090909,4,1,1,85,0,0
31452,-100,4,1,1,65,0,0
36595,-100,4,1,1,50,0,0
36938,-100,4,1,1,85,0,0
37109,-100,4,1,1,70,0,0
42081,-90.9090909090909,4,1,1,85,0,0
42424,-100,4,1,1,70,0,0
46195,-100,4,1,1,75,0,0
46881,-100,4,1,1,80,0,0
47567,-125,4,1,1,65,0,0
52367,-100,4,1,1,65,0,0
52881,-100,4,1,1,70,0,0
53395,-100,4,1,1,85,0,0
53567,-100,4,1,1,70,0,0
54767,-100,4,1,1,85,0,0
54938,-100,4,1,1,70,0,0
61281,-100,4,1,1,50,0,0
62652,-90.9090909090909,4,1,1,70,0,0
63338,-142.857142857143,4,1,1,70,0,0
64024,-90.9090909090909,4,1,1,90,0,1
73624,-125,4,1,1,90,0,0
74309,-100,4,1,1,70,0,0
74995,-90.9090909090909,4,1,1,90,0,1
85967,-142.857142857143,4,1,1,50,0,0
87338,-111.111111111111,4,1,1,50,0,0
87681,-111.111111111111,4,1,1,60,0,0
87852,-111.111111111111,4,1,1,65,0,0
88024,-111.111111111111,4,1,1,70,0,0
88195,-111.111111111111,4,1,1,75,0,0
88367,-111.111111111111,4,1,1,80,0,0
88538,-111.111111111111,4,1,1,85,0,0
88709,-111.111111111111,4,1,1,90,0,0

[Colours]
Combo1 : 128,0,255
Combo2 : 255,128,128
Combo3 : 128,128,255
Combo4 : 255,255,157
Combo5 : 168,255,168
Combo6 : 255,128,255

[HitObjects]
256,192,586,12,2,1949,0:0:0:0:
70,140,2404,6,0,B|109:127|148:144|148:144|187:161|226:148,1,160,4|0,1:0|0:0,0:0:0:0:
348,66,3086,1,2,0:0:0:0:
348,66,3199,1,2,0:0:0:0:
348,66,3313,2,0,B|309:79|270:62|270:62|231:45|192:58,1,160,2|0,0:0|0:0,0:0:0:0:
70,140,3995,1,2,0:0:0:0:
218,308,4222,6,0,B|226:149,1,160,2|0,0:0|0:0,0:0:0:0:
64,21,4904,1,2,0:0:0:0:
64,21,5017,1,2,0:0:0:0:
64,20,5131,2,0,B|70:140,1,120,2|0,0:0|0:0,0:0:0:0:
89,161,5586,2,0,P|140:178|206:159,1,120,2|0,0:0|0:0,0:0:0:0:
226,148,6040,6,0,B|220:254,1,106.666666666667,4|0,1:2|0:0,0:0:0:0:
312,333,6495,2,0,B|307:227,1,106.666666666667,4|0,1:2|0:0,0:0:0:0:
398,147,6949,2,0,B|392:253,1,106.666666666667,4|0,1:2|1:0,0:0:0:0:
484,332,7404,2,0,B|478:225,1,106.666666666667,4|0,1:2|0:0,0:0:0:0:
398,146,7858,6,0,P|347:161|295:151,1,106.666666666667,4|0,1:0|0:0,0:0:0:0:
216,94,8313,1,2,0:0:0:0:
216,94,8464,2,0,B|213:40,1,53.3333333333333,2|2,0:0|0:0,0:0:0:0:
136,148,8767,2,0,B|130:254,1,106.666666666667,2|0,0:0|0:0,0:0:0:0:
42,335,9222,2,0,B|37:229,1,106.666666666667,2|0,0:0|0:0,0:0:0:0:
34,55,9676,6,0,B|96:66|96:66|192:62,1,160,4|4,1:0|1:2,0:0:0:0:
432,41,10586,2,0,P|457:28|477:12,2,53.3333333333333,0|8|4,1:0|0:3|0:3,0:0:0:0:
407,116,11040,2,0,P|430:132|454:140,2,53.3333333333333,4|8|4,1:2|0:3|0:3,0:0:0:0:
330,132,11495,6,0,L|335:238,1,106.666666666667,0|0,1:0|1:0,0:0:0:0:
307,356,11949,2,0,P|256:344|205:356,1,106.666666666667,4|0,1:2|1:0,0:0:0:0:
176,238,12404,2,0,L|182:132,1,106.666666666667,8|4,0:3|0:3,0:0:0:0:
232,70,12858,2,0,L|230:43,5,26.6666666666667,0|0|0|0|0|0,1:0|1:0|1:0|1:0|1:0|1:0,0:0:0:0:
256,79,13313,6,0,B|300:74|300:74|328:84|328:84|377:80,1,117.333336914063,4|0,1:2|0:0,0:0:0:0:
182,132,13767,2,0,B|138:127|138:127|110:137|110:137|61:133,1,117.333336914063,4|0,1:2|0:0,0:0:0:0:
256,185,14222,2,0,B|300:180|300:180|328:190|328:190|377:186,1,117.333336914063,4|8,1:2|0:3,0:0:0:0:
182,238,14676,2,0,B|138:233|138:233|110:243|110:243|61:239,1,117.333336914063,4|0,1:2|0:0,0:0:0:0:
256,291,15131,6,0,B|300:286|300:286|362:290,1,106.666666666667,4|0,1:2|0:0,0:0:0:0:
433,327,15586,2,0,P|433:353|426:379,2,53.3333333333333,0|8|4,1:0|0:3|0:3,0:0:0:0:
428,247,16040,2,0,P|443:197|476:156,1,106.666666666667,4|4,1:2|0:3,0:0:0:0:
362,290,16495,2,0,P|310:303|258:294,1,106.666666666667,0|4,1:0|0:3,0:0:0:0:
433,327,16949,5,4,1:0:0:0:
433,327,18767,6,0,L|430:288,3,40,8|8|8|8,0:0|0:0|0:0|0:0,0:0:0:0:
420,188,19109,2,0,L|387:210,3,40,8|8|8|8,0:0|0:0|0:0|0:0,0:0:0:0:
306,268,19452,2,0,L|341:284,3,40,8|8|8|8,0:0|0:0|0:0|0:0,0:0:0:0:
433,327,19795,6,0,L|430:288,1,40,8|8,0:3|0:3,0:0:0:0:
420,188,19967,2,0,L|387:210,1,40,4|4,0:3|0:3,0:0:0:0:
306,268,20138,6,0,P|261:262|212:293,1,80,4|0,0:0|0:0,0:0:0:0:
215,288,20395,1,0,0:0:0:0:
205,305,20481,2,0,L|199:225,1,80,8|0,0:0|0:0,0:0:0:0:
169,80,20824,5,2,0:0:0:0:
149,80,20909,1,0,0:0:0:0:
130,86,20995,1,0,0:0:0:0:
113,98,21081,1,0,0:0:0:0:
101,113,21167,2,0,L|95:192,1,80,8|0,0:0|0:0,0:0:0:0:
130,321,21509,5,2,0:0:0:0:
149,324,21594,1,0,0:0:0:0:
169,323,21680,1,0,0:0:0:0:
188,316,21766,1,0,0:0:0:0:
205,305,21852,2,0,L|284:311,1,80,8|0,0:0|0:0,0:0:0:0:
425,349,22195,6,0,L|427:309,3,40,2|0|0|0,0:0|0:0|0:0|0:0,0:0:0:0:
492,252,22538,2,0,L|489:212,3,40,8|0|0|0,0:0|0:0|0:0|0:0,0:0:0:0:
512,116,22881,5,2,0:0:0:0:
492,120,22966,1,0,0:0:0:0:
472,120,23052,1,0,0:0:0:0:
453,115,23138,1,0,0:0:0:0:
435,105,23224,2,0,P|396:101|359:116,1,80,8|0,0:0|0:0,0:0:0:0:
294,226,23567,6,0,P|255:232|216:225,1,80,2|0,0:0|0:0,0:0:0:0:
152,116,23909,2,0,P|115:101|76:106,1,80,8|0,0:0|0:0,0:0:0:0:
13,247,24252,5,2,0:0:0:0:
15,266,24337,1,0,0:0:0:0:
17,286,24423,1,0,0:0:0:0:
19,306,24509,1,0,0:0:0:0:
21,326,24595,2,0,P|60:317|100:321,1,80,8|0,0:0|0:0,0:0:0:0:
220,361,24938,5,2,0:0:0:0:
238,367,25023,1,0,0:0:0:0:
258,370,25109,1,0,0:0:0:0:
278,369,25195,1,0,0:0:0:0:
298,365,25281,2,0,P|305:347|309:327,1,40,8|0,0:0|0:0,0:0:0:0:
373,272,25452,2,0,P|369:252|363:233,1,40,0|0,0:0|0:0,0:0:0:0:
390,153,25624,6,0,L|258:145,1,132.00000402832,4|0,0:0|0:0,0:0:0:0:
243,131,25967,69,8,0:0:0:0:
260,241,26138,1,0,0:0:0:0:
76,204,26309,2,0,L|156:200,1,80,2|0,0:0|0:0,0:0:0:0:
259,241,26652,2,0,P|240:275|240:315,1,80,8|0,0:0|0:2,0:0:0:0:
243,131,26995,6,0,P|262:96|262:56,1,80,2|0,0:0|0:2,0:0:0:0:
250,40,27252,1,0,0:2:0:0:
236,26,27338,1,8,0:0:0:0:
76,195,27509,2,0,L|156:200,1,80,0|2,0:0|0:0,0:0:0:0:
338,149,27852,2,0,L|259:145,1,80,0|8,0:0|0:0,0:0:0:0:
239,315,28195,1,0,0:0:0:0:
239,315,28281,1,0,0:0:0:0:
239,315,28367,70,0,P|258:280|258:241,1,80,2|0,0:0|0:0,0:0:0:0:
153,89,28709,1,8,0:0:0:0:
143,104,29052,1,2,0:0:0:0:
258,145,29224,1,0,0:0:0:0:
411,108,29395,2,0,P|388:76|351:65,1,80,8|0,0:0|0:0,0:0:0:0:
258,145,29738,6,0,L|266:269,1,120,2|0,0:0|0:2,0:0:0:0:
277,280,30081,1,8,0:0:0:0:
411,108,30252,2,0,L|416:28,1,80,0|2,0:2|0:0,0:0:0:0:
258,145,30595,1,0,0:0:0:0:
450,197,30767,2,0,P|483:174|502:139,1,80,8|0,0:0|0:0,0:0:0:0:
289,53,31109,70,0,B|244:51|244:51|202:65|202:65|159:63,1,132.00000402832,2|0,0:0|0:2,0:0:0:0:
142,52,31452,5,8,0:0:0:0:
258,145,31624,1,0,0:0:0:0:
128,278,31795,2,0,L|120:199,1,80,2|0,0:0|0:2,0:0:0:0:
258,145,32138,2,0,L|249:224,1,80,8|0,0:0|0:0,0:0:0:0:
387,278,32481,70,0,L|378:198,1,80,2|0,0:0|0:0,0:0:0:0:
385,179,32738,2,0,L|376:99,1,80,0|0,0:0|0:0,0:0:0:0:
383,80,32995,1,0,0:0:0:0:
258,145,33167,1,2,0:0:0:0:
464,206,33338,1,0,0:0:0:0:
250,225,33509,1,8,0:0:0:0:
383,80,33681,1,0,0:0:0:0:
192,99,33852,6,0,P|153:97|117:79,1,80,2|0,0:0|0:0,0:0:0:0:
250,225,34195,2,0,P|285:207|325:205,1,80,8|0,0:0|0:0,0:0:0:0:
315,373,34538,2,0,L|308:294,1,80,2|0,0:0|0:0,0:0:0:0:
383,80,34881,1,8,0:0:0:0:
464,206,35052,1,8,0:3:0:0:
464,206,35138,1,8,0:3:0:0:
464,206,35224,69,0,0:0:0:0:
335,324,35395,2,0,L|325:205,1,120,8|8,0:0|0:0,0:0:0:0:
192,99,35909,2,0,L|181:218,2,120,2|8|8,0:0|0:0|0:0,0:0:0:0:
91,53,36595,21,4,0:3:0:0:
91,53,36767,1,4,0:3:0:0:
283,35,36938,5,12,0:0:0:0:
192,99,37109,1,0,0:0:0:0:
380,160,37281,2,0,L|384:81,1,80,2|0,0:0|0:0,0:0:0:0:
192,99,37624,2,0,L|195:178,1,80,8|0,0:0|0:0,0:0:0:0:
283,35,37967,69,2,0:0:0:0:
91,53,38138,2,0,L|94:132,1,80,0|8,0:0|0:0,0:0:0:0:
270,200,38481,2,0,P|235:181|195:179,1,80,0|2,0:0|0:0,0:0:0:0:
104,243,38824,1,0,0:0:0:0:
202,368,38995,2,0,L|205:289,1,80,8|0,0:0|0:0,0:0:0:0:
265,80,39338,6,0,L|270:200,1,120,2|0,0:0|0:0,0:0:0:0:
283,214,39681,2,0,P|321:221|358:206,1,80,8|0,0:0|0:0,0:0:0:0:
205,288,40024,2,0,P|178:317|173:356,1,80,2|0,0:0|0:0,0:0:0:0:
179,183,40367,2,0,P|166:145|135:121,1,80,8|0,0:0|0:0,0:0:0:0:
25,201,40709,70,0,L|20:250,3,40,2|0|0|0,0:0|0:0|0:0|0:0,0:0:0:0:
97,231,41052,2,0,L|102:192,3,40,8|0|0|0,0:0|0:2|0:2|0:2,0:0:0:0:
179,183,41395,6,0,L|174:232,3,40,2|0|0|0,0:0|0:0|0:0|0:0,0:0:0:0:
251,213,41738,2,0,L|256:174,3,40,8|0|0|0,0:0|0:0|0:0|0:0,0:0:0:0:
333,165,42081,70,0,L|319:296,1,132.00000402832,0|0,0:0|0:0,0:0:0:0:
327,314,42424,5,8,0:0:0:0:
175,223,42595,1,0,0:0:0:0:
335,332,42767,2,0,P|374:331|408:311,1,80,2|0,0:0|0:0,0:0:0:0:
352,94,43109,2,0,P|312:94|278:114,1,80,8|0,0:0|0:0,0:0:0:0:
175,223,43452,70,0,L|187:342,1,120,2|0,0:0|0:0,0:0:0:0:
179,360,43795,1,8,0:0:0:0:
17,340,43967,2,0,P|50:319|90:318,1,80,0|2,0:2|0:0,0:0:0:0:
248,244,44309,2,0,P|208:243|175:223,1,80,0|8,0:0|0:0,0:0:0:0:
192,35,44652,1,0,0:0:0:0:
352,94,44824,6,0,L|343:174,1,80,2|0,0:0|0:0,0:0:0:0:
329,302,45167,1,8,0:0:0:0:
309,300,45252,1,0,0:0:0:0:
289,303,45338,1,0,0:0:0:0:
271,311,45424,1,0,0:0:0:0:
256,324,45509,2,0,L|247:243,1,80,2|0,0:0|0:0,0:0:0:0:
192,35,45852,1,8,0:0:0:0:
0,88,46024,1,0,0:0:0:0:
0,88,46109,1,0,0:0:0:0:
0,88,46195,70,0,P|46:123|104:116,1,120,2|0,0:0|0:0,0:0:0:0:
116,101,46538,2,0,B|109:139|109:139|115:179,1,80,8|0,0:0|0:0,0:0:0:0:
256,324,46881,2,0,L|256:244,1,80,2|0,0:0|0:0,0:0:0:0:
395,101,47224,2,0,B|402:139|402:139|396:179,1,80,8|0,0:0|0:0,0:0:0:0:
256,244,47567,22,0,L|256:116,1,128,4|0,0:0|0:0,0:0:0:0:
111,60,48081,1,0,0:0:0:0:
111,60,48252,2,0,P|142:68|174:63,1,64,8|0,0:0|0:0,0:0:0:0:
338,64,48595,1,0,0:0:0:0:
338,64,48767,6,0,P|369:59|442:126,1,128,0|0,0:0|0:0,0:0:0:0:
402,255,49281,1,0,0:0:0:0:
413,270,49624,2,0,P|385:283|353:283,1,64,8|0,0:0|0:0,0:0:0:0:
308,200,49967,2,0,P|279:186|247:186,1,64,0|8,0:0|0:0,0:0:0:0:
131,285,50309,70,0,L|258:281,1,128,0|0,0:0|0:0,0:0:0:0:
67,200,50824,1,0,0:0:0:0:
67,200,50995,2,0,L|3:198,1,64,8|0,0:0|0:0,0:0:0:0:
9,18,51338,1,0,0:0:0:0:
9,18,51509,6,0,P|71:22|110:70,1,128,0|0,0:0|0:0,0:0:0:0:
109,86,51938,1,0,0:0:0:0:
108,102,52024,1,0,0:0:0:0:
108,102,52367,1,8,0:0:0:0:
130,285,52538,2,0,P|95:302|55:306,1,80,0|8,0:0|0:0,0:0:0:0:
172,187,52881,70,0,B|295:189|295:189|260:203,1,160,4|0,0:0|0:0,0:0:0:0:
108,102,53395,2,0,L|187:103,1,80,12|0,0:0|0:0,0:0:0:0:
240,278,53738,1,2,0:0:0:0:
240,278,53909,2,0,P|243:238|260:203,1,80,0|0,0:0|0:0,0:0:0:0:
394,182,54252,6,0,L|401:341,1,160,0|0,0:0|0:0,0:0:0:0:
261,203,54767,2,0,L|264:123,1,80,12|0,0:0|0:0,0:0:0:0:
380,40,55109,1,2,0:0:0:0:
394,182,55281,1,8,0:3:0:0:
394,182,55367,1,8,0:3:0:0:
394,182,55452,2,0,L|397:261,1,80,8|0,0:0|0:0,0:0:0:0:
256,309,55795,70,0,P|296:312|330:332,1,80,2|0,0:0|0:0,0:0:0:0:
198,233,56138,2,0,P|233:215|273:215,1,80,8|0,0:0|0:0,0:0:0:0:
109,196,56481,2,0,P|131:163|165:142,1,80,2|0,0:0|0:0,0:0:0:0:
13,208,56824,2,0,P|15:168|35:133,1,80,8|0,0:0|0:0,0:0:0:0:
72,286,57167,6,0,L|68:365,1,80,2|0,0:0|0:0,0:0:0:0:
168,274,57509,2,0,L|204:345,1,80,8|0,0:0|0:0,0:0:0:0:
245,215,57852,2,0,L|312:258,1,80,2|0,0:0|0:0,0:0:0:0:
282,125,58195,2,0,L|361:128,1,80,8|0,0:0|0:0,0:0:0:0:
510,170,58538,5,2,0:0:0:0:
510,170,58709,1,0,0:0:0:0:
443,25,58881,2,0,P|440:65|447:105,1,80,8|0,0:0|0:0,0:0:0:0:
425,194,59224,5,2,0:0:0:0:
425,194,59395,1,0,0:0:0:0:
358,49,59567,2,0,P|355:88|361:128,1,80,8|0,0:0|0:0,0:0:0:0:
339,217,59909,5,2,0:0:0:0:
339,217,60081,1,0,0:0:0:0:
272,72,60252,2,0,P|269:111|275:151,1,80,8|0,0:0|0:0,0:0:0:0:
253,240,60595,5,2,0:0:0:0:
253,240,60767,1,0,0:0:0:0:
186,95,60938,2,0,P|183:134|189:174,1,80,8|0,0:0|0:0,0:0:0:0:
228,328,61281,6,0,L|189:326,3,40
89,262,61624,2,0,L|129:260,3,40
228,195,61967,2,0,L|188:192,3,40
88,128,62309,2,0,L|127:125,3,40
187,58,62652,5,8,0:0:0:0:
225,60,62738,1,8,0:0:0:0:
263,62,62824,1,8,0:0:0:0:
302,65,62909,1,8,0:0:0:0:
340,67,62995,2,0,L|396:64,1,44.0000013427735,8|8,0:0|0:0,0:0:0:0:
439,163,63167,2,0,L|396:161,1,44.0000013427735,8|8,0:0|0:0,0:0:0:0:
317,216,63338,6,0,L|323:328,1,111.999996582031,4|8,0:3|0:0,0:0:0:0:
325,343,64024,5,4,0:2:0:0:
409,267,64195,1,2,0:0:0:0:
231,277,64367,2,0,L|143:272,1,88.000002685547,8|2,0:0|0:0,0:0:0:0:
38,265,64709,1,0,0:0:0:0:
97,178,64881,1,2,0:0:0:0:
104,73,65052,1,8,0:0:0:0:
71,173,65224,1,2,0:0:0:0:
143,272,65395,6,0,L|231:277,1,88.000002685547,0|2,0:0|0:0,0:0:0:0:
251,285,65652,1,0,0:0:0:0:
271,293,65738,2,0,P|281:251|276:208,1,88.000002685547,8|2,0:0|0:0,0:0:0:0:
104,73,66081,2,0,P|94:115|99:158,1,88.000002685547,0|2,0:0|0:0,0:0:0:0:
335,111,66424,2,0,L|204:122,1,132.00000402832,8|0,0:0|0:0,0:0:0:0:
183,139,66767,6,0,L|191:227,1,88.000002685547,0|2,0:0|0:0,0:0:0:0:
331,331,67109,1,8,0:0:0:0:
331,331,67281,2,0,P|293:309|250:304,1,88.000002685547,2|0,0:0|0:0,0:0:0:0:
65,355,67624,1,2,0:0:0:0:
31,199,67795,1,8,0:0:0:0:
154,316,67967,1,2,0:0:0:0:
120,160,68138,6,0,L|124:72,1,88.000002685547,0|2,0:0|0:0,0:0:0:0:
140,56,68395,1,0,0:0:0:0:
156,41,68481,2,0,P|197:52|225:85,1,88.000002685547,8|2,0:0|0:0,0:0:0:0:
31,199,68824,2,0,L|35:111,1,88.000002685547,0|2,0:0|0:0,0:0:0:0:
110,257,69167,1,8,0:0:0:0:
124,72,69338,1,2,0:1:0:0:
188,315,69509,6,0,P|156:344|114:355,1,88.000002685547,4|2,0:0|0:0,0:0:0:0:
31,199,69852,1,8,0:0:0:0:
27,309,70024,1,2,0:0:0:0:
120,160,70195,2,0,B|155:137|205:150|205:150|255:162|290:140,1,176.000005371094,0|8,0:0|0:0,0:0:0:0:
238,53,70709,1,2,0:0:0:0:
174,242,70881,6,0,B|177:329,1,88.000002685547,0|2,0:0|0:0,0:0:0:0:
31,199,71224,2,0,B|34:111,1,88.000002685547,8|2,0:0|0:0,0:0:0:0:
156,30,71567,2,0,P|195:50|239:53,1,88.000002685547,0|2,0:0|0:0,0:0:0:0:
261,48,71823,1,8,0:3:0:0:
281,39,71909,2,0,B|277:126,1,88.000002685547,4|2,0:3|0:0,0:0:0:0:
177,329,72252,6,0,B|174:242,1,88.000002685547,0|2,0:0|0:0,0:0:0:0:
334,329,72595,2,0,B|338:242,1,88.000002685547,8|2,0:0|0:0,0:0:0:0:
147,309,72938,2,0,B|144:222,1,88.000002685547,0|2,0:0|0:0,0:0:0:0:
365,309,73281,2,0,B|368:222,1,88.000002685547,8|2,0:0|0:0,0:0:0:0:
256,64,73624,6,0,L|256:192,2,128,0|0|0,0:0|0:0|0:0,0:0:0:0:
156,31,74481,5,0,0:0:0:0:
141,45,74567,1,0,0:0:0:0:
124,55,74652,1,0,0:0:0:0:
105,61,74738,1,0,0:0:0:0:
85,62,74824,1,0,0:0:0:0:
66,59,74909,1,0,0:0:0:0:
48,51,74995,5,4,0:2:0:0:
0,145,75167,1,0,0:0:0:0:
57,234,75338,2,0,B|144:237,1,88.000002685547,8|2,0:0|0:0,0:0:0:0:
244,275,75681,1,0,0:2:0:0:
227,171,75852,1,2,0:0:0:0:
264,72,76024,1,8,0:0:0:0:
254,178,76195,1,2,0:0:0:0:
144,237,76367,6,0,B|57:234,1,88.000002685547,0|2,0:0|0:0,0:0:0:0:
42,217,76623,1,2,0:2:0:0:
25,198,76709,2,0,P|13:155|19:112,1,88.000002685547,8|2,0:0|0:0,0:0:0:0:
238,189,77052,2,0,P|250:231|244:275,1,88.000002685547,0|2,0:0|0:0,0:0:0:0:
162,343,77395,1,8,0:0:0:0:
144,237,77567,1,2,0:0:0:0:
344,311,77738,6,0,P|355:224|331:140,1,176.000005371094,0|8,0:0|0:0,0:0:0:0:
144,237,78252,1,2,0:0:0:0:
244,274,78424,2,0,P|250:231|238:189,1,88.000002685547,0|2,0:0|0:0,0:0:0:0:
48,93,78767,2,0,P|42:136|55:179,1,88.000002685547,8|2,0:0|0:0,0:0:0:0:
244,274,79109,6,0,L|340:269,1,88.000002685547,0|2,0:0|0:0,0:0:0:0:
352,261,79367,1,2,0:2:0:0:
372,253,79452,2,0,P|384:294|378:338,1,88.000002685547,8|2,0:0|0:0,0:0:0:0:
149,322,79795,2,0,P|137:280|144:237,1,88.000002685547,0|2,0:0|0:0,0:0:0:0:
331,140,80138,1,8,0:0:0:0:
54,178,80309,1,2,0:0:0:0:
244,274,80481,6,0,L|331:269,1,88.000002685547,4|2,0:0|0:0,0:0:0:0:
331,140,80824,1,8,0:0:0:0:
149,322,80995,1,2,0:0:0:0:
389,358,81167,2,0,P|436:286|415:204,1,176.000005371094,0|8,0:0|0:0,0:0:0:0:
331,140,81681,1,2,0:0:0:0:
144,236,81852,6,0,P|137:279|149:322,1,88.000002685547,0|2,0:0|0:0,0:0:0:0:
331,268,82195,2,0,L|244:274,1,88.000002685547,8|2,0:0|0:0,0:0:0:0:
389,358,82538,2,0,P|436:286|415:204,1,176.000005371094,0|8,0:0|0:0,0:0:0:0:
331,140,83052,1,2,0:0:0:0:
244,274,83224,6,0,B|196:287|157:270|157:270|116:251|72:262,1,176.000005371094,4|8,0:2|0:0,0:0:0:0:
102,362,83738,1,2,0:0:0:0:
206,174,83909,2,0,L|199:86,1,88.000002685547,0|2,0:0|0:0,0:0:0:0:
337,52,84252,2,0,L|331:140,1,88.000002685547,8|2,0:0|0:0,0:0:0:0:
272,321,84595,6,0,P|339:273|437:301,1,176.000005371094,0|8,0:0|0:0,0:0:0:0:
362,376,85109,1,2,0:0:0:0:
193,359,85281,2,0,P|185:317|197:275,1,88.000002685547,0|2,0:0|0:0,0:0:0:0:
236,65,85624,2,0,P|244:107|232:149,1,88.000002685547,8|2,0:0|0:0,0:0:0:0:
116,279,85967,6,0,B|54:221|64:137|64:137|97:113|147:103|147:103|126:144|143:188,1,335.999989746094,0|0,0:0|0:0,0:0:0:0:
143,188,87338,6,0,L|222:181,1,71.9999978027344,0|0,0:0|0:0,0:0:0:0:
415,162,87681,1,8,0:0:0:0:
373,254,87853,1,8,0:0:0:0:
419,152,88024,1,8,0:0:0:0:
368,263,88196,1,8,0:0:0:0:
315,172,88367,5,8,0:0:0:0:
474,244,88538,1,8,0:0:0:0:
301,165,88709,1,4,0:0:0:0:
