osu file format v14

[General]
AudioFilename: Saikousoku+Fall+in+Love.mp3
AudioLeadIn: 0
PreviewTime: 63938
Countdown: 0
SampleSet: Normal
StackLeniency: 0.6
Mode: 0
LetterboxInBreaks: 0
WidescreenStoryboard: 1

[Editor]
DistanceSpacing: 0.5
BeatDivisor: 6
GridSize: 16
TimelineZoom: 1.7

[Metadata]
Title:Saikousoku Fall in Love
TitleUnicode:最高速 Fall in Love
Artist:Monster Musume Cast
ArtistUnicode:Monster Musume Cast
Creator:Blizs
Version:Hard
Source:モンスター娘のいる日常
Tags:daily life with monster girls musume no iru nichijou opening tv size ミーア Miia 雨宮 天 Amamiya Sora パピ Papi 小澤亜李 Ozawa Ari セントレア Centorea 相川奈都姫 Aikawa Natsuki スー Suu 野村真悠華 Nomura Mayuka メロ Mero 山崎はるか Yamazaki Haruka ラクネラ Rachnera 中村 桜 Nakamura Sakura fantastica MikanTBG
BeatmapID:1352863
BeatmapSetID:637751

[Difficulty]
HPDrainRate:5
CircleSize:4
OverallDifficulty:6
ApproachRate:7.5
SliderMultiplier:1.4
SliderTickRate:1

[Events]
//Background and Video events
0,0,"Mero.jpg",0,0
//Break Periods
//Storyboard Layer 0 (Background)
//Storyboard Layer 1 (Fail)
//Storyboard Layer 2 (Pass)
//Storyboard Layer 3 (Foreground)
//Storyboard Sound Samples

[TimingPoints]
586,454.545454545455,4,2,0,40,1,0
813,-100,4,2,0,45,0,0
1040,-100,4,2,0,50,0,0
1267,-100,4,2,0,55,0,0
1495,-100,4,2,0,60,0,0
1722,-100,4,2,0,65,0,0
1949,-100,4,2,0,70,0,0
2404,-100,4,2,0,75,0,0
9676,-100,4,2,0,80,0,0
12934,-100,4,2,0,50,0,0
13313,-90.9090909090909,4,2,0,80,0,0
15131,-100,4,2,0,85,0,0
16949,-100,4,2,0,90,0,0
18767,342.857142857143,4,1,1,65,1,0
20138,-100,4,1,1,85,0,0
20824,-100,4,1,1,65,0,0
24252,-100,4,1,1,75,0,0
25624,-100,4,1,1,85,0,0
25967,-100,4,1,1,65,0,0
31109,-100,4,1,1,85,0,0
31452,-100,4,1,1,65,0,0
36595,-100,4,1,1,50,0,0
36938,-100,4,1,1,85,0,0
37109,-100,4,1,1,70,0,0
42081,-90.9090909090909,4,1,1,85,0,0
42424,-100,4,1,1,70,0,0
46195,-100,4,1,1,75,0,0
46881,-100,4,1,1,80,0,0
47567,-111.111111111111,4,1,1,65,0,0
52367,-100,4,1,1,65,0,0
52881,-100,4,1,1,70,0,0
53395,-100,4,1,1,85,0,0
53567,-100,4,1,1,70,0,0
54767,-100,4,1,1,85,0,0
54938,-100,4,1,1,70,0,0
61281,-100,4,1,1,50,0,0
62652,-100,4,1,1,70,0,0
63338,-111.111111111111,4,1,1,70,0,0
64024,-95.2380952380952,4,1,1,90,0,1
73624,-111.111111111111,4,1,1,90,0,0
74309,-100,4,1,1,70,0,0
74995,-95.2380952380952,4,1,1,90,0,1
85967,-142.857142857143,4,1,1,50,0,0
87338,-111.111111111111,4,1,1,50,0,0
87681,-111.111111111111,4,1,1,60,0,0
87852,-111.111111111111,4,1,1,65,0,0
88024,-111.111111111111,4,1,1,70,0,0
88195,-111.111111111111,4,1,1,75,0,0
88367,-111.111111111111,4,1,1,80,0,0
88538,-111.111111111111,4,1,1,85,0,0
88709,-111.111111111111,4,1,1,90,0,0

[Colours]
Combo1 : 128,0,255
Combo2 : 255,128,128
Combo3 : 128,128,255
Combo4 : 255,255,157
Combo5 : 168,255,168
Combo6 : 255,128,255

[HitObjects]
256,192,586,12,2,1949,0:0:0:0:
199,119,2404,6,0,P|141:83|75:97,1,140,4|0,1:0|0:0,0:0:0:0:
313,119,3313,2,0,P|371:83|437:97,1,140,2|0,0:0|0:0,0:0:0:0:
386,174,3995,1,2,0:0:0:0:
303,210,4222,6,0,L|312:349,1,140,2|0,0:0|0:0,0:0:0:0:
130,243,5131,2,0,L|126:174,1,70,2|0,0:0|0:0,0:0:0:0:
199,119,5586,2,0,L|203:49,1,70,2|0,0:0|0:0,0:0:0:0:
270,174,6040,6,0,P|339:172|387:123,2,140,4|4|4,1:2|1:2|1:2,0:0:0:0:
128,64,7404,2,0,L|34:67,1,93.3333333333333,4|0,1:2|0:0,0:0:0:0:
15,54,7858,6,0,B|29:93|29:93|24:197,1,140,4|2,1:0|0:0,0:0:0:0:
280,312,8767,2,0,B|266:273|266:273|271:175,1,140,2|2,0:0|0:0,0:0:0:0:
426,55,9676,6,0,L|438:194,1,140,4|4,1:0|1:2,0:0:0:0:
280,311,10586,2,0,P|234:313|193:335,1,93.3333333333333,0|4,1:0|0:3,0:0:0:0:
191,358,11040,2,0,L|97:350,1,93.3333333333333,4|4,1:2|0:3,0:0:0:0:
74,352,11495,6,0,P|87:285|66:219,1,140,0|4,1:0|1:2,0:0:0:0:
12,100,12252,1,0,1:0:0:0:
28,83,12404,2,0,L|122:91,1,93.3333333333333,8|4,0:3|0:3,0:0:0:0:
137,107,12858,2,0,L|231:115,1,93.3333333333333,0|4,1:0|0:3,0:0:0:0:
253,104,13313,5,4,1:2:0:0:
186,308,13767,1,4,1:2:0:0:
361,183,14222,1,4,1:2:0:0:
146,182,14676,1,4,1:2:0:0:
318,308,15131,6,0,P|364:316|464:262,1,140,4|0,1:2|1:0,0:0:0:0:
361,183,15889,1,4,0:3:0:0:
343,168,16040,2,0,L|351:74,1,93.3333333333333,4|4,1:2|0:3,0:0:0:0:
362,54,16495,2,0,L|215:66,1,140,0|4,1:0|1:0,0:0:0:0:
159,172,18767,6,0,L|158:135,3,35,8|8|8|8,0:0|0:0|0:0|0:0,0:0:0:0:
169,107,19109,2,0,P|203:102|237:106,1,70,8|8,0:0|0:0,0:0:0:0:
313,170,19452,6,0,L|311:207,3,35,8|8|8|8,0:0|0:0|0:0|0:0,0:0:0:0:
322,235,19795,2,0,P|356:240|390:236,1,70,8|4,0:3|0:3,0:0:0:0:
445,153,20138,6,0,P|440:102|456:52,2,105,4|0|0,0:0|0:0|0:0,0:0:0:0:
490,242,20824,2,0,L|488:311,1,70,2|0,0:0|0:0,0:0:0:0:
390,305,21167,2,0,L|392:236,1,70,8|0,0:0|0:0,0:0:0:0:
316,369,21509,6,0,P|281:366|252:348,1,70,2|0,0:0|0:0,0:0:0:0:
190,271,21852,2,0,P|155:274|126:292,1,70,8|0,0:0|0:0,0:0:0:0:
30,318,22195,2,0,L|29:284,3,35,2|0|0|0,0:0|0:0|0:0|0:0,0:0:0:0:
37,251,22538,2,0,L|40:182,1,70,8|0,0:0|0:0,0:0:0:0:
126,293,22881,6,0,P|160:289|189:271,1,70,2|0,0:0|0:0,0:0:0:0:
236,184,23224,2,0,P|241:149|231:116,1,70,8|0,0:0|0:0,0:0:0:0:
294,41,23567,2,0,L|334:44,3,35,2|0|0|0,0:0|0:0|0:0|0:0,0:0:0:0:
353,62,23909,2,0,L|422:56,1,70,8|0,0:0|0:0,0:0:0:0:
334,158,24252,6,0,P|352:188|389:209,1,70,2|0,0:0|0:0,0:0:0:0:
361,303,24595,2,0,P|326:303|289:325,1,70,8|0,0:0|0:0,0:0:0:0:
207,363,24938,2,0,P|192:354|175:349,3,35,2|0|0|0,0:0|0:0|0:0|0:0,0:0:0:0:
154,325,25281,2,0,P|136:324|119:329,3,35,8|0|0|0,0:0|0:0|0:0|0:0,0:0:0:0:
89,318,25624,70,0,L|93:213,1,105,4|0,0:0|0:0,0:0:0:0:
83,199,25967,2,0,L|86:129,1,70,8|0,0:0|0:0,0:0:0:0:
159,64,26309,2,0,P|191:77|225:80,1,70,2|0,0:0|0:0,0:0:0:0:
316,42,26652,2,0,P|348:28|382:25,1,70,8|0,0:0|0:2,0:0:0:0:
461,83,26995,5,2,0:0:0:0:
371,123,27167,1,0,0:2:0:0:
371,123,27252,1,0,0:2:0:0:
371,123,27338,1,8,0:0:0:0:
281,163,27509,2,0,L|278:232,1,70,0|2,0:0|0:0,0:0:0:0:
206,298,27852,2,0,P|171:294|143:274,1,70,0|8,0:0|0:0,0:0:0:0:
102,185,28195,1,0,0:0:0:0:
102,185,28367,70,0,L|107:115,1,70,2|0,0:0|0:0,0:0:0:0:
63,28,28709,2,0,P|131:21|188:60,1,140,8|2,0:0|0:0,0:0:0:0:
256,132,29224,1,0,0:0:0:0:
323,61,29395,2,0,L|398:67,1,70,8|0,0:0|0:0,0:0:0:0:
474,123,29738,6,0,P|470:79|480:19,2,105,2|0|0,0:0|0:2|0:2,0:0:0:0:
430,210,30424,2,0,P|432:245|427:280,1,70,2|0,0:0|0:0,0:0:0:0:
401,374,30767,2,0,L|483:366,1,70,8|0,0:0|0:0,0:0:0:0:
332,303,31109,70,0,B|261:295|261:295|228:305,1,105,2|0,0:0|0:2,0:0:0:0:
220,320,31452,2,0,L|138:312,1,70,8|0,0:0|0:0,0:0:0:0:
76,248,31795,2,0,P|88:215|89:180,1,70,2|0,0:0|0:2,0:0:0:0:
172,127,32138,2,0,P|159:94|158:59,1,70,8|0,0:0|0:0,0:0:0:0:
247,18,32481,6,0,P|299:30|360:30,1,105,2|0,0:0|0:0,0:0:0:0:
367,27,32824,2,0,L|366:111,1,70,8|0,0:0|0:0,0:0:0:0:
323,185,33167,1,2,0:0:0:0:
420,179,33338,2,0,P|445:154|460:123,2,70,0|8|0,0:0|0:0|0:0,0:0:0:0:
323,185,33852,70,0,L|253:178,1,70,2|0,0:0|0:0,0:0:0:0:
185,249,34195,2,0,L|115:255,1,70,8|0,0:0|0:0,0:0:0:0:
36,196,34538,2,0,P|28:162|30:127,1,70,2|0,0:0|0:0,0:0:0:0:
102,60,34881,1,8,0:0:0:0:
196,88,35053,1,8,0:3:0:0:
196,88,35138,1,8,0:3:0:0:
196,88,35224,5,0,0:0:0:0:
268,20,35395,2,0,L|373:27,1,105,8|8,0:0|0:0,0:0:0:0:
440,157,35909,2,0,L|335:164,2,105,2|8|8,0:0|0:0|0:0,0:0:0:0:
507,228,36595,5,4,0:3:0:0:
507,228,36767,1,4,0:3:0:0:
448,308,36938,6,0,P|424:283|411:250,1,70,12|0,0:0|0:0,0:0:0:0:
440,157,37281,2,0,P|463:131|476:99,1,70,2|0,0:0|0:0,0:0:0:0:
382,77,37624,2,0,L|312:81,1,70,8|0,0:0|0:0,0:0:0:0:
256,162,37967,69,2,0:0:0:0:
199,81,38138,2,0,L|130:77,1,70,0|8,0:0|0:0,0:0:0:0:
60,146,38481,2,0,P|71:179|70:213,1,70,0|2,0:0|0:0,0:0:0:0:
43,308,38824,1,0,0:0:0:0:
123,364,38995,2,0,L|192:361,1,70,8|0,0:0|0:0,0:0:0:0:
256,286,39338,6,0,P|292:322|343:331,1,105,2|0,0:0|0:0,0:0:0:0:
359,324,39681,2,0,P|392:313|426:317,1,70,8|0,0:0|0:0,0:0:0:0:
501,254,40024,2,0,L|496:184,1,70,2|0,0:0|0:0,0:0:0:0:
441,102,40367,1,8,0:0:0:0:
441,102,40709,70,0,L|443:67,2,35,2|0|0,0:0|0:0|0:0,0:0:0:0:
372,172,41052,2,0,L|374:206,2,35,8|0|0,0:0|0:2|0:2,0:0:0:0:
303,102,41395,2,0,L|305:67,2,35,2|0|0,0:0|0:0|0:0,0:0:0:0:
234,172,41738,2,0,L|236:206,2,35,8|0|0,0:0|0:0|0:0,0:0:0:0:
164,101,42081,6,0,P|108:99|68:138,1,115.50000352478
70,155,42424,2,0,P|73:190|71:225,1,70,8|0,0:0|0:0,0:0:0:0:
159,268,42767,2,0,P|156:303|158:338,1,70,2|0,0:0|0:0,0:0:0:0:
244,382,43109,2,0,P|278:380|313:383,1,70,8|0,0:0|0:0,0:0:0:0:
402,341,43452,70,0,L|397:227,1,105,2|0,0:0|0:0,0:0:0:0:
408,222,43795,1,8,0:0:0:0:
331,160,43967,2,0,L|334:90,1,70,0|2,0:2|0:0,0:0:0:0:
254,31,44309,2,0,P|220:43|186:43,1,70,0|8,0:0|0:0,0:0:0:0:
89,24,44652,1,0,0:0:0:0:
24,98,44824,6,0,L|27:180,1,70,2|0,0:0|0:0,0:0:0:0:
111,217,45167,2,0,L|109:251,3,35,8|0|0|0,0:0|0:0|0:0|0:0,0:0:0:0:
128,281,45509,2,0,P|162:274|196:279,1,70,2|0,0:0|0:0,0:0:0:0:
281,329,45852,1,8,0:0:0:0:
283,231,46024,1,0,0:0:0:0:
283,231,46109,1,0,0:0:0:0:
283,231,46195,70,0,L|279:126,1,105,2|0,0:0|0:0,0:0:0:0:
283,109,46538,2,0,P|315:94|350:92,1,70,8|0,0:0|0:0,0:0:0:0:
416,165,46881,2,0,L|418:234,1,70,2|0,0:0|0:0,0:0:0:0:
348,304,47224,2,0,L|346:373,1,70,8|0,0:0|0:0,0:0:0:0:
283,231,47567,22,0,P|224:252|163:239,1,125.999996154785,4|0,0:0|0:0,0:0:0:0:
69,246,48081,2,0,L|68:308,2,62.9999980773926,0|8|0,0:0|0:0|0:0,0:0:0:0:
110,160,48595,1,0,0:0:0:0:
110,160,48767,6,0,L|112:34,1,125.999996154785,0|0,0:0|0:0,0:0:0:0:
206,28,49281,2,0,B|228:48|265:42|265:42|302:36|326:50,1,125.999996154785,0|8,0:0|0:0,0:0:0:0:
376,129,49795,2,0,P|400:107|414:79,2,62.9999980773926,0|0|8,0:0|0:0|0:0,0:0:0:0:
283,134,50309,70,0,L|292:260,1,125.999996154785,0|0,0:0|0:0,0:0:0:0:
362,325,50824,2,0,L|424:320,2,62.9999980773926,0|8|0,0:0|0:0|0:0,0:0:0:0:
272,353,51338,1,0,0:0:0:0:
272,353,51509,6,0,L|146:344,1,125.999996154785,0|0,0:0|0:0,0:0:0:0:
130,345,51938,1,0,0:0:0:0:
114,346,52024,1,0,0:0:0:0:
67,155,52367,1,8,0:0:0:0:
109,64,52538,2,0,L|39:59,1,70,0|8,0:0|0:0,0:0:0:0:
166,146,52881,70,0,L|305:136,1,140,4|0,0:0|0:0,0:0:0:0:
391,20,53395,2,0,P|384:54|392:89,1,70,12|0,0:0|0:0,0:0:0:0:
389,186,53738,1,2,0:0:0:0:
304,232,53909,1,0,0:0:0:0:
304,232,54252,6,0,L|165:242,1,140,0|0,0:0|0:0,0:0:0:0:
78,357,54766,2,0,P|84:322|77:288,1,70,12|0,0:0|0:0,0:0:0:0:
81,192,55109,1,2,0:0:0:0:
166,146,55281,2,0,L|235:141,1,70,8|8,0:3|0:0,0:0:0:0:
320,95,55624,1,0,0:0:0:0:
402,145,55795,70,0,P|397:179|400:214,1,70,2|0,0:0|0:0,0:0:0:0:
439,304,56138,2,0,P|404:298|369:301,1,70,8|0,0:0|0:0,0:0:0:0:
279,340,56481,2,0,P|213:355|152:322,1,140,2|8,0:0|0:0,0:0:0:0:
152,322,57167,6,0,P|157:287|154:253,1,70,2|0,0:0|0:0,0:0:0:0:
115,163,57510,2,0,P|150:169|185:167,1,70,8|0,0:0|0:0,0:0:0:0:
274,127,57853,2,0,P|341:112|402:145,1,140,2|8,0:0|0:0,0:0:0:0:
402,145,58538,6,0,P|397:179|400:214,1,70,2|0,0:0|0:0,0:0:0:0:
439,304,58881,2,0,P|404:298|369:301,1,70,8|0,0:0|0:0,0:0:0:0:
280,340,59224,2,0,P|285:305|282:270,1,70,2|0,0:0|0:0,0:0:0:0:
242,180,59567,2,0,P|277:186|312:182,1,70,8|0,0:0|0:0,0:0:0:0:
182,103,59909,6,0,P|147:97|112:101,1,70,2|0,0:0|0:0,0:0:0:0:
0,166,60252,2,0,P|34:172|66:187,1,70,8|0,0:0|0:0,0:0:0:0:
174,239,60595,2,0,P|142:251|114:272,1,70,2|0,0:0|0:0,0:0:0:0:
16,305,60938,2,0,P|43:327|64:356,1,70,8|0,0:0|0:0,0:0:0:0:
158,382,61281,6,0,L|192:380,3,35,0|0|0|0,0:0|0:0|0:0|0:0,0:0:0:0:
218,362,61624,2,0,L|287:365,1,70,0|0,0:0|0:0,0:0:0:0:
369,310,61967,6,0,P|366:293|365:276,3,35,0|0|0|0,0:0|0:0|0:0|0:0,0:0:0:0:
391,258,62309,2,0,P|398:223|399:188,1,70,0|0,0:0|0:0,0:0:0:0:
421,100,62652,6,0,L|382:100,3,35,8|8|8|8,0:0|0:0|0:0|0:0,0:0:0:0:
361,80,62995,2,0,L|322:80,3,35,8|8|8|8,0:0|0:0|0:0|0:0,0:0:0:0:
302,96,63338,6,0,P|239:96|200:50,1,125.999996154785,4|8,0:3|0:0,0:0:0:0:
97,148,64024,6,0,L|102:221,1,73.4999977569581,4|2,0:2|0:0,0:0:0:0:
66,317,64367,2,0,P|137:317|192:271,1,146.999995513916,8|0,0:0|0:0,0:0:0:0:
279,214,64881,1,2,0:0:0:0:
371,262,65052,2,0,P|382:228|380:191,1,73.4999977569581,8|2,0:0|0:0,0:0:0:0:
309,114,65395,6,0,P|357:89|412:92,2,110.249996635437,0|0|2,0:0|0:0|0:0,0:0:0:0:
279,214,66081,2,0,L|205:208,1,73.4999977569581,0|2,0:0|0:0,0:0:0:0:
146,293,66424,1,8,0:0:0:0:
146,293,66767,6,0,P|184:352|255:354,1,146.999995513916,0|8,0:0|0:0,0:0:0:0:
358,366,67281,2,0,P|356:329|341:297,1,73.4999977569581,2|0,0:0|0:0,0:0:0:0:
279,214,67624,1,2,0:0:0:0:
340,131,67795,2,0,P|356:98|358:62,1,73.4999977569581,8|2,0:0|0:0,0:0:0:0:
256,73,68138,6,0,P|203:87|150:76,2,110.249996635437,0|0|2,0:0|0:0|0:0,0:0:0:0:
340,131,68824,2,0,P|372:115|409:113,1,73.4999977569581,0|2,0:0|0:0,0:0:0:0:
481,188,69167,2,0,L|477:261,1,73.4999977569581,8|2,0:0|0:1,0:0:0:0:
460,362,69509,6,0,B|425:345|387:354|387:354|345:364|317:349,1,146.999995513916,4|8,0:0|0:0,0:0:0:0:
256,264,70024,1,2,0:0:0:0:
195,349,70195,2,0,B|167:364|125:354|125:354|87:345|52:362,1,146.999995513916,0|8,0:0|0:0,0:0:0:0:
1,271,70709,1,2,0:0:0:0:
55,180,70881,6,0,P|64:145|65:108,1,73.4999977569581,0|2,0:0|0:0,0:0:0:0:
140,38,71224,2,0,P|175:28|212:27,1,73.4999977569581,8|2,0:0|0:0,0:0:0:0:
292,92,71567,1,0,0:0:0:0:
388,55,71738,2,0,L|391:18,2,36.749998878479,2|8|4,0:0|0:3|0:3,0:0:0:0:
292,92,72081,1,2,0:0:0:0:
276,194,72252,6,0,L|281:267,1,73.4999977569581,0|2,0:0|0:0,0:0:0:0:
217,347,72595,2,0,L|144:352,1,73.4999977569581,8|2,0:0|0:0,0:0:0:0:
64,288,72938,2,0,L|59:215,1,73.4999977569581,0|2,0:0|0:0,0:0:0:0:
123,135,73281,2,0,L|196:130,1,73.4999977569581,8|2,0:0|0:0,0:0:0:0:
292,92,73624,5,0,0:0:0:0:
292,92,73967,1,0,0:0:0:0:
292,92,74309,2,0,L|328:94,3,35,0|0|0|0,0:0|0:0|0:0|0:0,0:0:0:0:
356,113,74652,2,0,L|392:115,3,35,0|0|0|0,0:0|0:0|0:0|0:0,0:0:0:0:
419,133,74995,6,0,P|408:167|406:204,1,73.4999977569581,4|2,0:2|0:0,0:0:0:0:
478,278,75338,2,0,L|331:273,1,146.999995513916,8|0,0:0|0:2,0:0:0:0:
256,344,75852,1,2,0:0:0:0:
180,273,76024,2,0,L|107:275,1,73.4999977569581,8|2,0:0|0:0,0:0:0:0:
9,243,76367,6,0,P|6:298|31:346,2,110.249996635437,0|0|2,0:2|0:0|0:0,0:0:0:0:
86,174,77052,2,0,P|92:138|89:101,1,73.4999977569581,0|2,0:0|0:0,0:0:0:0:
180,52,77395,2,0,P|208:75|241:91,1,73.4999977569581,8|2,0:0|0:0,0:0:0:0:
340,65,77738,6,0,P|409:44|479:82,1,146.999995513916,0|8,0:2|0:0,0:0:0:0:
401,149,78252,1,2,0:0:0:0:
501,177,78424,2,0,B|498:256,1,73.4999977569581,0|2,0:0|0:0,0:0:0:0:
398,222,78767,2,0,B|401:149,1,73.4999977569581,8|2,0:0|0:0,0:0:0:0:
474,76,79109,6,0,P|428:48|373:49,2,110.249996635437,0|0|2,0:0|0:0|0:0,0:0:0:0:
501,177,79795,2,0,B|498:250,1,73.4999977569581,0|2,0:0|0:0,0:0:0:0:
423,323,80138,2,0,P|387:325|352:315,1,73.4999977569581,8|2,0:0|0:1,0:0:0:0:
308,220,80481,6,0,B|311:147|311:147|342:126|354:89,1,146.999995513916,4|8,0:0|0:0,0:0:0:0:
256,57,80995,1,2,0:0:0:0:
157,89,81167,2,0,B|170:126|201:147|201:147|204:220,1,146.999995513916,0|8,0:0|0:0,0:0:0:0:
160,314,81681,1,2,0:0:0:0:
263,305,81852,6,0,L|346:295,1,73.4999977569581,0|2,0:0|0:0,0:0:0:0:
379,202,82195,2,0,L|336:143,1,73.4999977569581,8|2,0:0|0:0,0:0:0:0:
233,152,82538,2,8,L|204:220,1,73.4999977569581,0|0,0:0|0:0,0:0:0:0:
160,314,82881,1,8,0:0:0:0:
263,305,83052,1,2,0:0:0:0:
344,370,83224,6,0,P|414:367|451:307,1,146.999995513916,4|8,0:2|0:0,0:0:0:0:
392,224,83738,1,2,0:0:0:0:
431,129,83909,2,0,L|426:42,1,73.4999977569581,0|2,0:0|0:0,0:0:0:0:
323,67,84252,2,0,L|328:141,1,73.4999977569581,8|2,0:0|0:0,0:0:0:0:
392,224,84595,6,0,P|323:244|256:216,1,146.999995513916,0|8,0:0|0:0,0:0:0:0:
180,141,85109,1,2,0:0:0:0:
106,213,85281,2,0,L|110:286,1,73.4999977569581,0|2,0:0|0:0,0:0:0:0:
180,141,85624,2,0,L|184:67,1,73.4999977569581,8|2,0:0|0:0,0:0:0:0:
256,216,85967,6,0,B|302:230|352:209|352:209|399:191|447:215|447:215|421:246|356:246,1,293.999991027832,0|0,0:0|0:0,0:0:0:0:
102,355,87338,6,0,L|93:215,1,125.999996154785,0|8,0:0|0:0,0:0:0:0:
170,163,87852,1,8,0:0:0:0:
256,216,88024,2,0,L|251:278,1,62.9999980773926,8|8,0:0|0:0,0:0:0:0:
350,254,88367,2,0,L|362:315,1,62.9999980773926,8|8,0:0|0:0,0:0:0:0:
450,266,88709,5,4,0:0:0:0:
