osu file format v14

[General]
AudioFilename: Saikousoku+Fall+in+Love.mp3
AudioLeadIn: 0
PreviewTime: 63938
Countdown: 0
SampleSet: Normal
StackLeniency: 0.6
Mode: 0
LetterboxInBreaks: 0
WidescreenStoryboard: 1

[Editor]
Bookmarks: 14676,15055
DistanceSpacing: 1.2
BeatDivisor: 4
GridSize: 4
TimelineZoom: 1.7

[Metadata]
Title:Saikousoku Fall in Love
TitleUnicode:最高速 Fall in Love
Artist:Monster Musume Cast
ArtistUnicode:Monster Musume Cast
Creator:Blizs
Version:Easy
Source:モンスター娘のいる日常
Tags:daily life with monster girls musume no iru nichijou opening tv size ミーア Miia 雨宮 天 Amamiya Sora パピ Papi 小澤亜李 Ozawa Ari セントレア Centorea 相川奈都姫 Aikawa Natsuki スー Suu 野村真悠華 Nomura Mayuka メロ Mero 山崎はるか Yamazaki Haruka ラクネラ Rachnera 中村 桜 Nakamura Sakura fantastica MikanTBG
BeatmapID:1352861
BeatmapSetID:637751

[Difficulty]
HPDrainRate:3
CircleSize:3
OverallDifficulty:2
ApproachRate:4
SliderMultiplier:0.799999999999999
SliderTickRate:1

[Events]
//Background and Video events
0,0,"Papi.JPG",0,0
//Break Periods
//Storyboard Layer 0 (Background)
//Storyboard Layer 1 (Fail)
//Storyboard Layer 2 (Pass)
//Storyboard Layer 3 (Foreground)
//Storyboard Sound Samples

[TimingPoints]
586,454.545454545455,4,2,0,40,1,0
813,-100,4,2,0,45,0,0
1040,-100,4,2,0,50,0,0
1267,-100,4,2,0,55,0,0
1495,-100,4,2,0,60,0,0
1722,-100,4,2,0,65,0,0
1949,-100,4,2,0,70,0,0
2404,-100,4,2,0,75,0,0
9676,-100,4,2,0,80,0,0
12934,-100,4,2,0,50,0,0
13313,-100,4,2,0,80,0,0
15131,-100,4,2,0,85,0,0
16949,-100,4,2,0,90,0,0
18767,342.857142857143,4,1,1,65,1,0
20138,-100,4,1,1,85,0,0
20824,-100,4,1,1,65,0,0
24252,-100,4,1,1,75,0,0
25624,-100,4,1,1,85,0,0
25967,-100,4,1,1,65,0,0
31109,-100,4,1,1,85,0,0
31452,-100,4,1,1,65,0,0
36595,-100,4,1,1,50,0,0
36938,-100,4,1,1,85,0,0
37109,-100,4,1,1,70,0,0
42081,-100,4,1,1,85,0,0
42424,-100,4,1,1,70,0,0
46195,-100,4,1,1,75,0,0
46881,-100,4,1,1,80,0,0
47567,-100,4,1,1,65,0,0
52881,-100,4,1,1,70,0,0
53395,-100,4,1,1,85,0,0
53567,-100,4,1,1,70,0,0
54767,-100,4,1,1,85,0,0
54938,-100,4,1,1,70,0,0
61281,-100,4,1,1,50,0,0
62652,-100,4,1,1,70,0,0
64024,-100,4,1,1,90,0,1
73624,-100,4,1,1,90,0,0
74309,-100,4,1,1,70,0,0
74995,-100,4,1,1,90,0,1
85967,-100,4,1,1,50,0,0
87338,-100,4,1,1,50,0,0
87681,-100,4,1,1,60,0,0
87852,-100,4,1,1,65,0,0
88024,-100,4,1,1,70,0,0
88195,-100,4,1,1,75,0,0
88367,-100,4,1,1,80,0,0
88538,-100,4,1,1,85,0,0
88709,-100,4,1,1,90,0,0

[Colours]
Combo1 : 128,0,255
Combo2 : 255,128,128
Combo3 : 128,128,255
Combo4 : 255,255,157
Combo5 : 168,255,168
Combo6 : 255,128,255

[HitObjects]
256,192,586,12,4,2404,1:0:0:0:
429,114,4222,6,0,P|352:100|282:135,1,160,2|2,0:0|0:0,0:0:0:0:
221,334,6040,6,0,L|141:327,1,79.9999999999999,4|4,1:2|1:2,0:0:0:0:
65,255,6949,2,0,P|65:215|78:177,1,79.9999999999999,4|4,1:2|1:2,0:0:0:0:
163,117,7858,2,0,L|322:130,1,160,4|2,1:0|0:0,0:0:0:0:
393,326,9676,6,0,L|233:312,1,160,4|0,1:0|1:0,0:0:0:0:
145,368,11040,1,4,1:2:0:0:
141,263,11495,2,0,L|154:103,1,160,0|8,1:0|0:3,0:0:0:0:
242,47,12858,1,0,1:0:0:0:
327,106,13313,6,0,P|365:116|404:111,1,79.9999999999999,4|4,1:2|1:2,0:0:0:0:
487,174,14222,2,0,L|480:253,1,79.9999999999999,4|4,1:2|1:2,0:0:0:0:
391,308,15131,2,0,B|358:287|314:296|314:296|270:306|237:286,2,160,4|4|4,1:2|1:2|1:0,0:0:0:0:
348,222,18767,6,0,P|342:182|350:143,1,79.9999999999999,8|8,0:0|0:0,0:0:0:0:
445,148,19452,2,0,P|451:188|443:227,1,79.9999999999999,8|8,0:0|0:3,0:0:0:0:
391,308,20138,6,0,L|231:301,1,160,4|2,0:0|0:0,0:0:0:0:
141,336,21167,1,8,0:0:0:0:
66,276,21509,2,0,L|62:196,1,79.9999999999999,2|8,0:0|0:0,0:0:0:0:
152,161,22195,2,0,L|156:241,1,79.9999999999999,2|8,0:0|0:0,0:0:0:0:
231,301,22881,6,0,P|309:308|377:268,1,160,2|2,0:0|0:0,0:0:0:0:
380,76,24252,2,0,P|301:68|233:108,1,160,2|2,0:0|0:0,0:0:0:0:
152,161,25281,1,8,0:0:0:0:
63,120,25624,6,0,P|61:197|117:252,1,160,4|2,0:0|0:0,0:0:0:0:
214,237,26652,1,8,0:0:0:0:
249,146,26995,2,0,L|368:148,2,120,2|0|8,0:0|0:0|0:0,0:0:0:0:
214,237,28367,6,0,P|233:271|238:311,1,79.9999999999999,2|8,0:0|0:0,0:0:0:0:
308,376,29052,2,0,L|387:372,1,79.9999999999999,2|8,0:0|0:0,0:0:0:0:
448,297,29738,2,0,B|436:238|436:238|449:180,2,120,2|0|8,0:0|0:2|0:0,0:0:0:0:
388,372,31109,70,0,B|349:368|309:376|309:376|269:367|229:367,1,160,2|2,0:0|0:0,0:0:0:0:
133,379,32138,1,8,0:0:0:0:
75,301,32481,2,0,P|84:222|76:143,1,160,2|2,0:0|0:0,0:0:0:0:
47,51,33509,1,8,0:0:0:0:
141,71,33852,6,0,L|223:69,1,79.9999999999999,2|8,0:0|0:0,0:0:0:0:
298,125,34538,2,0,L|380:127,1,79.9999999999999,2|8,0:0|0:0,0:0:0:0:
456,183,35224,1,0,0:0:0:0:
455,183,36595,6,0,P|451:222|453:262,1,79.9999999999999,4|12,0:3|0:0,0:0:0:0:
402,343,37281,2,0,L|322:338,1,79.9999999999999,2|8,0:0|0:0,0:0:0:0:
225,353,37967,2,0,P|179:317|164:260,2,120,2|0|8,0:0|0:0|0:0,0:0:0:0:
260,263,39338,6,0,L|264:183,1,79.9999999999999,2|8,0:0|0:0,0:0:0:0:
228,92,40024,2,0,P|193:74|154:74,1,79.9999999999999,2|8,0:0|0:0,0:0:0:0:
78,132,40709,2,0,P|90:230|169:169,1,240,2|8,0:0|0:0,0:0:0:0:
154,74,42081,70,0,B|193:65|229:93|229:93|262:67|304:71,1,160,0|2,0:0|0:0,0:0:0:0:
380,130,43109,1,8,0:0:0:0:
385,225,43452,2,0,P|328:211|291:166,2,120,2|0|8,0:0|0:2|0:0,0:0:0:0:
466,173,44824,6,0,P|476:135|470:96,1,79.9999999999999,2|8,0:0|0:0,0:0:0:0:
384,51,45509,2,0,L|304:54,1,79.9999999999999,2|8,0:0|0:0,0:0:0:0:
207,54,46195,2,0,L|128:51,1,79.9999999999999,2|8,0:0|0:0,0:0:0:0:
42,95,46881,2,0,P|36:134|46:172,1,79.9999999999999,2|8,0:0|0:0,0:0:0:0:
123,231,47567,6,0,L|202:228,1,79.9999999999999,4|0,0:0|0:0,0:0:0:0:
279,284,48252,2,0,B|300:257|305:211|281:173|281:173|255:134|259:88|283:60,1,240,8|0,0:0|0:0,0:0:0:0:
371,22,49624,1,8,0:0:0:0:
447,79,49967,1,0,0:0:0:0:
435,173,50309,6,0,L|442:257,1,79.9999999999999,0|0,0:0|0:0,0:0:0:0:
381,327,50995,2,0,B|343:322|303:335|303:335|228:307|228:307|189:322|149:317,1,240,8|0,0:0|0:0,0:0:0:0:
82,245,52367,70,0,P|87:186|78:127,2,120,8|4|12,0:0|0:0|0:0,0:0:0:0:
149,317,53738,2,0,P|208:312|267:321,2,120,2|0|12,0:0|0:0|0:0,0:0:0:0:
77,384,55109,1,2,0:0:0:0:
10,312,55452,1,8,0:0:0:0:
82,244,55795,6,0,P|83:205|73:166,1,79.9999999999999,2|8,0:0|0:0,0:0:0:0:
130,88,56481,2,0,P|169:89|208:79,1,79.9999999999999,2|8,0:0|0:0,0:0:0:0:
303,79,57167,2,0,P|342:89|382:88,1,79.9999999999999,2|8,0:0|0:0,0:0:0:0:
438,166,57852,2,0,P|428:205|429:244,1,79.9999999999999,2|8,0:0|0:0,0:0:0:0:
256,192,58538,12,0,61281,0:0:0:0:
84,138,62995,6,0,L|89:53,2,79.9999999999999,8|4|8,0:0|0:3|0:0,0:0:0:0:
154,202,64024,6,0,P|191:188|233:193,1,79.9999999999999,4|8,0:2|0:0,0:0:0:0:
310,239,64709,2,0,P|347:253|389:248,1,79.9999999999999,0|8,0:0|0:0,0:0:0:0:
447,173,65395,2,0,P|413:111|359:156,1,160,0|0,0:0|0:0,0:0:0:0:
387,249,66424,1,8,0:0:0:0:
320,320,66767,6,0,P|277:324|241:314,1,79.9999999999999,0|8,0:0|0:0,0:0:0:0:
154,353,67452,2,0,P|128:318|119:281,1,79.9999999999999,0|8,0:0|0:0,0:0:0:0:
42,226,68138,2,0,L|47:66,1,160,0|0,0:0|0:0,0:0:0:0:
139,36,69167,1,8,0:0:0:0:
206,103,69509,6,0,P|282:119|349:79,2,160,4|0|0,0:0|0:0|0:0,0:0:0:0:
139,36,71224,1,8,0:0:0:0:
47,66,71567,2,0,L|44:146,1,79.9999999999999,0|4,0:0|0:3,0:0:0:0:
19,237,72252,6,0,P|58:234|97:244,1,79.9999999999999,0|8,0:0|0:0,0:0:0:0:
172,305,72938,2,0,P|211:308|250:298,1,79.9999999999999,0|8,0:0|0:0,0:0:0:0:
320,232,73624,2,0,B|349:213|397:228|397:228|445:243|474:225,1,160,0|0,0:0|0:0,0:0:0:0:
417,41,74995,6,0,L|337:37,1,79.9999999999999,4|8,0:2|0:0,0:0:0:0:
261,96,75681,2,0,L|181:92,1,79.9999999999999,0|8,0:2|0:0,0:0:0:0:
104,151,76367,2,0,P|85:225|128:290,1,160,0|0,0:2|0:0,0:0:0:0:
183,209,77395,1,8,0:0:0:0:
228,294,77738,6,0,L|307:291,1,79.9999999999999,0|8,0:2|0:0,0:0:0:0:
397,326,78424,2,0,P|402:287|392:248,1,79.9999999999999,0|8,0:0|0:0,0:0:0:0:
311,195,79110,2,0,P|294:119|338:55,1,160,0|0,0:0|0:0,0:0:0:0:
434,48,80138,1,8,0:0:0:0:
488,127,80481,6,0,L|486:291,2,160,4|0|0,0:0|0:0|0:0,0:0:0:0:
434,48,82195,1,8,0:0:0:0:
338,55,82538,2,0,L|255:53,1,79.9999999999999,0|8,0:0|0:0,0:0:0:0:
162,42,83224,6,0,B|158:83|185:114|185:114|149:154|158:237|206:255,1,240,4|8,0:2|0:0,0:0:0:0:
302,264,84595,2,0,L|381:257,1,79.9999999999999,0|8,0:0|0:0,0:0:0:0:
341,170,85281,2,0,L|262:176,1,79.9999999999999,0|8,0:0|0:0,0:0:0:0:
205,254,85967,6,0,P|101:215|34:305,1,240,0|0,0:0|0:0,0:0:0:0:
93,382,87338,2,0,L|172:376,1,79.9999999999999,0|8,0:0|0:0,0:0:0:0:
260,335,88024,2,0,L|339:329,1,79.9999999999999,8|8,0:0|0:0,0:0:0:0:
431,358,88709,1,4,0:0:0:0:
