osu file format v14

[General]
AudioFilename: Saikousoku+Fall+in+Love.mp3
AudioLeadIn: 0
PreviewTime: 63938
Countdown: 0
SampleSet: Soft
StackLeniency: 0.6
Mode: 0
LetterboxInBreaks: 0
WidescreenStoryboard: 1

[Editor]
DistanceSpacing: 1
BeatDivisor: 4
GridSize: 8
TimelineZoom: 1.7

[Metadata]
Title:Saikousoku Fall in Love
TitleUnicode:最高速 Fall in Love
Artist:Monster Musume Cast
ArtistUnicode:Monster Musume Cast
Creator:Blizs
Version:Beginner
Source:モンスター娘のいる日常
Tags:daily life with monster girls musume no iru nichijou opening tv size ミーア Miia 雨宮 天 Amamiya Sora パピ Papi 小澤亜李 Ozawa Ari セントレア Centorea 相川奈都姫 Aikawa Natsuki スー Suu 野村真悠華 Nomura Mayuka メロ Mero 山崎はるか Yamazaki Haruka ラクネラ Rachnera 中村 桜 Nakamura Sakura fantastica MikanTBG
BeatmapID:1368799
BeatmapSetID:637751

[Difficulty]
HPDrainRate:1
CircleSize:2.5
OverallDifficulty:1
ApproachRate:2
SliderMultiplier:0.599999999999999
SliderTickRate:1

[Events]
//Background and Video events
0,0,"Miia.jpg",0,0
//Break Periods
2,61481,62464
//Storyboard Layer 0 (Background)
//Storyboard Layer 1 (Fail)
//Storyboard Layer 2 (Pass)
//Storyboard Layer 3 (Foreground)
//Storyboard Sound Samples

[TimingPoints]
586,454.545454545455,4,2,0,40,1,0
813,-100,4,2,0,45,0,0
1040,-100,4,2,0,50,0,0
1267,-100,4,2,0,55,0,0
1495,-100,4,2,0,60,0,0
1722,-100,4,2,0,65,0,0
1949,-100,4,2,0,70,0,0
2404,-100,4,2,0,75,0,0
9676,-100,4,2,0,80,0,0
12934,-100,4,2,0,50,0,0
13313,-100,4,2,0,80,0,0
15131,-100,4,2,0,85,0,0
16949,-100,4,2,0,90,0,0
18767,342.857142857143,4,1,1,65,1,0
20138,-100,4,1,1,85,0,0
20824,-100,4,1,1,65,0,0
24252,-100,4,1,1,75,0,0
25624,-100,4,1,1,85,0,0
25967,-100,4,1,1,65,0,0
31109,-100,4,1,1,85,0,0
31452,-100,4,1,1,65,0,0
36595,-100,4,1,1,50,0,0
36938,-100,4,1,1,85,0,0
37109,-100,4,1,1,70,0,0
42081,-100,4,1,1,85,0,0
42424,-100,4,1,1,70,0,0
46195,-100,4,1,1,75,0,0
46881,-100,4,1,1,80,0,0
47567,-100,4,1,1,65,0,0
52881,-100,4,1,1,70,0,0
53395,-100,4,1,1,85,0,0
53567,-100,4,1,1,70,0,0
54767,-100,4,1,1,85,0,0
54938,-100,4,1,1,70,0,0
61281,-100,4,1,1,50,0,0
62652,-100,4,1,1,70,0,0
64024,-100,4,1,1,90,0,1
73624,-100,4,1,1,90,0,0
74309,-100,4,1,1,70,0,0
74995,-100,4,1,1,90,0,1
85967,-100,4,1,1,50,0,0
87338,-100,4,1,1,50,0,0
87681,-100,4,1,1,60,0,0
87852,-100,4,1,1,65,0,0
88024,-100,4,1,1,70,0,0
88195,-100,4,1,1,75,0,0
88367,-100,4,1,1,80,0,0
88538,-100,4,1,1,85,0,0
88709,-100,4,1,1,90,0,0

[Colours]
Combo1 : 128,0,255
Combo2 : 255,128,128
Combo3 : 128,128,255
Combo4 : 255,255,157
Combo5 : 168,255,168
Combo6 : 255,128,255

[HitObjects]
256,192,586,12,4,2404,1:0:0:0:
58,68,4222,6,0,B|111:40|173:70|173:70|196:135|253:153,1,240,2|4,0:0|1:2,0:0:0:0:
290,38,6949,1,4,1:2:0:0:
371,128,7858,2,0,P|364:187|359:247,1,120,4|2,1:0|0:0,0:0:0:0:
430,344,9676,6,0,B|375:379|316:358|316:358|257:337|199:373,2,240,4|0|4,1:0|1:0|1:2,0:0:0:0:
360,247,14222,1,4,1:2:0:0:
409,138,15131,2,0,P|402:78|397:18,2,120,4|4|4,1:2|1:2|1:0,0:0:0:0:
172,350,18767,6,0,P|108:338|97:235,1,180,8|8,0:0|0:3,0:0:0:0:
136,194,20138,6,0,L|143:74,1,120,4|2,0:0|0:0,0:0:0:0:
259,43,21509,2,0,L|252:163,1,120,2|2,0:0|0:0,0:0:0:0:
330,253,22881,2,0,P|399:252|428:106,1,240,2|2,0:0|0:0,0:0:0:0:
332,42,24938,1,2,0:0:0:0:
239,118,25624,38,0,P|179:123|119:111,1,120,4|2,0:0|0:0,0:0:0:0:
15,168,26995,2,0,P|3:226|8:286,1,120,2|2,0:0|0:0,0:0:0:0:
112,346,28367,2,0,L|238:339,2,120,2|2|2,0:0|0:0|0:0,0:0:0:0:
9,286,30424,1,2,0:0:0:0:
69,183,31109,6,0,P|73:124|76:57,1,120,2|2,0:0|0:0,0:0:0:0:
194,41,32481,2,0,P|189:99|187:167,1,120,2|2,0:0|0:0,0:0:0:0:
298,204,33852,2,0,P|394:172|475:272,1,240,2|0,0:0|0:0,0:0:0:0:
250,354,36595,6,0,P|193:338|134:326,1,120,4|2,0:3|0:0,0:0:0:0:
17,298,37967,2,0,P|59:255|99:210,1,120,2|2,0:0|0:0,0:0:0:0:
182,123,39338,2,0,P|197:180|216:237,1,120,2|2,0:0|0:0,0:0:0:0:
334,265,40709,2,0,P|375:223|415:178,2,120,2|2|0,0:0|0:0|0:0,0:0:0:0:
217,238,42767,5,2,0:0:0:0:
121,309,43452,2,0,B|86:254|107:195|107:195|128:136|92:78,1,240,2|2,0:0|0:0,0:0:0:0:
199,24,45509,1,2,0:0:0:0:
302,85,46195,2,0,L|426:80,1,120,2|2,0:0|0:0,0:0:0:0:
478,186,47567,5,4,0:0:0:0:
402,279,48252,2,0,B|326:302|261:252|261:252|232:262|232:262|206:245|175:245,1,240,8|8,0:0|0:0,0:0:0:0:
172,365,50309,1,0,0:0:0:0:
69,300,50995,2,0,P|71:185|112:142,1,180,8|0,0:0|0:0,0:0:0:0:
172,136,52367,6,0,B|227:171|286:150|286:150|345:129|403:165,2,240,8|2|2,0:0|0:0|0:0,0:0:0:0:
65,80,55795,2,0,P|52:126|72:204,1,120,2|2,0:0|0:0,0:0:0:0:
173,251,57167,2,0,P|187:193|172:136,1,120,2|2,0:0|0:0,0:0:0:0:
256,192,58538,12,0,61281,0:0:0:0:
171,135,64024,6,0,P|133:42|51:109,1,240,4|0,0:2|0:0,0:0:0:0:
88,224,66081,1,0,0:0:0:0:
207,252,66767,2,0,B|270:266|318:226|318:226|367:186|433:200,1,240,0|0,0:0|0:0,0:0:0:0:
398,315,68824,1,0,0:0:0:0:
284,352,69509,6,0,P|236:354|162:342,1,120,4|0,0:0|0:0,0:0:0:0:
88,250,70881,2,0,P|90:202|78:128,2,120,0|0|0,0:0|0:0|0:0,0:0:0:0:
47,364,72938,1,0,0:0:0:0:
165,343,73624,1,0,0:0:0:0:
404,348,74995,6,0,B|429:291|422:230|422:230|383:181|385:118,1,240,4|0,0:2|0:2,0:0:0:0:
299,35,77052,1,0,0:0:0:0:
236,137,77738,2,0,B|158:152|158:152|87:114|87:114|9:129,1,240,0|0,0:2|0:0,0:0:0:0:
68,233,79795,1,0,0:0:0:0:
127,337,80481,6,0,L|250:313,1,120,4|0,0:0|0:0,0:0:0:0:
356,357,81852,2,0,P|363:299|339:242,1,120,0|0,0:0|0:0,0:0:0:0:
231,196,83224,2,0,P|201:131|321:125,1,240,4|0,0:2|0:0,0:0:0:0:
340,243,85281,1,0,0:0:0:0:
245,314,85967,6,0,B|182:328|134:288|134:288|85:248|19:262,2,240,0|0|4,0:0|0:0|0:0,0:0:0:0:
